#VERSION:0.83;
#TITLE:uncertain trajectory;
#SUBTITLE:;
#ARTIST:Karl with a K;
#TITLETRANSLIT:;
#SUBTITLETRANSLIT:;
#ARTISTTRANSLIT:;
#GENRE:;
#ORIGIN:;
#CREDIT:;
#BANNER:uncertain trajectory banner.png;
#BACKGROUND:uncertain trajectory bg.png;
#PREVIEWVID:;
#JACKET:uncertain trajectory jk.png;
#CDIMAGE:;
#DISCIMAGE:;
#LYRICSPATH:;
#CDTITLE:;
#MUSIC:uncertain trajectory.ogg;
#OFFSET:-0.025000;
#SAMPLESTART:125.865791;
#SAMPLELENGTH:18.923073;
#SELECTABLE:YES;
#BPMS:0.000=130.000,
22.000=260.000,
364.000=270.000,
371.500=280.000,
379.000=290.000,
386.500=300.000,
394.000=310.000,
401.500=320.000,
409.000=330.000,
416.000=340.000,
424.000=350.000,
428.500=360.000,
431.500=370.000,
436.000=380.000,
439.000=390.000,
455.000=130.000,
498.000=260.000,
637.000=130.000;
#STOPS:359.500=0.115,
360.000=0.115,
361.000=0.115,
362.000=0.115,
363.000=0.115,
583.500=0.115,
584.500=0.115;
#DELAYS:;
#WARPS:;
#TIMESIGNATURES:0.000=4=4;
#TICKCOUNTS:0.000=4;
#COMBOS:0.000=1;
#SPEEDS:0.000=1.000=0.000=0,
17.500=5.000=0.500=0,
18.000=1.000=1.500=0;
#SCROLLS:0.000=1.000,
17.500=0.000,
21.000=1.000,
493.000=0.500,
494.000=0.625,
495.000=0.750,
496.000=0.875,
497.000=1.000,
578.000=0.500,
583.000=1.000;
#FAKES:;
#LABELS:0.000=Song Start;
#BGCHANGES:;
#KEYSOUNDS:;
#ATTACKS:
;

//---------------dance-single - XO DS+ JA XMOD FL- BU- RH+ TS STR[2|9*@195] JU----------------
#NOTEDATA:;
#CHARTNAME:;
#STEPSTYPE:dance-single;
#DESCRIPTION:XO DS+ JA XMOD FL- BU- RH+ TS STR[2|9*@195] JU;
#CHARTSTYLE:;
#DIFFICULTY:Challenge;
#METER:19;
#RADARVALUES:0.805870,1.177549,0.222968,0.696775,0.604801,1012.000000,972.000000,40.000000,125.000000,0.000000,0.000000,0.000000,0.000000,0.000000,0.805870,1.177549,0.222968,0.696775,0.604801,1012.000000,972.000000,40.000000,125.000000,0.000000,0.000000,0.000000,0.000000,0.000000;
#CREDIT:;
#NOTES:
// measure 0
0000
0000
0000
0000
,  // measure 1
0000
0000
0000
0000
0000
0000
0000
0000
0000
0000
0000
0000
0000
0000
0000
1000
,  // measure 2
0000
0000
0000
0000
0001
0000
0000
0000
0000
1000
0000
0000
0000
0001
0000
0000
,  // measure 3
0000
1000
0000
0010
0000
0000
1000
0000
0000
0001
0000
0010
0000
0001
0000
0000
,  // measure 4
1000
0010
1000
0000
0000
0000
0000
0000
,  // measure 5
0000
0000
0000
0000
0000
0000
0000
0000
0000
0000
0000
0000
0001
0100
0001
0100
0020
0000
0000
0000
1000
0000
0000
0000
0000
0000
0000
0000
0000
0000
0000
0000
,  // measure 6
1000
0000
1000
0000
1000
0000
0000
1000
,  // measure 7
0000
1000
0000
1000
0000
1000
0000
1000
,  // measure 8
0000
1000
0000
0000
1000
0000
0000
1000
,  // measure 9
0000
1000
0000
1000
0000
0000
1000
0000
,  // measure 10
1000
0000
1030
0000
0002
0010
0000
0000
,  // measure 11
0010
0000
0000
0010
0000
0010
0000
0000
,  // measure 12
0010
0000
0010
0000
0010
0000
0000
0010
,  // measure 13
0000
0000
0010
0000
0010
0000
0000
0010
,  // measure 14
0000
0010
0000
0000
0010
0000
0010
0000
,  // measure 15
0000
0000
0000
0013
0000
0000
0100
0000
1000
0000
0100
0000
2000
0000
0000
0100
0000
0000
0000
0000
0000
3002
0000
0000
,  // measure 16
0100
0000
0010
0000
0100
0000
2003
0100
,  // measure 17
0000
3010
0000
0100
0020
0100
2030
0001
,  // measure 18
3200
0010
0000
1300
0100
0000
0200
0010
,  // measure 19
2300
0001
3020
0100
0000
1030
0010
0000
,  // measure 20
0010
0010
1000
1000
0001
0100
1000
0100
,  // measure 21
1000
0000
0100
0001
0010
0100
0010
1000
,  // measure 22
0001
0100
1000
0000
0010
0001
0010
0100
,  // measure 23
0002
0000
0000
0000
0000
0000
0000
0000
0000
0013
0001
1000
,  // measure 24
0010
1000
0001
0200
0000
0000
0000
0000
0000
0000
0000
0000
,  // measure 25
0000
0000
0000
0000
0301
0100
0000
0010
,  // measure 26
0000
1000
0200
0000
2300
0000
3020
0100
,  // measure 27
0000
0100
0000
0130
0001
0100
0010
0100
,  // measure 28
0002
0000
0000
1000
0000
0000
0000
0000
0000
0000
0000
0000
1003
0000
0000
0000
0000
0000
0001
0000
0000
0000
0010
0000
,  // measure 29
0000
0000
0100
0000
0000
0000
2000
0000
0000
0100
0000
0000
0000
0000
0000
0000
0000
0000
3100
0000
0000
0000
0000
0000
,  // measure 30
0100
0000
1000
0000
0010
0100
0000
0001
,  // measure 31
0000
0100
0001
0000
0020
0000
0000
0000
,  // measure 32
0001
0000
0001
0000
0001
0000
0000
0001
,  // measure 33
0000
0000
0001
0000
0001
0000
0000
0001
,  // measure 34
0000
0000
0000
0001
0000
0000
0000
0000
0000
0000
0000
0000
0031
0000
0000
0000
0100
0000
0000
0000
0010
0000
0000
0000
,  // measure 35
1000
0000
0100
0000
2000
0001
0000
3020
,  // measure 36
0000
0000
0100
0000
0130
0000
0001
0100
,  // measure 37
0000
0010
0000
1000
0100
0000
0010
0000
,  // measure 38
0020
0000
0000
0032
0000
0000
0000
0103
,  // measure 39
0000
0100
0020
0000
0000
2030
0000
0000
,  // measure 40
3200
0000
0320
0000
0031
0010
0001
1000
,  // measure 41
0100
0010
0000
0001
0000
0001
0000
0000
,  // measure 42
0001
0000
0100
0000
0100
0000
0000
0001
,  // measure 43
0000
0000
0100
0000
0100
0000
0000
0010
,  // measure 44
0000
0010
0000
0000
1000
0000
0100
0000
,  // measure 45
0010
0000
0000
0001
0000
0000
0010
0000
0000
0000
0000
0000
0100
0000
0000
0000
0010
0000
0000
0000
0100
0000
0000
0000
1000
0000
0000
0000
0000
0000
0100
0000
0000
0000
0000
0000
0000
0000
0000
0000
0000
0000
0100
0000
0000
0000
0000
0000
,  // measure 46
0010
0000
0002
0000
0203
0000
0320
0001
,  // measure 47
0000
0100
0000
1030
0001
1000
0010
1000
,  // measure 48
0200
0000
0000
0010
0000
0000
0000
0000
0000
0310
0000
0000
0001
0000
0000
0000
0000
0000
1000
0000
0000
0000
0010
0000
,  // measure 49
0000
0000
0100
0000
0000
0000
0001
0000
0000
0010
0000
0000
0000
0000
0000
0100
0000
0000
0010
0000
0000
0000
0000
0000
,  // measure 50
0001
0000
0100
0000
2000
0100
0000
3100
,  // measure 51
0001
0000
1000
0100
1000
0001
1000
0000
,  // measure 52
0001
0100
0001
0000
0010
0000
0100
0010
,  // measure 53
0100
0000
1000
0100
1000
0000
0001
0010
,  // measure 54
0001
0100
0001
0000
1000
0001
1000
0000
,  // measure 55
0001
1000
0001
0100
0020
0001
0000
0230
,  // measure 56
0001
0000
0302
0000
0023
0000
2030
0010
,  // measure 57
0000
3020
0000
0130
0010
0000
0010
0000
,  // measure 58
0002
0100
0000
2003
0100
0000
3001
0100
,  // measure 59
0001
1000
0001
0010
0100
0001
0100
0000
,  // measure 60
1000
0000
0010
0000
0020
0001
0000
2030
,  // measure 61
0100
0000
3100
1000
0100
1000
0001
0000
,  // measure 62
1000
0100
0000
0000
0001
0000
0100
0000
,  // measure 63
0110
0000
0010
0001
0000
0000
0011
0000
,  // measure 64
0000
0001
0010
0010
0001
0010
0001
1000
,  // measure 65
0010
0000
1000
0000
0010
0000
2000
0000
0000
0100
0000
0000
0000
0000
0000
3001
0000
0000
0010
0000
0000
0100
0000
0000
,  // measure 66
1000
0010
0100
0001
0100
0010
1000
0100
,  // measure 67
0000
0100
0010
0000
0010
0001
0100
0010
,  // measure 68
0000
0000
1000
0001
1000
0100
0010
0000
,  // measure 69
0000
0002
0000
0000
1000
1003
0020
0000
,  // measure 70
1030
0001
0100
0000
0100
0010
0000
0010
,  // measure 71
1000
0100
0000
0000
0100
1000
0100
0000
,  // measure 72
1000
0010
0100
0000
0000
0100
0001
0100
,  // measure 73
0000
0000
0001
1000
0001
0000
0010
0000
0100
0000
1000
0001
1000
0000
0010
0000
,  // measure 74
0100
0010
2000
0100
0000
3100
0010
0001
,  // measure 75
0100
0001
0010
0000
0001
1000
0010
1000
,  // measure 76
0000
1000
0100
0000
0100
1000
0010
0100
,  // measure 77
0002
0000
0103
0010
0100
0000
0020
0100
,  // measure 78
0000
0230
0000
0000
0301
0001
0010
0000
,  // measure 79
0001
0100
0001
0000
0001
1000
0000
1000
,  // measure 80
0100
1000
0020
0000
0130
0001
0000
0000
,  // measure 81
0001
1000
0100
0010
0001
1000
0010
0100
,  // measure 82
0001
0000
1000
0001
1000
0001
1000
0000
0100
0000
0010
0001
0010
0001
0010
0000
,  // measure 83
0001
0100
0010
0002
0000
0013
1000
0001
,  // measure 84
0010
0100
0010
2000
0000
3010
0001
1000
,  // measure 85
0001
0000
0001
0100
0000
0100
1000
0100
,  // measure 86
0010
1000
0100
0000
0010
0001
0010
0000
,  // measure 87
0011
0001
0000
1100
1000
0000
1010
0010
,  // measure 88
0000
0101
0100
0000
1001
0001
0000
1000
,  // measure 89
0100
0000
0000
0000
0010
0000
0000
0000
0010
0000
0000
0000
0000
0000
0000
0000
0001
0000
0000
0000
0100
0000
0000
0000
0020
0000
0000
0000
2000
3030
0000
0000
,  // measure 90
2020
3030
0000
0000
0000
0000
0000
0000
0022
0033
0000
0000
0000
0000
0000
0000
0202
0303
0000
0000
0000
0000
0000
0000
2200
3000
0000
0000
0000
0000
0000
0000
,  // measure 91
0320
0100
0000
0000
0100
0000
0100
0000
,  // measure 92
0100
0000
0000
0100
0000
0130
1000
0010
,  // measure 93
0100
0020
0000
0100
0000
0100
0000
0000
,  // measure 94
0100
0000
0000
0100
0000
0130
0002
0100
,  // measure 95
0000
0000
0000
0100
0000
0000
0000
0100
0000
0000
0000
0100
0000
0000
0000
0000
,  // measure 96
0100
0000
0000
0000
0000
0000
0000
0100
0000
0000
0000
0103
0000
0000
0000
0000
0000
0000
0001
0000
0000
0100
0000
0000
,  // measure 97
0000
0001
0000
0000
0000
0100
0000
0000
0000
0001
0000
0000
0000
0000
0100
0000
,  // measure 98
0000
0000
0000
0001
0000
0000
0000
0000
0010
0000
0100
0000
0000
0000
0000
0100
,  // measure 99
0000
0000
1000
0000
0000
0100
0000
0000
0000
0000
0100
0000
0000
0010
0000
0000
,  // measure 100
0001
0000
0000
0000
0000
0000
0000
0000
0000
0000
0000
0000
0000
0000
0000
0000
0000
0000
0000
0000
0000
0000
0000
0000
0000
0000
0000
0000
0000
0000
0000
0000
0000
0000
0000
0000
0100
0000
0000
0000
0000
0000
0000
0000
0000
0000
0000
0000
0000
0000
0000
0000
0000
0000
0001
0000
0000
0000
0000
0000
0000
0000
0000
0000
0000
0000
0000
0000
0000
0000
0000
0000
0100
0000
0000
0000
0000
0000
0000
0000
0000
0000
0000
0000
0000
0000
0000
0000
0001
0000
0000
0000
0000
0000
0000
0000
0000
0000
0000
0000
0000
0000
0000
0000
0000
0000
0000
0000
1000
0000
0000
0000
0000
0000
0000
0000
0000
0000
0000
0000
0000
0000
0000
0000
0000
0000
0000
0000
0000
0000
0000
0000
0000
0000
0000
0000
0000
0000
0000
0000
0000
0000
0000
0000
0000
0000
0000
0000
0000
0000
0000
0000
0000
0000
0000
0000
0000
0000
0000
0000
0000
0000
0000
0000
0000
0000
0000
0000
0010
0000
0000
0000
0000
0000
0000
0000
0000
0000
0000
0000
0000
0000
0000
0000
0000
0000
0000
0000
0000
0000
0000
0000
,  // measure 101
0000
0000
0000
0100
0000
0000
0010
0000
0000
0100
0000
0000
0000
0000
0001
0000
,  // measure 102
0000
0000
0000
0000
0000
0000
0000
0000
0000
0000
0000
0000
0010
0000
0000
0000
0000
0000
0000
0000
0000
0000
0000
0000
0000
0000
0000
0000
0000
0000
0100
0000
0000
0000
0000
0000
0000
0000
0000
0000
0000
0000
0000
0000
0000
0000
0000
0000
1000
0000
0000
0000
0000
0000
0000
0000
0000
0000
0000
0000
0000
0000
0000
0000
0100
0000
0000
0000
0000
0000
0000
0000
0000
0000
0000
0000
0000
0000
0000
0000
0000
0000
0000
0000
0000
0000
0000
0000
0000
0000
0000
0000
0000
0000
0000
0000
1000
0000
0000
0000
0000
0000
0000
0000
0000
0000
0000
0000
0000
0000
0000
0000
0000
0000
0000
0000
0000
0000
0000
0000
0000
0000
0000
0000
0000
0000
0000
0000
0000
0000
0000
0000
0000
0000
0000
0000
0000
0000
0000
0000
0000
0000
0000
0000
0001
0000
0000
0000
0000
0000
0000
0000
0000
0000
0000
0000
0000
0000
0000
0000
0000
0000
0000
0000
0000
0000
0000
0000
0000
0000
0000
0000
0000
0000
0000
0000
0000
0000
0000
0000
0000
0000
0000
0000
0000
0000
0000
0000
0000
0000
0000
0000
,  // measure 103
0100
0000
0000
0010
0000
0000
0000
1000
0000
0000
0100
0000
0000
0010
0000
0000
,  // measure 104
0000
0100
0010
0000
0000
0001
0000
0000
0100
0000
0000
0000
1000
0000
0000
0100
,  // measure 105
0000
0000
0000
0001
0000
0000
1000
0000
0000
0000
0001
0000
0000
0010
0000
0000
,  // measure 106
0100
0010
0000
0000
0000
0100
0000
0010
0000
0001
0000
0000
0000
0100
0000
0010
,  // measure 107
0000
0000
0000
0001
0000
0000
0000
0000
0000
0010
0000
0000
0000
0000
0000
0100
0000
0000
0000
0000
0000
0001
0000
0000
0000
0000
0000
0000
0000
0000
1000
0000
0000
0000
0000
0000
0000
0000
0001
0000
0000
0000
0010
0000
0000
0100
0000
0000
,  // measure 108
0000
0001
0000
0100
0000
0000
1000
0000
0010
0000
0001
0000
0000
0010
0000
0000
,  // measure 109
0100
0000
0000
0001
0000
1000
0000
0000
0100
0000
0010
0000
0001
0000
0100
0000
,  // measure 110
0010
1000
0100
0010
0001
0100
0010
1000
,  // measure 111
0010
0100
0001
0010
0100
1000
0100
0010
,  // measure 112
0001
0010
0100
1000
0100
0010
0001
0100
,  // measure 113
0001
0000
0000
0000
0000
0000
0100
0000
0000
0000
0000
0000
0010
0000
0000
0000
1000
0000
0000
0000
0001
0000
0000
0000
0010
0000
0000
0000
0100
0000
0000
0000
1000
0000
0000
0000
0002
0000
0000
0000
0000
0000
0000
0000
0000
0203
0000
0000
,  // measure 114
0000
0000
0320
0000
2030
0000
3200
0000
0000
0320
0000
0000
0000
0000
0031
0010
,  // measure 115
0002
0000
0000
0023
0000
0000
0230
0000
2300
0000
3002
0000
0000
0023
0000
0000
,  // measure 116
0032
0203
0302
0023
0000
0032
0000
2003
,  // measure 117
0000
0000
3020
0000
0000
0000
0230
0000
0302
0000
0000
0203
0000
0000
0000
0000
,  // measure 118
0000
0000
0301
0000
0000
0010
0100
1000
0100
0010
0001
0010
0002
0000
0000
0023
,  // measure 119
0000
0000
0230
0000
2300
0000
3020
0000
0000
0230
0000
0000
0000
0000
0301
0100
,  // measure 120
0002
0000
0000
0203
0000
0000
0320
0000
2030
0000
3002
0000
0000
0023
0000
0000
,  // measure 121
0032
0000
0203
0000
0302
0000
0000
0203
0000
0000
0301
0000
1000
0000
0200
0000
,  // measure 122
0000
0000
0320
0000
0000
0000
0031
0000
0200
0000
0000
0320
0000
0000
2030
0000
,  // measure 123
0000
3002
0000
0000
0203
0000
0000
0000
0000
0000
0000
0000
0000
0000
0000
0000
,  // measure 124
0000
0000
0000
0000
0000
0000
0301
0010
0100
1000
0100
0010
0001
0000
0000
0010
0000
0000
0000
0000
0000
0011
0000
0000
,  // measure 125
0001
0000
1000
0001
0011
0000
0101
0001
,  // measure 126
0000
1010
1000
0000
1000
0001
0101
0000
,  // measure 127
0011
0001
0000
1100
1000
0000
1000
0100
,  // measure 128
0110
0000
0011
0001
0000
1010
1000
0000
,  // measure 129
0001
0100
0110
0000
0101
0001
0010
1000
,  // measure 130
0010
0000
1010
0000
0110
0000
1100
1000
,  // measure 131
0010
0001
0010
0000
0011
0000
0110
0000
,  // measure 132
1001
1000
0100
0010
0010
0000
0001
0000
,  // measure 133
0110
0000
1001
0001
0100
0010
0010
0000
,  // measure 134
1000
1000
0001
0001
1010
0010
0100
1000
,  // measure 135
0100
0000
0000
0000
0000
0000
0001
0000
0100
0000
0010
0000
1000
0000
0000
0000
0000
0000
0011
0000
0000
0010
0000
0000
,  // measure 136
0100
0000
0000
0001
0000
0000
0100
0000
0000
0000
0000
0000
1000
0000
0100
0000
0010
0000
0001
0000
0000
0000
0000
0000
,  // measure 137
0101
0000
0000
0100
0000
0000
1000
0000
0000
0100
0000
0000
0001
0000
0000
0000
0000
0000
1000
0000
0010
0000
1000
0000
,  // measure 138
0001
0000
1100
0100
0001
0100
1000
0000
,  // measure 139
0001
0000
0010
0000
0001
0000
1000
0000
0000
0000
0000
0000
1010
0000
0000
0010
0000
0000
0001
0000
0000
1000
0000
0000
,  // measure 140
0100
0000
0000
0000
0000
0000
0001
0000
1000
0000
0001
0000
1000
0000
0000
0000
0000
0000
0011
0000
0000
0010
0000
0000
,  // measure 141
1000
0000
0000
0001
0000
0000
0100
0000
0000
0000
0000
0000
1000
0000
0001
0000
1000
0000
0001
0000
0000
0000
0000
0000
,  // measure 142
1010
1000
0100
0110
0010
0001
0101
0100
,  // measure 143
0010
1000
0001
1000
1000
0001
0001
0010
,  // measure 144
0100
0010
0001
0100
0010
1000
0002
0000
0000
0000
0000
0000
,  // measure 145
0000
0000
0000
0000
0000
0000
0000
0000
0003
0000
0000
0000
1000
0100
2000
0000
,  // measure 146
3001
0000
0000
0100
0000
0000
0002
0000
0000
0000
0000
0000
1003
0000
0000
0010
0000
0000
1000
0000
0000
0000
0000
0000
0001
0000
0000
0010
0000
0000
0001
0000
0000
0000
0000
0000
1000
0000
0000
0000
0100
0000
0000
0000
0010
0000
0000
0000
,  // measure 147
0001
0000
0000
1000
0000
0010
0000
0100
0000
0001
0000
0000
1000
0000
0100
0000
0010
0000
0001
0000
0010
0000
0100
0000
,  // measure 148
1000
0000
0010
0000
0100
0000
0001
0000
0000
1000
0000
0100
0000
0010
0000
0001
0000
0000
1000
0000
0010
0000
0100
0000
,  // measure 149
0001
0000
0100
0000
0010
0000
1000
0000
0100
0000
0010
0000
0100
0000
0000
0010
0000
0001
0000
1000
0000
0001
0000
0000
,  // measure 150
1000
0000
0010
0000
0100
0000
0001
0000
0010
0000
0100
0000
1000
0000
0010
0000
0100
0000
0010
0000
0000
0100
0000
0001
,  // measure 151
0000
1000
0000
0001
0000
0000
1000
0000
0100
0000
0010
0000
0001
0000
0100
0000
0010
0000
0100
0000
0010
0000
1000
0000
,  // measure 152
0100
0000
0000
0010
0000
0001
0000
0100
0000
0010
0000
0000
0100
0000
0001
0000
0100
0000
0010
0000
1000
0000
0001
0000
,  // measure 153
0010
0000
0100
0000
1000
0000
0010
0000
0000
0100
0000
0001
0000
0010
0000
0100
0000
0000
0010
0000
0001
0000
0010
0000
,  // measure 154
0100
1000
0001
1000
0100
0010
0001
0010
0100
1000
0010
0100
,  // measure 155
0001
0100
0010
1000
0100
0010
0001
0100
0010
1000
0010
0100
,  // measure 156
0001
0010
0100
1000
0100
1000
0010
0100
0001
0100
0001
0010
,  // measure 157
0100
1000
0010
0100
1000
0100
0010
1000
0100
0010
0001
0100
,  // measure 158
0010
0001
0010
1000
0001
0010
1000
0010
0001
0100
1000
0100
,  // measure 159
0001
0000
0000
0000
0010
0000
0000
0000
1000
0000
0000
0000
0020
0000
0000
0000
0000
0000
0000
0000
0000
0230
0000
0000
0000
0000
0000
0000
0000
0000
2300
0000
0000
0000
0000
0000
0000
0000
0000
0000
0000
0000
0000
0000
0000
0000
0000
0000
,  // measure 160
0000
0000
3002
0000
,  // measure 161
0000
0000
0000
0000
0000
0000
0000
0000
0000
0000
1000
0000
2003
0000
0000
3200
,  // measure 162
0000
0000
0320
0000
0000
0032
0000
0000
0000
0000
0000
0000
0000
0000
0000
0000
,  // measure 163
0000
0203
0000
0000
0000
0000
0000
0000
,  // measure 164
0000
0000
0302
0000
,  // measure 165
0000
0000
0000
0000
,  // measure 166
0023
0000
0000
0200
,  // measure 167
0000
0000
0000
0000
,  // measure 168
0000
0000
0000
0000
,  // measure 169
0330
0000
0000
0000
;

//---------------dance-single - XO- DS- JA- XMOD RH TS STR[1-2@130] JU----------------
#NOTEDATA:;
#CHARTNAME:;
#STEPSTYPE:dance-single;
#DESCRIPTION:XO- DS- JA- XMOD RH TS STR[1-2@130] JU;
#CHARTSTYLE:;
#DIFFICULTY:Hard;
#METER:15;
#RADARVALUES:0.618736,0.847836,0.256413,0.429213,0.172800,777.000000,731.000000,46.000000,77.000000,0.000000,0.000000,0.000000,0.000000,0.000000,0.618736,0.847836,0.256413,0.429213,0.172800,777.000000,731.000000,46.000000,77.000000,0.000000,0.000000,0.000000,0.000000,0.000000;
#CREDIT:;
#NOTES:
// measure 0
0000
0000
0000
0000
,  // measure 1
0000
0000
0000
0000
0000
0000
0000
0000
0000
0000
0000
0000
0000
0000
0000
1000
,  // measure 2
0000
0000
0000
0000
0001
0000
0000
0000
0000
1000
0000
0000
0000
0001
0000
0000
,  // measure 3
0000
1000
0000
0001
0000
0000
1000
0000
0000
0001
0000
1000
0000
0001
0000
0000
,  // measure 4
1000
0001
1000
0000
0000
0000
0000
0000
,  // measure 5
0000
0000
0000
0000
1000
0010
0000
0000
,  // measure 6
0100
0000
0001
0000
0010
0000
0000
0001
,  // measure 7
0000
0100
0000
1000
0000
0100
0000
0001
,  // measure 8
0000
0001
0000
0000
1000
0000
0000
0100
,  // measure 9
0000
0100
0000
0100
0000
0000
0001
0000
,  // measure 10
0100
0000
1000
0000
0001
0010
0000
0000
,  // measure 11
0100
0000
0000
1000
0000
0010
0000
0000
,  // measure 12
1000
0000
0100
0000
0001
0000
0000
0100
,  // measure 13
0000
0000
1000
0000
0001
0000
0000
0100
,  // measure 14
0000
0100
0000
0000
0100
0000
1000
0000
,  // measure 15
0000
0100
0010
0100
0001
1000
0000
1000
,  // measure 16
0100
0000
0010
0000
0100
0000
0000
1000
,  // measure 17
0001
0000
0010
0000
0001
0100
0001
0100
,  // measure 18
0001
0100
0001
0000
1000
0001
0000
0001
,  // measure 19
0100
0010
1000
0001
1000
0000
1000
0100
,  // measure 20
0010
0100
0010
0000
0001
0100
0010
0000
,  // measure 21
0010
0000
1000
0100
0010
0001
0000
0010
,  // measure 22
0100
0000
1000
0000
0001
0100
0001
0000
,  // measure 23
2002
0000
0000
0000
0000
0000
3003
0000
0000
1000
0100
0010
,  // measure 24
0001
1000
0000
0220
0000
0000
0000
0000
0000
0000
0000
0000
,  // measure 25
0000
0000
0330
0000
1000
0100
0000
0000
,  // measure 26
0100
0000
1000
0000
1000
0000
0020
0100
,  // measure 27
0000
0230
0000
0000
0301
0010
0001
0000
,  // measure 28
0200
0000
0000
0000
0000
0000
0301
0000
0000
0001
0000
0100
,  // measure 29
0000
0000
0010
0000
0000
0000
2000
0000
0000
0000
0000
0000
0000
0000
0000
0100
0000
0000
0000
0000
0000
0000
0000
0000
,  // measure 30
3100
0000
1000
0000
0020
0000
0000
0230
,  // measure 31
0000
0001
0302
0000
,  // measure 32
0000
0000
0000
0000
,  // measure 33
0003
0000
0100
0000
0001
0000
0000
1000
,  // measure 34
0000
0000
0000
0100
0000
0000
0000
0000
0000
0000
0000
0000
1000
0000
0000
0000
0001
0000
0000
0000
0100
0000
0000
0000
,  // measure 35
0001
0000
0100
0000
0002
0000
0000
0023
,  // measure 36
0000
0100
0130
2000
,  // measure 37
0000
3020
0000
0000
0230
0000
0302
0000
,  // measure 38
0023
0000
0000
0230
0000
0000
0000
1000
,  // measure 39
0000
0000
0320
0000
0000
0032
0000
0000
,  // measure 40
0203
0000
0310
0000
0020
0000
0000
0230
,  // measure 41
0000
0000
0000
0300
,  // measure 42
0001
0000
0010
0000
0001
0000
0000
1000
,  // measure 43
0000
0000
0010
0000
1000
0000
0000
0100
,  // measure 44
0000
0010
0000
0000
0100
0000
1000
0000
,  // measure 45
0001
1000
0001
0000
1000
0100
0000
0100
,  // measure 46
1000
0000
0002
0000
0203
0000
0320
1000
,  // measure 47
0000
1030
0000
1000
0100
0010
0100
0000
,  // measure 48
2000
0000
0000
0001
0000
0000
0000
0000
0000
0000
0000
0000
3001
0000
0000
0000
0000
0000
0001
0000
0000
0000
1000
0000
,  // measure 49
0000
0000
0100
0000
0000
0000
2000
0000
0000
0100
0000
0000
0000
0000
0000
0000
0000
0000
3100
0000
0000
0000
0000
0000
,  // measure 50
0200
0000
2300
0000
3020
0000
0000
0230
,  // measure 51
0000
0000
0001
0000
0301
0100
0000
0000
,  // measure 52
0001
0000
0001
0000
0001
0000
0010
0001
,  // measure 53
0100
0000
0010
0000
1000
0000
0100
0010
,  // measure 54
0000
0010
0000
0000
0100
0000
1000
0000
,  // measure 55
0001
0000
1000
0000
0020
0100
0000
0230
,  // measure 56
0001
0000
0301
0000
0010
0000
0200
1000
,  // measure 57
0000
2300
0001
0000
3020
0000
0032
0000
,  // measure 58
0023
0100
0000
0130
0001
0000
0001
1000
,  // measure 59
0000
1000
0100
1000
0001
0010
0001
0000
,  // measure 60
1000
0000
0010
0000
0020
0100
0000
0130
,  // measure 61
0010
0000
0010
1000
0100
1000
0002
0000
,  // measure 62
1003
0002
0000
1003
0001
0000
1000
0000
,  // measure 63
0010
1000
0000
0001
0010
0000
1000
0010
,  // measure 64
0000
0010
0001
0100
1000
0100
0001
1000
,  // measure 65
0001
0000
1000
0000
0001
0000
1000
0000
0000
0100
0000
0000
0000
0000
0000
0000
0000
0000
0010
0000
0000
0100
0000
0000
,  // measure 66
0010
1000
0010
0000
0100
1000
0100
2000
,  // measure 67
0000
0000
3020
0000
0000
0031
0010
2000
,  // measure 68
0000
0000
3001
1000
0100
0000
0010
0000
,  // measure 69
0001
0010
0000
0100
0010
0001
1000
0000
,  // measure 70
0010
1000
0010
0000
0100
0001
0000
1000
,  // measure 71
0100
1000
0000
0000
0100
0010
0002
0000
,  // measure 72
1003
0010
1000
0000
0000
0001
1000
0001
,  // measure 73
0000
0100
0000
0110
0000
1001
0000
0110
,  // measure 74
0000
1000
0100
0010
0000
0001
0100
0001
,  // measure 75
0100
0001
0100
0000
0001
1000
0001
1000
,  // measure 76
0000
0100
0010
0000
0001
0010
0001
0100
,  // measure 77
0000
0000
0010
0100
0010
0000
2000
0000
,  // measure 78
0000
3100
0000
0000
0200
1000
0000
0000
,  // measure 79
1300
0001
0100
0000
0100
0010
0000
0010
,  // measure 80
1000
0100
0020
0000
0100
0000
0000
0000
,  // measure 81
0130
1000
0010
0000
0000
0010
1000
0000
,  // measure 82
0000
0001
0010
1000
0010
0001
0100
1000
,  // measure 83
0100
0001
1000
0010
0000
0000
1000
0010
,  // measure 84
1000
0010
0000
1000
0000
1000
0100
0010
,  // measure 85
0001
0000
0001
0010
0000
0000
0001
0010
,  // measure 86
0001
0000
0010
0000
0001
0000
0100
0010
,  // measure 87
1000
0100
0000
0100
0010
0000
0010
0001
,  // measure 88
0000
0001
0100
0000
0100
0010
0000
0010
,  // measure 89
0100
0010
0100
0000
0110
0000
1001
0000
,  // measure 90
1001
1001
1001
1001
,  // measure 91
2002
0000
0000
0000
,  // measure 92
0000
0000
0000
0000
,  // measure 93
0000
0000
0000
0000
,  // measure 94
0000
0000
3000
0023
,  // measure 95
0000
0000
0000
0100
0000
0000
0000
0100
0000
0000
0000
0100
0000
0000
0000
0000
,  // measure 96
0100
0000
0000
0000
0000
0000
0000
0100
0000
0000
0000
0100
0000
0000
0000
0000
0000
0000
0100
0000
0000
0000
0000
0000
,  // measure 97
0000
0100
0000
0000
0000
0100
0000
0000
0000
0100
0000
0000
0000
0000
0100
0000
,  // measure 98
0000
0000
0000
0100
0000
0000
0000
0000
2030
0000
0000
0000
0000
0000
0000
0010
,  // measure 99
0000
0000
0000
0000
0000
0010
0000
0000
0000
0000
0010
0000
0000
0000
0000
0000
,  // measure 100
0010
0000
0000
0000
0000
0000
3002
0000
0000
1000
0000
0000
0000
0000
1000
0000
,  // measure 101
0000
0000
0000
1000
0000
0000
0000
0000
0000
1000
0000
0000
0000
0000
1000
0000
,  // measure 102
0000
0203
0010
0010
,  // measure 103
0010
0000
0000
0000
0000
0000
0000
0010
0000
0000
0000
0000
0000
0010
0000
0000
,  // measure 104
0000
0000
2300
0000
0000
0001
0000
0000
0000
0000
0000
0000
0001
0000
0000
0000
,  // measure 105
0000
0000
0000
0001
0000
0000
0000
0000
0000
0000
0001
0000
0000
0000
0000
0000
,  // measure 106
3020
0000
0000
0000
0000
0100
0000
0000
0000
0100
0000
0000
0000
0100
0000
0000
,  // measure 107
0000
0000
0230
0000
0000
0001
0000
0000
0000
0000
0001
0000
0000
0000
0302
0000
,  // measure 108
0000
0000
0000
1000
0000
0000
0000
0000
0000
0000
2003
0000
0000
0000
0000
0000
,  // measure 109
0100
0000
0000
3200
0000
0000
0310
0000
,  // measure 110
0000
0001
0000
0000
0000
0100
0000
0000
0000
0010
0000
0000
,  // measure 111
1000
0100
0010
0001
,  // measure 112
0100
0000
0010
0000
1000
0000
0001
1000
,  // measure 113
0001
0000
1000
0000
0001
0000
1000
0000
0001
0000
1000
0000
0001
0000
0000
0001
,  // measure 114
0000
0000
1000
0000
0100
0000
1000
0000
0000
0020
0000
0000
0000
0000
1030
0000
,  // measure 115
1000
0000
0000
0100
0000
0000
0010
0000
0001
0000
1000
0000
0000
0010
0000
0000
,  // measure 116
1000
0100
1000
0010
0000
0100
0000
0001
,  // measure 117
0000
0000
0010
0000
0000
0000
0001
0000
1000
0000
0000
0200
0000
0000
0000
0000
,  // measure 118
0000
0000
0300
0000
0000
1000
0001
1000
0001
0010
0001
0000
1000
0000
0000
1000
,  // measure 119
0000
0000
0001
0000
0100
0000
0001
0000
0000
0020
0000
0000
0000
0000
0031
0000
,  // measure 120
0001
0000
0000
0100
0000
0000
0010
0000
1000
0000
0001
0000
0000
0010
0000
0000
,  // measure 121
0001
0000
0100
0000
0001
0000
0000
0010
0000
0000
0100
0000
1000
0000
0001
0000
,  // measure 122
0000
0000
0010
0000
0000
0000
0001
0000
1000
0000
0000
0010
0000
0000
1000
0000
,  // measure 123
0000
0010
0000
0000
0200
0000
0000
0000
0000
0000
0000
0000
0000
0000
0000
0000
,  // measure 124
0000
0000
0301
0010
0011
0000
0000
0011
,  // measure 125
0000
1001
1100
0101
,  // measure 126
0000
1010
0000
0000
1010
0000
1001
0000
,  // measure 127
1001
0000
0000
1100
0000
0000
0101
0000
,  // measure 128
0110
0000
1010
0000
0000
0011
0000
0000
,  // measure 129
1001
0000
0110
0000
1001
0000
0010
0001
,  // measure 130
0000
1001
0110
1001
,  // measure 131
0000
1000
0010
0000
1010
0000
0110
0000
,  // measure 132
1000
0010
1000
0100
0000
0000
0010
0000
,  // measure 133
0011
0000
0001
0001
0000
1000
1000
0000
,  // measure 134
0100
0010
0001
0100
0010
1000
0000
0010
,  // measure 135
1000
0000
0100
0010
0001
0000
0010
0001
,  // measure 136
0000
0010
0001
0000
0100
0010
1000
0000
,  // measure 137
0100
0010
0000
0100
0010
0000
0001
0100
,  // measure 138
0001
0000
1000
0001
0000
1000
0001
0000
,  // measure 139
1000
0100
0010
0000
0001
0100
0010
0100
,  // measure 140
0001
0000
1000
0100
0010
0000
0001
0010
,  // measure 141
0100
0010
0001
0000
1000
0010
0100
0000
,  // measure 142
0001
0100
0001
1000
0100
1000
0001
0010
,  // measure 143
0001
1000
0010
1000
0010
0100
0010
0100
,  // measure 144
0010
0110
1001
0000
,  // measure 145
0000
0000
0000
1001
,  // measure 146
1001
0000
1001
0000
1001
0000
1000
0100
,  // measure 147
0010
0100
1000
0001
0100
0010
0100
0001
,  // measure 148
1000
0010
0100
0010
1000
0001
0010
0100
,  // measure 149
0010
0001
1000
0010
1000
0010
0000
0100
,  // measure 150
0010
0000
0110
0000
0001
0010
0001
0010
,  // measure 151
0000
0100
0010
0000
0110
0000
1000
0100
,  // measure 152
0010
0001
0000
1000
0001
0000
1001
0000
,  // measure 153
0001
0100
0010
1000
0000
0001
1000
0000
,  // measure 154
0110
0000
1000
0100
0010
0001
0100
0010
,  // measure 155
1000
0100
0010
0100
1000
0010
0100
0001
,  // measure 156
0010
0100
1000
0010
0100
0010
1000
0100
,  // measure 157
0010
1000
0010
0100
1000
0001
1000
0001
,  // measure 158
0100
0010
0001
0010
0100
0001
1000
0100
,  // measure 159
0010
0000
0001
0000
1002
0000
0000
0100
0000
0000
2000
0000
0000
0000
0000
0000
,  // measure 160
0000
3003
2000
0000
,  // measure 161
0000
0000
0000
0000
0000
0000
0000
0000
0000
0000
0001
0000
3002
0000
0000
0203
,  // measure 162
0000
0000
0320
0000
0000
2030
0000
0000
0000
0000
0000
0000
0000
0000
0000
0000
,  // measure 163
0000
3200
0000
0000
0000
0000
0000
0000
,  // measure 164
0000
0000
2300
0000
,  // measure 165
0000
0000
0000
0000
,  // measure 166
3002
0000
0000
2000
,  // measure 167
0000
0000
0000
0000
,  // measure 168
0000
0000
0000
0000
,  // measure 169
3003
0000
0000
0000
;

//---------------dance-single - XO- JA- XMOD TS JU-----------------
#NOTEDATA:;
#CHARTNAME:;
#STEPSTYPE:dance-single;
#DESCRIPTION:XO- JA- XMOD TS JU-;
#CHARTSTYLE:;
#DIFFICULTY:Medium;
#METER:12;
#RADARVALUES:0.312951,0.565224,0.167226,0.657755,0.016723,393.000000,363.000000,30.000000,118.000000,0.000000,0.000000,0.000000,0.000000,0.000000,0.312951,0.565224,0.167226,0.657755,0.016723,393.000000,363.000000,30.000000,118.000000,0.000000,0.000000,0.000000,0.000000,0.000000;
#CREDIT:;
#NOTES:
// measure 0
0000
0000
0000
0000
,  // measure 1
0000
0000
0000
0000
0000
0000
0000
2000
,  // measure 2
0000
0000
0000
0000
,  // measure 3
0000
0000
0000
0000
,  // measure 4
0000
0000
0000
3000
0000
0000
0000
0000
,  // measure 5
0000
0000
1000
0000
,  // measure 6
0100
0000
0010
0000
0100
0000
0000
1000
,  // measure 7
0000
0010
0000
0100
0000
0001
0000
0100
,  // measure 8
0000
0010
0000
0000
1000
0000
0000
1000
,  // measure 9
0000
0100
0000
0010
0000
0000
0001
0000
,  // measure 10
0100
0000
0001
0000
0000
0001
0000
0000
,  // measure 11
0100
0000
0000
0010
0000
0100
0000
0000
,  // measure 12
0001
0000
0010
0000
0100
0000
0000
1000
,  // measure 13
0000
0000
0100
0000
0010
0000
0000
0001
,  // measure 14
0000
0001
0000
0000
0100
0000
0010
0000
,  // measure 15
0000
1000
0000
0000
1000
0000
0000
1000
,  // measure 16
0000
0000
0010
0000
1000
0000
0000
0001
,  // measure 17
0000
0010
0000
0000
0010
0000
0001
0000
,  // measure 18
1000
0000
0000
0100
0000
0000
0010
0000
,  // measure 19
0010
0000
0000
0001
0000
0000
0100
0000
,  // measure 20
0010
0000
0010
0000
0000
0010
0000
0000
,  // measure 21
0010
0000
0000
0000
0010
0000
0000
0010
,  // measure 22
0000
0100
0001
0010
,  // measure 23
0200
0000
0000
0010
,  // measure 24
0310
0100
0000
0000
,  // measure 25
0000
0000
1000
0000
,  // measure 26
1000
0100
1000
0020
,  // measure 27
0000
0030
1000
1000
,  // measure 28
2000
0000
0000
0000
0000
0000
3000
0000
0000
1000
0000
0010
,  // measure 29
0000
0100
0000
0002
0000
0000
0000
0000
0000
0003
0000
0000
,  // measure 30
0001
0000
0100
0000
0020
0000
0000
0230
,  // measure 31
0000
0000
0000
0300
,  // measure 32
0000
0000
0000
0000
,  // measure 33
0000
0000
0000
0000
,  // measure 34
0000
0000
0000
0000
,  // measure 35
0001
0000
0100
0000
0002
0000
0000
0023
,  // measure 36
0000
0000
0030
0002
,  // measure 37
0000
0203
0000
0000
0302
0000
2003
0000
,  // measure 38
3020
0000
0000
0230
0000
0000
0000
0000
,  // measure 39
0000
0000
0320
0000
0000
2030
0000
0000
,  // measure 40
3200
0000
0010
0000
0320
0000
0000
0230
,  // measure 41
0000
0000
0000
0000
,  // measure 42
0300
0000
0000
0000
,  // measure 43
0000
0000
0000
0000
,  // measure 44
0000
0000
0000
0000
,  // measure 45
1000
0000
1000
0000
1000
0000
0000
0001
,  // measure 46
0000
0001
0100
0010
,  // measure 47
0000
0010
0000
0000
1000
0000
0010
0000
,  // measure 48
1000
0000
0000
0000
0000
0000
0000
0000
0000
1000
0000
0000
0000
0000
0000
0000
0000
0000
0001
0000
0000
0000
0010
0000
,  // measure 49
0000
0000
0100
0000
0000
0000
1000
0000
0000
0000
0000
0000
0000
0000
0000
1000
0000
0000
0000
0000
0000
0000
0000
0000
,  // measure 50
1000
0000
0100
0000
0010
0000
0000
0100
,  // measure 51
0000
1000
0010
0000
,  // measure 52
0100
0000
0100
0000
0100
0000
0000
0001
,  // measure 53
0000
0000
1000
0000
1000
0000
0000
1000
,  // measure 54
0000
1000
0000
0000
0001
0000
0010
0000
,  // measure 55
0001
0000
1000
0000
0020
0000
0000
0230
,  // measure 56
0000
0302
0023
0032
,  // measure 57
0000
0203
0000
0000
0320
0000
2030
0000
,  // measure 58
3002
0000
0000
0000
,  // measure 59
0003
1000
0100
0000
,  // measure 60
0010
0001
0002
0000
,  // measure 61
0000
0000
0003
0010
,  // measure 62
0000
0010
0000
0000
0010
0000
0001
0000
,  // measure 63
0010
0000
0000
1010
0000
0000
1010
0000
,  // measure 64
0000
0011
0000
0000
0011
0000
0000
0110
,  // measure 65
0000
2000
0000
3020
,  // measure 66
0000
0000
0000
0000
0000
0000
0000
0230
,  // measure 67
0000
0000
0302
0000
0000
0023
0000
0032
,  // measure 68
0000
2003
0000
0000
,  // measure 69
0000
3002
0000
0000
0023
0000
0000
0000
,  // measure 70
0230
2300
0000
0000
,  // measure 71
0000
0000
3100
2000
,  // measure 72
0000
3020
0000
0000
0000
0032
0000
0023
,  // measure 73
0000
2030
0000
3002
0000
1003
0000
0010
,  // measure 74
0000
1000
0000
2000
0000
0000
3200
0000
,  // measure 75
0000
0000
2300
0000
,  // measure 76
3020
2030
3002
0000
,  // measure 77
0023
0230
0000
0302
,  // measure 78
0000
0203
0000
0000
,  // measure 79
2300
0000
0000
0000
0000
3020
0000
0000
,  // measure 80
0230
0000
0302
0003
0000
0000
0000
0000
,  // measure 81
0000
1000
0000
0100
0000
0010
0000
0001
,  // measure 82
0000
1000
0000
0010
0000
0100
0000
0010
,  // measure 83
0000
1000
0000
0020
0000
0000
2030
0000
,  // measure 84
0000
0000
0000
0000
0000
3002
0000
0000
,  // measure 85
0000
0000
0000
0023
0000
0000
0230
0000
,  // measure 86
0000
0320
0000
0000
0230
0000
0000
0310
,  // measure 87
0001
0100
0010
1000
,  // measure 88
0100
0010
0001
0100
,  // measure 89
0010
0000
1000
0000
0001
0000
2000
3000
,  // measure 90
0002
0003
2000
3000
0002
0003
2000
3000
,  // measure 91
0002
0000
0000
0000
,  // measure 92
0000
0000
0000
0000
,  // measure 93
0000
0000
0000
0000
,  // measure 94
0000
0000
0000
0023
,  // measure 95
0000
0000
0000
0000
,  // measure 96
0000
0000
0000
0000
,  // measure 97
0000
0000
0000
0000
,  // measure 98
0000
0000
0230
0000
,  // measure 99
0000
0000
0000
0000
,  // measure 100
0000
0000
0000
2300
0000
0000
0000
0000
,  // measure 101
0000
0000
0000
0000
,  // measure 102
0000
3020
0000
0000
,  // measure 103
0000
0000
0000
0000
,  // measure 104
0000
0230
0000
0000
0000
0000
0000
0000
,  // measure 105
0000
0000
0000
0000
,  // measure 106
0302
0000
0000
0000
,  // measure 107
0000
0023
0000
0000
0000
0000
0000
0230
,  // measure 108
0000
0000
0000
0000
0000
2300
0000
0000
,  // measure 109
0000
0000
0000
3002
0000
0000
0103
0000
,  // measure 110
0000
0010
0000
0000
0000
1000
0000
0000
0000
0001
0000
0000
,  // measure 111
0010
0200
0000
2300
,  // measure 112
0000
3020
0000
0230
,  // measure 113
0000
0302
0000
2003
,  // measure 114
0000
0000
0000
3020
0000
0000
0000
0000
,  // measure 115
0230
0000
0000
0000
0000
0302
0000
0000
,  // measure 116
0000
0000
0203
0000
0000
0000
0000
0320
,  // measure 117
0000
0000
2030
0000
,  // measure 118
0000
3200
0000
0000
0000
0000
2300
0000
,  // measure 119
0000
0000
0000
3200
0000
0000
0000
0000
,  // measure 120
0320
0000
0000
0000
0000
0032
0000
0000
,  // measure 121
0100
0000
0203
0000
0000
0000
0000
0302
,  // measure 122
0000
0000
0023
0000
,  // measure 123
0000
0030
0000
0000
,  // measure 124
0000
0000
0000
0000
1001
0000
0000
1000
,  // measure 125
0000
0100
0000
1001
,  // measure 126
0000
1000
0000
0000
0010
0000
0000
0000
,  // measure 127
1001
0000
0000
0001
0000
0000
0010
0000
,  // measure 128
0000
0000
1001
0000
0000
0001
0000
0000
,  // measure 129
0100
0000
0001
0020
,  // measure 130
0030
0002
0003
2000
,  // measure 131
3000
0020
0030
1000
,  // measure 132
0110
0000
0000
0100
0000
0000
0001
0000
,  // measure 133
0010
0000
0010
0000
0000
0010
0000
0000
,  // measure 134
0010
0000
0100
0000
1100
0000
0000
1000
,  // measure 135
0000
0100
1000
0011
,  // measure 136
0000
0001
0000
0000
0010
0000
0001
0000
,  // measure 137
0101
0000
0000
0100
0000
0000
0001
0000
,  // measure 138
1000
0000
1010
0000
0000
0010
0000
0000
,  // measure 139
1000
0000
1000
0000
0001
0000
0000
1000
,  // measure 140
0000
0100
1000
0001
,  // measure 141
0000
0010
0000
0001
,  // measure 142
0001
0000
0000
0100
0000
0000
0010
0000
,  // measure 143
1000
0002
0000
0000
,  // measure 144
0000
0000
0003
0000
,  // measure 145
0000
0000
0000
2002
,  // measure 146
0000
3003
1001
1001
,  // measure 147
0000
1001
0000
0000
1000
0000
0100
0000
,  // measure 148
0110
0000
0000
0110
0000
0000
0010
0000
,  // measure 149
0001
0000
1001
0000
0000
1001
0000
0000
,  // measure 150
1000
0000
0010
0000
0110
0000
0000
0110
,  // measure 151
0000
0100
0001
1001
,  // measure 152
0000
1001
0000
0000
0100
0000
0010
0000
,  // measure 153
0110
0000
0000
0110
0000
0000
0110
0000
,  // measure 154
0110
1000
0100
0010
,  // measure 155
0001
0100
0001
0100
,  // measure 156
0010
1000
0010
1000
,  // measure 157
0100
0001
0100
1000
,  // measure 158
0001
0100
1000
0100
,  // measure 159
0001
2000
0000
0000
,  // measure 160
0000
3000
0002
0000
,  // measure 161
0000
0000
0003
0020
,  // measure 162
0000
0000
0000
0030
,  // measure 163
0000
0200
0000
0000
0000
0000
0000
0000
,  // measure 164
0000
0300
0000
0000
2000
0000
0000
0000
,  // measure 165
0000
0000
3000
0000
,  // measure 166
0020
0000
0000
0200
,  // measure 167
0000
0000
0000
0000
,  // measure 168
0000
0000
0000
0000
,  // measure 169
0330
0000
0000
0000
;

//---------------dance-single - ----------------
#NOTEDATA:;
#CHARTNAME:;
#STEPSTYPE:dance-single;
#DESCRIPTION:;
#CHARTSTYLE:;
#DIFFICULTY:Easy;
#METER:8;
#RADARVALUES:0.144133,0.471020,0.039019,0.100336,0.000000,181.000000,174.000000,7.000000,18.000000,0.000000,0.000000,0.000000,0.000000,0.000000,0.144133,0.471020,0.039019,0.100336,0.000000,181.000000,174.000000,7.000000,18.000000,0.000000,0.000000,0.000000,0.000000,0.000000;
#CREDIT:;
#NOTES:
0000
0000
0000
0000
,
0000
0000
0000
0000
,
0000
0000
0000
0000
,
0000
0000
0000
0000
,
0000
0000
0000
0000
,
0000
0000
2000
0000
,
0000
0000
0000
0000
,
0000
0000
0000
0000
,
0000
0000
0000
0000
,
0000
0000
0000
0000
,
3000
0000
0002
0000
,
0000
0000
0000
0000
,
0000
0000
0000
0000
,
0000
0000
0000
0000
,
0000
0000
0000
0000
,
0003
0000
0020
0000
,
0000
0000
0000
0000
,
0000
0000
0000
0000
,
0000
0000
0000
0000
,
0000
0000
0000
0000
,
0030
0000
0200
0000
,
0000
0000
0000
0000
,
0000
0000
0000
0000
,
0300
0000
0000
0000
,
0000
0000
0000
0000
,
0000
0000
1000
0000
,
0000
1000
0000
0010
,
0000
0000
0010
0000
,
1000
0000
0000
1000
,
0000
0100
0000
0000
,
0100
0000
0020
0000
,
0000
0000
0000
0000
,
0000
0000
0000
0000
,
0000
0000
0000
0000
,
0000
0030
0000
0000
,
0010
0000
0001
0000
,
0000
0000
0000
0001
,
0000
0000
0100
0000
,
0010
0000
0000
0000
,
0000
0010
0000
0000
,
1000
0000
0002
0000
,
0000
0000
0000
0000
,
0000
0000
0000
0000
,
0000
0000
0000
0000
,
0000
0000
0003
0000
,
0001
0001
0001
0000
,
0000
0001
0000
0010
,
0000
0000
0010
0000
,
0001
0000
0000
0001
,
0000
0100
0000
0000
,
0100
0000
0020
0000
,
0000
0000
0000
0000
,
0000
0000
0000
0000
,
0000
0000
0000
0000
,
0000
0030
0000
0000
,
0010
0000
1000
0000
,
0000
0000
0000
1000
,
0000
0000
0100
0000
,
0010
0000
0000
0000
,
0000
0010
0000
0000
,
0001
0000
0002
0000
,
0000
0003
0000
0001
,
0000
0000
0001
0000
,
0020
0000
0000
0030
,
0000
0010
0000
0000
0010
0000
0000
0001
,
0000
0001
0000
0000
,
0000
0000
0000
1000
0000
0000
0000
0000
,
0000
0000
0001
0000
,
0000
0000
0000
0000
0000
1000
0000
0000
,
0000
0000
0000
0100
,
0000
0000
0000
0000
0000
0000
0000
0010
,
0000
0000
0000
0000
,
0100
0000
0000
0000
,
0000
0010
0000
0000
0000
0000
0000
0000
,
0000
0001
0000
0000
,
0000
0000
0000
1000
0000
0000
0000
0000
,
0000
0000
0001
0000
,
0000
0000
0000
0000
0000
0001
0000
0000
,
0000
0000
0000
0100
,
0000
0000
0000
0000
0000
0000
0000
0010
,
0000
0000
0000
0000
,
0100
0000
0000
0000
,
0000
0010
0000
0000
0000
0000
0000
0000
,
0000
1000
0000
0000
,
0000
0000
0000
0000
,
0000
0001
0000
0000
,
0000
0000
0000
0000
,
1001
0000
0000
1001
,
0000
0000
1001
0000
,
0000
1001
0000
0000
0000
0000
2002
0000
,
0000
0000
0000
3003
,
0220
0000
0000
0000
,
0000
0000
0000
0000
,
0000
0000
0000
0000
,
0000
0000
0000
0000
,
0000
0000
0000
0000
,
0000
0000
0000
0000
,
0000
0000
0000
0000
,
0000
0000
0000
0000
,
0000
0000
0000
0000
,
0000
0000
0000
0000
,
0000
0000
0000
0000
,
0000
0000
0000
0000
,
0000
0000
0000
0000
,
0000
0000
0000
0000
,
0000
0000
0000
0000
,
0000
0000
0000
0000
,
0000
0000
0000
0000
,
0000
0000
0000
0000
,
0000
0000
0000
0000
,
0000
0000
0000
0000
,
0000
0000
0000
0000
,
0000
0000
0000
0000
,
0000
0000
0000
0330
,
0000
0000
0000
0000
,
0000
0000
0000
0000
,
0000
0000
0000
0000
,
0000
0000
0000
0000
,
0000
0000
0000
1000
,
0000
0000
0000
1000
0000
0000
0000
0000
,
0001
0000
0000
0000
0000
0010
0000
0000
,
0100
0000
1000
0000
0000
0000
0000
1000
,
0000
0000
0010
0000
,
0000
0000
0000
0000
,
0000
0000
0000
0000
1000
0000
0000
1000
,
0000
1000
0000
0001
,
0000
0001
0000
0000
0001
0000
0000
0000
,
0100
0000
0000
0100
0000
0000
0100
0000
,
0000
0000
0010
0000
0000
0010
0000
0000
,
0010
0000
0000
0000
0100
0000
0000
0100
,
0000
0100
0000
0001
,
0000
0001
0000
0000
0001
0000
0000
0000
,
1000
0000
0000
1000
0000
0000
1000
0000
,
0000
0000
0100
0000
0000
0100
0000
0000
,
1000
0000
0000
0000
0001
0000
0000
0001
,
0000
0001
0000
1000
,
0000
1000
0000
0000
1000
0000
0000
0000
,
0100
0000
0000
0100
0000
0000
0100
0000
,
0000
0000
0010
0000
0000
0010
0000
0000
,
0010
0000
0000
0000
0100
0000
0000
0100
,
0000
0100
0000
1000
,
0000
1000
0000
0000
1000
0000
0000
0000
,
0001
0000
0000
0001
0000
0000
0001
0000
,
0000
0000
0010
0000
0000
0010
0000
0000
,
0010
0000
0000
0000
,
0000
0000
0000
0000
,
0000
0000
0000
1000
,
0000
1000
0000
0000
1000
0000
1000
0000
,
0001
0000
0000
0001
0000
0000
0001
0000
,
0001
0000
0100
0000
0000
0100
0000
0000
,
0100
0000
0100
0000
0010
0000
0000
0010
,
0000
0010
0010
1000
,
0000
1000
0000
0000
1000
0000
1000
0000
,
0001
0000
0000
0001
0000
0000
0001
0000
,
0001
1000
0100
1000
,
0100
1000
0001
0100
,
0001
0100
0001
1000
,
0010
1000
0010
1000
,
0001
0010
0001
0010
,
0001
2002
0000
0000
,
0000
0000
0000
0000
,
0000
0000
3003
0200
,
0000
0000
0000
0000
,
0000
0000
0000
0000
,
0000
0300
0200
0000
,
0000
0000
0000
0300
,
0020
0000
0000
0000
,
0000
0000
0000
0000
,
0000
0000
0000
0000
,
0030
0000
0000
0000
;

//---------------dance-single - ----------------
#NOTEDATA:;
#CHARTNAME:;
#STEPSTYPE:dance-single;
#DESCRIPTION:;
#CHARTSTYLE:;
#DIFFICULTY:Beginner;
#METER:6;
#RADARVALUES:0.101928,0.282612,0.005574,0.033445,0.000000,128.000000,127.000000,1.000000,6.000000,0.000000,0.000000,0.000000,0.000000,0.000000,0.101928,0.282612,0.005574,0.033445,0.000000,128.000000,127.000000,1.000000,6.000000,0.000000,0.000000,0.000000,0.000000,0.000000;
#CREDIT:Karl with a K;
#NOTES:
0000
0000
0000
0000
,
0000
0000
0000
0000
,
0000
0000
0000
0000
,
0000
0000
0000
0000
,
0000
0000
0000
0000
,
0000
0000
0001
0000
,
0000
0000
0000
0000
,
0000
0000
0000
0000
,
0000
0000
0000
0000
,
0000
0000
0000
0000
,
0000
0000
1000
0000
,
0000
0000
0000
0000
,
0000
0000
0000
0000
,
0000
0000
0000
0000
,
0000
0000
0000
0000
,
0000
0000
0001
0000
,
0000
0000
0000
0000
,
0000
0000
0000
0000
,
0000
0000
0000
0000
,
0000
0000
0000
0000
,
0000
0000
0010
0000
,
0000
0000
0000
0000
,
0000
0000
0000
0000
,
0000
0000
0000
0000
,
0000
0000
0000
0000
,
0000
0000
1000
0000
,
0000
0000
0000
0010
,
0000
0000
0000
0000
,
1000
0000
0000
0000
,
0000
1000
0000
0000
,
0000
0000
0001
0000
,
0000
0000
0000
0000
,
0000
0000
0000
0000
,
0000
0000
0000
0000
,
0000
0000
0000
0000
,
0000
0000
0001
0000
,
0000
0000
0000
0010
,
0000
0000
0000
0000
,
0001
0000
0000
0000
,
0000
0001
0000
0000
,
0000
0000
1000
0000
,
0000
0000
0000
0000
,
0000
0000
0000
0000
,
0000
0000
0000
0000
,
0000
0000
0000
0000
,
0000
0000
1000
0000
,
0000
1000
0000
0010
,
0000
0000
0000
0000
,
1000
0000
0000
0100
,
0000
1000
0000
0000
,
0000
0000
0001
0000
,
0000
0000
0000
0001
,
0000
0000
0000
0000
,
1000
0000
0000
0000
,
0000
1000
0000
0000
,
0000
0000
0001
0000
,
0000
0001
0000
0010
,
0000
0000
0000
0000
,
0001
0000
0000
0001
,
0000
0001
0000
0000
,
0000
0000
1000
0000
,
0000
0000
0000
0010
,
0000
0000
0010
0000
,
0010
0000
0000
0000
,
0000
0010
0000
0000
0000
0000
0000
0000
,
0000
0010
0000
0000
,
0000
0000
0000
0100
0000
0000
0000
0000
,
0000
0000
0001
0000
,
0000
0000
0000
0000
0000
1000
0000
0000
,
0000
0000
0000
0100
,
0000
0000
0000
0000
0000
0000
0000
0010
,
0000
0000
0000
0000
,
0001
0000
0000
0000
,
0000
0100
0000
0000
0000
0100
0000
0000
,
0000
0001
0000
0000
,
0000
0000
0000
0010
0000
0000
0000
0000
,
0000
0000
0100
0000
,
0000
0000
0000
0000
0000
1000
0000
0000
,
0000
0000
0000
0010
,
0000
0000
0000
0000
0000
0000
0000
0100
,
0000
0000
0000
0000
,
0001
0000
0000
0000
0000
0001
0000
0000
,
0000
1000
0000
0000
0000
1000
0000
0000
,
0000
0010
0000
0000
,
0000
1000
0000
0000
,
0000
0100
0000
0000
,
0000
0010
0000
0000
0000
0000
0000
0000
,
0001
0000
0000
0100
,
0000
0000
0010
0000
,
0000
1000
0000
0000
,
0000
0000
0000
0000
,
2002
0000
0000
0000
,
0000
0000
0000
0000
,
0000
0000
0000
0000
,
0000
0000
0000
0000
,
0000
0000
0000
0000
,
0000
0000
0000
0000
,
0000
0000
0000
0000
,
0000
0000
0000
0000
,
0000
0000
0000
0000
,
0000
0000
0000
0000
,
0000
0000
0000
0000
,
0000
0000
0000
0000
,
0000
0000
0000
0000
,
0000
0000
0000
0000
,
0000
0000
0000
0000
,
0000
0000
0000
0000
,
0000
0000
0000
0000
,
0000
0000
0000
0000
,
0000
0000
0000
0000
,
0000
0000
0000
0000
,
0000
0000
0000
0000
,
0000
0000
0000
0000
,
0000
0000
0000
3003
,
0000
0000
0000
0000
,
0000
0000
0000
0000
,
0000
0000
0000
0000
,
0000
0000
0000
0000
,
0000
0000
0000
0000
,
0000
0000
0000
0000
,
0000
0000
0000
0000
,
0000
0000
0000
0000
,
0000
0000
0000
0000
,
0000
0000
0000
0000
,
0000
0000
0001
0000
,
0000
0001
0000
1000
,
0000
0000
1000
0000
,
0100
0000
0000
0100
,
0000
0010
0000
0000
,
0010
0000
0001
0000
,
0000
0001
0000
0010
,
0000
0000
0010
0000
,
0100
0000
0000
0100
,
0000
1000
0000
0000
,
1000
0000
0001
0000
,
0000
0001
0000
1000
,
0000
0000
1000
0000
,
0010
0000
0000
0010
,
0000
0100
0000
0000
,
0100
0000
0001
0000
,
0000
0001
0000
0100
,
0000
0000
0100
0000
,
0010
0000
0000
0010
,
0000
1000
0000
0000
,
1000
0000
0000
0000
,
0000
0000
0000
0000
,
0000
0000
0000
0001
,
0000
0000
1000
1000
,
1000
0000
0000
0100
,
0100
0100
0000
0000
,
0010
0010
0010
0000
,
0000
0001
0001
0001
,
0000
0000
0100
0100
,
0100
0000
0000
0010
,
0010
0010
0000
1000
,
0000
0100
0000
0010
,
0000
0001
0000
0100
,
0000
0010
0000
1000
,
0000
0100
0000
0010
,
0000
0002
0000
0000
,
0000
0000
0000
0000
,
0000
0000
0003
2000
,
0000
0000
0000
0000
,
0000
0000
0000
0000
,
0000
3000
0200
0000
,
0000
0000
0000
0300
,
0020
0000
0000
0000
,
0000
0000
0000
0000
,
0000
0000
0000
0000
,
0030
0000
0000
0000
;
