#VERSION:0.83;
#TITLE:rudimentary methods of overkill;
#SUBTITLE:;
#ARTIST:Z-I-v Sound Team "Karl with a K";
#TITLETRANSLIT:;
#SUBTITLETRANSLIT:;
#ARTISTTRANSLIT:;
#GENRE:;
#ORIGIN:;
#CREDIT:;
#BANNER:rudimentary methods of overkill banner.png;
#BACKGROUND:rudimentary methods of overkill bg.png;
#PREVIEWVID:;
#JACKET:rudimentary methods of overkill jk.png;
#CDIMAGE:rudimentary methods of overkill jk alt.png;
#DISCIMAGE:SC2022-bg week10.png;
#LYRICSPATH:;
#CDTITLE:;
#MUSIC:rudimentary methods of overkill.ogg;
#OFFSET:-0.025000;
#SAMPLESTART:88.899139;
#SAMPLELENGTH:16.000000;
#SELECTABLE:YES;
#BPMS:0.000=210.000,
239.000=105.000,
271.000=210.000;
#STOPS:;
#DELAYS:;
#WARPS:;
#TIMESIGNATURES:0.000=4=4;
#TICKCOUNTS:0.000=4;
#COMBOS:0.000=1;
#SPEEDS:0.000=1.000=0.000=0;
#SCROLLS:0.000=1.000,
271.000=0.600,
272.000=0.700,
273.000=0.800,
274.000=0.900,
275.000=1.000;
#FAKES:;
#LABELS:0.000=Song Start;
#BGCHANGES:;
#KEYSOUNDS:;
#ATTACKS:
;

//---------------dance-single - XO+ FS SS- DS JA+ XMOD FL+ RH+ TS JU Mines- Rolls-----------------
#NOTEDATA:;
#CHARTNAME:;
#STEPSTYPE:dance-single;
#DESCRIPTION:XO+ FS SS- DS JA+ XMOD FL+ RH+ TS JU Mines- Rolls-;
#CHARTSTYLE:;
#DIFFICULTY:Challenge;
#METER:19;
#RADARVALUES:0.905482,1.314760,0.115902,0.253535,1.046737,875.000000,859.000000,16.000000,35.000000,44.000000,0.000000,4.000000,0.000000,0.000000,0.905482,1.314760,0.115902,0.253535,1.046737,875.000000,859.000000,16.000000,35.000000,44.000000,0.000000,4.000000,0.000000,0.000000;
#CREDIT:Karl with a K;
#NOTES:
// measure 0
0000
0000
0000
0000
,  // measure 1
0000
0000
0000
0000
,  // measure 2
0000
0000
0000
0000
,  // measure 3
0000
0000
0000
0000
0000
0000
0000
0000
0000
0000
0000
0000
000M
000M
M000
M000
,  // measure 4
000M
0000
0000
0000
,  // measure 5
0000
0000
0000
0000
,  // measure 6
0000
0000
0000
0000
,  // measure 7
0000
0000
0000
0000
,  // measure 8
1000
1000
1000
1000
,  // measure 9
1000
1000
1000
1000
,  // measure 10
0001
0001
0001
0001
,  // measure 11
0001
0001
0001
0001
,  // measure 12
1000
1000
1000
1000
,  // measure 13
0001
0000
0001
0000
0001
0000
0001
0100
,  // measure 14
1000
0000
0000
0000
1M00
0000
0100
0000
0001
0000
0000
0000
0M01
0100
010M
1000
,  // measure 15
0001
0000
0000
0000
0000
0000
0000
0010
0001
0000
0000
0000
0000
0000
0000
0010
0001
0000
0000
0000
0010
0000
001M
0000
1000
0000
0000
0000
0000
0000
0000
0000
,  // measure 16
0220
0000
0000
0000
0000
0000
0000
0000
0000
0000
0000
0000
0000
0000
0000
0000
0000
0000
0000
0000
0000
0000
0000
0000
0330
0000
0000
0000
0000
0000
0000
1000
,  // measure 17
0001
0000
0000
0000
0000
0000
0000
0000
0000
0000
0000
0010
0100
0000
0000
0000
0000
0000
0000
0000
0000
0000
0000
1000
0001
0000
0000
0000
0000
0000
0000
0000
,  // measure 18
1000
1000
1000
0010
0010
0010
1000
1000
,  // measure 19
1000
0001
0001
0010
0010
0001
0001
0001
,  // measure 20
0010
0000
0010
0000
0010
0000
0001
0000
0001
0000
0001
0000
1000
0001
1000
0001
,  // measure 21
0010
0000
0001
0001
0001
0010
0010
0010
,  // measure 22
1000
1000
1000
0001
0001
0100
0100
1000
,  // measure 23
1000
1000
0010
0010
0010
0001
0001
0001
,  // measure 24
0010
0000
0000
0100
0000
0000
0010
0000
0000
0100
0000
0000
0001
0000
0000
0000
0100
0000
0000
0000
0001
0000
0000
0000
1000
0000
0000
0000
0000
0000
0100
0000
0000
0010
0000
0000
0100
0000
0000
0000
0000
0000
1000
0000
0000
0000
0000
0000
,  // measure 25
0100
0010
0100
0000
1000
0000
0001
0100
0001
0000
1000
0001
0100
0000
0001
0000
,  // measure 26
0001
0000
0100
0010
0100
0000
0001
0000
0100
0010
0100
0000
0001
0000
1000
0100
,  // measure 27
1000
0000
0001
1000
0100
0000
1000
0000
1000
0000
0010
0100
0001
0000
0001
0000
,  // measure 28
0010
0100
1000
0000
1000
0000
0100
0010
0001
0000
0010
0100
0001
0000
0100
0010
,  // measure 29
0001
0000
1000
0000
0010
0100
0001
0000
0010
0100
1000
0001
1000
0001
0010
0001
,  // measure 30
1000
0100
1000
0001
2000
0000
0000
0000
0000
0000
0000
0000
0000
0000
0000
0000
,  // measure 31
0000
0000
0000
3001
0100
010M
1000
0100
M100
0001
0100
010M
,  // measure 32
1000
0100
0000
0000
2000
0000
0000
0000
0000
0000
0000
0000
3001
0010
0000
0000
0002
0000
0000
0000
0000
0000
0000
0000
1003
0010
0000
0000
2000
0000
0000
0000
,  // measure 33
0000
0000
0000
0000
3001
0100
0000
0000
0001
0000
0000
0000
1000
0000
0000
0000
1002
0000
0000
0000
0000
0000
0000
0000
0000
0000
0000
0000
0000
0000
0000
0000
,  // measure 34
0000
0000
0000
0000
0000
0000
1003
0010
M010
0001
0010
001M
,  // measure 35
1000
0000
0000
0000
0000
0000
0000
0000
0000
0000
0000
0000
0000
0000
0000
0000
0010
0000
0000
0000
0000
0000
0000
0000
0000
0000
0000
0000
0000
0000
0000
0000
M010
0000
0000
0000
0000
0000
0000
0000
0000
0000
0000
0000
0000
0000
0000
0000
0001
0000
0000
0000
0000
0000
0010
0000
0000
0000
0000
0000
0000
0000
0000
0000
0000
0000
0000
0000
0000
0000
0000
0000
0002
0000
0000
0000
0000
0000
0000
0000
0000
0000
0000
0000
0000
0000
0000
0000
0000
0000
0000
0000
0000
0000
0000
0000
0000
0000
0000
0000
0000
0000
0000
0000
0000
0000
0000
0000
0000
0000
0000
0000
0000
0000
0000
0000
0000
0000
0000
0000
1003
0000
0000
0000
0000
0000
0100
0000
0000
0000
0000
0000
0000
0000
0000
0000
0000
0000
0000
0000
0000
0000
0000
0000
2000
0000
0000
0000
0000
0000
0000
0000
0000
0000
0000
0000
0000
0000
0000
0000
0000
0000
0000
0000
0000
0000
0000
0000
0000
0000
0000
0000
0000
0000
0000
0000
0000
0000
0000
0000
0000
0000
0000
0000
0000
0000
0000
0000
0000
0000
0000
0000
,  // measure 36
3001
0100
0000
0000
0002
0000
0000
0000
0000
0000
0000
0000
1003
0010
0000
0000
1000
0000
0000
0000
0001
0000
0000
0000
2001
0000
0000
0000
0000
0000
0000
0000
,  // measure 37
0000
0000
0000
0000
0000
0000
0000
0000
0000
3001
1000
0001
,  // measure 38
0100
0000
0000
0000
0000
0000
0000
0000
0000
0000
0000
0000
0000
0000
0000
0000
010M
0000
0000
0000
0000
0000
0000
0000
0000
0000
0000
0000
0000
0000
0000
0000
1000
0000
0000
0000
0000
0000
0000
0000
0000
0000
0000
0000
0000
0000
0000
0000
0001
0000
0000
0000
0000
0000
0000
0000
0000
0000
0000
0000
0000
0000
0000
0000
0010
0000
0000
0000
0000
0000
0000
0000
0000
0000
0000
0000
0000
0000
0000
0000
001M
0000
0000
0000
0000
0000
0000
0000
0000
0000
0000
0000
0000
0000
0000
0000
1000
0000
0000
0000
0000
0000
0010
0000
0000
0000
0000
0000
0000
0000
0000
0000
0000
0000
0000
0000
0000
0000
0000
0000
2000
0000
0000
0000
0000
0000
0000
0000
0000
0000
0000
0000
0000
0000
0000
0000
0000
0000
0000
0000
0000
0000
0000
0000
0000
0000
0000
0000
0000
0000
0000
0000
0000
0000
0000
0000
0000
0000
0000
0000
0000
0000
0000
0000
0000
0000
0000
0000
3001
0000
0000
0000
0000
0000
0010
0000
0000
0000
0000
0000
0000
0000
0000
0000
0000
0000
0000
0000
0000
0000
0000
0000
,  // measure 39
0002
0000
0000
0000
0000
0000
0000
0000
1003
0100
0000
0000
2000
0000
0000
0000
0000
0000
0000
0000
3001
0100
0000
0000
0001
0000
0000
0000
1000
0000
0000
0000
,  // measure 40
1002
0000
0000
0000
,  // measure 41
1003
0000
0000
0000
0000
0000
0000
0000
0000
0000
0000
0000
0000
0000
0000
0000
0001
0000
0000
0000
0000
0000
0000
0000
0000
0000
0000
0000
0000
0000
0000
0000
1000
0000
0000
0000
0000
0000
0000
0000
0000
0000
0000
0000
0000
0000
0000
0000
0010
0000
0000
0000
0000
0000
0000
0000
0000
0000
0000
0000
0000
0000
0000
0000
M010
0000
0000
0000
0000
0000
0000
0000
0000
0000
0000
0000
0000
0000
0000
0000
0001
0000
0000
0000
0000
0000
0000
0000
0000
0000
0000
0000
0000
0000
0000
0000
1000
0000
0000
0000
0000
0000
0000
0000
0000
0000
0000
0000
0000
0000
0000
0000
0100
0000
0000
0000
0000
0000
0000
0000
0000
0000
0000
0000
0000
0000
0000
0000
M100
0000
0000
0000
0000
0000
0000
0000
0000
0000
0000
0000
0000
0000
0000
0000
0001
0000
0000
0000
0000
0000
0100
0000
0000
0000
0000
0000
0000
0000
0000
0000
0000
0000
0000
0000
0000
0000
0000
0000
0002
0000
0000
0000
0000
0000
0000
0000
0000
0000
0000
0000
0000
0000
0000
0000
0000
0000
0000
0000
0000
0000
0000
0000
,  // measure 42
0000
0000
0000
0000
1003
0100
0000
0000
2000
0000
0000
0000
0000
0000
0000
0000
3001
0010
0000
0000
0002
0000
0000
0000
0000
0000
0000
0000
1003
0010
0000
0000
,  // measure 43
1000
0000
0000
0001
0000
0000
0020
0000
0000
0000
0000
0000
0000
0000
0130
0000
01M0
0000
0001
0000
0000
0000
0000
0000
,  // measure 44
0100
0010
0100
1000
0000
0000
0100
0010
0100
0001
0000
0000
,  // measure 45
0010
0100
0010
1000
0000
0000
0010
0100
0010
0001
0000
0000
,  // measure 46
1000
0100
1000
0010
0000
0000
00M1
0100
0001
0010
0000
0000
,  // measure 47
10M0
0000
0010
0000
1000
0000
0100
0000
0000
0000
0000
0000
0M01
0000
1000
0000
0100
0000
1000
0000
0000
0010
0000
0000
,  // measure 48
0000
0000
0100
0000
0010
0000
0001
0000
0000
0010
0000
0000
0000
0000
0100
0000
0010
0000
1000
0000
0000
0100
0000
0000
,  // measure 49
0000
0000
0010
0000
0100
0000
0001
0000
0000
0100
0000
0000
0000
0000
0010
0000
0100
0000
1000
0000
0000
0001
0000
0000
,  // measure 50
0000
0000
0010
0000
0001
0000
0100
0000
0000
1000
0000
0000
0000
0000
0001
0000
1000
0000
0100
0000
0000
0001
0000
0000
,  // measure 51
0000
0000
0010
0000
0001
0000
1000
0000
0000
0100
0000
0000
0001
0000
0100
0000
0010
0000
0001
0000
0000
0010
0000
0000
,  // measure 52
0001
0000
0100
0000
0010
0000
1000
0000
0000
0010
0000
0000
1000
0000
0100
0000
0010
0000
0001
0000
0000
0100
0000
0000
,  // measure 53
0001
0000
0010
0000
0100
0000
1000
0000
0000
0100
0000
0000
1000
0000
0010
0000
0100
0000
0010
0000
0000
0M10
0000
0000
,  // measure 54
0100
0000
1000
0000
0001
0000
0100
0000
0000
010M
0000
0000
0010
0000
0001
0000
1000
0000
0010
0000
0000
M010
0000
0000
,  // measure 55
0100
1000
0001
0100
0000
0010
0000
00M1
1000
0400
0010
0000
,  // measure 56
1000
0000
0010
0000
0001
0000
0010
0000
1300
0004
0010
0000
,  // measure 57
1000
0000
0000
0000
0000
0000
0000
0000
0100
0000
0000
0000
0000
0000
0000
0000
1000
0000
0000
0000
0000
0000
0000
0000
0010
0000
0000
0000
0000
0000
0000
0000
1003
0000
0000
0000
0001
0000
0000
0100
0000
0000
0010
0000
0000
1000
0000
0000
,  // measure 58
0001
0100
0010
0100
0001
0010
0100
1000
0001
0010
0100
0010
0001
1000
0010
0100
,  // measure 59
0001
1000
0010
0100
0010
1000
0100
0010
0001
1000
0100
0010
0002
0000
0000
0000
,  // measure 60
0000
0000
0000
0203
,  // measure 61
0000
0300
0M20
0000
2030
0000
3002
0000
,  // measure 62
0000
0000
0000
0000
0100
0M00
0203
0000
,  // measure 63
0000
0000
2300
0000
0001
000M
3002
0000
,  // measure 64
0010
0000
1000
0000
0010
00M0
2003
0000
,  // measure 65
0010
0000
0001
0000
0010
00M0
3001
1000
,  // measure 66
0001
0000
1000
0000
1000
0000
0002
0000
2003
0000
3100
0010
0001
0000
0100
0010
,  // measure 67
1000
0000
0000
0000
0000
0000
0000
0000
0010
0000
1000
0000
0010
0000
1000
0000
0010
0000
0000
0000
0000
0000
0000
0010
0100
0000
0000
0000
0000
0000
0000
0001
1000
0000
0000
0000
0001
0000
0000
0000
2000
0000
0000
0000
0000
0000
0000
0000
3200
0000
0000
0000
0000
0000
0000
0000
0000
0000
0000
0000
0000
0000
0000
0000
,  // measure 68
0000
0020
0330
1001
,  // measure 69
0110
0000
1001
0000
MMMM
0000
1000
0010
,  // measure 70
0100
0010
1000
0000
0001
0000
1000
0100
0010
0000
0001
0000
0100
0010
1000
0000
,  // measure 71
0010
0100
0001
0000
1000
0000
1000
0000
0001
0000
0010
0000
0100
0010
0001
0000
,  // measure 72
1000
0000
0001
0100
0010
0000
1000
0000
0100
0000
0010
0001
0010
0100
1000
0000
,  // measure 73
0001
1000
0001
1000
0001
0000
0100
0000
0010
0100
0001
0000
1000
0000
0001
0010
,  // measure 74
0100
0000
1000
0000
0010
0100
0001
0000
0100
0010
1000
0000
0001
0000
0001
0000
,  // measure 75
1000
0000
0100
0000
0010
1000
0010
0000
0001
0000
0100
1000
0100
0000
0001
0000
,  // measure 76
0010
0000
0100
0001
0100
0010
0001
0000
0100
1000
0100
0010
1000
0000
0100
0000
,  // measure 77
0010
0100
1000
0000
0001
0000
1000
0010
0100
0000
0001
0000
0010
0100
1000
0000
,  // measure 78
0100
0010
0001
0000
1000
0000
1000
0000
0001
0000
0100
0000
0010
0100
0001
0000
,  // measure 79
1000
0000
0001
0010
0100
0000
1000
0000
0010
0000
0100
0001
0100
0010
1000
0000
,  // measure 80
0001
1000
0001
1000
0001
0000
0010
0000
0100
0010
0001
0000
1000
0000
0001
0100
,  // measure 81
0010
0000
1000
0000
0100
0010
0001
0000
0010
0100
1000
0000
0001
0000
0001
0000
,  // measure 82
1000
0000
0010
0000
0100
1000
0100
0000
0001
0000
0010
1000
0010
0000
0001
0000
,  // measure 83
0100
0000
0010
0001
0010
0100
0001
0000
0010
1000
0010
0100
1000
0000
0100
0010
,  // measure 84
0001
0010
0001
0000
0100
0010
1000
0010
1000
0000
0010
0100
0001
0100
0001
0010
,  // measure 85
0100
0010
0001
0000
0010
0000
1000
0010
0100
0010
0100
0000
1000
0001
1000
0001
,  // measure 86
0100
0000
1000
0100
0010
0100
0010
1000
0001
1000
0001
0000
0010
0001
1000
0001
,  // measure 87
0100
0001
1000
0001
0010
0001
1000
0001
1000
0001
0100
0001
0010
0001
0010
0001
,  // measure 88
1000
0010
1000
0001
1000
0100
1000
0001
1000
0010
1000
0001
1000
0100
1000
0001
,  // measure 89
1000
0010
1000
0100
1000
0100
0010
0001
0010
0100
1000
0010
0100
0001
0100
0010
,  // measure 90
1000
0010
0100
0010
0100
0001
1000
0100
0010
0100
0010
0001
0100
0010
1000
0100
,  // measure 91
0010
0001
0100
0010
1000
0000
0001
0000
0001
0000
0100
0000
0010
0000
0010
0000
,  // measure 92
0100
1000
1000
0100
0010
0100
0001
1001
,  // measure 93
1000
1000
1010
0010
0010
0110
0100
0100
,  // measure 94
0001
1000
0001
1000
0100
0000
0010
0000
0001
0000
1000
0000
1000
0000
0100
0000
,  // measure 95
0010
0010
0100
0001
0001
0100
0010
0100
,  // measure 96
1000
1001
0001
0001
0011
0010
0010
0110
,  // measure 97
0100
0000
0000
0000
0000
0000
0100
0000
0000
0000
0000
0000
1000
0000
0000
0001
0000
0000
1000
0000
0000
0001
0000
0000
0100
0000
0000
0000
0010
0000
0000
0000
1000
0000
0000
0000
1001
0000
0000
0000
0000
0000
4000
0000
0000
0000
0000
0000
,  // measure 98
0010
0001
0010
0001
,  // measure 99
0010
0000
0001
0000
0010
0000
3001
0004
,  // measure 100
1000
0010
1000
0010
,  // measure 101
1000
0000
0000
0000
0013
0000
0000
0000
0011
0000
0000
0000
1000
0100
1000
0001
,  // measure 102
1000
0100
1000
0001
1000
0010
1000
0001
1000
0010
1000
0001
1000
0100
M100
0001
,  // measure 103
1000
0100
M100
0001
1000
0010
M010
0001
1000
0010
M010
0001
1000
0010
M010
0001
,  // measure 104
0100
0000
0000
0000
0000
0000
0000
0000
0000
0000
0000
0000
010M
0000
0000
0000
0000
0000
0000
0000
0000
0000
0000
0000
1000
0000
0000
0000
0000
0000
0000
0000
0000
0000
0000
0000
0000
0000
0000
0000
0000
0000
0000
0000
0000
0000
0000
0000
0001
0000
0000
0000
0000
0000
0000
0000
0000
0000
0000
0000
0010
0000
0000
0000
0000
0000
0000
0000
0000
0000
0000
0000
001M
0000
0000
0000
0000
0000
0000
0000
0000
0000
0000
0000
1000
0000
0000
0000
0000
0000
0000
0000
0000
0000
0000
0000
0100
0000
0000
0000
0000
0000
0000
0000
0000
0000
0000
0000
M100
0000
0000
0000
0000
0000
0000
0000
0000
0000
0000
0000
0001
0000
0000
0000
0000
0000
0000
0000
0000
0000
0000
0000
0000
0000
0000
0000
0000
0000
1000
0000
0000
0000
0000
0000
0001
0000
0000
0000
0000
0000
0000
0000
0000
0000
0000
0000
0000
0000
0000
0000
0000
0000
0000
0000
0000
0000
0000
0000
0000
0000
0100
0000
0000
0000
0000
0000
0010
0000
0000
0000
0000
0000
0000
0000
0000
0000
0000
0000
0000
0000
0000
0000
,  // measure 105
0000
0000
0000
0000
0000
0000
0000
0000
0000
0000
1000
0000
0000
0000
0000
0000
0010
0000
0000
0000
0000
0000
0000
0000
0000
0000
0000
0000
0000
0000
0000
0000
0000
0000
0000
0000
0000
0000
0000
0000
0000
0000
0100
0000
0000
0000
0000
0000
0001
0000
0000
0000
0000
0000
0000
0000
0000
0000
0000
0000
0000
0000
0000
0000
0000
0000
0000
0000
0000
0000
0000
0000
0000
0000
1000
0000
0000
0000
0000
0000
0100
0000
0000
0000
0000
0000
0000
0000
0000
0000
0000
0000
0000
0000
0000
0000
0000
0000
0000
0000
0000
0000
0000
0000
0000
0000
0010
0000
0000
0000
0000
0000
0001
0000
0000
0000
0000
0000
0000
0000
0000
0000
0000
0000
0000
0000
0000
0000
0000
0000
0000
0000
0000
0000
0000
0000
0000
0000
0000
0000
0000
0000
0000
0000
2002
0000
0000
0000
0000
0000
0000
0000
0000
0000
0000
0000
0000
0000
0000
0000
0000
0000
0000
0000
0000
0000
0000
0000
0000
0000
0000
0000
0000
0000
0000
0000
0000
0000
0000
0000
0000
0000
0000
0000
0000
0000
0000
0000
0000
0000
0000
0000
,  // measure 106
0000
0000
0000
0000
,  // measure 107
0000
0000
0000
0000
,  // measure 108
0000
0000
0000
0000
,  // measure 109
0000
0000
0000
0000
,  // measure 110
3003
0000
0000
0000
;

//---------------dance-single - XO FS- DS JA+ XMOD BU- RH TS JU----------------
#NOTEDATA:;
#CHARTNAME:;
#STEPSTYPE:dance-single;
#DESCRIPTION:XO FS- DS JA+ XMOD BU- RH TS JU;
#CHARTSTYLE:;
#DIFFICULTY:Hard;
#METER:17;
#RADARVALUES:0.761640,1.075713,0.086926,0.130389,0.583130,736.000000,724.000000,12.000000,18.000000,6.000000,0.000000,0.000000,0.000000,0.000000,0.761640,1.075713,0.086926,0.130389,0.583130,736.000000,724.000000,12.000000,18.000000,6.000000,0.000000,0.000000,0.000000,0.000000;
#CREDIT:Karl with a K;
#NOTES:
// measure 0
0000
0000
0000
0000
,  // measure 1
0000
0000
0000
0000
,  // measure 2
0000
0000
0000
0000
,  // measure 3
0000
0000
0000
0000
,  // measure 4
0000
0000
0000
0000
,  // measure 5
0000
0000
0000
0000
,  // measure 6
0000
0000
0000
0000
,  // measure 7
0000
0000
0000
0000
,  // measure 8
0001
0001
0001
0001
,  // measure 9
0001
0001
0001
0001
,  // measure 10
1000
1000
1000
1000
,  // measure 11
1000
1000
1000
1000
,  // measure 12
0001
0001
0001
0001
,  // measure 13
1000
0000
1000
0000
1000
0000
0100
0010
,  // measure 14
0001
0000
0000
0000
0100
0000
0010
0000
1000
0000
0000
0000
0100
0010
0100
0000
,  // measure 15
1000
0000
1001
0000
0001
0100
0101
0000
,  // measure 16
0220
0000
0000
0330
,  // measure 17
1010
0000
0000
0011
0000
0000
0110
0000
,  // measure 18
1000
0100
1000
0001
0100
0001
1000
0100
,  // measure 19
1000
0001
0100
1000
0100
0001
0100
0001
,  // measure 20
1000
0100
1000
0001
0100
0001
1000
0100
,  // measure 21
0001
0000
100M
0010
1000
0001
0010
0001
,  // measure 22
1000
0010
1000
0001
0010
1000
0010
0001
,  // measure 23
0010
0001
1000
0010
1000
0001
0010
0001
,  // measure 24
1000
0000
0000
0010
0000
0000
0001
0000
0010
0000
0100
0000
0001
0000
0000
0001
0000
0000
0001
0000
0000
0010
0000
0000
,  // measure 25
0100
0100
1000
1000
1000
0010
0010
0100
,  // measure 26
0001
0001
0001
0100
0010
0010
1000
1000
,  // measure 27
1000
0100
0100
0010
0001
0001
0001
0010
,  // measure 28
1000
1000
0010
0010
0100
0100
1000
1000
,  // measure 29
1000
0000
0010
0000
0001
0000
0001
0000
0010
0100
0010
0100
0001
0100
0001
0100
,  // measure 30
0010
1000
0010
1000
0002
0000
0000
0000
0000
0000
0000
0000
0000
0000
0000
0000
,  // measure 31
0000
0000
0000
1003
0100
0010
0100
1000
0001
1000
0010
0100
,  // measure 32
0001
0001
0000
0010
0010
0000
0001
0001
,  // measure 33
0000
0100
0100
0100
0002
0000
0000
0000
,  // measure 34
0000
0000
0000
0000
0000
0000
1003
0010
0100
0010
1000
0001
,  // measure 35
1000
0000
0100
0000
0010
0000
0001
0000
0000
0001
0000
0000
0000
0000
0000
0100
0000
0000
0100
0000
0000
0000
0000
0000
,  // measure 36
0001
0001
0000
0010
0010
0001
2000
0000
,  // measure 37
0000
0000
0000
0000
0000
0000
0000
0000
0000
3001
0010
0100
,  // measure 38
0010
0000
0001
0000
1000
0000
0001
0000
0100
0000
0010
0000
1000
0000
0000
1000
0000
0000
0000
0000
0000
0100
0000
0000
,  // measure 39
0100
0000
1000
1000
0000
0010
0010
0010
,  // measure 40
2000
0000
0000
0000
,  // measure 41
3001
0000
0100
0000
0010
0000
0100
0000
0001
0000
1000
0000
0001
0000
0010
0000
0100
0000
1000
0000
0000
1000
0000
0000
,  // measure 42
0000
0010
0010
0000
1000
1000
0000
0100
,  // measure 43
0100
0000
0000
0010
0000
0000
0002
0000
0000
0000
0000
0000
0000
0000
1000
0000
0000
0000
1003
0000
0000
0000
0000
0000
,  // measure 44
0001
0010
0001
1000
0000
0000
0001
0010
0001
1000
0000
0000
,  // measure 45
0001
0010
0001
1000
0000
0000
1000
0100
1000
0001
0000
0000
,  // measure 46
1000
0010
1000
0001
0000
0000
1000
0100
1000
0001
0000
0000
,  // measure 47
1000
0000
0010
0000
1000
0000
0001
0000
0000
0000
0000
0000
0001
0000
0100
0000
0010
0000
1000
0000
0000
0001
0000
0000
,  // measure 48
0000
0000
0100
0000
0001
0000
1000
0000
0000
0001
0000
0000
0000
0000
0100
0000
0001
0000
1000
0000
0000
0001
0000
0000
,  // measure 49
0000
0000
0100
0000
0001
0000
1000
0000
0000
0001
0000
0000
0000
0000
001M
0000
1000
0000
0001
0000
0000
1000
0000
0000
,  // measure 50
0000
0000
0100
0000
1000
0000
0001
0000
0000
1000
0000
0000
0000
0000
0010
0000
1000
0000
0001
0000
0000
1000
0000
0000
,  // measure 51
0000
0000
0100
0000
1000
0000
0001
0000
0000
1000
0000
0000
0000
0000
M100
0000
0010
0000
1000
0000
0000
0100
0000
0000
,  // measure 52
0010
0000
0001
0000
0010
0000
0001
0000
0000
0010
0000
0000
0100
0000
1000
0000
0100
0000
1000
0000
0000
0010
0000
0000
,  // measure 53
0100
0000
0001
0000
0100
0000
0001
0000
0000
0100
0000
0000
0010
0000
1000
0000
0010
0000
0001
0000
0000
0010
0000
0000
,  // measure 54
1000
0000
0001
0000
0010
0000
1000
0000
0000
0010
0000
0000
0001
0000
1000
0000
0100
0000
0001
0000
0000
0100
0000
0000
,  // measure 55
1000
0001
0100
1000
0000
0100
0000
0001
1000
0001
0100
0001
,  // measure 56
0100
0001
0100
0001
0100
0001
0100
0001
0100
0010
1000
0010
,  // measure 57
1000
0000
0010
0000
1000
0000
0010
0000
1000
0000
0010
0000
1000
0000
0010
0000
1000
0000
0100
0000
0000
0100
0000
0000
,  // measure 58
0010
0000
0010
0000
0100
0000
0100
0000
0010
0000
0010
0000
0001
0100
0010
1000
,  // measure 59
0010
0100
0001
0000
1000
0100
0010
0001
0010
0100
1000
0001
2000
0000
0000
0000
,  // measure 60
0000
0000
0000
3200
,  // measure 61
0000
0320
0000
0032
,  // measure 62
0000
0000
0000
0203
,  // measure 63
0000
0000
0000
0301
,  // measure 64
0010
0001
0010
10M0
,  // measure 65
0010
1000
0010
00M1
,  // measure 66
0001
0000
0000
0000
1000
0000
0000
0000
1000
0000
1000
0100
0010
0000
0100
0010
,  // measure 67
0001
0000
0100
010M
1000
0000
0001
0000
1002
0000
0103
0000
2002
0000
0000
0000
,  // measure 68
0000
0000
3003
1001
,  // measure 69
0110
0000
1001
0000
0000
0000
1000
0010
,  // measure 70
0100
0100
0001
0010
0010
0100
0010
0010
,  // measure 71
0001
0010
0001
0000
0100
0000
0100
0000
0001
0000
0100
0000
0010
0000
0010
0000
,  // measure 72
1000
0000
0100
0000
0100
0000
0010
0000
0100
0000
1000
0010
1000
0010
1000
0000
,  // measure 73
0010
1000
0010
1000
0001
0000
0010
0000
0100
0000
0100
0000
1000
0000
0010
0000
,  // measure 74
0010
0000
0100
0000
0010
0000
0010
0000
1000
0010
1000
0000
0100
0000
0100
0000
,  // measure 75
1000
0010
0001
1000
0100
0001
0010
1000
,  // measure 76
0001
0000
0100
0010
0100
0010
0100
0000
1000
0001
1000
0001
1000
0000
0100
0000
,  // measure 77
0010
0010
0001
0100
0100
0010
0100
0100
,  // measure 78
0001
0100
0001
0000
0010
0000
0010
0000
0001
0000
0010
0000
0100
0000
0100
0000
,  // measure 79
1000
0000
0010
0000
0010
0000
0100
0000
0010
0000
1000
0100
1000
0100
1000
0000
,  // measure 80
0100
1000
0100
1000
0001
0000
0100
0000
0010
0000
0010
0000
1000
0000
0100
0000
,  // measure 81
0100
0000
0010
0000
0100
0000
0100
0000
1000
0100
1000
0000
0010
0000
0010
0000
,  // measure 82
1000
0100
0001
1000
0010
0001
0100
1000
,  // measure 83
0001
0000
0010
0100
0010
0100
0010
0000
1000
0001
1000
0001
1000
0000
0010
0000
,  // measure 84
0010
0001
0010
0010
1000
0100
0100
0001
,  // measure 85
0100
0100
0010
0001
0001
0100
0001
0001
,  // measure 86
0100
0000
0001
0000
0001
0000
0010
0000
0001
0000
0001
0000
1000
0010
1000
0000
,  // measure 87
0001
0010
0001
0000
1000
0010
1000
0000
0001
0010
0001
0000
1000
0010
1000
0010
,  // measure 88
1000
0100
1000
0000
0001
0100
0001
0000
1000
0100
1000
0000
0001
0100
0001
0000
,  // measure 89
1000
0100
1000
0100
1000
0000
0100
0010
0100
0000
0001
0000
0100
0010
0100
0000
,  // measure 90
1000
0000
0010
0100
0010
0000
0001
0000
0010
0100
0010
0000
1000
0001
1000
0001
,  // measure 91
1000
0001
1000
0001
1000
0000
0100
0000
0010
0000
0001
0000
0100
0000
0010
0000
,  // measure 92
1000
0100
0010
0001
0100
1000
0001
0010
,  // measure 93
0100
0001
0010
0100
0001
0100
0010
0001
,  // measure 94
0100
0100
0100
0010
1000
0010
0100
0001
,  // measure 95
0010
0100
1000
0010
0100
0001
0010
1000
,  // measure 96
0001
0100
0010
0001
0100
0010
0001
0010
,  // measure 97
0100
0000
0000
0001
0000
0000
0010
0000
0000
0010
0000
0000
0010
0000
0100
0000
0010
0000
0002
0000
0000
0000
0000
0000
,  // measure 98
1000
1000
1000
1000
,  // measure 99
1000
1000
1003
0001
,  // measure 100
0001
0001
0001
0001
,  // measure 101
0001
0000
0001
0000
0001
0000
1000
0100
,  // measure 102
0001
0100
1000
0100
0001
0100
1000
0010
,  // measure 103
0001
0000
0010
0000
1000
0000
0010
0000
0001
0000
0010
0000
0100
0001
0100
0001
,  // measure 104
0100
0000
0000
0001
0000
0000
0100
0000
0000
0000
0000
0000
0001
0000
0000
0010
0000
0000
0001
0000
0000
0010
0000
0000
0001
0000
0000
0010
0000
0000
0001
0000
0000
0000
0000
0000
1000
0000
0000
0000
0000
0000
0000
0000
1000
0000
0000
0000
,  // measure 105
0000
1000
0000
0001
0000
0001
0000
0001
0000
2002
0000
0000
,  // measure 106
0000
0000
0000
0000
,  // measure 107
0000
0000
0000
0000
,  // measure 108
0000
0000
0000
0000
,  // measure 109
0000
0000
0000
0000
,  // measure 110
3003
0000
0000
0000
;

//---------------dance-single - XO FS- DS JA XMOD BU- RH- TS JU----------------
#NOTEDATA:;
#CHARTNAME:;
#STEPSTYPE:dance-single;
#DESCRIPTION:XO FS- DS JA XMOD BU- RH- TS JU;
#CHARTSTYLE:;
#DIFFICULTY:Medium;
#METER:13;
#RADARVALUES:0.572265,0.717142,0.065195,0.195584,0.173853,553.000000,544.000000,9.000000,27.000000,6.000000,0.000000,0.000000,0.000000,0.000000,0.572265,0.717142,0.065195,0.195584,0.173853,553.000000,544.000000,9.000000,27.000000,6.000000,0.000000,0.000000,0.000000,0.000000;
#CREDIT:Karl with a K;
#NOTES:
// measure 0
0000
0000
0000
0000
,  // measure 1
0000
0000
0000
0000
,  // measure 2
0000
0000
0000
0000
,  // measure 3
0000
0000
0000
0000
,  // measure 4
0000
0000
0000
0000
,  // measure 5
0000
0000
0000
0000
,  // measure 6
0000
0000
0000
0000
,  // measure 7
0000
0000
0000
0000
,  // measure 8
1000
1000
1000
1000
,  // measure 9
1000
1000
1000
1000
,  // measure 10
0001
0001
0001
0001
,  // measure 11
0001
0001
0001
0001
,  // measure 12
1000
1000
1000
1000
,  // measure 13
0001
0001
0001
0001
,  // measure 14
0010
10M0
0010
00M1
,  // measure 15
0010
0000
0110
0000
0010
0100
0010
0000
,  // measure 16
2002
0000
0000
3000
,  // measure 17
0013
0000
0000
0100
0000
0000
1000
0000
,  // measure 18
1000
0100
1000
0001
0000
0001
1000
0100
,  // measure 19
1000
0001
0000
1001
0000
0001
0100
0001
,  // measure 20
1000
0000
0000
0000
1000
0000
0001
0000
0100
0000
0001
0000
1000
0010
1000
0000
,  // measure 21
0010
0000
1000
0010
1000
0001
0000
0001
,  // measure 22
1000
0010
1000
0001
0000
1001
0000
0001
,  // measure 23
0010
0001
1000
0000
1000
0001
0010
0001
,  // measure 24
1000
0000
0000
0100
0000
0000
M100
0000
0001
0000
0100
0000
0001
0000
0000
0100
0000
0000
0001
0000
0000
1000
0000
0000
,  // measure 25
0010
1000
0001
0100
0001
1000
0100
1000
,  // measure 26
0001
0010
0001
1000
0100
1000
0001
0010
,  // measure 27
0001
1000
0010
1000
0001
0100
0010
1000
,  // measure 28
0010
0100
0001
0100
0010
1000
0100
0010
,  // measure 29
0001
0010
0001
0000
0100
0010
0100
0010
,  // measure 30
0010
1000
0002
0000
0000
0000
0000
0000
,  // measure 31
0000
0000
0000
1003
0000
1000
0100
0000
0100
0010
0000
0010
,  // measure 32
0001
1000
0000
1000
0001
0000
0100
0010
,  // measure 33
0000
0010
0100
0100
0002
0000
0000
0000
,  // measure 34
0000
0000
0000
0000
0000
0000
1003
0000
1000
0010
0000
0010
,  // measure 35
0100
0000
0000
0000
0100
0000
0001
0000
0000
1000
0000
0000
0000
0000
0000
1000
0000
0000
0001
0000
0000
0000
0000
0000
,  // measure 36
0010
0100
0000
01M0
0010
0010
2000
0000
,  // measure 37
0000
0000
0000
0000
0000
0000
0000
0000
0000
3001
0000
0001
,  // measure 38
0010
0000
0000
0000
0010
0000
0100
0000
0000
0000
0100
0000
1000
0000
0000
0001
0000
0000
0000
0000
0000
0001
0000
0000
,  // measure 39
1000
0000
0010
0100
0000
0100
0010
0010
,  // measure 40
2000
0000
0000
0000
,  // measure 41
3001
0000
0000
0000
0001
0000
0100
0000
0000
0000
0100
0000
0010
0000
0000
0000
0010
0000
1000
0000
0000
0001
0000
0000
,  // measure 42
0000
0001
1000
0000
0100
0010
0000
0M10
,  // measure 43
0100
0100
0002
0000
0000
0000
1003
0000
,  // measure 44
0100
0000
0010
0001
0000
0000
0100
0000
0010
1000
0000
0000
,  // measure 45
0100
0000
0010
0001
0000
0000
0100
0000
0010
1000
0000
0000
,  // measure 46
0010
0000
0100
0001
0000
0000
0100
0000
0010
1000
0000
0000
,  // measure 47
0100
0000
0000
0000
0010
0000
0001
0000
0000
0000
0000
0000
0001
0000
0010
0000
0100
0000
1000
0000
0000
0010
0000
0000
,  // measure 48
0000
0100
0001
0010
0000
0100
1000
0010
,  // measure 49
0000
0100
0001
0010
0000
0100
1000
0100
,  // measure 50
0000
0010
0001
0010
0000
0100
1000
0010
,  // measure 51
0000
0100
0001
0000
0100
0010
1000
0000
,  // measure 52
0100
0010
0100
1000
0000
0000
0001
0100
0010
0100
0000
0000
,  // measure 53
0001
1000
0100
1000
0000
0000
0001
1000
0001
0010
0000
0000
,  // measure 54
0100
0010
0100
0010
0000
0000
0001
0010
0001
0010
0000
0000
,  // measure 55
0001
0100
0001
0100
0000
0000
0010
0100
0010
0200
0000
0000
,  // measure 56
0001
0010
0301
0020
,  // measure 57
0100
0001
0130
2000
,  // measure 58
3200
0302
0203
2300
,  // measure 59
3020
0032
0023
2030
,  // measure 60
0000
0000
0000
3200
,  // measure 61
0000
0000
0000
0320
,  // measure 62
0000
0000
0000
0032
,  // measure 63
0000
0000
0000
2003
,  // measure 64
0000
3020
0000
0032
,  // measure 65
0000
0023
0000
1030
,  // measure 66
1000
0100
0100
0001
,  // measure 67
0100
1000
0010
2000
,  // measure 68
0000
0000
3000
1001
,  // measure 69
1001
1001
0000
1000
,  // measure 70
0010
0100
0010
0000
1000
0000
0100
0000
,  // measure 71
0010
0001
0010
0010
0001
0000
0100
0010
,  // measure 72
0100
0000
0001
0000
0010
0100
0100
1000
,  // measure 73
0100
0100
1000
0000
0100
0010
0100
0000
,  // measure 74
1000
0000
0010
0000
0100
0001
0100
0100
,  // measure 75
0001
0000
0010
0100
0000
0010
0001
0000
,  // measure 76
0100
0010
0000
1000
0010
1000
0001
0000
,  // measure 77
0010
0100
0010
0000
0001
0000
0100
0000
,  // measure 78
0010
1000
0010
0010
1000
0000
0100
0010
,  // measure 79
0100
0000
1000
0000
0010
0100
0100
0001
,  // measure 80
0100
0100
0001
0000
0100
0010
0100
0000
,  // measure 81
0001
0000
0010
0000
0100
1000
0100
0100
,  // measure 82
1000
0000
0010
0100
0000
0010
1000
0000
,  // measure 83
0100
0010
0000
0001
0010
0001
1000
0100
,  // measure 84
0010
0001
0100
0010
1000
0100
0010
0001
,  // measure 85
0100
0010
1000
0100
0001
0100
1000
0001
,  // measure 86
1000
0010
0001
0010
1000
0001
1000
0100
,  // measure 87
1000
0100
1000
0001
0010
0001
0010
0001
,  // measure 88
1000
0010
1000
0010
1000
0001
0100
0001
,  // measure 89
0100
0001
1000
0100
0001
1000
0010
0001
,  // measure 90
1000
0010
0001
1000
0100
0001
1000
0100
,  // measure 91
0010
0001
1000
0010
1000
0001
0000
0001
,  // measure 92
1000
0010
1000
0001
0000
1001
0000
0001
,  // measure 93
0010
0001
1000
0000
1000
0001
0010
0001
,  // measure 94
1000
0100
1000
0100
1000
0000
0000
0000
1000
0000
0100
0000
1000
0000
0001
0000
,  // measure 95
0000
0001
1000
0100
1000
0001
0000
1001
,  // measure 96
0000
0001
0100
0001
1000
0000
1000
0001
,  // measure 97
0100
0000
0000
0001
0000
0000
1000
0000
0000
0010
0000
0000
M010
0000
0001
0000
0010
0000
0001
0000
0000
0000
0000
0000
,  // measure 98
0001
0001
0001
0001
,  // measure 99
0001
0001
0001
1000
,  // measure 100
1000
1000
1000
1000
,  // measure 101
1000
0000
1000
0000
1000
0000
1000
0100
,  // measure 102
1000
0100
0001
0100
0001
0100
1000
0100
,  // measure 103
1000
0100
0001
0100
0001
0100
1000
0010
,  // measure 104
0001
0000
0000
0010
0000
0000
1000
0000
0000
0010
0000
0000
0001
0000
0000
0010
0000
0000
1000
0000
0000
0000
0100
0000
,  // measure 105
0000
0010
0000
0001
0000
0100
0000
0010
0000
2000
0000
0000
,  // measure 106
0000
0000
0000
0000
,  // measure 107
0000
0000
0000
0000
,  // measure 108
0000
0000
0000
0000
,  // measure 109
0000
0000
0000
0000
,  // measure 110
3000
0000
0000
0000
;

//---------------dance-single - XO- FS- DS- JA- XMOD TS JU----------------
#NOTEDATA:;
#CHARTNAME:;
#STEPSTYPE:dance-single;
#DESCRIPTION:XO- FS- DS- JA- XMOD TS JU;
#CHARTSTYLE:;
#DIFFICULTY:Easy;
#METER:8;
#RADARVALUES:0.290789,0.459623,0.181096,0.115902,0.000000,281.000000,256.000000,25.000000,16.000000,4.000000,0.000000,0.000000,0.000000,0.000000,0.290789,0.459623,0.181096,0.115902,0.000000,281.000000,256.000000,25.000000,16.000000,4.000000,0.000000,0.000000,0.000000,0.000000;
#CREDIT:Karl with a K;
#NOTES:
// measure 0
0000
0000
0000
0000
,  // measure 1
0000
0000
0000
0000
,  // measure 2
0000
0000
0000
0000
,  // measure 3
0000
0000
0000
0000
,  // measure 4
0000
0000
0000
0000
,  // measure 5
0000
0000
0000
0000
,  // measure 6
0000
0000
0000
0000
,  // measure 7
0000
0000
0000
0000
,  // measure 8
0001
0000
0001
0000
,  // measure 9
0001
0000
0001
0000
,  // measure 10
1000
0000
1000
0000
,  // measure 11
1000
0000
1000
0000
,  // measure 12
0001
0000
0001
0000
,  // measure 13
1000
0000
1000
0000
,  // measure 14
1010
0000
0011
0000
,  // measure 15
1010
0000
0011
0000
,  // measure 16
2002
0000
0000
3003
,  // measure 17
0110
0000
0000
1001
0000
0000
010M
0000
,  // measure 18
1000
0000
0000
0010
0000
0000
1000
0000
,  // measure 19
0000
0010
0000
00M1
0000
0001
0000
0000
,  // measure 20
0010
0000
0000
0001
0000
0000
0010
0000
,  // measure 21
10M0
0000
1000
0000
0000
0100
0000
0000
,  // measure 22
0010
0000
0000
0001
0000
0001
0000
1000
,  // measure 23
0000
0000
0010
0000
0000
0100
0000
0000
,  // measure 24
0001
0001
1000
0100
,  // measure 25
0010
0000
0001
1000
,  // measure 26
0001
0010
0100
0000
,  // measure 27
1000
0001
1000
0010
,  // measure 28
0100
0001
1000
0001
,  // measure 29
0100
0010
1000
0001
,  // measure 30
1000
2002
0000
0000
,  // measure 31
3003
0100
0010
0100
,  // measure 32
0010
0000
0000
0100
0000
0000
0010
0000
,  // measure 33
0000
0100
0000
0000
0220
0000
0000
0000
,  // measure 34
0000
0330
0001
1000
,  // measure 35
0001
0000
1000
0000
0000
0100
0000
0000
,  // measure 36
0010
0000
0000
0001
0000
0000
2002
0000
,  // measure 37
0000
0000
3003
0010
,  // measure 38
0100
0000
0010
0000
0100
0000
0000
0010
,  // measure 39
0000
0000
0100
0000
0000
0010
0000
0000
,  // measure 40
0220
0000
0000
0330
,  // measure 41
1000
0001
1000
0001
,  // measure 42
0000
0100
0000
0000
0010
0000
0000
1000
,  // measure 43
0000
1001
0000
1000
,  // measure 44
0000
0100
0000
0001
,  // measure 45
0000
0100
0000
1000
,  // measure 46
0000
0010
0000
0001
,  // measure 47
0000
0010
0000
1000
,  // measure 48
0000
0100
0000
0001
,  // measure 49
0000
0100
0000
1000
,  // measure 50
0000
0010
0000
0001
,  // measure 51
0000
0010
0000
1000
,  // measure 52
0000
0100
0000
0001
,  // measure 53
0000
0100
0000
1000
,  // measure 54
0000
0010
0000
0001
,  // measure 55
0000
0010
0000
1000
,  // measure 56
0000
0100
0000
0001
,  // measure 57
0000
1000
0000
0010
,  // measure 58
0000
0001
0000
0100
,  // measure 59
0000
0010
0000
2002
,  // measure 60
0000
0000
0000
0000
,  // measure 61
0000
0000
0003
3200
,  // measure 62
0000
0000
0000
0000
,  // measure 63
0000
0000
0000
0320
,  // measure 64
0000
0001
0000
0230
,  // measure 65
0000
1000
0000
1300
,  // measure 66
0000
0001
0000
1000
,  // measure 67
1000
0001
0001
1000
,  // measure 68
0000
0000
0000
1001
,  // measure 69
1001
1001
0000
1000
,  // measure 70
0000
0100
0000
0000
1000
0000
0100
0000
,  // measure 71
0010
0000
0001
0000
0001
0000
0000
0100
,  // measure 72
0000
0001
0100
0010
,  // measure 73
1000
0000
1000
0000
0000
0100
0000
0000
,  // measure 74
1000
0100
0001
0100
,  // measure 75
0010
0000
0000
0010
0000
0000
0001
0000
,  // measure 76
0000
0001
0000
0000
0100
0000
0001
0000
,  // measure 77
0000
0100
0000
0000
0001
0000
0100
0000
,  // measure 78
0010
0000
1000
0000
1000
0000
0000
0100
,  // measure 79
0000
1000
0100
0010
,  // measure 80
0001
0000
0001
0000
0000
0100
0000
0000
,  // measure 81
0001
0100
1000
0100
,  // measure 82
0010
0000
0000
0010
0000
0000
1000
0000
,  // measure 83
0000
1000
0000
0000
0100
0000
0010
0000
,  // measure 84
0000
0110
0000
0000
0110
0000
0000
0110
,  // measure 85
0000
0000
1001
0000
0000
1001
0000
0000
,  // measure 86
1001
0000
0000
1001
0000
0000
1000
0000
,  // measure 87
0100
0010
0001
1000
,  // measure 88
0001
0100
0010
1000
,  // measure 89
0001
0000
1000
0001
0000
1000
0000
0000
,  // measure 90
0010
0100
0000
0010
0000
0000
1000
0000
,  // measure 91
0001
1000
0100
1000
,  // measure 92
0001
0000
0100
0000
0001
0000
0000
0001
,  // measure 93
0000
0000
0010
0000
0000
0001
0000
0000
,  // measure 94
0100
010M
1000
0100
,  // measure 95
1000
0001
0100
0001
,  // measure 96
0000
0010
0000
0000
0001
0000
0000
1000
,  // measure 97
0000
0001
0100
0020
,  // measure 98
0000
0000
0000
0100
,  // measure 99
0000
0000
0000
0100
,  // measure 100
0000
0000
0000
0100
,  // measure 101
0000
0000
0030
0100
,  // measure 102
0010
0100
0010
0100
,  // measure 103
0010
0100
0010
1000
,  // measure 104
0001
0000
1000
0001
1000
0000
0001
0000
,  // measure 105
0000
0110
0000
1001
;

//---------------dance-single - XO- FS- JA- XMOD TS JU-----------------
#NOTEDATA:;
#CHARTNAME:;
#STEPSTYPE:dance-single;
#DESCRIPTION:XO- FS- JA- XMOD TS JU-;
#CHARTSTYLE:;
#DIFFICULTY:Beginner;
#METER:3;
#RADARVALUES:0.144877,0.268113,0.036219,0.152121,0.000000,140.000000,135.000000,5.000000,21.000000,0.000000,0.000000,0.000000,0.000000,0.000000,0.144877,0.268113,0.036219,0.152121,0.000000,140.000000,135.000000,5.000000,21.000000,0.000000,0.000000,0.000000,0.000000,0.000000;
#CREDIT:Karl with a K;
#NOTES:
// measure 0
0000
0000
0000
0000
,  // measure 1
0000
0000
0000
0000
,  // measure 2
0000
0000
0000
0000
,  // measure 3
0000
0000
0000
0000
,  // measure 4
0000
0000
0000
0000
,  // measure 5
0000
0000
0000
0000
,  // measure 6
0000
0000
0000
0000
,  // measure 7
0000
0000
0000
0000
,  // measure 8
1000
0000
0000
0000
,  // measure 9
0000
0000
0000
0000
,  // measure 10
0001
0000
0000
0000
,  // measure 11
0000
0000
0000
0000
,  // measure 12
1000
0000
0000
0000
,  // measure 13
0001
0000
0000
0000
,  // measure 14
1000
0000
0010
0000
,  // measure 15
0010
0000
0001
0000
,  // measure 16
1001
0000
0000
0000
,  // measure 17
0110
0000
0000
0000
,  // measure 18
1000
0000
0000
0100
,  // measure 19
0000
0000
0000
0000
0000
0001
0000
0000
,  // measure 20
0000
0000
0000
0100
0000
0000
0000
0000
,  // measure 21
0000
1000
0000
0000
,  // measure 22
0010
0000
0000
0000
0000
0000
0000
0001
,  // measure 23
0000
0000
0000
0000
0000
0010
0000
0000
,  // measure 24
0000
0000
1000
0000
,  // measure 25
0100
0000
0100
0000
,  // measure 26
0001
0000
0010
0000
,  // measure 27
0010
0000
1000
0000
,  // measure 28
0010
0010
0000
0001
,  // measure 29
0000
0100
0000
0100
,  // measure 30
0000
2000
0000
0000
,  // measure 31
0000
3000
0000
0000
,  // measure 32
0001
0000
0000
0000
,  // measure 33
0000
0000
0002
0000
,  // measure 34
0000
0000
0003
0000
,  // measure 35
0000
1000
0000
0000
,  // measure 36
0000
0000
0000
0020
,  // measure 37
0000
0000
0000
0030
,  // measure 38
0000
0000
0010
0000
,  // measure 39
0000
0000
0000
0000
,  // measure 40
0200
0000
0000
0000
,  // measure 41
0300
0000
0000
0100
,  // measure 42
0000
0000
0000
0000
,  // measure 43
0000
0000
0000
1000
,  // measure 44
0000
1000
0000
1000
,  // measure 45
0000
0000
0000
0001
,  // measure 46
0000
0001
0000
0001
,  // measure 47
0000
0000
0000
0100
,  // measure 48
0000
0100
0000
0100
,  // measure 49
0000
0000
0000
0010
,  // measure 50
0000
0010
0000
0010
,  // measure 51
0000
0000
0000
1000
,  // measure 52
0000
0100
0000
0001
,  // measure 53
0000
0100
0000
1000
,  // measure 54
0000
0010
0000
0001
,  // measure 55
0000
0010
0000
2000
,  // measure 56
0000
3000
0000
0020
,  // measure 57
0000
0030
0000
0020
,  // measure 58
0000
0030
0000
0002
,  // measure 59
0000
0003
0000
2002
,  // measure 60
0000
0000
0000
0000
,  // measure 61
0000
0000
0000
3003
,  // measure 62
0000
0000
0000
0000
,  // measure 63
0000
0000
0000
0002
,  // measure 64
0000
0003
0000
0020
,  // measure 65
0000
0030
0000
0020
,  // measure 66
0000
0030
0000
2000
,  // measure 67
0000
3000
0000
0001
,  // measure 68
0000
0000
0000
1000
,  // measure 69
1000
1000
0000
0001
,  // measure 70
0000
0001
0000
0001
,  // measure 71
0001
0000
0010
0000
,  // measure 72
0010
0000
0010
0010
,  // measure 73
0000
0001
0000
0001
,  // measure 74
0000
0001
0001
0000
,  // measure 75
1000
0000
0000
1000
0000
0000
1000
0000
,  // measure 76
0000
1000
0000
0000
1000
0000
1000
0000
,  // measure 77
0000
1000
0000
1000
,  // measure 78
1000
0000
0010
0000
,  // measure 79
0010
0000
0010
0010
,  // measure 80
0000
1000
0000
1000
,  // measure 81
0000
1000
1000
0000
,  // measure 82
0001
0000
0000
0001
0000
0000
0001
0000
,  // measure 83
0000
0001
0000
0000
0001
0000
0001
0000
,  // measure 84
0000
0000
0100
0000
,  // measure 85
0000
0010
0000
0000
,  // measure 86
1000
0000
0000
0010
,  // measure 87
0000
0000
0100
0000
,  // measure 88
0100
0000
0000
1000
,  // measure 89
0000
0001
0000
0100
,  // measure 90
0000
0100
0000
1000
,  // measure 91
0000
0002
0000
0000
,  // measure 92
0000
0000
0003
0000
0000
0000
0000
2000
,  // measure 93
0000
0000
0000
0000
0000
0000
0000
3000
,  // measure 94
0000
0000
0002
0000
,  // measure 95
0000
0000
0003
0000
,  // measure 96
0000
0020
0000
0000
0030
0000
0000
0200
,  // measure 97
0000
0300
0000
2002
,  // measure 98
0000
0000
0000
0000
,  // measure 99
0000
0000
0000
0000
,  // measure 100
0000
0000
0000
0000
,  // measure 101
0000
0000
3003
1000
,  // measure 102
1000
1000
0000
0001
,  // measure 103
0001
0001
0000
0100
,  // measure 104
0100
0100
0000
0010
,  // measure 105
0000
0010
0000
1001
;
