#VERSION:0.83;
#TITLE:restores restless;
#SUBTITLE:;
#ARTIST:Aoi;
#TITLETRANSLIT:;
#SUBTITLETRANSLIT:;
#ARTISTTRANSLIT:;
#GENRE:;
#ORIGIN:;
#CREDIT:;
#BANNER:restores restless banner.png;
#BACKGROUND:restores restless bg.png;
#PREVIEWVID:;
#JACKET:restores restless jk.png;
#CDIMAGE:;
#DISCIMAGE:;
#LYRICSPATH:;
#CDTITLE:;
#MUSIC:restores restless.ogg;
#OFFSET:0.000000;
#SAMPLESTART:33.315334;
#SAMPLELENGTH:12.000000;
#SELECTABLE:YES;
#BPMS:0.000=180.000;
#STOPS:;
#DELAYS:;
#WARPS:;
#TIMESIGNATURES:0.000=4=4;
#TICKCOUNTS:0.000=4;
#COMBOS:0.000=1;
#SPEEDS:0.000=1.000=0.000=0;
#SCROLLS:0.000=1.000,
50.000=0.500,
51.000=1.500,
52.000=1.000,
75.000=0.000,
75.500=2.000,
76.000=1.000,
82.000=0.000,
82.375=2.000,
82.750=0.000,
83.125=2.000,
83.500=1.000,
99.000=0.500,
99.500=1.500,
100.000=1.000,
107.000=0.500,
108.500=1.500,
109.000=1.000,
123.000=1.500,
123.500=0.500,
124.000=1.000,
147.000=0.000,
147.375=2.000,
147.750=1.000,
156.000=2.000,
156.375=0.000,
157.000=1.000,
158.500=0.000,
159.000=2.000,
159.500=1.000,
160.000=0.000,
160.500=2.000,
161.000=0.000,
161.500=2.000,
162.500=1.000,
163.000=0.500,
164.000=2.000,
164.500=0.000,
165.000=1.000,
167.000=0.000,
167.500=2.000,
168.000=1.000,
168.750=0.000,
169.125=2.000,
169.500=1.000,
172.750=0.000,
173.125=2.000,
173.500=1.000,
175.000=0.000,
175.500=2.000,
176.000=0.000,
176.375=2.000,
176.750=1.000,
177.000=0.000,
177.250=2.000,
177.500=1.000,
180.000=2.000,
180.625=0.000,
181.250=1.000,
183.000=0.000,
183.500=2.000,
184.000=1.000,
184.500=0.000,
185.000=2.000,
185.500=1.000,
192.750=0.000,
193.750=1.000,
194.000=0.000,
194.375=2.000,
194.750=0.000,
195.125=2.000,
195.500=0.000,
195.750=2.000,
196.000=1.000,
224.000=0.500,
229.000=1.000,
229.500=2.000,
230.000=1.000,
244.000=0.500,
244.750=1.000,
245.000=2.000,
245.250=1.000,
245.500=0.500,
246.000=1.000,
260.000=0.500,
260.750=1.000,
261.000=2.000,
261.250=1.000,
261.500=0.500,
262.000=1.000,
274.333=0.000,
275.000=1.000,
275.333=2.000,
276.000=1.000,
278.500=0.000,
279.000=2.000,
279.500=1.000,
280.500=0.000,
281.000=2.000,
281.500=1.000,
284.000=0.000,
284.500=2.000,
285.000=1.000,
286.500=0.000,
287.000=2.000,
287.500=1.000,
291.000=1.500,
291.500=0.500,
292.000=1.000,
325.000=0.800,
325.333=0.600,
325.667=0.400,
326.000=0.200,
326.333=0.000,
327.000=1.000,
338.000=1.500,
338.500=0.500,
339.000=1.500,
339.500=0.500,
340.000=1.000,
346.000=1.500,
346.500=0.500,
347.000=1.500,
347.500=0.500,
348.000=1.000;
#FAKES:;
#LABELS:0.000=Song Start;
#BGCHANGES:;
#KEYSOUNDS:;
#ATTACKS:
;

//---------------dance-single - XO DS+ JA XMOD BU- JU-----------------
#NOTEDATA:;
#CHARTNAME:;
#STEPSTYPE:dance-single;
#DESCRIPTION:XO DS+ JA XMOD BU- JU-;
#CHARTSTYLE:;
#DIFFICULTY:Challenge;
#METER:18;
#RADARVALUES:0.919717,1.178512,0.190083,0.595041,0.938017,779.000000,756.000000,23.000000,72.000000,24.000000,0.000000,0.000000,0.000000,0.000000,0.919717,1.178512,0.190083,0.595041,0.938017,779.000000,756.000000,23.000000,72.000000,24.000000,0.000000,0.000000,0.000000,0.000000;
#CREDIT:Karl with a K;
#NOTES:
// measure 0
0000
0000
0000
0000
,  // measure 1
0000
0000
0000
0000
,  // measure 2
0000
0000
0000
0000
,  // measure 3
0000
0000
0000
0000
,  // measure 4
0000
0000
0000
0000
,  // measure 5
0000
0000
0000
0000
,  // measure 6
0000
0000
0000
0000
,  // measure 7
0000
0000
0000
0000
,  // measure 8
0000
0000
0000
0000
,  // measure 9
1000
0000
0000
0001
0000
0000
0000
1000
,  // measure 10
0001
0000
0000
1000
0000
0000
0000
0000
,  // measure 11
0001
0000
0000
1000
0000
0000
0000
0001
,  // measure 12
1000
0000
0000
0001
0200
0000
0000
0000
,  // measure 13
0301
0001
0001
0001
0010
0010
0010
0010
,  // measure 14
0100
0100
1000
1000
0001
0001
0100
0100
,  // measure 15
0010
1000
0010
1000
0001
0010
0001
0010
0100
1000
0001
0100
0010
1000
0100
0010
,  // measure 16
0000
0000
0100
0000
0010
0000
0100
0010
1000
0010
0100
0000
0010
0001
0100
0010
,  // measure 17
0001
0000
0001
0010
0100
0000
0001
0000
1000
0010
0000
1000
0100
0000
0010
0000
,  // measure 18
0100
0000
0100
0010
0001
0000
1000
0000
0001
0010
0000
0001
0020
0000
0000
0030
,  // measure 19
1000
0000
1000
0010
0100
0000
1000
0000
0001
0010
0000
0001
0100
0000
0010
0000
,  // measure 20
0100
0000
0000
0000
0100
0000
0010
0000
1000
0000
0000
0000
0001
0000
1000
0000
0020
0000
0000
0000
0000
0030
0220
0000
0000
0000
0000
0330
0100
0000
0000
0000
,  // measure 21
1000
0000
1000
0100
0010
0000
1000
0000
0001
0100
0000
0001
0010
0000
0100
0000
,  // measure 22
0010
0000
0010
0100
1000
0000
0001
0000
1000
0100
0010
0100
1000
0100
0001
0000
,  // measure 23
0101
0000
0001
0100
0010
0000
0001
0000
1000
0100
0000
1000
0010
0000
0100
0000
,  // measure 24
0010
0000
0010
0100
1000
0001
0010
0001
0010
1000
0100
0001
2000
0000
0000
0000
,  // measure 25
3010
0000
0010
0000
0001
0000
010M
1000
0010
0100
0001
0000
001M
0000
0100
0010
,  // measure 26
0100
0000
0100
0000
0001
0000
001M
1000
0100
0010
0001
0000
020M
0000
0000
0000
,  // measure 27
0020
0000
0330
0000
1001
0000
M100
0001
0010
0100
1000
0000
M010
0000
0100
0010
,  // measure 28
0100
0000
0000
0000
0000
0000
0100
0000
0000
0000
0000
0000
1000
0000
0000
0000
0000
0000
M010
0000
0000
0001
0000
0000
0100
0000
0000
0000
0000
0000
2000
0000
0000
0000
0000
0000
3100
0000
0000
0000
0000
0000
0010
0000
0100
0000
0000
0000
,  // measure 29
0110
0000
0100
0000
1000
0000
M010
0001
0100
0010
1000
0000
M100
0000
0010
0100
,  // measure 30
0010
0000
0010
0000
1000
0000
M100
0001
0010
0100
1000
0000
M020
0000
0000
0000
,  // measure 31
0031
0000
0000
0010
0000
0000
0001
0000
0000
0010
0000
0000
0100
0000
0000
1000
0000
0000
0100
0000
0000
1000
0000
0000
0001
0000
0100
0000
0010
0000
1000
0000
0000
0010
0000
0000
0100
0000
0000
0001
0000
0000
1000
0000
0000
0100
0000
0000
,  // measure 32
0010
0000
0100
0000
0010
0000
0100
0000
0000
0000
0000
0000
1000
0000
0000
0100
0000
0000
1000
0000
0000
0000
0000
0000
0010
0000
0000
0000
0000
0000
0100
0000
0000
0001
0000
0000
0010
0000
0000
0000
0000
0000
1001
0000
0000
0000
0000
0000
,  // measure 33
1010
0000
0001
0100
0010
0000
1000
0100
0010
0200
0001
0000
0310
0000
0001
0100
,  // measure 34
0001
0000
1000
0100
0010
0000
0001
0100
0010
0200
1000
0000
0310
0000
1000
0100
,  // measure 35
1000
0000
0001
0010
0100
0000
1000
0010
0100
0020
0001
0000
0130
0000
0001
0010
,  // measure 36
0001
0000
1000
0010
0100
0000
0001
0010
0100
0020
1000
0000
0100
0000
0000
0230
,  // measure 37
03M1
0000
0100
0010
0100
0000
0010
0001
1000
0010
1000
0000
0010
0000
0010
0100
,  // measure 38
1000
0100
1000
0100
0001
0100
0001
0100
0001
0010
0001
0010
1000
0010
1000
0010
,  // measure 39
0200
0300
0000
0100
1000
1000
0000
1001
,  // measure 40
010M
0100
0020
0000
,  // measure 41
0032
0003
0000
0001
0100
1M00
M010
0000
,  // measure 42
0200
0000
0300
0100
0000
0000
1000
0000
0001
0000
001M
0000
00M1
0100
0010
0000
,  // measure 43
0200
0000
0300
0100
0000
0000
0010
0000
0100
0000
0001
0000
1000
0000
0000
0000
,  // measure 44
M200
0000
0000
0000
0000
0000
0000
0000
0000
0310
0000
0000
1000
0000
0000
0000
0000
0000
0100
0000
0000
0000
0000
0000
0020
0000
0000
0000
0000
0000
0100
0000
0000
0000
0000
0000
0031
0000
0000
0000
1000
0000
0000
0000
0000
0010
0000
0000
,  // measure 45
2000
0000
0000
3000
0000
0000
1000
0000
0100
0000
0M01
0000
001M
0000
0000
0000
,  // measure 46
0200
0000
0000
0000
0000
0000
0310
0000
0000
0000
0000
0000
0000
0000
0000
0000
0000
0000
0100
0000
0000
0000
0000
0000
0001
0000
0010
0000
0100
0000
1000
0000
0000
0010
0000
0000
0100
0000
0000
1000
0000
0000
0100
0000
0000
0000
0000
0000
,  // measure 47
0001
0000
0000
0001
0010
0000
1000
0000
0010
0000
0001
0000
0000
0000
0100
0010
,  // measure 48
1000
0000
0000
0000
0000
0000
2000
0000
0000
0000
0000
0000
0000
0000
0000
3000
0010
0000
0000
0000
0000
0000
0010
0000
0000
0000
0000
0000
0010
0000
0000
0000
,  // measure 49
0001
0000
0010
0100
0001
0000
0010
0000
0100
0010
1000
0000
0010
0100
0000
0100
,  // measure 50
0001
0000
0100
0010
0001
0000
0100
0000
0010
0100
1000
0000
0100
0001
0000
0100
,  // measure 51
1000
0000
0100
0010
1000
0000
0100
0000
0010
0100
0001
0000
0100
0010
0000
0010
,  // measure 52
1000
0000
0010
0100
1000
0000
0010
0100
0010
0001
0010
0100
0001
0010
0100
0000
,  // measure 53
1002
0000
0103
0001
0010
0000
10M0
0000
0100
0010
1000
0000
0010
1000
0000
0000
,  // measure 54
0110
0000
0100
1000
0010
0000
00M1
0000
0100
0010
0001
0000
0010
0100
0000
0000
,  // measure 55
0110
0000
0010
1000
0100
0000
0M01
0000
0010
0100
0001
0000
0100
0001
0000
0000
,  // measure 56
0220
0000
0330
0010
0001
0010
0001
1000
,  // measure 57
M200
0000
0000
0310
2000
0010
0010
0010
,  // measure 58
3002
0010
0010
0010
2003
0000
3010
1000
,  // measure 59
0002
0000
0013
0001
2000
0100
0100
0100
,  // measure 60
3002
0100
0100
0100
2003
0000
0100
0000
,  // measure 61
3020
0000
0000
0000
0230
0001
0001
0001
,  // measure 62
0320
1000
1000
1000
0230
0000
0301
0100
,  // measure 63
0020
0000
2030
3000
0200
1000
1000
1000
,  // measure 64
0320
0000
0001
0000
0031
0010
0001
0010
0001
0100
0001
0100
0020
0000
0000
0000
,  // measure 65
0230
0000
0000
0000
0000
0000
0000
0000
0301
0010
0001
0010
0001
0010
0100
0000
,  // measure 66
1000
0010
1000
0010
1000
0010
0100
0000
0001
0010
0001
0010
0100
0010
0100
0000
,  // measure 67
1000
0010
1000
0010
0100
0010
0100
0000
0001
0010
0100
0010
0001
0010
0100
0000
,  // measure 68
1000
0010
0100
0010
1000
0010
0200
0000
0000
0000
0000
0000
,  // measure 69
0310
0000
0010
0000
0010
0000
0010
0000
1000
0000
1000
0000
0000
0000
1000
0001
,  // measure 70
1000
0001
1000
0000
0000
0000
0100
0010
0100
0010
0100
0000
0010
0000
0010
0000
,  // measure 71
0100
0000
0010
0100
1000
0010
0000
0010
,  // measure 72
0010
0000
0100
0001
1000
0100
1000
0100
0010
0001
1000
0000
0010
0000
0000
0000
,  // measure 73
0110
0000
0010
1000
0001
0000
0010
0000
0001
0010
0100
2000
0001
0000
3010
1000
,  // measure 74
0100
0000
0010
0001
1000
0000
0010
1000
0010
0100
0002
0000
1000
0000
0013
0001
,  // measure 75
0100
0000
0100
0001
1000
0000
0100
0000
1000
0100
0010
0002
1000
0000
0103
0001
,  // measure 76
0010
0000
0100
1000
0010
0100
0001
0010
0100
1000
0010
0100
0001
0010
0100
1000
,  // measure 77
0001
0000
0000
0000
2001
0000
3010
0000
1000
0010
0100
0010
1000
0000
1010
0000
,  // measure 78
0010
0100
0001
0000
0001
0010
0100
0002
0000
0103
0010
0100
1000
0100
1000
0000
,  // measure 79
1020
0000
1030
0100
0020
0000
0031
0100
0020
0000
1030
0100
0020
0000
0030
0000
,  // measure 80
0001
0100
0010
0100
1000
0001
1000
0001
0010
1000
0100
0010
1000
0000
0000
0000
,  // measure 81
1010
0000
0000
0000
0000
0000
0010
0000
0000
0001
0000
0000
0100
0000
0000
0000
0010
0000
0000
0000
1000
0000
0000
0000
0001
0000
0000
0000
0100
0000
0000
0000
0000
0000
0000
0000
0000
0000
0000
0000
0000
0000
0002
0000
0000
0000
0000
0000
,  // measure 82
0000
0000
1003
0100
1000
0100
0010
0001
0020
0000
2030
0000
3002
0000
0103
0000
,  // measure 83
0110
0000
0010
0100
1000
0000
0010
0000
0100
0010
0100
0000
0001
0000
0010
0000
,  // measure 84
0100
0000
0010
0001
0010
0001
1000
0000
2002
0000
3003
0000
2002
0000
3003
0000
,  // measure 85
1010
0000
0010
0100
0001
0000
0010
0000
0100
0010
0100
0000
1000
0000
0010
0000
,  // measure 86
0100
0000
0010
1000
0010
1000
0001
0000
0220
0000
0330
0000
0220
0000
0330
0000
,  // measure 87
0001
0000
0000
0010
0000
0000
0100
0000
0000
1000
0000
0000
0001
0000
0000
0010
0000
0000
0100
0000
0000
1000
0000
0000
0010
0000
0100
0000
0010
0000
0100
0000
0000
0001
0000
0000
1000
0000
0000
0010
0000
0000
0100
0000
0000
0001
0000
0000
,  // measure 88
0020
0000
0000
0000
0230
0000
0000
0000
1300
0000
0010
0100
0010
0000
0010
0000
,  // measure 89
2002
3003
0000
0000
0000
0000
0000
0000
;

//---------------dance-single - XO- DS JA- XMOD JU-----------------
#NOTEDATA:;
#CHARTNAME:;
#STEPSTYPE:dance-single;
#DESCRIPTION:XO- DS JA- XMOD JU-;
#CHARTSTYLE:;
#DIFFICULTY:Hard;
#METER:16;
#RADARVALUES:0.736718,0.920713,0.181818,0.586777,0.607438,624.000000,602.000000,22.000000,71.000000,0.000000,0.000000,0.000000,0.000000,0.000000,0.736718,0.920713,0.181818,0.586777,0.607438,624.000000,602.000000,22.000000,71.000000,0.000000,0.000000,0.000000,0.000000,0.000000;
#CREDIT:Karl with a K;
#NOTES:
// measure 0
0000
0000
0000
0000
,  // measure 1
0000
0000
0000
0000
,  // measure 2
0000
0000
0000
0000
,  // measure 3
0000
0000
0000
0000
,  // measure 4
0000
0000
0000
0000
,  // measure 5
0000
0000
0000
0000
,  // measure 6
0000
0000
0000
0000
,  // measure 7
0000
0000
0000
0000
,  // measure 8
0000
0000
0000
0000
,  // measure 9
1000
0000
0000
1000
0000
0000
0000
0000
,  // measure 10
0001
0000
0000
0001
0000
0000
0000
0000
,  // measure 11
1000
0000
0000
0001
0000
0000
0000
0000
,  // measure 12
0001
0000
0000
1000
0000
0000
0000
0000
,  // measure 13
0001
0100
0001
0000
1000
0010
1000
0000
,  // measure 14
0001
0010
0001
0000
1000
0100
1000
0000
,  // measure 15
0100
0000
0100
0000
0010
0000
0010
0000
0001
1000
0001
1000
0001
1000
0001
1000
,  // measure 16
0001
0000
0010
0000
0011
0000
0001
1000
0010
0000
0100
0000
0002
0000
2003
0000
,  // measure 17
3001
0000
0100
0000
0001
0010
0100
0000
1000
0010
0000
0100
0001
0000
0000
0000
,  // measure 18
1000
0100
0000
1000
0010
0000
0100
0000
0001
0010
0000
0100
1000
0000
0000
0000
,  // measure 19
1000
0000
0010
0000
1000
0100
0010
0000
0001
0100
0000
0010
1000
0000
0000
0000
,  // measure 20
0001
0010
0000
0001
0100
0000
0010
0000
1010
0000
0000
0011
0000
0000
1100
0000
,  // measure 21
1000
0000
0100
0000
1000
0010
0100
0000
0001
0010
0000
0100
1000
0000
0000
0000
,  // measure 22
0001
0100
0000
0001
0010
0000
0100
0000
1000
0010
0000
0100
0001
0100
0001
0000
,  // measure 23
1000
0000
0100
0000
1000
0010
0100
0000
0001
0010
0000
0100
1000
0000
0000
0000
,  // measure 24
0001
0000
0001
0100
0000
0100
0010
0000
1000
0100
0010
0001
2000
0000
0000
0000
,  // measure 25
3001
0000
1000
0010
1000
0000
0001
0000
0010
0100
1000
0000
1001
0000
0000
0000
,  // measure 26
1000
0000
0001
0010
0001
0000
1000
0000
0010
0100
0010
0000
0220
0000
0000
0000
,  // measure 27
0330
0000
0000
0000
1010
0000
1000
0000
0100
0010
0001
0000
1001
0000
0000
0000
,  // measure 28
0001
0000
1000
0100
1000
0000
0001
0000
0200
0000
0320
0000
0000
0000
0130
0000
,  // measure 29
0001
0000
0010
0000
0001
0100
0010
0000
1000
0100
0000
0010
0001
0000
0000
0000
,  // measure 30
1000
0010
0000
1000
0100
0000
0010
0000
0001
0100
0000
0010
2000
0000
0000
0000
,  // measure 31
3001
0010
0001
0000
0100
0010
0100
0000
0010
1000
0100
0000
0010
0001
0100
0000
,  // measure 32
0020
0000
2030
0000
3200
0000
0000
0000
0310
0000
0100
0010
0100
0000
0010
0000
,  // measure 33
0002
0100
1003
0100
2000
0100
3001
0100
,  // measure 34
0002
0010
1003
0010
2000
0010
3001
0010
,  // measure 35
0002
0010
1003
0100
2000
0010
3001
0100
,  // measure 36
0002
0000
0100
0000
1003
0000
0100
0000
1000
0000
0010
0100
0001
0000
0000
0001
,  // measure 37
1000
0000
1000
0100
0000
0100
0010
0000
0010
0001
0000
0001
1000
0000
1000
0010
,  // measure 38
0100
0010
0100
0000
0001
1000
0001
0000
0010
0100
0010
0000
0100
1000
0001
0000
,  // measure 39
0022
0033
0000
0100
1000
0000
0000
0001
,  // measure 40
0100
0100
0220
0330
,  // measure 41
2002
0000
3003
1000
0100
1000
0010
0000
,  // measure 42
0200
0000
0300
0100
0000
0000
0000
0000
0001
0000
0010
0000
0100
0010
0100
0000
,  // measure 43
2000
0000
3000
1000
0000
0000
0000
0000
0010
0000
0100
0000
0010
0000
0000
0000
,  // measure 44
0200
0000
0000
0310
0000
0000
0000
0000
1000
0000
0001
0000
1000
0001
0000
0000
,  // measure 45
2002
0000
3003
0001
0100
0001
0010
0000
,  // measure 46
0100
0000
1000
0000
0000
0000
0001
0000
1000
0010
1000
0010
0100
0001
0000
0000
,  // measure 47
2000
0000
0000
3001
0000
0000
0001
0000
0010
0000
0100
0000
0010
0000
0000
0000
,  // measure 48
0100
0000
0000
0020
0000
0000
0000
0000
0031
0000
0000
0001
0000
0000
0001
0000
,  // measure 49
1000
0000
0010
0000
0200
0000
0010
0000
0301
0100
0010
0000
1000
0010
0000
0000
,  // measure 50
1000
0000
0100
0000
0020
0000
0100
0000
0031
0010
0100
0000
1000
0100
0000
1000
,  // measure 51
0001
0000
0100
0000
0020
0000
0100
0000
1030
0010
0100
0000
0001
0100
0000
0000
,  // measure 52
0001
0000
0010
0000
0100
0000
0010
0001
0010
0001
1000
0000
0010
0100
0000
0000
,  // measure 53
1001
0000
1000
0100
0010
0000
0100
0000
0010
0001
0100
0000
0001
0010
0000
0001
,  // measure 54
1000
0000
0001
0100
0010
0000
0100
0000
0010
1000
0100
0000
1000
0010
0000
0000
,  // measure 55
1000
0000
0001
0010
0100
0000
0010
0000
0100
1000
0010
0000
1000
0100
0000
1000
,  // measure 56
0002
0003
0000
1000
0010
0100
0010
0000
,  // measure 57
2000
0000
0000
0000
3002
1000
1000
0000
,  // measure 58
2003
0001
0001
0000
3002
0000
0010
0000
,  // measure 59
2003
0000
0010
0000
3002
1000
1000
0000
,  // measure 60
2003
0001
0001
0000
3002
0000
0100
0000
,  // measure 61
2003
0000
0000
0000
3200
0010
0010
0000
,  // measure 62
0320
0100
0100
0000
0032
0000
0103
0010
,  // measure 63
0200
0000
0301
0000
0020
0100
0100
0000
,  // measure 64
0230
0010
0310
0001
1000
0001
1000
0000
,  // measure 65
0002
0000
0000
0000
0000
0000
0000
0000
1003
0010
1000
0010
1000
0000
0000
0000
,  // measure 66
0001
0010
0001
0010
0001
0000
0000
0000
1000
0100
1000
0100
1000
0000
0000
0000
,  // measure 67
0001
0100
0001
0100
0001
0000
0000
0000
1000
0001
1000
0001
1000
0000
0000
0000
,  // measure 68
0100
0010
0001
1000
0010
0100
0001
0000
0000
0000
0000
0000
,  // measure 69
1000
1000
1000
0000
0001
0001
0000
0000
,  // measure 70
0010
0010
0000
0000
0100
0100
0100
0100
,  // measure 71
1000
0010
0100
0000
,  // measure 72
0001
0001
0100
0110
,  // measure 73
1000
0000
0001
0000
0010
0000
0001
0000
1000
0010
0000
0100
0010
1000
0001
0000
,  // measure 74
0010
0000
2000
0000
3010
0000
0100
0000
1000
0010
0000
0100
0020
0000
0100
0000
,  // measure 75
1030
0000
0001
0000
0100
0000
0001
0000
1000
0100
0000
0010
0100
1000
0001
0000
,  // measure 76
0100
0000
2000
0000
3100
0001
0000
1000
0100
0000
0010
0100
0000
0001
0100
0000
,  // measure 77
1000
0000
0000
0000
0101
0000
1000
0000
0001
0100
0000
0010
0100
0001
0020
0000
,  // measure 78
0130
0000
0002
0000
0103
0010
0000
0002
0000
0103
0010
0100
0010
0100
0010
0000
,  // measure 79
1010
0011
1100
0101
,  // measure 80
1000
0100
0010
0100
1000
0010
0000
0010
0100
0010
0100
0001
0020
0000
0000
0000
,  // measure 81
0031
0100
0002
0000
0000
0000
0003
0020
,  // measure 82
0000
1030
0010
0001
0100
2000
3200
0320
,  // measure 83
1030
0000
0100
0000
0010
0000
0100
0000
1000
0010
0000
0010
0100
0000
1000
0000
,  // measure 84
0100
0001
0010
0100
0002
0003
0201
0000
,  // measure 85
1300
0000
0010
0000
0100
0000
0010
0000
1000
0100
0000
0100
0010
0000
1000
0000
,  // measure 86
0010
0001
0100
0010
0002
0003
0021
0000
,  // measure 87
1030
0010
1000
0010
0100
0001
0100
0001
1000
0100
0010
0001
1000
0010
0100
0001
,  // measure 88
0020
0000
0000
0000
0230
0000
0000
0000
1300
0000
0010
0100
0010
0000
0000
0000
,  // measure 89
2002
3003
0000
0000
0000
0000
0000
0000
;

//---------------dance-single - XO- JA- XMOD JU-----------------
#NOTEDATA:;
#CHARTNAME:;
#STEPSTYPE:dance-single;
#DESCRIPTION:XO- JA- XMOD JU-;
#CHARTSTYLE:;
#DIFFICULTY:Medium;
#METER:12;
#RADARVALUES:0.478158,0.626085,0.115702,0.206612,0.049587,405.000000,391.000000,14.000000,25.000000,0.000000,0.000000,0.000000,0.000000,0.000000,0.478158,0.626085,0.115702,0.206612,0.049587,405.000000,391.000000,14.000000,25.000000,0.000000,0.000000,0.000000,0.000000,0.000000;
#CREDIT:Karl with a K;
#NOTES:
// measure 0
0000
0000
0000
0000
,  // measure 1
0000
0000
0000
0000
,  // measure 2
0000
0000
0000
0000
,  // measure 3
0000
0000
0000
0000
,  // measure 4
0000
0000
0000
0000
,  // measure 5
0000
0000
0000
0000
,  // measure 6
0000
0000
0000
0000
,  // measure 7
0000
0000
0000
0000
,  // measure 8
0000
0000
0000
0000
,  // measure 9
2002
0000
0000
0000
,  // measure 10
0000
0000
0000
0000
,  // measure 11
0000
0000
0000
0000
,  // measure 12
0000
0000
3003
0000
,  // measure 13
1000
0100
0010
0100
,  // measure 14
1000
0010
0100
0010
,  // measure 15
1000
0001
1000
0000
0001
1000
0001
0000
,  // measure 16
0100
0010
0100
0110
,  // measure 17
1001
0000
1000
0000
0100
0010
0100
0000
,  // measure 18
1000
0000
0001
0000
0100
0010
1000
0000
,  // measure 19
1001
0000
0001
0000
0100
0010
0100
0000
,  // measure 20
0001
0000
0000
0000
1000
0000
0000
0000
0100
0000
0000
0100
0000
0000
0100
0000
,  // measure 21
1000
0000
0001
0000
0010
0100
0010
0000
,  // measure 22
0001
0000
1000
0000
0010
0100
0001
0000
,  // measure 23
1001
0000
1000
0000
0010
0100
0010
0000
,  // measure 24
1000
0001
0010
0110
,  // measure 25
0001
0100
0010
0000
1000
0000
0001
0000
,  // measure 26
1000
0100
0010
0000
0100
0000
2000
0000
,  // measure 27
0000
0000
3100
0000
1000
0001
1000
0000
,  // measure 28
0001
0100
0010
0000
1000
0010
1000
0100
,  // measure 29
0010
0000
0100
0000
1000
0100
0010
0000
,  // measure 30
0001
0000
1000
0000
0010
0100
0010
0000
,  // measure 31
1000
0001
1000
0001
1000
0001
1000
0001
,  // measure 32
2000
0000
0000
0000
3000
0010
0010
0000
,  // measure 33
1000
0010
1000
0000
0001
0010
0001
0000
,  // measure 34
0100
0010
0100
0000
0001
0010
0100
0000
,  // measure 35
1000
0100
1000
0000
0001
0100
0001
0000
,  // measure 36
0100
0010
0100
0000
0002
0000
0013
0000
,  // measure 37
0001
0000
0000
0001
0010
0000
0000
0000
0100
0000
0000
0100
1000
0000
0000
0000
,  // measure 38
0010
0010
0020
0000
0230
0000
0320
0000
,  // measure 39
0130
0000
0010
0000
,  // measure 40
0100
0100
0020
0000
,  // measure 41
1030
0000
0100
0010
,  // measure 42
0200
0000
0300
0010
0100
0000
0010
0001
,  // measure 43
2000
0000
3000
0001
1000
0000
0010
0000
,  // measure 44
1000
0000
0000
0010
0000
0000
1000
0000
0100
0000
0000
0000
0010
0000
0000
0000
,  // measure 45
0020
0000
0030
0001
0001
0000
0010
0000
,  // measure 46
0100
0010
0000
0000
0002
0000
0203
0000
,  // measure 47
0310
0010
0100
0010
,  // measure 48
2000
3000
0000
0000
,  // measure 49
0001
0010
0001
0100
,  // measure 50
0010
1000
0010
0000
1000
0000
0100
0000
,  // measure 51
1000
0010
1000
0100
,  // measure 52
0010
0000
0000
0000
0001
0000
0010
0000
0100
0000
0000
0010
0000
0100
0000
0000
,  // measure 53
1001
1000
0010
0100
,  // measure 54
0001
0010
0001
0000
1000
0010
0100
0000
,  // measure 55
0001
0000
0010
0000
0100
0010
0000
0010
,  // measure 56
0002
0003
0000
0000
,  // measure 57
2000
0000
0000
0000
3010
1000
0010
0000
,  // measure 58
0100
0010
0100
0000
0010
0001
0010
0000
,  // measure 59
0100
0010
0100
0000
0010
1000
0010
0000
,  // measure 60
1000
0100
0010
0001
1000
0100
0010
0000
,  // measure 61
0002
0000
0000
0000
0013
0001
0010
0000
,  // measure 62
0100
0010
0100
0000
0010
1000
0010
0000
,  // measure 63
0100
0010
0100
0000
0010
0001
0010
0000
,  // measure 64
0001
0100
0010
1000
0001
0100
0020
0000
,  // measure 65
2030
0000
0000
0000
3001
0001
0100
0000
,  // measure 66
0010
0100
0010
0000
1000
1000
0100
0000
,  // measure 67
0010
0100
0010
0000
0001
0001
0001
0000
,  // measure 68
1000
0001
1000
0001
0000
0000
2000
0000
0000
0000
0000
0000
,  // measure 69
3100
0010
0100
0000
0010
0100
0000
0000
,  // measure 70
1000
0010
0000
0000
0100
0010
0100
0010
,  // measure 71
0000
0010
1000
0000
,  // measure 72
0001
0001
0001
0110
,  // measure 73
1000
0100
0010
0100
1000
0010
0000
0010
,  // measure 74
0100
0001
0010
0001
1000
0100
0020
0000
,  // measure 75
0031
0100
0010
0100
0001
0010
0000
0010
,  // measure 76
0100
0000
1000
0000
0010
0000
0000
0010
0000
0000
0010
0000
0000
0010
0000
0000
,  // measure 77
1000
0000
0100
0010
0001
0100
0000
0100
,  // measure 78
0010
0000
1000
0000
0100
0000
0000
1000
0000
0000
0001
0000
0010
0000
0100
0000
,  // measure 79
1000
0010
0001
0010
1000
0100
0001
0100
,  // measure 80
0010
0000
0010
0000
0001
0000
0000
0000
0100
0000
0000
0100
0010
0000
1000
0000
,  // measure 81
0100
0200
0300
0000
,  // measure 82
0000
1000
0001
0100
0010
1000
0100
0010
,  // measure 83
0001
0100
0010
0100
0001
0100
0010
1000
,  // measure 84
0000
0100
0010
0000
1100
0000
1001
0000
,  // measure 85
0001
0010
0100
0010
0001
0010
0100
1000
,  // measure 86
0000
0010
0100
0000
0101
0000
1001
0000
,  // measure 87
1000
1000
0001
0001
1000
1000
0001
0001
,  // measure 88
0010
0100
1000
0010
0100
0000
0110
0000
,  // measure 89
2002
3003
0000
0000
0000
0000
0000
0000
;

//---------------dance-single - ----------------
#NOTEDATA:;
#CHARTNAME:;
#STEPSTYPE:dance-single;
#DESCRIPTION:;
#CHARTSTYLE:;
#DIFFICULTY:Easy;
#METER:6;
#RADARVALUES:0.325856,0.404545,0.099174,0.256198,0.000000,276.000000,264.000000,12.000000,31.000000,0.000000,0.000000,0.000000,0.000000,0.000000,0.325856,0.404545,0.099174,0.256198,0.000000,276.000000,264.000000,12.000000,31.000000,0.000000,0.000000,0.000000,0.000000,0.000000;
#CREDIT:Karl with a K;
#NOTES:
// measure 0
0000
0000
0000
0000
,  // measure 1
0000
0000
0000
0000
,  // measure 2
0000
0000
0000
0000
,  // measure 3
0000
0000
0000
0000
,  // measure 4
0000
0000
0000
0000
,  // measure 5
0000
0000
0000
0000
,  // measure 6
0000
0000
0000
0000
,  // measure 7
0000
0000
0000
0000
,  // measure 8
0000
0000
0000
0000
,  // measure 9
2002
0000
0000
0000
,  // measure 10
0000
0000
0000
0000
,  // measure 11
0000
0000
0000
0000
,  // measure 12
0000
0000
3003
0000
,  // measure 13
2000
0000
3020
0000
,  // measure 14
0230
0000
0302
0000
,  // measure 15
0013
0010
0100
0100
,  // measure 16
0000
1000
0010
0100
,  // measure 17
1001
1000
0100
0010
,  // measure 18
0001
0010
0100
1000
,  // measure 19
1001
0001
0100
0010
,  // measure 20
1000
0010
0200
0000
,  // measure 21
0301
1000
0010
0100
,  // measure 22
0001
0010
0200
2300
,  // measure 23
3001
0001
0010
0100
,  // measure 24
1000
0010
0100
0110
,  // measure 25
1000
0100
0010
0100
,  // measure 26
1000
0001
0100
0002
,  // measure 27
0000
1003
0010
0100
,  // measure 28
0010
1000
0200
0310
,  // measure 29
0001
0010
0100
0010
,  // measure 30
0001
1000
0010
0200
,  // measure 31
0301
0001
0100
0100
,  // measure 32
0020
2030
3001
1001
,  // measure 33
1000
0100
1000
0000
,  // measure 34
0001
0100
0001
0000
,  // measure 35
1000
0010
1000
0000
,  // measure 36
0001
0010
0100
0000
,  // measure 37
1000
1000
0010
0010
,  // measure 38
0100
0100
0001
0001
,  // measure 39
0020
0030
0000
0000
0200
0300
0000
0000
,  // measure 40
1000
1000
1000
0000
,  // measure 41
0002
0003
0000
0000
0100
0000
0010
0000
,  // measure 42
2000
3000
0000
0000
0001
0000
1000
0000
,  // measure 43
0002
0003
0000
0000
0010
0000
0100
0000
,  // measure 44
2000
3000
0000
0000
0001
0000
1000
0000
,  // measure 45
0002
0003
0000
0000
0100
0000
0001
0000
,  // measure 46
2000
3000
0000
0000
1000
0000
0100
0000
,  // measure 47
0010
0010
0001
0000
,  // measure 48
2002
3003
0000
0000
,  // measure 49
1000
0010
0100
0010
,  // measure 50
1000
0100
0010
0010
,  // measure 51
0001
0010
0100
0010
,  // measure 52
0001
0100
0010
0000
,  // measure 53
1001
1000
0100
0010
,  // measure 54
0100
1000
0010
0100
,  // measure 55
0001
0100
0010
0100
,  // measure 56
0002
0003
0000
0000
,  // measure 57
2000
0000
3001
1000
,  // measure 58
0010
0100
0001
1000
,  // measure 59
0100
0010
0001
1000
,  // measure 60
0010
0100
0001
1000
,  // measure 61
0200
0000
0310
0001
,  // measure 62
0100
0010
1000
0100
,  // measure 63
0010
0001
0100
0010
,  // measure 64
1000
0010
0010
0010
,  // measure 65
0200
0000
0301
0001
,  // measure 66
0010
0010
0100
0100
,  // measure 67
1000
1000
0010
0010
,  // measure 68
0100
0100
0002
0003
,  // measure 69
1000
1000
1000
0000
,  // measure 70
0010
0000
0100
0100
,  // measure 71
0000
0001
1000
0000
,  // measure 72
0001
0000
1000
0010
,  // measure 73
1000
0100
0010
0010
,  // measure 74
0001
0100
0010
0010
,  // measure 75
1000
0010
0100
0100
,  // measure 76
0001
0010
0010
0010
,  // measure 77
0100
1000
0010
0100
,  // measure 78
0000
0001
0010
0100
,  // measure 79
1000
1000
1000
1000
,  // measure 80
0001
0001
0001
1001
,  // measure 81
2002
0000
3003
0000
,  // measure 82
0000
0001
0000
0100
0000
0000
0110
0000
,  // measure 83
1001
1000
0100
0010
,  // measure 84
0100
0001
0100
0100
,  // measure 85
1000
0010
0100
0010
,  // measure 86
0001
0010
0100
0100
,  // measure 87
0001
0001
1000
1000
,  // measure 88
0010
0100
0001
0010
,  // measure 89
0110
0000
0000
0000
;

//---------------dance-single - ----------------
#NOTEDATA:;
#CHARTNAME:;
#STEPSTYPE:dance-single;
#DESCRIPTION:;
#CHARTSTYLE:;
#DIFFICULTY:Beginner;
#METER:2;
#RADARVALUES:0.090909,0.220661,0.008264,0.000000,0.000000,77.000000,76.000000,1.000000,0.000000,0.000000,0.000000,0.000000,0.000000,0.000000,0.090909,0.220661,0.008264,0.000000,0.000000,77.000000,76.000000,1.000000,0.000000,0.000000,0.000000,0.000000,0.000000,0.000000;
#CREDIT:Karl with a K;
#OFFSET:0.009000;
#BPMS:0.000000=180.000000
;
#STOPS:;
#DELAYS:;
#WARPS:;
#TIMESIGNATURES:0.000000=4=4
;
#TICKCOUNTS:0.000000=4
;
#COMBOS:0.000000=1
;
#SPEEDS:0.000000=1.000000=0.000000=0
;
#SCROLLS:0.000000=1.000000
;
#FAKES:;
#LABELS:0.000000=Song Start
;
#NOTES:
// measure 0
0000
0000
0000
0000
,  // measure 1
0000
0000
0000
0000
,  // measure 2
0000
0000
0000
0000
,  // measure 3
0000
0000
0000
0000
,  // measure 4
0000
0000
0000
0000
,  // measure 5
0000
0000
0000
0000
,  // measure 6
0000
0000
0000
0000
,  // measure 7
0000
0000
0000
0000
,  // measure 8
0000
0000
0000
0000
,  // measure 9
1000
0000
0000
0000
,  // measure 10
0000
0000
0000
0000
,  // measure 11
0000
0000
0000
0000
,  // measure 12
0000
0000
0000
0000
,  // measure 13
0001
0000
0000
0000
,  // measure 14
0000
0000
0000
0000
,  // measure 15
0000
0000
0000
0000
,  // measure 16
0000
0000
0000
0000
,  // measure 17
1000
0000
0000
0000
,  // measure 18
0000
0000
0000
0000
,  // measure 19
1000
0000
0000
0000
,  // measure 20
0000
0000
0000
0000
,  // measure 21
0001
0000
0000
0000
,  // measure 22
0000
0000
0000
0000
,  // measure 23
0001
0000
0000
0000
,  // measure 24
0000
0000
0000
0000
,  // measure 25
1000
0000
0000
0000
,  // measure 26
1000
0000
0000
0000
,  // measure 27
0001
0000
0000
0000
,  // measure 28
0001
0000
0000
0000
,  // measure 29
1000
0000
0000
0000
,  // measure 30
0001
0000
0000
0000
,  // measure 31
1000
0000
0000
0000
,  // measure 32
0001
0000
0000
0000
,  // measure 33
0100
0000
0000
0000
,  // measure 34
0100
0000
0000
0000
,  // measure 35
0100
0000
0000
0000
,  // measure 36
0100
0000
0000
0000
,  // measure 37
0010
0000
0000
0000
,  // measure 38
0010
0000
0000
0000
,  // measure 39
0010
0000
0000
0000
,  // measure 40
0010
0000
0000
0000
,  // measure 41
0100
0000
0000
0000
,  // measure 42
0100
0000
0000
0000
,  // measure 43
0001
0000
0000
0000
,  // measure 44
0001
0000
0000
0000
,  // measure 45
1000
0000
0000
0000
,  // measure 46
1000
0000
0000
0000
,  // measure 47
0100
0000
0000
0000
,  // measure 48
0100
0000
0000
0000
,  // measure 49
0010
0000
0000
0000
,  // measure 50
0001
0000
0000
0000
,  // measure 51
0010
0000
0000
0000
,  // measure 52
0001
0000
0000
0000
,  // measure 53
1000
0000
0000
0000
,  // measure 54
0010
0000
0000
0000
,  // measure 55
1000
0000
0000
0000
,  // measure 56
0010
0000
0000
0000
,  // measure 57
0000
0000
0100
0000
,  // measure 58
0000
0000
0100
0000
,  // measure 59
0000
0000
0100
0000
,  // measure 60
0000
0000
0100
0000
,  // measure 61
0000
0000
0010
0000
,  // measure 62
0000
0000
0010
0000
,  // measure 63
0000
0000
0010
0000
,  // measure 64
0000
0000
0010
0000
,  // measure 65
0000
0000
1000
0000
,  // measure 66
0000
0000
1000
0000
,  // measure 67
0000
0000
1000
0000
,  // measure 68
0000
0000
0000
0000
,  // measure 69
0001
0000
0000
0000
,  // measure 70
0001
0000
0000
0000
,  // measure 71
0000
0000
0000
0000
,  // measure 72
0001
0000
0000
0000
,  // measure 73
1000
0000
1000
0000
,  // measure 74
1000
0000
0000
0000
,  // measure 75
0001
0000
0001
0000
,  // measure 76
0001
0000
0000
0000
,  // measure 77
0010
0000
0010
0000
,  // measure 78
0010
0000
0000
0000
,  // measure 79
0100
0000
0100
0000
,  // measure 80
0100
0000
0000
0000
,  // measure 81
1000
0000
0000
0000
,  // measure 82
0000
0000
0000
0000
,  // measure 83
1000
0000
0010
0000
,  // measure 84
1000
0000
0000
0000
,  // measure 85
0001
0000
0010
0000
,  // measure 86
0001
0000
0000
0000
,  // measure 87
1000
0000
0100
0000
,  // measure 88
0010
0000
0001
0000
,  // measure 89
1001
0000
0000
0000
;
