#TITLE:kors k's How to make OTOGE CORE 「LONG」;
#SUBTITLE:;
#ARTIST:kors k;
#TITLETRANSLIT:kors k's How to make OTOGE CORE (LONG);
#SUBTITLETRANSLIT:;
#ARTISTTRANSLIT:;
#GENRE:;
#CREDIT:LongKorsK;
#MUSIC:kors k's How to make OTOGE CORE (LONG).ogg;
#BANNER:kors k's How to make OTOGE CORE (LONG).png;
#BACKGROUND:kors k's How to make OTOGE CORE (LONG)-bg.png;
#CDTITLE:;
#SAMPLESTART:1.263;
#SAMPLELENGTH:15.000;
#SELECTABLE:YES;
#OFFSET:0.000;
#BPMS:0.000=190.000;
#STOPS:;
#BGCHANGES:;
#FGCHANGES:;

//--------------- dance-single - LongKorsK ----------------
#NOTES:
     dance-single:
     LongKorsK:
     Beginner:
     7:
     0.306577,0.423651,0.114966,0.191611,0,280,265,15,25,0,0,0.306577,0.423651,0.114966,0.191611,0,280,265,15,25,0,0:
0000
0000
0000
0000
,
0000
0000
0000
0000
,
0000
0000
0000
0000
,
0000
0000
0000
0000
,
0000
0000
0000
0000
,
0000
0000
0000
0000
,
0000
1000
1000
1000
,
0000
0001
0001
0001
,
0000
1000
0100
1000
,
0001
0100
0001
1000
,
0000
0100
0100
0100
,
1000
0000
0001
0100
,
0010
0000
0100
0010
,
1000
0000
0001
0010
,
0100
0000
1000
1000
,
0001
0001
0100
0010
,
0000
0000
0100
0100
,
0010
0010
1000
0001
,
0100
0020
0000
0000
,
0000
0000
0030
0100
,
1001
0001
0000
0000
,
1000
1000
0001
0000
,
1000
0010
1000
0000
,
0001
0010
0001
0010
,
0001
1000
0001
1000
,
0001
0001
0001
1000
,
1001
0000
0000
0000
,
0100
0100
0100
0000
,
1001
0000
0000
0000
,
0010
0010
0010
0000
,
1001
0000
0000
0000
,
0010
0010
0010
0000
,
1001
0000
0000
0000
,
0100
0100
0100
0000
,
1000
0001
1000
0000
,
0001
1000
0001
0000
,
0001
1000
0010
0010
,
0100
0001
1000
0200
,
0300
0010
0001
0010
,
0001
1000
0010
1000
,
0020
0000
0000
0000
,
0230
0000
0001
0302
,
0003
0002
0000
0003
,
1000
0001
1000
0100
,
0020
0130
1000
0001
,
0100
0001
1000
0010
,
0010
1000
0100
0010
,
0100
1000
0001
0100
,
0110
1000
1000
1000
,
0001
0001
0002
0000
,
0003
0100
0100
0100
,
0020
0000
0000
0030
,
1000
0000
0100
0000
,
0010
0000
0001
0000
,
1000
0000
0100
0000
,
0010
0000
0001
0000
,
1000
0000
0001
0100
,
0000
0000
0010
0100
,
0001
0000
1000
0000
,
0220
0000
0000
0330
,
0001
0100
0001
0001
,
1000
0100
1000
1000
,
0001
0010
0001
0001
,
1000
0010
1000
1000
,
0001
0010
0100
0100
,
1000
0010
0100
0100
,
0001
0100
0010
0100
,
0001
1000
0001
0000
,
2002
0000
0000
0000
,
0000
0000
0000
3003
,
1000
0100
0010
0100
,
1000
0001
1000
0010
,
1000
0010
0100
0001
,
1000
0100
0010
0000
,
0001
0001
1000
1000
,
0010
0010
0010
0000
,
2000
0001
0020
0000
,
0030
3000
1001
0000
,
0002
1000
0010
0000
,
0203
0000
0310
0000
,
1000
0100
0001
0100
,
1000
0100
0010
0000
,
0001
0001
1000
1000
,
0020
0000
0130
0000
,
1001
0001
0010
0100
,
1000
0001
0100
0010
,
0000
1000
0100
1000
,
0001
0100
0001
0000
,
1001
0001
0010
0100
,
1000
0001
0100
0000
,
1001
0001
0010
0100
,
1000
0010
0100
0002
,
0003
1002
0000
0000
,
0000
0000
0000
0203
,
0000
0000
0000
0000
,
0302
0000
0000
0003
,
0000
0000
0000
0000
,
2002
0000
0000
0000
,
0000
3003
1000
0001
,
0000
0100
0000
0100
,
0200
0000
0300
0000
;

//--------------- dance-single - LongKorsK ----------------
#NOTES:
     dance-single:
     LongKorsK:
     Easy:
     11:
     0.504757,0.579143,0.475194,0.39855,0.095805,461,399,62,52,0,0,0.504757,0.579143,0.475194,0.39855,0.095805,461,399,62,52,0,0:
0000
0000
0000
0000
,
0000
0000
0000
0000
,
0000
0000
0000
0000
,
0000
0000
0000
0000
,
0000
0000
0000
0000
,
0000
0000
0000
0000
,
0000
1000
0001
0100
,
0010
1000
0001
1001
,
0000
0001
0010
0100
,
1000
0000
0010
0000
0100
0010
0100
0000
,
0001
0000
1000
0200
0300
0200
0300
0000
,
0200
0300
0000
1000
0000
0001
0000
1001
,
0000
1000
0100
1000
,
0010
0200
0300
0001
0000
1000
0000
1001
,
0000
1000
0001
0001
,
0100
0000
0010
0100
0010
0000
1000
0000
,
0001
0000
0010
0000
0100
0010
0100
0000
,
1000
0000
0001
0000
1000
0001
1000
0000
,
1000
0020
1030
0020
,
0130
1000
0100
1001
,
0011
0002
0013
0002
,
1003
0001
1000
0000
0110
0000
1001
0000
,
1000
0010
0010
0010
,
0100
0001
0100
0000
0001
1000
0001
0000
,
1000
0000
1100
0000
0100
0000
1100
1000
,
0002
0203
0320
1030
,
1002
0100
0100
0100
,
0013
0000
0001
1000
0010
0000
1000
0000
,
2001
0100
0100
0100
,
3010
0100
0010
0100
0010
0000
0100
0000
,
1002
0010
0010
0010
,
0103
0000
0001
1000
0100
0000
0010
0000
,
2001
0100
0100
0100
,
3010
0100
0010
0100
0010
0000
0100
0000
,
1001
0000
0001
0000
1000
0002
0000
0103
,
0002
2003
3100
0010
,
0001
0000
0010
0200
0000
2300
0000
3010
,
0100
0000
0001
1000
0000
0100
0010
0200
,
0000
0000
0310
0001
0000
1001
0000
1000
,
0010
0100
0000
0001
0000
0010
0100
1000
,
0020
0000
0130
0001
0200
0000
0302
0000
,
0013
0100
0020
0000
0230
0000
2300
0000
,
3000
0000
0001
1000
0001
0000
1001
0000
,
1000
0100
0010
0001
0010
0001
0020
0000
,
0032
0000
0103
0010
0000
0010
0000
1000
,
0010
0000
0100
0001
0000
0010
0100
2000
,
0000
0000
3010
0100
0000
0100
0000
0001
,
0010
0100
0000
0100
0000
1000
0010
0100
,
0110
0000
1000
0000
1000
0001
1000
0000
,
0001
0000
0001
1000
0001
0100
0010
0000
,
0000
0110
0101
0011
,
0001
0000
0010
0000
0100
1000
1001
0000
,
0101
0001
1100
0010
,
1001
0001
0011
1100
,
1001
0010
0101
0001
,
1100
1002
1003
0010
,
0100
0000
0001
0000
0010
0000
0100
1001
,
0000
0000
1000
0001
,
1000
0100
0010
0001
,
0110
1001
0110
1001
,
0000
0010
0000
0000
0001
0000
0000
1000
0000
0000
0000
0000
0201
0000
0000
0000
,
0000
0310
0000
0000
1000
0000
0000
0001
0000
0000
0000
0000
2100
0000
0000
0000
,
0000
3100
0000
0000
0010
0000
0000
0001
0000
0000
0000
0000
0102
0000
0000
0000
,
0000
0103
0000
0000
0010
0000
0000
1000
0000
0000
0000
0000
2100
0000
0000
0000
,
0000
3001
0000
0000
0010
0000
0000
0100
0000
0000
1000
0000
0001
0000
0100
0000
,
0000
0001
0000
0000
0100
0000
0000
0010
0000
0000
1000
0000
0001
0000
0010
0000
,
0000
0011
0000
0000
0001
0000
0000
1010
0000
0000
1000
0000
0001
0000
0000
0000
,
0100
0000
0001
0000
0100
0000
0000
0010
0000
0000
0100
0000
1000
0000
0200
0000
,
0000
0000
0000
0000
,
0000
0000
0000
0000
0301
1000
0001
0000
,
0000
0010
0000
0000
0100
0000
0000
1000
0000
0000
0010
0000
0100
0000
0001
0000
,
0000
0100
0000
0000
0010
0000
0000
1000
0000
0000
0100
0000
0010
0000
0100
0000
,
0000
0110
0000
0000
0000
0000
0000
1001
0000
0000
0000
0000
0001
0000
0000
0000
,
0000
1100
0000
0000
0000
0000
0000
0011
0000
0000
0000
0000
1000
0000
0000
0000
,
0001
0100
0001
0000
0010
0100
1000
0000
,
0001
0000
1000
0000
0020
0000
0000
0030
,
2010
0000
0010
0000
3001
1000
0000
2000
,
0000
0000
0000
3000
1100
0000
0000
0000
,
0012
0000
0010
0000
1003
0001
0200
0000
,
0020
0000
0000
0000
0000
0330
0000
0000
1001
0000
0000
0000
0000
0000
0000
0000
,
1000
0000
0001
0100
0010
0000
1000
0100
,
0010
0000
0001
0100
0010
1000
0000
0001
,
1000
0000
0100
0000
0010
0100
1000
0000
,
2002
0000
0000
0000
0000
3003
0000
0000
0010
0000
0100
0000
0010
0000
0000
0000
,
1001
0000
0011
0000
0000
0001
1000
0000
,
0010
0000
0101
0000
0000
0001
1000
0000
,
0100
0000
0011
0000
0000
0001
0100
0000
,
0010
0000
1001
0000
1000
0100
0010
0100
,
1000
0000
0001
0100
0010
0000
1001
0000
,
1000
0100
0010
0000
1001
0000
0001
0100
,
0010
0000
1000
0001
0010
0001
1000
0000
,
0001
0100
0001
0000
1000
0100
2000
0000
,
3000
1002
0000
0000
,
0000
0000
0000
0203
,
0000
0000
0000
0000
,
0300
0000
0000
0000
,
0220
0000
0000
0330
,
2002
0000
0000
0000
,
0000
3003
0001
1000
,
0000
0100
0100
0100
,
0200
0000
0000
0300
;

//--------------- dance-single - LongKorsK ----------------
#NOTES:
     dance-single:
     LongKorsK:
     Medium:
     14:
     0.623008,0.77219,0.32957,0.452201,0.122631,569,526,43,59,0,0,0.623008,0.77219,0.32957,0.452201,0.122631,569,526,43,59,0,0:
0000
0000
0000
0000
,
0000
0000
0000
0000
,
0000
0000
0000
0000
,
0000
0000
0000
0000
,
0000
0000
0000
0000
,
0000
0000
0000
0000
,
0000
0000
1000
0001
0100
0000
0101
0000
,
1000
0001
0100
0001
0102
0000
1003
0000
,
0000
0000
0001
1000
0100
0000
1100
0000
,
0001
1000
0010
1000
2010
0000
3001
0000
,
0102
0000
1003
0200
0300
0001
0200
0300
,
1000
0200
0000
0301
0000
0100
1000
0002
,
0000
1003
0100
0001
0000
0100
1000
0010
,
0100
0010
1000
0001
0000
1000
0000
1001
,
0000
0000
1000
0001
0100
0000
0101
0000
,
0001
1000
0100
1000
2100
0000
3001
0000
,
1000
0001
0100
0000
0001
1000
0100
0000
,
1000
0001
0100
0010
1000
0001
0020
0000
,
0031
0100
0020
0000
1000
0000
0100
0000
,
1030
0100
0010
0001
1000
0100
0010
0001
,
0011
2100
0100
0010
,
3001
1000
0110
0000
1001
0000
0110
0000
,
1000
0001
0010
0000
0010
0000
0010
0000
,
0001
0100
0001
0100
0001
0100
0010
0000
,
1001
0000
1100
0000
1001
0000
0101
0001
,
2000
3200
0320
0130
,
2001
0010
0001
0010
,
3001
0010
0100
1000
0010
0000
0100
0000
,
1002
0010
1000
0010
,
1003
0010
0100
0001
0010
0000
0100
0000
,
1002
0100
1000
0100
,
0013
0001
1000
0100
0010
0000
0100
0000
,
2001
0100
0001
0100
,
3001
1000
0100
0010
0001
0000
1000
0000
,
1001
0000
0101
0000
1001
1001
0000
1100
,
1000
0010
0100
0001
1000
0100
0110
0000
,
1001
0000
0000
0000
0001
0000
0020
0000
0000
0000
0130
0000
0000
0000
1000
0001
,
1000
0000
0001
0100
0000
0010
1000
0020
,
0000
0000
0000
0000
1030
0000
0100
0000
0000
0000
0110
0000
0000
0000
0010
0001
,
0010
0001
0000
0101
0000
0100
0010
0020
,
0000
0000
1030
0100
0001
0100
2000
0000
,
3001
0100
1000
0100
0002
0000
0023
0000
,
0000
0000
1030
0010
0001
0010
2000
0000
,
3010
0001
0100
0010
1000
0010
0200
0000
,
0301
0100
0001
0100
0001
0000
0010
0000
0000
0000
0110
0000
0000
0000
0100
1000
,
0100
0000
1000
0010
0000
0100
0001
0200
,
0000
0000
0000
0000
0301
0000
0010
0000
0000
0000
0110
0000
0000
0000
0100
1000
,
0100
2000
0000
3002
0000
0103
0010
1000
,
1100
0000
0100
0001
1000
0010
0001
0000
,
0100
1000
0001
0010
1000
1000
0001
0000
,
0000
1000
0100
1000
0001
0100
0010
0000
,
1000
0000
0001
0000
0100
0000
0001
0000
0100
0000
0010
0000
1010
0000
0000
1000
,
0100
0000
0000
0000
0000
0000
0000
0100
0010
0000
0000
0000
0000
0000
0000
0010
,
0001
0000
0000
0000
0000
0000
0000
0001
0100
0000
0000
0000
0110
0000
0000
0010
,
1000
0000
0000
0000
0000
0000
0000
1000
0100
0000
0000
0000
0000
0000
0000
0010
,
0001
0000
1001
0000
1000
0010
0100
0001
,
1000
0000
0100
0000
0010
0000
0100
0000
1000
0000
0001
0000
0100
0010
1000
0000
,
0000
0000
0000
0000
0001
0010
0100
1000
,
0100
0010
0001
1000
0010
0100
0001
0010
,
0200
2300
3002
2003
,
3001
0000
0100
0000
0010
0000
0000
0100
0000
0000
0001
0000
0010
0000
0100
0000
,
1000
0000
0100
0000
0010
0000
0000
0001
0000
0000
0100
0000
1000
0000
0100
0000
,
0010
0000
1000
0000
0001
0000
0000
0010
0000
0000
0001
0000
1000
0000
0010
0000
,
0100
0000
0001
0000
1000
0000
0000
0100
0000
0000
0010
0000
1000
0000
0010
0000
,
0001
0000
0100
0000
0010
0000
0000
1000
0000
0000
0100
0000
0010
0000
0001
0000
,
1000
0000
0100
0000
0010
0000
0000
0001
0000
0000
0100
0000
1000
0000
0100
0000
,
0010
0200
0000
0000
0001
0000
0310
0200
0000
0000
0001
0000
0310
0000
1000
0000
,
0001
1000
0001
0000
0010
0000
0000
0100
0000
0000
0010
0000
1000
0000
0010
0000
,
0100
0100
0000
1000
0000
0001
0000
1000
,
0000
0010
0010
0000
0100
0010
1000
0000
,
0001
0000
0010
0000
0100
0000
0000
0010
0000
0000
0001
0000
0100
0000
0010
0000
,
1000
0000
0010
0000
0100
0000
0000
0001
0000
0000
0100
0000
1000
0000
0100
0000
,
0000
0010
0000
0000
1000
0000
0000
0010
0000
0000
1000
0000
0001
0000
0010
0000
,
0000
0100
0000
0000
1000
0000
0000
0100
0000
0000
1000
0000
0001
0000
0100
0000
,
0001
0010
0001
0100
0010
1000
0100
1000
,
0001
0010
1000
0010
0200
0000
0000
0300
,
2100
0000
0100
0000
3001
1000
0000
1000
,
0010
0010
0100
0100
0002
0000
0023
0030
,
0012
0000
1003
0001
0102
0000
2003
0000
,
3020
0000
0000
0100
0000
0000
0130
0000
0001
0000
1000
0000
0100
0000
0010
0000
,
0001
0000
1000
0001
0100
0100
1000
0001
,
0010
0010
1000
0001
0200
1000
0000
0301
,
1000
0000
1000
0000
0100
0000
0100
0000
0010
0000
0010
0000
0001
1000
0002
0000
,
2000
0000
0000
3003
0002
2003
3020
0230
,
0301
0000
0010
0100
0001
0100
1000
0010
,
0100
1000
0100
0001
1000
0100
0001
0100
,
0010
0000
0001
1000
0000
0001
0000
0001
,
0001
1000
0000
0010
0001
0010
0100
0001
,
1000
0000
0010
1000
0100
0010
0001
0000
,
0010
0001
0100
0010
1000
0000
0001
0010
,
0100
0000
1000
0010
1000
0100
0010
0000
,
1000
0010
0001
1000
0010
0100
0202
0000
,
0303
1002
0000
0000
,
0000
0000
0000
0203
,
0000
0000
0000
0000
,
0300
0000
0000
0000
,
0220
0000
0000
0330
,
2002
0000
0000
0000
,
0000
3003
1000
0001
,
0100
0000
0000
0100
0000
0000
0100
0010
,
0200
0000
0000
0300
;

//--------------- dance-single - LongKorsK ----------------
#NOTES:
     dance-single:
     LongKorsK:
     Hard:
     16:
     0.805859,0.926628,0.582496,0.459865,0.509684,736,660,76,60,0,0,0.805859,0.926628,0.582496,0.459865,0.509684,736,660,76,60,0,0:
0000
0000
0000
0000
,
0000
0000
0000
0000
,
0000
0000
0000
0000
,
0000
0000
0000
0000
,
0000
0000
0000
0000
,
0000
0000
0000
0000
,
0000
0000
1000
0100
0010
0100
1000
0000
,
1000
0100
0010
0100
1000
0001
0100
0001
,
0000
0000
0001
0100
0010
0100
0001
0000
,
0001
0010
0100
0010
0001
1000
0020
0000
,
0100
0000
0230
1300
0000
0200
0301
0000
,
0200
1300
0100
0001
0000
1000
0100
0020
,
0000
0000
0031
0000
0010
0000
0200
0000
0000
0000
1300
0000
0100
0000
0010
0001
,
1000
0010
0100
0010
0000
0110
0000
1001
,
0000
0001
1000
0100
0010
0001
1000
1000
,
0001
0100
0010
1000
0001
0001
0010
0100
,
0010
0000
0001
0010
0001
0000
1000
0010
1000
0000
0001
0010
0001
0000
0100
0000
,
0010
0000
1000
0000
0001
0000
0100
0000
0010
0100
0010
0100
0020
0000
0000
0000
,
1030
0100
0010
0001
0100
0001
0010
0001
,
0100
1000
0100
0001
0100
1000
0100
0001
,
1001
0000
1010
1000
0100
1000
0010
1000
,
0100
0010
0100
0010
0100
0000
0000
0000
0110
0000
0000
0000
1001
0000
0000
0000
,
1000
0100
0020
0000
0001
0000
0001
0000
,
0130
0001
0100
1000
0001
0100
0010
0000
,
0101
0000
1001
0000
1100
0000
1001
0001
,
1000
0000
0001
1000
0001
1000
0001
1000
0001
0000
0010
0000
0011
0000
0000
0000
,
1002
0100
1000
0100
,
1003
0100
0001
0100
1000
0000
1010
0000
,
2001
0100
0001
0100
,
3001
1000
0001
1000
0001
0000
0001
0000
0100
0000
0000
0000
0101
0000
0000
0000
,
2001
0010
0001
0010
,
3001
0100
1000
0100
0001
0000
0011
0000
,
1002
0100
1000
0103
,
0001
0001
0010
0010
0100
0000
1100
0000
,
1010
0000
0101
0000
0011
0011
0000
1001
,
1000
0010
0001
1000
0100
0001
0101
0000
,
1001
0000
0000
0000
1001
0000
0001
0000
0000
0000
0011
0000
0000
0000
0010
0100
,
2000
0000
3010
0002
0000
0013
1000
0020
,
0000
0000
0000
0000
0130
0000
0101
0000
0000
0000
0011
0000
0000
0000
0001
1000
,
0100
0110
0000
1100
0000
1000
0001
0201
,
0000
0000
0000
0000
0000
0000
0000
0000
0000
0000
0000
0000
0000
0000
0000
0000
0301
0000
0000
0000
0000
0000
0000
0000
0020
0030
0000
0000
0000
0000
0000
0000
0020
0030
0000
0000
0000
0000
0000
0000
1000
0000
0000
0000
0000
0000
0000
0000
0200
0000
0000
0000
0000
0000
0000
0000
0000
0000
0000
0000
0000
0000
0000
0000
,
1300
0000
0000
0000
0000
0000
0000
0000
0020
0030
0000
0000
0000
0000
0000
0000
0020
0030
0000
0000
0000
0000
0000
0000
0001
0000
0000
0000
0000
0000
0000
0000
0200
0000
0000
0000
0000
0000
0000
0000
0000
0000
0000
0000
0000
0000
0000
0000
0320
0000
0000
0000
0000
0000
0000
0000
0030
0000
0000
0000
0000
0000
0000
0000
,
1010
0000
0000
0000
0000
0000
0000
0000
0000
0000
0000
0000
0000
0000
0000
0000
1000
0000
0000
0000
0000
0000
0000
0000
0200
0300
0000
0000
0000
0000
0000
0000
0200
0300
0000
0000
0000
0000
0000
0000
0001
0000
0000
0000
0100
0000
0000
0000
0001
0000
0000
0000
0000
0000
0000
0000
0010
0000
0000
0000
0000
0000
0000
0000
,
1000
0010
0001
1000
0100
0001
0200
0000
,
1300
0010
0001
0010
0100
0000
0101
0000
0000
0000
1100
0000
0000
0000
0100
0010
,
0002
0000
0103
2000
0000
3100
0001
0200
,
0000
0000
0000
0000
0310
0000
1010
0000
0000
0000
1100
0000
0000
0000
1000
0001
,
0010
0110
0000
0011
0000
0001
1000
1010
,
0110
0000
0101
0100
1000
0100
0101
0000
,
1100
0100
0001
0100
1100
1000
1001
0000
,
0102
0000
0013
0100
1100
1000
1001
0000
,
1000
0000
0010
0000
0001
0000
0010
0000
1000
0000
0100
0000
0010
0000
0000
0001
,
0010
0000
0000
0000
0100
0000
0000
1000
0010
0000
0000
0000
0100
0000
0000
0001
,
1000
0000
0000
0000
0100
0000
0000
0010
0100
0000
0000
0000
1001
0000
0000
1000
,
0001
0000
0000
0000
0010
0000
0000
0100
1000
0000
0000
0000
0010
0000
0000
0100
,
0001
0000
0020
0000
0031
0010
0100
1000
,
0010
0000
0100
0000
0001
0000
1000
0000
0100
0010
0100
1000
0001
0000
1001
0000
,
0000
0000
0000
0000
0000
0000
0000
0000
1000
0010
1000
0000
0010
0000
0100
0000
,
0001
0010
0001
0010
0100
0010
0100
1000
0100
1000
0010
1000
0010
0100
0010
0100
,
0002
0023
0230
2300
,
3001
0010
0000
0100
1000
0000
0100
0010
0000
0001
0010
0000
0100
1000
0001
0000
,
1000
0010
0000
0100
0001
0000
0100
0010
0000
1000
0010
0000
0100
0001
0010
0000
,
0001
0010
0000
0100
0010
0000
0100
1000
0000
0100
0010
0000
0100
1000
0001
0000
,
1000
0010
0000
0100
0010
0000
0100
0001
0000
0100
0010
0000
0100
0001
0010
0000
,
0001
0010
0000
0001
1000
0000
0001
0100
0000
0010
0100
0000
0001
0100
0010
0000
,
1000
0010
0000
1000
0001
0000
1000
0100
0000
0010
0100
0000
0001
0100
1000
0000
,
0100
0010
0000
0001
1000
0000
0010
0100
0000
0001
1000
0000
0100
0000
0010
0000
,
0001
1000
0001
0100
0001
0000
0100
0001
0000
0100
0010
0100
1000
0000
0100
0000
,
0110
0110
0000
1010
0000
1001
0000
1100
,
0000
0000
0110
0000
0210
0000
0000
0000
1300
0100
0010
0001
1000
0000
0000
0000
,
0001
0010
0000
0100
1000
0000
0001
1000
0000
0010
0100
0000
0001
0100
0010
0000
,
1000
0010
0000
0100
0001
0000
1000
0001
0000
0010
0100
0000
0001
0100
0010
0000
,
0001
0010
0000
0001
0100
0000
0001
0010
0000
0001
0100
0000
0001
0010
0100
0000
,
1000
0010
0000
1000
0100
0000
1000
0010
0000
1000
0100
0000
1000
0001
0100
0000
,
0001
0000
0010
0000
0001
0000
1000
0010
0100
0000
0001
0000
1000
0000
0100
0000
,
0010
0100
1000
0001
0100
0000
0010
2000
0002
0000
0000
0000
0000
0000
3003
0000
,
1200
0000
0001
0300
0210
0001
0000
1300
,
0001
0010
0001
0000
1000
0100
0010
0100
2000
0000
0000
0000
3002
0000
0003
0000
,
0201
0000
0010
0301
0200
0010
1000
0300
,
0110
0000
0000
0110
0000
0000
0110
0000
0010
1000
0001
0000
1000
0001
0010
0100
,
0010
0000
0000
0000
0011
0000
0001
1000
0010
0000
0000
0000
1010
0000
0000
0000
,
1000
0000
0000
0000
1100
0000
1000
0001
0100
0000
0201
0000
0000
0000
0310
0000
,
0010
0000
0000
0000
1000
0010
1000
0000
0100
0000
0010
0000
0001
0100
0002
0000
,
2000
0000
0000
3003
0002
2003
3200
0320
,
0031
0000
0000
0000
0010
0000
0100
0000
0001
0100
0010
0000
0100
0000
1000
0000
,
0010
0000
0001
0010
0100
0000
0001
0000
0010
0100
1000
0000
0001
0000
0100
0000
,
0010
0000
0000
0000
1010
0000
1000
0000
0001
0010
0100
0000
0000
0000
1000
0000
,
1000
0000
0001
0000
0010
0000
0001
0100
0010
0000
1000
0000
0100
0000
0010
0000
,
0001
0000
1000
0100
0001
0100
1100
0000
,
1000
0000
0010
0000
0001
0000
0010
0000
1010
0000
1000
0001
0010
0000
0100
0000
,
0010
1000
0010
0001
1000
0010
1001
0000
,
0001
0010
0001
0010
0001
0000
1000
0000
0010
0100
0001
0010
0001
1000
0100
0010
,
0000
1002
0000
0000
,
0000
0000
0000
0203
,
0000
0000
0000
0300
,
0000
0020
0000
0000
0000
0000
2000
0000
0000
0000
0000
0000
3030
0000
0000
0000
,
0220
0000
0000
0330
,
2002
0000
0000
0000
,
0000
3003
0001
1000
,
1000
0001
0000
0100
0010
0000
0010
0100
,
0200
0000
0000
0300
;

//--------------- dance-single - LongKorsK ----------------
#NOTES:
     dance-single:
     LongKorsK:
     Challenge:
     18:
     0.912066,1.042457,0.743449,0.697462,0.770274,833,736,97,91,24,0,0.912066,1.042457,0.743449,0.697462,0.770274,833,736,97,91,24,0:
0000
0000
0000
0000
,
0000
0000
0000
0000
,
0000
0000
0000
0000
,
0000
0000
0000
0000
,
0000
0000
0000
0000
,
0000
0000
0000
0000
,
0000
0000
0000
0000
1000
0000
0100
0000
0001
0000
0100
0000
2000
3000
0000
0000
,
1010
0000
0010
0000
0001
0000
0010
0000
0100
0000
0010
1000
0001
0000
0100
0000
,
0000
0000
0000
0000
0001
0000
0100
0000
1000
0000
0100
0000
0002
0003
0000
0000
,
0011
0000
0010
0000
1000
0000
0010
0000
0100
0010
0001
0000
0200
0000
0000
0000
,
0310
0000
0000
0000
1000
0010
0001
0000
0000
0000
0001
0010
1000
0000
0000
0000
,
1000
0010
0001
0000
0010
0000
0200
0300
0000
0000
0100
0010
1000
0000
0001
0000
,
0000
0000
0010
0000
0200
0000
0301
0000
0000
0000
0200
0000
1300
0000
0100
0010
,
0001
0000
1000
0000
0010
0000
0200
0300
0000
0000
0120
0000
0000
0000
0130
0000
,
0010
0000
0010
0000
1000
0000
0010
0000
0001
0000
0001
0000
0010
0000
1000
0001
,
0010
0010
0001
0010
1000
1000
0010
0001
,
1000
0000
0010
0100
0010
0000
0100
0001
0010
0000
0100
1000
0100
0000
0010
0001
,
0010
0100
1000
0100
0010
0001
1000
0010
0100
0000
0001
0000
1000
0000
0000
0000
,
1000
0000
0001
0000
1000
0000
0000
0001
0100
0000
0000
0100
0010
0000
0000
0010
,
1000
0100
0010
0001
1000
0100
MMMM
0000
,
1001
0000
0000
0000
1010
0000
1000
0000
0001
0000
0000
1000
0100
0000
0000
0100
,
0010
0001
0100
0001
0020
0000
0000
0000
0130
0000
0000
0000
MMMM
0000
0000
0000
,
1100
1000
0020
0000
0001
0000
1000
0000
,
0130
1000
0100
0001
1000
0100
0001
0000
,
1100
0000
1001
0000
0101
0000
1001
1000
,
0100
0000
0010
0001
0100
0010
1000
0001
1000
0000
0010
0000
0110
0000
0000
0000
,
2001
0100
0001
3010
,
1001
1000
1100
0100
0110
0000
MMMM
0000
,
1002
0100
1000
0010
,
1003
0100
0010
0001
0100
0000
0100
0000
0110
0000
0000
0000
MMMM
0000
0000
0000
,
1002
0010
1000
0103
,
1001
0001
0011
0010
0110
0000
MMMM
0000
,
2001
0010
0001
3100
,
1001
0001
0101
0100
0110
0000
MMMM
0000
,
1100
0000
0011
0000
1001
1010
0000
0101
,
0001
0010
1000
0001
0100
1000
1100
0000
,
1010
0000
0000
0000
1000
0010
1000
0000
0000
0000
0101
0000
0000
0000
0001
0100
,
0001
1000
0100
0001
0000
0100
1000
0010
,
0110
0000
0000
0000
0100
0000
0001
0000
0010
0000
1000
0010
0001
0000
0010
0100
,
1000
0010
0000
0101
0000
1010
1000
0001
,
0010
0100
1000
0000
0010
0000
0100
0001
0100
0010
1000
0010
0100
0000
0001
0100
,
0001
0000
1000
0000
0100
0000
0010
0001
0100
0000
0000
0000
0101
0000
0000
0000
,
0001
0100
1000
0000
0100
0000
0001
0000
0010
0000
0100
1000
0100
0000
1000
0000
,
0100
0001
0100
0000
1000
0000
0010
0000
0001
0010
1000
0000
1020
0000
0000
0000
,
1030
0010
0001
0010
1000
0000
2001
0000
0000
0000
3002
0000
0000
0000
0013
1000
,
0010
0000
0001
0000
0010
0000
0200
0000
0000
0000
1300
0001
1000
0000
1002
0000
,
0000
0000
0000
0000
0103
0000
0010
0000
0000
0000
1010
0000
0000
0000
1000
0010
,
0001
0010
0100
0001
0010
1000
0010
0100
,
0110
0000
1100
1000
1010
0001
0101
0000
,
0101
0001
0011
1000
1100
1001
0110
0000
,
0010
0000
1001
1000
1100
0001
0011
0000
,
0001
0000
0001
0000
1000
0000
1000
0000
0010
0000
1000
0000
0200
0000
0000
0310
,
0001
0000
0000
0000
0011
0000
0000
1000
0010
0000
0000
0000
1010
0000
0000
0100
,
0001
0000
0000
0000
1001
0000
0000
1000
0010
0000
0000
0000
1001
0000
0001
1000
,
0100
0000
0000
0000
0011
0000
0000
1000
0010
0000
0000
0000
1001
0000
0000
0001
,
0010
0000
0000
0000
1200
0000
0000
0000
1300
0010
0100
0010
1000
0001
0010
0100
,
1000
0100
0010
0100
1000
0100
0010
0001
1000
0100
0010
0001
1000
0100
1000
0000
,
0000
0000
0000
0000
0000
0000
0000
0000
0001
0010
0100
1000
0100
0010
0100
1000
,
0001
0100
0010
1000
0001
0010
0100
1000
0001
1000
0010
1000
0100
0010
0001
1000
,
0020
2030
3200
0320
,
0032
1000
0000
0023
0100
0000
0032
1000
0000
0203
0010
0000
0301
1000
0010
0100
,
0002
1000
0000
0023
0100
0000
0032
1000
0000
0203
0010
0000
1300
0100
0010
1000
,
0020
0100
0000
2030
0001
0000
3200
0010
0000
2300
0001
0000
3010
0100
0001
1000
,
0200
1000
0000
0320
0100
0000
0032
1000
0000
0203
0010
0000
1300
0100
0010
0000
,
2000
0001
0000
3020
0100
0000
2030
0001
0000
3200
0010
0000
1300
0001
0010
0100
,
2000
0001
0000
3020
0100
0000
2030
0001
0000
3200
0010
0000
0301
0100
0010
0100
,
1000
0001
0000
0001
1000
0000
1000
0010
0000
0010
0200
0000
0010
0000
0301
0000
,
0100
0010
0100
0001
1000
0000
1000
0100
0000
0100
0010
0200
0001
0000
0310
0000
,
0110
0110
0000
0011
0000
1001
0000
0101
,
0000
0000
0110
0000
0210
0000
0000
0000
0301
0100
0010
1000
0100
0010
0100
1000
,
0002
0010
0000
2003
0100
0000
3002
0100
0000
2003
0010
0000
3100
0010
0001
1000
,
0002
0100
0000
2003
0010
0000
3002
0010
0000
0203
0010
0000
1300
0100
0010
0100
,
0001
0010
0000
1000
0010
0000
0001
0010
0000
1000
0010
0000
0100
1000
0010
0100
,
0001
0010
0000
1000
0010
0000
0001
0010
0000
1000
0010
0000
0001
0100
1000
0100
,
0002
0000
0023
0000
0031
0000
0100
0001
2000
0000
3020
0000
1030
0001
0010
0100
,
1000
0001
0100
0001
0010
0000
0100
1000
0010
0000
0100
0000
0110
0000
0000
0000
,
0102
0000
0000
0000
1000
0000
0003
0000
0021
0000
0100
0000
0000
0000
1030
0010
,
0100
0010
0001
1000
0001
0100
0010
0100
0002
0000
0000
0000
0203
0000
0300
0000
,
2010
0000
0000
0000
0001
0000
3001
0000
1200
0000
0010
0000
0310
0001
1000
0000
,
2001
0000
0000
0001
0000
0000
0001
0000
3100
1000
0001
1000
0010
0100
1000
0100
,
0010
0000
0000
0000
1010
0000
1000
0010
0100
0000
0001
0000
0011
0000
0010
0000
,
0001
0000
0000
0000
0101
0000
0001
0100
0010
0000
1010
0000
0000
0000
0110
0000
,
1001
0000
0000
0000
1000
0001
0100
0000
0010
0000
0010
0000
1000
0001
0010
0000
,
0200
0000
0302
0000
2003
0000
3020
0000
0130
1000
0001
0100
0010
0000
0000
0000
,
1010
0000
0000
0000
0000
0000
0010
0000
0000
0001
0000
0000
0010
0100
0010
0100
0000
0000
0101
0000
0000
0001
0000
0000
,
0010
0000
0000
1000
0010
0100
0010
0000
0000
0001
0000
0000
1000
0010
0100
0001
0000
0000
0101
0000
0000
0100
0000
0000
,
0001
0000
0000
0000
0011
0000
0010
0000
0001
1000
0010
0000
0110
0000
0100
0000
,
0100
0000
0000
0001
0000
0000
0011
0000
0000
0010
0100
1000
0001
0000
0000
0100
0000
0000
1000
0000
0000
0100
0000
0000
,
0010
0000
1010
0100
0011
0100
1010
0000
,
1100
0000
0010
0000
0101
0000
0010
0000
1100
0000
1000
0001
0101
0000
0100
0000
,
0110
0010
0001
0010
1000
0001
0011
0010
,
1000
0010
0100
1000
0010
0001
0010
0100
0001
1000
0100
0001
1000
0010
0001
1000
,
0000
1002
0000
0000
,
0000
0000
0000
0203
,
0000
0000
0000
0000
,
0300
0020
0000
0000
0000
0000
2000
0000
0030
0000
0002
0000
3000
0000
0003
0000
,
0220
0000
0000
0330
,
2002
0000
0000
0000
,
0000
3003
1000
0001
,
0200
0300
0200
0300
0000
0000
0200
0300
0200
0300
0000
0000
0200
0300
0200
0300
,
0200
0000
0000
0300
;

//--------------- dance-double - LongKorsK ----------------
#NOTES:
     dance-double:
     LongKorsK:
     Easy:
     11:
     0.381031,0.540533,0.229933,0.337234,0.076644,348,318,30,44,0,0,0.381031,0.540533,0.229933,0.337234,0.076644,348,318,30,44,0,0:
00000000
00000000
00000000
00000000
,
00000000
00000000
00000000
00000000
,
00000000
00000000
00000000
00000000
,
00000000
00000000
00000000
00000000
,
00000000
00000000
00000000
00000000
,
00000000
00000000
00000000
00000000
,
00011000
00001000
00100000
01000000
,
01000000
00100000
00001000
00001000
,
00010000
00010000
00000010
00000100
,
00000010
00001000
00000100
00000010
,
00000002
00000003
00000001
00000100
,
00000010
00001000
00000100
00010000
,
00001000
01000000
00001000
00001000
,
00010000
00001000
00100000
01000000
,
10000000
00100000
00010000
00001000
,
00010000
00001000
00000010
00000001
,
00000100
00001000
00010000
01000000
,
00100000
00010000
00001000
00000100
,
00000011
00001000
00001000
00001000
,
00000010
00000010
00000010
00010000
,
00011000
00101000
00100000
00100000
,
02000000
13000000
00100000
01001000
,
00010000
00010000
00001000
00001000
,
00100000
00001000
00010000
00000000
,
00001001
00000000
00000011
00000000
00001100
00000000
00001000
00001000
,
00000002
00000203
00002300
00013000
,
00102000
00000000
00010000
00000000
,
01003000
00010000
00001000
00000010
,
00020010
00000000
00001000
00000000
,
00030100
00010000
00001000
00000000
00100000
00000000
00020000
00000000
,
10030000
00100000
00010000
00001000
,
01000000
01010000
10100000
01010000
,
00001000
00010000
00000100
00001000
,
00000002
00000023
00002030
00013000
,
00011000
00000000
01001000
00000000
00001000
00010000
00000000
00010100
,
00000000
00010000
00001000
00000000
00022000
00000000
00033000
00000000
,
00010000
00000000
00001000
00000010
00000000
00000100
00001000
00000001
,
00000000
00001000
00000010
00000100
00000000
00000001
00000100
00001000
,
00000000
00010000
00001000
00000000
00100000
01000000
10000000
00000000
,
00010000
01000000
00000000
00100000
00000000
01000000
00010000
00000000
,
01001000
00000000
00000000
00011000
00000000
00000000
00101000
00000000
,
00011000
00010000
00000100
00000100
,
00010100
00000000
00000000
00011000
00000000
00000000
00010010
00000000
,
00001000
00100000
01000000
00010000
,
00001000
00001000
00010000
00100000
00000000
01000000
00010000
10000000
,
00010000
00000000
00100000
01000000
00000000
10000000
01000000
00010000
,
00000000
00001000
00010000
00000000
00000010
00000100
00000001
00000000
,
00001000
00000100
00000000
00000010
00000000
00000100
00010000
00000100
,
00001000
00000001
00000100
00000001
,
00000010
00000000
00001000
00000000
00010000
00001000
00010000
00000000
,
00011000
00000000
00020000
00030000
00020000
00030000
00020000
00030000
,
00101000
00101000
00000000
00010010
,
00000020
00000130
00000002
00000013
,
00000200
00000000
00010300
00000000
00002000
00000000
01003000
00100000
,
20000000
31000000
00200000
00301000
,
00020000
00030010
00000200
00001000
,
00000302
00000000
00000023
00000000
00002030
00000000
00013000
00002000
,
00000000
00003000
00020000
00230000
,
20300000
32000000
03020000
00031000
,
00020000
00000000
00030200
00000000
00000320
00000002
00000000
00000033
,
00000001
00000000
00000000
00000100
00000000
00000000
00000001
00000000
00000000
00001000
00000000
00000000
00000100
00000000
00000000
00000000
,
00010000
00000000
00000000
00001000
00000000
00000000
00100000
00000000
00000000
00010000
00000000
00000000
10000000
00000000
00000000
00000000
,
00010000
00000000
00000000
01000000
00000000
00000000
00100000
00000000
00000000
10000000
00000000
00000000
00010000
00000000
00000000
00000000
,
10000000
00000000
00000000
01000000
00000000
00000000
00010000
00000000
00000000
00001000
00000000
00000000
00010000
00000000
00000000
00000000
,
00000010
00000000
00000000
00001000
00000000
00000000
00000001
00000000
00000000
00000010
00000000
00000000
00000001
00000000
00000000
00000000
,
00000100
00000000
00000000
00000010
00000000
00000000
00001000
00000000
00000000
00010000
00000000
00000000
01000000
00000000
00000000
00000000
,
00010000
00000000
00000000
00100000
00000000
00000000
00010000
00000000
00000000
10000000
00000000
00000000
01000000
00000000
00000000
00000000
,
00200000
00000000
00300000
00000000
00001000
00010000
00001000
00010000
,
00000100
00000100
00000000
00001000
00000000
00000001
00000000
00000100
,
00000000
00000100
00000100
00000000
00000001
00001000
00000001
00000000
,
00000010
00000000
00000000
00000100
00000000
00000000
00010000
00000000
00000000
00001000
00000000
00000000
00010000
00000000
00000000
00000000
,
00001000
00000000
00000000
01000000
00000000
00000000
00010000
00000000
00000000
10000000
00000000
00000000
00100000
00000000
00000000
00000000
,
00000000
00010000
00000100
00000010
,
00000001
00000100
00000010
00010000
,
00002000
00000000
00023000
00000000
,
00030100
00000000
00000010
00000000
00000100
00000000
00000000
00001000
00000000
00000000
00000010
00000000
00000200
00000000
00000000
00000000
,
00000301
00000000
00000001
00000000
00001000
00000100
00000000
00001000
,
00000020
00020030
00032000
00003020
,
00000230
00020300
00032000
00203000
,
02300000
00000000
00000000
03000000
11000000
00000000
00000000
00000000
,
10000000
00000000
00100000
01000000
00100000
00000000
01000000
00010000
,
01000000
00100000
00010000
00000000
00011000
00000000
00000000
00000000
,
00001000
00000100
00000001
00000000
00000010
00000000
00000001
00000000
,
00000201
00000000
00000000
00000000
00001300
00010000
00001000
00000000
,
00010000
00001000
02000000
03000000
,
00001000
01000000
00100000
00100000
,
20000000
30000000
00010000
00000000
,
00100000
00100000
00001000
00010000
,
00000000
00000100
00000100
00000010
,
00000001
00000001
00000100
00000000
,
00000001
00001000
00000010
00000010
,
00010000
00000100
00010000
00001000
,
00000000
00012000
00000000
00000000
,
00000000
00000000
00000000
00000000
,
00000000
00000000
00000000
00000000
,
00003000
00020000
00000000
00000000
00000000
00000000
00000000
00000000
00000000
00000000
00000000
00000000
00000000
00000000
00000000
00030010
,
00000000
00000000
00000000
00000000
,
00021000
00000000
00000000
00000000
,
00000000
00000000
00000000
00000000
00000000
00030000
00001000
00000000
,
00010000
00000000
00000000
00010000
00000000
00000000
00010000
00000000
,
00022000
00000000
00000000
00033000
;

//--------------- dance-double - LongKorsK ----------------
#NOTES:
     dance-double:
     LongKorsK:
     Medium:
     14:
     0.548554,0.733581,0.183946,0.360228,0.164785,501,477,24,47,0,0,0.548554,0.733581,0.183946,0.360228,0.164785,501,477,24,47,0,0:
00000000
00000000
00000000
00000000
,
00000000
00000000
00000000
00000000
,
00000000
00000000
00000000
00000000
,
00000000
00000000
00000000
00000000
,
00000000
00000000
00000000
00000000
,
00000000
00000000
00000000
00000000
,
00011000
00000000
00001000
00000000
01000000
00100000
01000000
00000000
,
00001000
00000000
01000000
00100000
01000000
00000000
00001000
00000000
,
00010000
00000000
00000100
00000000
00000010
00000100
00001000
00000000
,
00000010
00000100
00000001
00000000
00001000
00000000
00000100
00000000
,
00020000
00000000
00031000
00100000
00000000
00001000
00000000
00100000
,
00100000
00000000
00010000
01000000
00000000
01000000
00100000
10000000
,
00000000
00000000
10000000
01000000
00000000
10000000
00000000
00010000
,
00010000
01000000
00000000
00100000
00000000
00010000
00000000
00001000
,
00010000
00000000
00001000
00010000
00000010
00000000
00010000
00000000
,
00010000
00001000
00100000
00000000
00001000
00000000
00001000
00010000
,
00000100
00000000
00000010
00000001
00000100
00000010
00001000
00000000
,
00000010
00010000
00001000
01000000
00010000
00100000
01000000
00000000
,
10000000
01000000
00200000
00300000
00200000
00300000
00200000
00300000
,
00001000
00010000
00001000
00010000
00001000
00010000
00000010
00000000
,
00000100
00000001
00000020
00000030
00000020
00000030
00000020
00000030
,
00001000
00010000
00001000
00010000
00001000
00000000
00000000
00000000
00100000
00000000
00000000
00000000
00011000
00000000
00000000
00000000
,
00010000
00000010
00020000
00000000
00032000
00000000
00023000
00000000
,
00031000
00100000
00002000
00000000
00013000
00001000
00011000
00000000
,
00011000
00000000
00101000
00000000
00010010
00000000
00010000
00001000
,
02000000
00010000
10000000
03100000
,
10000000
00010000
00100000
01000000
10000000
00100000
00010000
00100000
,
02000000
03002000
00013000
00010010
,
00000001
00001000
00000010
00000100
00000001
00000010
00001000
00000010
,
00000200
00010000
00010300
00000000
00101000
00000000
10020000
00000000
,
10030000
00100000
01000000
00010000
00100000
00001000
00010000
00000100
,
00002000
00003020
00010030
00010010
,
00000001
00000010
00000100
00001000
00000010
00010000
00001000
01000000
,
00200000
10000000
00010000
01300000
,
10010000
00000000
10000000
00000000
01000000
00010000
00000000
00012000
,
00000000
00100000
00103000
00000000
00022000
00000000
00033000
00000000
,
00010000
00000000
00001000
00000000
00000100
00000000
00000001
00000000
00000000
00000000
00000001
00000000
00000001
00000000
00001000
00000001
,
00001000
00000001
00000010
00001000
00000000
00000010
00001000
00010000
,
00000000
00000000
00001000
00000000
00010000
00000000
01000000
00000000
00000000
00000000
00100000
00000000
00100000
00000000
01000000
00100000
,
01000000
10000000
00010000
01000000
00000000
00010000
10000000
01000000
,
00100000
00001000
00001000
00010000
00001000
00001000
01000000
00001000
,
00010000
00000000
00010000
00000000
00001000
00000000
00000010
00000000
00000200
00000300
00000000
00000000
00000200
00000300
00000000
00000000
,
00010000
00010000
00000100
00010000
00010000
00001000
00010000
00000010
,
00000200
00002300
00023000
00230000
02300000
03002000
00023000
00030000
,
00001000
00000000
00001000
00000000
00010000
00000000
00100000
00000000
00000000
00000000
10000000
00000000
10000000
00000000
00010000
10000000
,
00010000
10000000
01000000
00010000
00000000
01000000
00010000
00001000
,
00000000
00000000
00010000
00000000
00001000
00000000
00000010
00000000
00000000
00000000
00000100
00000000
00000100
00000000
00000010
00000100
,
00000010
00000001
00001000
00000010
00000000
00001000
00000001
00000010
,
00001000
00000000
00011000
00000000
00010000
01000000
00010000
00000000
,
00011000
00000000
00001000
00000100
00001000
00010000
00001000
00000000
,
00011000
00000000
00200000
01300000
00020000
01030000
20000000
31000000
,
00100000
00000000
00000000
00000000
00101000
00000000
00000000
00000000
00010010
00000000
00000010
00001000
00000010
00000000
00000100
00000000
,
00000001
00000000
00000010
00000000
00000100
00000000
00000000
00010000
00001000
00000000
01000000
00000000
00010000
00000000
00000000
00100000
,
01000000
00000000
10000000
00000000
00100000
00000000
00000000
01000000
00001000
00000000
00000000
00001000
00010000
00000000
00000000
00010000
,
00000100
00000000
00000010
00000000
00000001
00000000
00000000
00001000
00000010
00000000
00000100
00000000
00001000
00000000
00000000
01000000
,
00010000
10000000
10000000
00000000
00010000
10000000
01000000
00010000
,
00001000
00000010
00000001
00001000
00000001
00000100
00001000
00020000
,
00000000
00000000
00031000
00000000
00010000
01000000
10000000
00100000
,
01000000
00100000
00010000
00001000
00000100
00000001
00001000
00000000
,
00000110
00000000
00000002
00000000
00000203
00000020
00000000
00000330
,
00001000
00000100
00000000
00000000
00001000
00000000
00000000
00000001
00000000
00000000
00000100
00000000
00001000
00010000
00000000
00000000
,
00001000
00100000
00000000
00000000
00010000
00000000
00000000
01000000
00000000
00000000
00010000
00000000
10000000
01000000
00000000
00000000
,
00010000
00001000
00000000
00000000
00010000
00000000
00000000
00000100
00000000
00000000
00001000
00000000
00000010
00001000
00000000
00000000
,
00000001
00000010
00000000
00000000
00000100
00000000
00000000
00001000
00000000
00000000
00000001
00000000
00000100
00000000
00001000
00000000
,
00010000
00001000
00000000
00000000
00100000
00000000
00000000
00010000
00000000
00000000
01000000
00000000
00100000
10000000
00000000
00000000
,
01000000
00100000
00000000
00000000
01000000
00000000
00000000
10000000
00000000
00000000
00010000
00000000
00100000
00010000
00000000
00000000
,
00100000
00000000
00001000
00010000
00000000
00000000
00001000
00000000
00010000
00001000
00000000
00000000
00000010
00000000
00000100
00000000
,
00001000
00000001
00000100
00001000
00010000
00100000
10000000
00010000
,
01000000
01000000
00000000
01010000
00000000
01010000
00000000
00010000
,
00000000
00100000
00100000
00000000
00001000
00010000
00011000
00000000
,
00001000
00000010
00000000
00000000
00000100
00000000
00000000
00000010
00000000
00000000
00000001
00000000
00000100
00000001
00000000
00000000
,
00001000
00000100
00000000
00000000
00010000
00000000
00000000
00001000
00000000
00000000
00010000
00000000
00100000
00000000
02000000
00000000
,
00000000
03001000
01000000
00000000
00010000
00100000
01000000
00000000
,
10000000
00010000
10000000
00100000
01000000
00001000
00010000
00000000
,
00001000
01000000
00001000
00100000
00010000
00001000
00000100
00000010
,
00000002
00000000
00001000
00000013
,
00000011
00000000
00000001
00000000
00000101
00000100
00000000
00000010
,
00002000
00003200
00010300
00001000
,
00011000
00010000
01010000
01000000
,
10000000
00000000
00000000
10000000
00000000
00000000
10000000
00000000
00200000
00000000
00000000
00000000
00000000
00000000
00000000
00000000
,
01300000
10000000
01000000
00010000
00100000
00001000
00010000
00000100
,
00000010
00000000
00000100
00000000
00010000
00000000
00000100
00000000
00000010
00000001
00001000
00000001
00001000
00000000
00000000
00000000
,
00000010
00000000
00000100
00000000
00000010
00000000
00001000
00000000
00000100
00000000
00000100
00000000
00010000
00001000
00000000
00000000
,
00011000
00010000
01000000
10000000
00100000
00010000
00001000
00010000
,
00011000
00000000
00001000
00000000
00100000
00010000
01000000
00000000
,
00010000
10000000
00100000
10000000
00010000
00100000
00001000
00000000
,
00010000
00000000
00000010
00001000
00000000
00001000
00000001
00000000
,
00001000
00000100
00000010
00000001
00000100
00000010
00001000
00000000
,
00000101
00000000
00001000
00000100
00001000
00000100
00020000
00000000
,
00031000
01000000
00001000
01000000
00200000
00000000
10300000
00010000
,
10000000
00000000
00010000
00100000
00010000
00100000
00002000
00000000
,
00013000
00000010
00000100
00000001
00000010
00000100
00010000
00001000
,
00000000
02000000
00000000
00000000
,
00000000
00000000
00000000
00000000
,
00000000
00000000
00000000
00000000
,
03000000
00000000
00002000
00000000
00000000
00000000
00000000
00000000
00000000
00000000
00000000
00023000
00000000
00000000
00000000
00000000
00000000
00000000
00000000
00000000
00000000
00000000
00000000
00000000
00000000
00000000
00000000
00000000
00030100
00000000
00010000
00000000
,
00000000
00000000
00000000
00000000
,
00021000
00000000
00000000
00000000
,
00000000
00000000
00000000
00000000
00000000
00030000
00001000
00000000
,
00100000
00000000
00000000
01000000
00000000
00000000
10000000
00000000
,
00022000
00000000
00000000
00033000
;

//--------------- dance-double - LongKorsK ----------------
#NOTES:
     dance-double:
     LongKorsK:
     Hard:
     17:
     0.694178,0.965238,0.222268,0.337234,0.421543,634,605,29,44,0,0,0.694178,0.965238,0.222268,0.337234,0.421543,634,605,29,44,0,0:
00000000
00000000
00000000
00000000
,
00000000
00000000
00000000
00000000
,
00000000
00000000
00000000
00000000
,
00000000
00000000
00000000
00000000
,
00000000
00000000
00000000
00000000
,
00000000
00000000
00000000
00000000
,
00011000
00000000
00010000
00001000
00010000
00001000
01000000
00000000
,
00001000
00010000
00001000
00010000
00000100
00000000
00000010
00000100
,
00001000
00000000
00000001
00000100
00000010
00001000
00000001
00000000
,
00000010
00000100
00010000
00001000
00100000
00010000
01000000
00000000
,
10010000
00000000
00000000
00000000
10000000
00000000
00100000
00000000
00000000
00000000
00100000
00000000
10000000
00000000
00010000
10000000
,
00010000
00000000
00100000
01000000
00000000
01000000
00100000
00001000
,
00000000
00000000
00010000
00001000
00000000
00010000
00000000
00001000
,
00001000
00000100
00000000
00000010
00000000
00001000
00000000
00000100
,
00010000
00000000
00001000
00001000
00010000
00010000
01000000
00000000
,
00010000
00010000
00001000
00001000
00000100
00000000
00000010
00000100
,
00000001
00000010
00000100
00001000
00000010
00000100
00001000
00000000
,
00010000
00100000
01000000
00010000
00100000
01000000
00100000
00000000
,
00110000
00001000
00020000
00030000
00020000
00030000
00020000
00030000
,
00000010
00001000
00000010
00001000
00000010
00001000
00000002
00000003
,
00001100
00010000
00012000
00003000
00002000
00003000
00002000
00003000
,
00010000
00001000
00100000
00010000
10000000
00000000
00000000
00000000
00010000
00000000
00000000
00000000
00011000
00000000
00000000
00000000
,
00001000
00010000
02000000
00000000
23000000
00000000
30200000
00000000
,
00310000
00100000
00010000
00001000
00010000
00100000
00010000
00001000
,
00011000
00001000
00100000
00000000
10010000
00000000
00010000
01000000
,
00001000
00000000
00010000
00000000
00000010
00000000
00001000
00000000
00000100
00000010
00000100
00000010
00000002
00000000
00000000
00000000
,
00001003
00000010
00000100
00001000
00010000
00000010
00000100
00001000
,
00010000
00000000
00011000
00000000
00001000
01000000
00020000
00000000
,
00130000
01000000
00010000
00001000
00100000
01000000
00010000
00001000
,
00010000
00000100
00010000
00000100
00001000
00000000
00000001
00000000
00001001
00000000
00000000
00000000
00000220
00000000
00000330
00000000
,
00000001
00000100
00001000
00010000
01000000
10000000
00100000
00010000
,
00001000
00000000
00011000
00000000
00010000
00000100
00002000
00000000
,
00003001
00000010
00001000
00010000
00100000
10000000
01000000
00010000
,
00001000
00001000
00100000
00100000
00010000
01000000
20000000
00000000
,
31000000
00000000
10010000
00000000
00100000
00001000
00000000
00011000
,
00001000
00000010
00000001
00000100
00001000
00000000
00011000
00000000
,
00010000
00000000
00001000
00000000
00000010
00000000
00000200
00000000
00000000
00000000
00001300
00000100
00000010
00000000
00000100
00000010
,
00000001
00000000
00001000
00000000
00000001
00000000
00000200
00000000
00000000
00000000
00000301
00001000
00000100
00000000
00000020
00000000
,
00000000
00000000
00000031
00000000
00000100
00000000
00002000
00000000
00000000
00000000
00013000
00000000
00001000
00000000
00010000
00001000
,
00100000
00010000
10000000
00200000
00000000
10300000
01000000
00010000
,
00001000
00000000
00010000
00000000
00000010
00000000
00000100
00000000
00001000
00000000
00010000
00000000
00000010
00000000
00001000
00000001
,
00000100
00000000
00000001
00000000
00000100
00000000
00001000
00000000
00020000
00030000
00000000
00000000
00020000
00030000
00000000
00000000
,
00001000
00000000
00010000
00000000
01000000
00000000
00100000
00000000
00001000
00000000
00010000
00001000
00100000
00000000
00010000
00000000
,
20000000
32000000
03020000
00032000
00003200
00000302
00000023
00000030
,
00000001
00000000
00000100
00001000
00010000
00000000
00002000
00000000
00000000
00000000
00013000
00000000
00001000
00000000
00010000
00001000
,
01000000
00000000
00010000
00000000
10000000
00000000
02000000
00000000
00000000
00000000
03100000
01000000
10000000
00000000
00200000
00000000
,
00000000
00000000
10300000
00000000
01000000
00000000
00020000
00000000
00000000
00000000
00031000
00000000
00010000
00000000
00001000
00010000
,
00000100
00001000
00000001
00000020
00000000
00000031
00000100
00001000
,
00010000
00011000
00010010
00010100
,
01001000
00000000
00101000
00000000
00001000
00010000
00011000
00000000
,
01010000
00000000
01001000
00001000
00011000
00010000
00010100
00000100
,
00000110
00000000
00000000
00000000
00000110
00000000
00000000
00000000
00001001
00000000
00000001
00000100
00000010
00000000
00001000
00000000
,
00000100
00000000
00010000
00000000
00001000
00000000
00100000
00010000
10000000
00000000
00100000
00000000
01000000
00000000
00010000
00100000
,
00001000
00000000
00010000
00000000
00000010
00000000
00000100
00000001
00001000
00000000
00000100
00000010
00000001
00000000
00001000
00000010
,
00000100
00000000
00001000
00000000
00010000
00000000
00001000
00100000
00010000
00000000
01000000
00000000
00100000
00000000
10000000
01000000
,
00200000
00000000
00010000
00000000
00310000
00000000
00000000
00010000
10000000
00100000
01000000
00000000
00100000
10000000
00010000
00000000
,
00100000
01000000
10000000
00000000
00010000
00100000
01000000
00000000
00100000
00001000
00010000
00000010
00001000
00000001
00000020
00000000
,
00000130
00000000
00000000
00000000
00001000
00000000
00000000
00000000
00000001
00000100
00000010
00000000
00010000
00001000
01000000
00000000
,
00010000
10000000
01000000
00000000
00100000
00010000
10000000
00000000
00010000
01000000
00001000
00010000
00000010
00001000
00000001
00000000
,
00000010
00000000
00000200
00000000
00020300
00002000
00000000
00033000
,
00010000
00001000
00000000
01000000
00010000
00000000
10000000
01000000
00000000
00100000
00010000
00000000
10000000
00010000
10000000
00000000
,
00010000
00100000
00000000
00001000
00010000
00000000
00000010
00001000
00000000
00000001
00001000
00000000
00000001
00000010
00000001
00000000
,
00000100
00000010
00000000
00001000
00000100
00000000
00010000
00001000
00000000
01000000
00010000
00000000
00100000
00010000
00100000
00000000
,
00010000
10000000
00000000
00100000
01000000
00000000
00010000
10000000
00000000
01000000
00010000
00000000
00001000
00010000
00001000
00000000
,
00000100
00000010
00000000
00001000
00000100
00000000
00000010
00000001
00000000
00001000
00000010
00000000
00001000
00000100
00001000
00000000
,
00000100
00010000
00000000
00001000
00010000
00000000
01000000
10000000
00000000
00100000
01000000
00000000
00100000
10000000
00100000
00000000
,
00010000
00001000
00000000
00000100
00000010
00000000
00000100
00000001
00000000
00000010
00000100
00000000
00000010
00000000
00000001
00000000
,
00001000
00000100
00001000
00000100
00010000
00000000
00001000
00010000
00000000
00100000
01000000
00000000
00010000
00000000
00100000
00000000
,
00001000
00001000
00000000
00011000
00000000
00011000
00000000
00010100
,
00000000
00000000
00010000
00000000
00011000
00000000
00000000
00000000
00001000
01000000
00010000
10000000
00010000
00000000
01000000
00000000
,
00010000
00100000
00000000
00001000
00010000
00000000
00001000
00000010
00000000
00000001
00001000
00000000
00000001
00000100
00000010
00001000
,
00000100
00010000
00000000
00001000
00010000
00000000
00100000
01000000
00000000
00010000
00100000
00000000
00001000
00010000
00000010
00001000
,
00000100
00000000
00010000
00000000
00000010
00000000
00001000
00000100
00000000
00000100
00000010
00000000
00000001
00000000
00000100
00000000
,
00000010
00000000
00001000
00000000
00000100
00000000
00010000
00001000
00000000
00010000
00001000
00000000
01000000
00000000
00100000
00000000
,
10000000
01000000
00010000
01000000
10000000
00100000
00010000
00001000
,
00010000
00000100
00010000
00000000
00000010
00000000
00000100
00000001
00000020
00000030
00000000
00000000
00002000
00003000
00000000
00000000
,
00011000
00000000
00000000
00000000
00010000
00000000
00000000
00000000
00001000
00000000
01000000
00100000
01000000
00000000
00010000
00100000
,
00010000
00000000
01000000
00100000
00010000
00000000
00001000
00010000
00000200
00000000
00000000
00000000
00000320
00000000
00000000
00000000
,
00000230
00000000
00000000
00000000
00001300
00000000
00001000
00000000
00000010
00000000
00000100
00000000
00000010
00010000
00001000
00000000
,
00011000
00000000
00000000
00010000
00000000
00000000
00010000
00000000
00000010
00001000
00000010
00001000
00000100
00000010
00000100
00000010
,
00000001
00000000
00000100
00000000
00001000
00000000
00000100
00000000
00000010
00000000
00001000
00000100
00001000
00000000
00000001
00000000
,
00000010
00000000
00000100
00000000
00001000
00000000
00010000
00000000
00100000
00000000
00001000
00010000
00001000
00010000
00002000
00000000
,
00000000
00000000
01003000
00000000
10000000
00000000
01000000
00000000
00100000
00000000
00100000
00000000
10000000
00010000
01000000
00000000
,
01020000
00000000
00000000
00000000
00000000
00000000
00000000
00000000
00130000
00000000
00001000
00000010
00001000
00000000
00010000
00000000
,
00011000
00000000
00000000
00001000
00100000
00000000
00010000
00000000
10000000
01000000
10000000
00000000
00010000
00000000
01000000
00000000
,
00100000
00000000
01000000
00010000
01000000
00000000
00010000
00000000
00100000
00000000
00001000
00000000
00000010
00000000
00000001
00000000
,
00000100
00000000
00000000
00000100
00000010
00000000
00001000
00000000
00000001
00000000
00000010
00000000
00001000
00000000
00000010
00000100
,
00000010
00000000
00000001
00000000
00000100
00000000
00000010
00000000
00001000
00000001
00001000
00000000
00000100
00000000
00010000
00000000
,
00011000
00000000
00000000
00000000
00001000
00000000
01000000
00100000
01000000
00000000
00001000
00000000
00010000
00000000
00000000
00000000
,
00010000
00000000
00000100
00000010
00000100
00000000
00010000
00000000
00001000
00000000
00010000
00001000
00010000
00000000
00000000
00000000
,
00001000
00001000
00010000
00010000
00100000
00100000
10000000
00010000
,
10000000
01000000
00010000
00001000
00000010
00000001
00000100
00000010
,
00000000
00010020
00000000
00000000
,
00000000
00000000
00000000
00000000
,
00000000
00000000
00000000
00000000
00000000
00000000
00000000
00000030
,
00000000
00000000
00002000
00000000
00000000
00000000
00000000
00000000
00000000
00000000
00000000
00003200
00000000
00000000
00000000
00000000
00000000
00000000
00000000
00000000
00000000
00000000
00000000
00000000
00000000
00000000
00000000
00000000
00010300
00000000
00001000
00000000
,
00000000
00000000
00000000
00000000
,
00021000
00000000
00000000
00000000
,
00000000
00000000
00000000
00000000
00000000
00030000
00001000
00000000
,
00001000
00100000
00000000
00100000
01000000
00000000
01000000
10000000
,
00020000
00000000
00000000
00030000
;

//--------------- dance-double - LongKorsK ----------------
#NOTES:
     dance-double:
     LongKorsK:
     Challenge:
     18:
     0.822283,1.312724,0.39855,0.291248,0.682133,751,699,52,38,0,0,0.822283,1.312724,0.39855,0.291248,0.682133,751,699,52,38,0,0:
00000000
00000000
00000000
00000000
,
00000000
00000000
00000000
00000000
,
00000000
00000000
00000000
00000000
,
00000000
00000000
00000000
00000000
,
00000000
00000000
00000000
00000000
,
00000000
00000000
00000000
00000000
,
00011000
00000000
00010000
00001000
00100000
00010000
10000000
00000000
,
10000000
01000000
00100000
00001000
00010000
00000000
00001000
01000000
,
00001000
00000000
00001000
00010000
00000010
00001000
00000001
00000000
,
00000010
00000001
00000100
00000001
00001000
00000100
00010000
00001000
,
00100000
00000000
00001000
00000000
00100000
00000000
00001000
00000000
00000000
00000000
00000000
00000000
00010000
00000000
00000000
00000000
00000000
00000000
00000010
00000000
00000000
00000000
00000000
00000000
00000000
00000000
00000000
00000000
00000000
00000000
00000010
00000000
00000000
00000000
00000000
00000000
00001000
00000000
00000000
00000000
00000000
00000000
00000010
00000000
00000000
00000100
00000000
00000000
,
00000010
00000000
00010000
00001000
00000000
00010000
00001000
01000000
,
00010000
00000000
00000000
00000000
10000000
00000000
01000000
00000000
00000000
00000000
00100000
00000000
00001000
00000000
00010000
00001000
,
00010000
00000100
00000000
00000010
00000000
00000001
00000000
00000100
,
00001000
00010000
00001000
00001000
00100000
00100000
01000000
01000000
,
10000000
10000000
00100000
00100000
01000000
01000000
00010000
00010000
,
00001000
00000000
00000100
00000010
00000100
00000000
00000010
00000001
00000010
00000000
00000001
00000100
00000010
00000000
00001000
00000010
,
00020000
00000000
00032000
00000000
00013000
00001000
00010000
00001000
01000000
00010000
01000000
00100000
10000000
00010000
00100000
00000000
,
11000000
00000000
01000000
00000000
00010000
00002000
00000000
00000000
00013000
00000020
00000000
00000000
00010030
00002000
00000000
00000000
,
00003010
00000100
00000010
00000100
00000010
00000100
00002000
00003000
,
00001001
00000000
00000001
00000000
00000100
00000002
00000000
00000000
00001003
00000020
00000000
00000000
00001030
00000200
00000000
00000000
,
00010300
00001000
00010000
00001000
00100000
00000000
00000000
00000000
00011000
00000000
00000000
00000000
10010000
00000000
00000000
00000000
,
01010000
00000000
00010000
00000000
01000000
00020000
00000000
00000000
00130000
00002000
00000000
00000000
00013000
00000200
00000000
00000000
,
00001300
00000001
00000100
00000001
00000010
00000001
00000100
00001000
,
00011000
00010000
00010010
00000000
00001001
00000000
00010100
00010000
,
00001000
00000000
00100000
00010000
10000000
00000000
00100000
01000000
00100000
10000000
01000000
00100000
00002000
00000000
00000000
00000000
,
00013000
00000100
00010000
00000010
00001000
00010000
00000100
00000010
,
00010010
00000000
00001001
00000000
00010100
00000100
00002000
00000000
,
00013000
00100000
00001000
01000000
00010000
00001000
00100000
01000000
,
00010000
10000000
00100000
10000000
00010000
00000000
01000000
00000000
00001000
00000000
00000000
00000000
00022000
00000000
00033000
00000000
,
00010000
00001000
00000100
00000001
00000010
00010000
00001000
00000100
,
00010100
00000000
00001001
00000000
00010010
00000010
00020000
00000000
,
00031000
00010000
00100000
10000000
01000000
00001000
00010000
00100000
,
00101000
00001000
00011000
00010000
00010100
00000100
00002000
00000000
,
00003001
00000000
00000101
00000000
00001010
00010010
00000000
00011000
,
00000000
01001000
01000000
00100000
00020000
00000000
00031000
00000000
,
00011000
00000000
00001000
00000000
00000010
00000000
00000100
00001000
00000001
00001000
00000100
00000000
00000010
00000000
00000100
00001000
,
00000010
00000100
00001000
00000000
00010000
00000000
00001000
01000000
00010000
01000000
00100000
00000000
10000000
00000000
00010000
00000000
,
01000000
00000000
00100000
00000000
00010000
00000000
00001000
00000000
01000000
00000000
00100000
00000000
10000000
00000000
00010000
01000000
,
00100000
01000000
00010000
00000000
10000000
00000000
01000000
00000000
00100000
00000000
00001000
00000000
00000010
00000001
00000100
00000000
,
00000101
00000000
00000001
00000000
00001000
00000000
00001010
00000000
00000010
00000000
00010000
00000000
00011000
00000000
00001000
00010000
,
00100000
10000000
00010000
00100000
20000000
00000000
30020000
00000000
,
01030000
00000000
00010000
00000000
00001000
00000000
00011000
00000000
00010000
00000000
00001000
00000010
00000100
00000000
00001000
00000000
,
00000020
00000032
00000023
00000230
00002300
00023000
02030000
00000000
,
03010000
00000000
00001000
00010000
00000100
00000000
00000010
00000001
00001000
00000001
00000010
00000000
00000100
00000000
00000010
00000001
,
00000100
00000001
00000010
00000000
00000100
00000000
00010000
00001000
01000000
00100000
00010000
00000000
00100000
00000000
10000000
00000000
,
01000000
00000000
00100000
00000000
00010000
00000000
10000000
00000000
01000000
00000000
00010000
00000000
00001000
00000000
01000000
00100000
,
10000000
00010000
00100000
01000000
00010000
00001000
00000010
00000100
,
00002000
00000000
01003000
00100000
00010000
01000000
00100000
00010000
,
00001000
00000100
00000010
00010000
00001000
00001000
01000000
00000000
,
00011000
00000000
00001000
00000100
00000001
00000010
00000001
00000100
,
00000110
00000000
00000000
00000000
00010010
00000000
00000000
00000000
00101000
00000000
00001000
00010000
00000100
00000000
00000010
00000000
,
00000011
00000000
00000001
00000000
00000100
00000000
00001000
00010000
00001000
00000000
00100000
00000000
00010000
00000000
01000000
00100000
,
01000000
00000000
00010000
00000000
10000000
00000000
01000000
00100000
01000000
00000000
00010000
00001000
00100000
00000000
00001000
00010000
,
00000010
00000000
00001000
00000000
00000001
00000000
00000100
00000010
00000100
00000000
00000001
00000000
00000010
00000000
00001000
00010000
,
00001000
00000000
00001000
00000000
00011000
00000000
00000000
00001000
00010000
00000010
00001000
00000100
00010000
00001000
00100000
00010000
,
10000000
00100000
01000000
00001000
00010000
00000010
00010000
00001000
00010000
00000100
00001000
00000100
00000010
00000100
00000002
00000000
,
00000103
00001000
00000100
00010000
00001000
00010000
00000010
00001000
00000001
00000010
00000100
00010000
00001000
00100000
00010000
10000000
,
01000000
00100000
00010000
00100000
00001000
00010000
00000100
00001000
00000010
00010000
00001000
00010000
00000100
00000010
00000001
00001000
,
00001001
00000000
00000000
00000000
00000000
00000000
00000000
00000000
00000000
00000000
00000000
00000000
00000010
00000000
00010000
00000000
00000010
00000000
00010000
00000000
00000010
00000000
00010000
00000000
00001000
00000000
00000000
00000000
00000000
00000000
01000000
00000000
00000000
00100000
00000000
00000000
10000000
00000000
00000000
00000000
00000000
00000000
00010000
00000000
00000000
00000000
00000000
00000000
,
10000000
01000000
00000000
10000000
00100000
00000000
01000000
00010000
00000000
10000000
01000000
00000000
00010000
00001000
01000000
00100000
,
00010000
00001000
00000000
00000010
00001000
00000000
00000010
00000100
00000000
00000010
00000001
00000000
00000100
00000010
00001000
00000100
,
00010000
00001000
00000000
00010000
00100000
00000000
01000000
00010000
00000000
00100000
00001000
00000000
00010000
00001000
00000010
00000100
,
00001000
00000010
00000000
00000001
00000010
00000000
00000100
00000001
00000000
00000010
00001000
00000000
00010000
00000100
00001000
00000001
,
00000100
00001000
00000000
00010000
01000000
00000000
00100000
00010000
00000000
10000000
00100000
00000000
00010000
00001000
01000000
00010000
,
00100000
00001000
00000000
00010000
00001000
00000000
00000010
00000100
00000000
00001000
00000010
00000000
00000100
00000001
00000010
00000100
,
00010000
00001000
00000000
00010000
00100000
00000000
10000000
01000000
00000000
00010000
00001000
00000000
00000010
00000000
00000001
00000000
,
00000100
00000010
00001000
00010000
01000000
00000000
00100000
10000000
00010000
00100000
00001000
00010000
00001000
00010000
00001000
00010000
,
00011000
00011000
00000000
01000100
00000000
01000100
00000000
00100010
,
00000000
00000000
01000100
00000000
01000100
00000000
00000000
00000000
00010000
00001000
00010000
00001000
00010000
00000010
00001000
00000001
,
00000010
00001000
00000000
00010000
00000100
00000000
00001000
00000001
00000000
00000100
00001000
00000000
00010000
00100000
10000000
00010000
,
00100000
01000000
00000000
10000000
00010000
00000000
10000000
00100000
00000000
00010000
00001000
00000000
00010000
00000100
00001000
00000001
,
00002000
00000000
00000100
00000000
00003100
00000000
00010000
00001000
00000000
00010000
00000100
00000000
00010000
00000010
00000100
00000001
,
00001000
00000100
00000000
00000100
00000010
00000000
00000001
00001000
00000002
00000000
00000203
00000000
00002300
00000000
00013000
00000000
,
00001000
00100000
00001000
01000000
00010000
00100000
01000000
10000000
00100000
01000000
00010000
00100000
00001000
00010000
00000100
00001000
,
00000001
00000010
00001000
00000000
00000010
00000000
00000100
00001000
00000000
00000010
00001000
00000000
00000200
00000000
00000000
00000000
,
00010300
00000000
00010000
00000000
00100000
00010000
00000000
00010000
,
00001000
01000000
00010000
00100000
00010000
01000000
00100000
10000000
02000000
00000000
00000000
00000000
03200000
00000000
00000000
00000000
,
00320000
00000000
00000000
00000000
00031000
00000000
00001000
00000000
00000020
00000000
00000100
00000000
00000130
00000001
00000100
00000001
,
00000010
00000000
00001000
00000010
00000000
00000001
00001000
00000000
00000100
00010000
00000100
00001000
00000010
00000100
00001000
00010000
,
00100000
00000000
10000000
00000000
01000000
00000000
00010000
00000000
00010000
00000000
00001000
00100000
00001000
00000000
00010000
00000000
,
01000000
00000000
00010000
00000000
00000100
00000000
00010000
00000000
00000010
00000100
00000010
00001000
00000010
00001000
00000100
00000010
,
00000001
00000000
00000100
00000000
00001100
00000000
00000000
00000000
00001000
00000000
00000100
00000000
00000010
00001000
00000010
00000000
,
00020000
00000000
00032000
00000000
00203000
00000000
02300000
00000000
03010000
00000000
01000000
10000000
00010000
00000000
00000000
00000000
,
10010000
00000000
00000000
00000000
00000000
00000000
00000000
00000000
00000000
10000000
00000000
00000000
00100000
00000000
00000000
00000000
00000000
00000000
01000000
00000000
00000000
00000000
00000000
00000000
00010000
00000000
00100000
00000000
00010000
00000000
00100000
00000000
00000000
00000000
00000000
00000000
00001000
00000000
00000000
00000000
00000000
00000000
00010000
00000000
00000000
00000000
00000000
00000000
,
00000010
00000000
00000000
00001000
00000100
00001000
00000100
00000000
00000000
00000010
00000000
00000000
00000001
00000100
00000001
00000100
00000000
00000000
00000010
00000000
00000000
00001000
00000000
00000000
,
00000100
00000000
00010000
00001000
00010000
00000000
02000000
00000000
00000000
00000000
13000000
00010000
10000000
00000000
00100000
00000000
,
01000000
00000000
00000000
00000000
00000000
00000000
00010000
00000000
00000000
00100000
00000000
00000000
00001000
00000000
00000000
00000000
00000000
00000000
00010000
00000000
00000000
00000000
00000000
00000000
00000010
00000000
00000100
00000000
00000010
00000000
00000100
00000000
00000000
00000000
00000000
00000000
00000001
00000000
00000000
00000000
00000000
00000000
00001000
00000000
00000000
00000000
00000000
00000000
,
00001010
00000000
00000000
00000000
00000000
00000000
00000000
00000000
00000000
00000001
00000000
00000000
00000010
00000000
00000000
00000000
00000000
00000000
00001000
00000000
00000000
00000000
00000000
00000000
00010000
00000000
00000000
00000000
00000000
00000000
00001000
00000000
01000000
00000000
00100000
00000000
10000000
00000000
00000000
00000000
00000000
00000000
00000000
00000000
00000000
00010000
00000000
00000000
,
00100000
00000000
00000000
00000000
00000000
00000000
00001000
00000000
00000000
00000000
00000000
00000000
00010000
00000000
00000000
00000000
00000000
00000000
00000100
00000000
00000010
00000000
00000001
00000000
00001000
00000000
00000000
00000000
00000000
00000000
00000010
00000000
00000000
00000100
00000000
00000000
00000010
00000000
00000000
00000000
00000000
00000000
00000000
00000000
00000000
00000000
00000000
00000000
,
00001001
00000001
00000100
00000100
00000010
00000010
00001000
00001000
,
00000001
00000010
00001000
00010000
01000000
10000000
00100000
01000000
,
00000000
02000200
00000000
00000000
,
00000000
00000000
00000300
00000000
,
00000000
00000000
00000000
00000000
,
03000000
00000000
00020000
00000000
00000000
00000000
00000000
00000000
00000000
00000000
00000000
00230000
00000000
00000000
00000000
00000000
00000000
00000000
00000000
00000000
00000000
00000000
00000000
00000000
00300000
00000000
00000000
00000000
00001000
00000000
00010000
00000000
,
00000000
00000000
00000000
00000000
,
00021000
00000000
00000000
00000000
,
00000000
00000000
00000000
00000000
00000000
00030000
00001000
00000000
,
00100000
00100000
00000000
01000000
01000000
00000000
10000000
10000000
,
00022000
00000000
00000000
00033000
;
