#VERSION:0.83;
#TITLE:hydraulic press HYPE;
#SUBTITLE:;
#ARTIST:Z-I-v Sound Team "Karl with a K";
#TITLETRANSLIT:;
#SUBTITLETRANSLIT:;
#ARTISTTRANSLIT:;
#GENRE:;
#ORIGIN:;
#CREDIT:;
#BANNER:hydraulic press HYPE banner.png;
#BACKGROUND:hydraulic press HYPE bg.png;
#PREVIEWVID:;
#JACKET:hydraulic press HYPE jk.png;
#CDIMAGE:;
#DISCIMAGE:hydraulic press HYPE file graphic.png;
#LYRICSPATH:;
#CDTITLE:;
#MUSIC:hydraulic press HYPE.ogg;
#OFFSET:-0.000000;
#SAMPLESTART:16.000000;
#SAMPLELENGTH:15.000000;
#SELECTABLE:YES;
#BPMS:0.000=210.000;
#STOPS:;
#DELAYS:;
#WARPS:;
#TIMESIGNATURES:0.000=4=4;
#TICKCOUNTS:0.000=4;
#COMBOS:0.000=1;
#SPEEDS:0.000=0.000=13.000=0,
13.000=1.000=15.000=0,
42.000=0.250=11.000=0,
53.000=1.000=3.000=0,
63.000=0.750=6.000=0,
69.000=1.000=1.000=0,
77.000=0.750=6.000=0,
83.000=1.000=1.000=0,
84.000=0.500=26.000=0,
110.000=1.000=2.000=0,
119.000=0.750=6.000=0,
125.000=1.000=1.000=0,
133.000=0.750=6.000=0,
139.000=1.000=1.000=0,
140.000=0.500=26.000=0,
166.000=1.000=2.000=0,
266.000=0.500=42.000=0,
318.500=1.000=33.500=0,
359.000=0.750=6.000=0,
364.000=1.000=1.000=0,
373.000=0.750=6.000=0,
378.000=1.000=1.000=0,
387.000=0.750=6.000=0,
392.000=1.000=1.000=0,
401.000=0.750=6.000=0,
406.000=1.000=1.000=0;
#SCROLLS:0.000=1.000,
412.000=0.000,
412.250=2.000,
412.500=0.000,
412.750=2.000,
413.000=0.000,
413.250=2.000,
413.500=0.000,
413.750=2.000,
414.000=0.000,
414.250=2.000,
414.500=0.000,
414.750=2.000,
415.000=1.000,
419.000=0.000,
419.250=2.000,
419.500=0.000,
419.750=2.000,
420.000=0.000,
420.250=2.000,
420.500=0.000,
420.750=2.000,
421.000=0.000,
421.250=2.000,
421.500=0.000,
421.750=2.000,
422.000=1.000,
426.000=0.000,
426.250=2.000,
426.500=0.000,
426.625=2.000,
426.750=0.000,
426.875=2.000,
427.000=0.000,
427.250=2.000,
427.500=0.000,
427.750=2.000,
428.000=0.000,
428.125=2.000,
428.250=0.000,
428.375=2.000,
428.500=0.000,
428.750=2.000,
429.000=1.000;
#FAKES:;
#LABELS:0.000=Song Start;
#BGCHANGES:;
#KEYSOUNDS:;
#ATTACKS:
;

//---------------dance-single - XO+ FS- DS JA+ XMOD TS JU Mines- Rolls-----------------
#NOTEDATA:;
#CHARTNAME:;
#STEPSTYPE:dance-single;
#DESCRIPTION:XO+ FS- DS JA+ XMOD TS JU Mines- Rolls-;
#CHARTSTYLE:;
#DIFFICULTY:Challenge;
#METER:16;
#RADARVALUES:0.834398,1.367122,0.267517,0.230362,0.167198,786.000000,750.000000,36.000000,31.000000,13.000000,0.000000,2.000000,0.000000,0.000000,0.834398,1.367122,0.267517,0.230362,0.167198,786.000000,750.000000,36.000000,31.000000,13.000000,0.000000,2.000000,0.000000,0.000000;
#CREDIT:Karl with a K;
#NOTES:
0000
0000
0000
0000
,
0000
0000
0000
0000
,
0000
0000
0000
0000
,
0000
0000
0000
0000
,
0000
0000
0000
0000
,
0000
0000
0000
0000
,
0000
0000
0000
0000
,
1001
0000
1100
0000
,
0101
0000
0000
0110
0000
0000
1001
0000
,
0000
1010
0000
0011
,
0000
1001
0000
0000
1001
0000
1100
0000
,
0011
0101
1010
1001
,
0110
0000
1000
0100
1000
0100
0010
0001
,
1000
0000
0010
0000
1000
0001
1000
0001
1000
0001
1000
0001
1000
0001
1000
0001
,
1000
1000
0010
0100
0010
1000
0100
0100
,
0010
0100
0001
0100
0010
0000
1001
0000
,
0001
0100
0000
0100
0010
0000
0010
1000
,
0010
1000
0100
0010
0001
0001
0010
0100
,
0010
0001
0100
0100
0010
0100
1000
0100
,
0010
1000
1001
0001
1000
0100
1100
1000
,
0001
0100
0101
0001
1000
0100
0110
0000
,
1000
0100
0001
0100
1000
0100
0001
0100
,
1000
0100
0001
0100
1000
0100
1000
0010
,
0001
0010
1000
0010
0001
0010
1000
0010
,
0001
0010
1000
0001
1001
1000
0001
0010
,
1000
0010
0001
0010
1000
0010
0001
0010
,
1000
0010
0001
0100
1000
0100
0001
0100
,
1000
0100
0001
0000
0020
0000
0000
0000
,
0031
0001
0100
0010
0100
0001
0010
0010
,
0100
0010
1000
0010
0100
0000
1001
0000
,
0001
0000
0100
0000
0010
0000
0010
0001
,
0010
0100
0001
0000
1000
1000
0100
0010
,
0100
1000
0010
0010
0100
0010
0001
0010
,
0100
0000
0001
0100
0001
1000
0010
1000
,
0100
0010
0100
1000
0001
1000
0010
1000
,
0100
0010
1000
0001
0100
0010
0001
0100
,
0010
0001
1000
0100
0010
0100
0010
0100
,
1000
0001
0010
0100
0001
0010
0100
0001
,
1000
0010
0100
0010
0001
0010
1000
0001
,
0100
1000
0001
0100
1000
0001
1000
0100
,
0010
0100
0001
0100
1000
0001
0010
1000
,
0001
1000
0100
0000
0200
0000
0000
0000
,
0310
0001
0000
1000
0000
0010
0100
0001
,
0000
1000
0000
0001
0010
0000
0100
1000
,
0000
0001
0000
0010
0100
1000
0000
0001
,
0000
1000
0001
0000
0010
0001
0000
1000
,
0000
0100
0010
0001
0000
1000
0000
0001
,
0100
0000
0010
1000
0000
0001
0000
0100
,
0010
1000
0000
0001
0000
1000
0010
0000
,
0100
1000
0000
0100
0000
0001
0010
1000
,
0000
0001
0000
1000
0010
0000
0100
0001
,
0000
0100
0000
1000
0010
0001
0000
0010
,
0000
1000
0010
0000
0010
0001
0000
1000
,
0000
0100
0010
1000
0000
0100
0000
0001
,
1000
0000
0010
0010
0000
0001
0001
0000
,
0100
0100
0000
0010
0010
0000
0110
0000
,
1000
0100
1000
0020
0100
1030
0010
0000
,
0010
0100
0000
0100
0001
0100
0001
0020
,
0100
0031
0010
0001
1000
0001
0100
0001
,
0020
0100
0031
0010
0000
0010
0100
0000
,
0100
1000
0100
1000
0020
0100
1030
0010
,
0100
0001
1000
0010
1000
0200
0010
1300
,
0100
0000
0100
0010
0000
0010
0001
0010
,
0001
0200
0010
0301
0100
0001
1000
0001
,
0010
0001
0200
0010
0301
0100
0000
0100
,
0010
0000
0010
1000
0010
1000
0200
0010
,
1300
0100
0010
0001
2000
0010
3001
1000
,
0100
1000
0002
0010
1003
0001
0100
0000
,
0002
0100
1003
0001
0010
0001
2000
0100
,
3001
2000
0100
3001
1000
0010
1000
0002
,
0100
1003
0001
0010
0000
0002
0010
1003
,
0001
0001
0001
1000
0010
0000
0200
0010
,
0301
1000
0100
1000
0200
0010
1300
0001
,
0100
0000
0020
0100
1030
0001
0010
0001
,
0020
0100
0031
0020
0100
0031
1000
0010
,
1000
0020
0100
1030
0001
0010
0000
0200
,
0010
1300
0001
0001
0001
0100
0010
0000
,
1001
1000
0000
0110
0100
0000
1001
0001
,
0000
0110
0010
0000
1100
0100
0000
0110
,
0010
0000
0011
0001
0000
0101
0100
0010
,
1000
0100
0010
0001
0100
0010
1000
1000
,
0100
0010
0010
0001
0100
0100
0100
0010
,
1000
0001
1000
1000
1000
0100
0010
0001
,
0001
0001
0100
0010
1000
1000
1000
0100
,
0010
0001
0001
0001
1000
1000
0001
0001
,
1000
1000
0001
0001
0100
0100
0010
0010
,
1000
0000
1000
0000
0100
0010
0100
0010
0100
0010
0100
0010
0100
0010
0100
0010
,
0100
0010
0100
0010
0100
0010
0100
0010
0100
0010
0100
0010
0100
0010
0100
0010
,
1000
0010
0001
0100
1000
0100
0010
0100
,
0001
0100
1000
0001
0010
0000
1000
0010
,
M010
0001
0010
0000
0001
0010
0100
0000
,
0001
0100
1000
0010
0001
0010
1000
0100
,
0001
0100
0010
0100
1000
0100
0001
1000
,
0010
0000
0001
0010
001M
1000
0010
0000
,
1000
0010
0100
0000
1000
0100
0010
1000
,
0100
0100
1000
0010
0001
0010
0100
0010
,
1000
0010
0001
1000
0100
0010
1001
0001
,
1000
0010
MMMM
0001
1000
0100
MMMM
0100
,
1000
0000
0010
0100
0000
0001
0000
0000
0001
0000
0100
0000
0001
0000
0010
0000
,
1000
0010
0100
0010
0001
0010
1000
0001
,
0100
0010
2001
0000
3400
0001
0000
0010
,
0000
0000
1300
0000
0010
0000
1000
0100
0000
1000
0004
0000
1000
0000
0000
0000
,
1003
0001
1000
0000
0010
M010
0000
0001
,
1001
0001
1000
0001
0001
1000
0100
1000
,
0001
0000
0010
001M
0000
1000
1000
0001
,
0001
0001
1001
1000
1000
0100
0001
0000
,
0100
0000
1000
0000
0000
0000
0001
0000
0001
0000
0100
0010
0100
0000
0010
0000
,
0100
0010
0100
0000
0002
0000
0010
0000
1000
0000
2003
0000
0010
0000
0001
0000
,
3002
0000
0010
0000
1003
0001
1000
0001
1000
0001
1000
0001
1000
0001
1000
0001
,
1000
0001
1000
0001
0100
0010
0100
0010
1000
0001
1000
0001
0010
0100
0010
0100
,
1000
0001
1000
0001
0100
0010
1000
0001
0010
0100
1000
0000
2002
0000
3003
0000
,
1000
0010
M020
0000
0030
0000
0000
0000
;

//---------------dance-single - XO DS- JA- XMOD TS JU-----------------
#NOTEDATA:;
#CHARTNAME:;
#STEPSTYPE:dance-single;
#DESCRIPTION:XO DS- JA- XMOD TS JU-;
#CHARTSTYLE:;
#DIFFICULTY:Hard;
#METER:12;
#RADARVALUES:0.542465,0.744031,0.163482,0.170914,0.000000,511.000000,489.000000,22.000000,23.000000,0.000000,0.000000,0.000000,0.000000,0.000000,0.542465,0.744031,0.163482,0.170914,0.000000,511.000000,489.000000,22.000000,23.000000,0.000000,0.000000,0.000000,0.000000,0.000000;
#CREDIT:Karl with a K;
#NOTES:
0000
0000
0000
0000
,
0000
0000
0000
0000
,
0000
0000
0000
0000
,
0000
0000
0000
0000
,
0000
0000
0000
0000
,
0000
0000
0000
0000
,
0000
0000
0000
0000
,
1001
0000
1001
0000
,
1001
0000
0000
1001
0000
0000
0110
0000
,
0000
0110
0000
0110
,
0000
0110
0000
0000
1000
0000
0100
0000
,
0010
0001
0100
0010
,
1000
0000
0001
1000
0001
1000
0001
1000
,
0001
1000
0001
0001
0001
1000
1000
1000
,
0001
0100
0010
0000
0010
1000
0000
1000
,
0010
0100
0001
0100
0010
0000
1000
0000
,
1000
0100
0000
0100
0010
0000
0010
0001
,
2000
0001
3001
0000
1000
0100
0010
0000
,
0010
0001
0000
0001
0010
0100
1000
0100
,
0010
1001
0100
1001
,
0100
1001
0100
1001
,
1000
0100
0001
0000
0001
0100
1000
0000
,
1000
0100
0001
0000
0100
1000
0001
0010
,
1000
0000
1000
0010
0001
0000
0001
0010
,
1000
0000
0010
0000
0001
0100
1000
0000
,
1000
0100
0001
0000
0001
0100
1000
0000
,
0100
0001
1000
0010
0001
0000
0001
0010
,
1000
0200
0000
0000
,
1300
0010
0100
0000
0100
0001
0000
0001
,
0100
0010
1000
0010
0100
0000
0001
0000
,
0001
0000
0100
0000
0001
0000
0001
0010
,
0001
0000
1000
0000
0001
0010
0100
0000
,
0100
1000
0000
1000
0100
0010
0001
0010
,
0100
1001
0000
1000
,
0100
1000
0010
1000
,
0001
0100
1000
0001
,
0010
1000
0001
1000
,
0100
0001
1000
0010
,
0001
1000
0001
0010
,
1000
0001
0100
1000
,
0001
1000
0010
0001
,
1000
0100
0002
0000
,
1003
0000
0000
0100
0000
0000
1000
0000
,
0000
0100
0000
0000
0010
0000
0001
0000
,
0000
0100
0000
0000
0001
0000
0000
0100
,
0000
0000
0010
0000
1000
0000
0000
0100
,
0000
0000
0010
0000
0000
0100
0000
0000
,
0010
0000
0001
0000
0000
0100
0000
0000
,
0010
0000
0000
0100
0000
0000
0010
0000
,
1001
0000
0000
1000
0000
0000
0100
0000
,
0000
0010
0000
0000
0001
0000
1000
0000
,
0000
1000
0000
0000
0010
0000
0000
0100
,
0000
0000
0010
0000
1000
0000
0000
0100
,
0000
0000
0010
0000
0000
0001
0000
0000
,
1000
0000
0001
0001
0000
0100
0100
0000
,
0010
0010
0000
0100
0100
0000
0010
0000
,
1000
0100
0010
0001
0000
1000
0001
0000
,
0000
1000
0000
0000
0001
0100
0010
1000
,
0000
0001
1000
0000
0000
0001
0100
0010
,
1000
0000
0001
1000
0000
0000
0001
0000
,
0000
1000
0100
0010
0001
0000
1000
0001
,
0010
0100
1000
0010
0100
0001
0000
1000
,
0001
0000
0000
1000
0000
0000
0001
0010
,
0100
1000
0000
0001
1000
0000
0000
0001
,
0010
0100
1000
0000
0001
1000
0000
0000
,
0001
0000
0000
1000
0010
0100
0001
0000
,
1000
0001
0100
0010
2000
0100
0000
3001
,
0000
0000
2000
0100
0000
3001
0000
0000
,
2000
0100
0000
3001
0000
0000
2000
0100
,
0000
3002
0100
0000
1003
0000
0000
0002
,
0100
0000
1003
0000
0000
0002
0100
0000
,
1003
0000
1000
0001
0000
0000
0002
0010
,
0000
1003
0000
0000
0002
0010
0000
1003
,
0000
0000
0002
0010
0000
1003
0000
0000
,
0002
0010
0000
2003
0010
0000
3001
0000
,
0000
2000
0010
0000
3001
0000
0000
2000
,
0010
0000
3001
0000
0001
1000
0000
0000
,
1001
0000
0000
1001
0000
0000
1001
0000
,
0000
1001
0000
0000
1001
0000
0000
1001
,
0000
0000
1001
0000
0000
1000
0000
0000
,
0100
0000
0000
0010
0000
0000
0001
0000
,
0000
0100
0000
0000
0010
0000
0000
1000
,
0000
0000
0001
0000
1000
0001
0000
1000
,
0000
0001
1000
0000
0001
0000
1000
0001
,
0000
1000
0000
0001
1000
0000
0001
0000
,
0010
0100
1000
0010
,
0100
0000
0001
0100
0001
1000
0100
1000
,
0001
0100
0001
1000
0100
1000
0001
0100
,
0001
0100
0010
0000
0100
0000
0001
1000
,
0100
0000
0010
0000
0001
0000
1000
0100
,
0001
0100
1000
0001
,
0100
0000
1000
0100
0001
0010
0100
0000
,
0010
0000
0001
1000
0010
0000
0100
0000
,
0001
0000
1000
0010
0001
0000
0010
0000
,
1000
0000
0001
0000
0010
0000
1000
0010
,
0001
0010
0100
0000
0100
0000
1000
0001
,
0010
0000
0100
0000
1000
0000
0001
0100
,
0010
0000
0100
0010
1000
0000
0001
0000
,
0010
0100
0010
0001
1000
0100
0010
0000
,
0100
0000
1000
0001
0100
0000
0010
0000
,
1000
0000
0001
0100
2000
0000
3200
0000
,
0302
0023
0230
2300
,
3001
0010
0001
0000
1000
0010
0000
1000
,
0001
0000
0001
0000
0001
0000
1000
0010
,
1000
0000
0001
0010
0000
0001
1000
0000
,
1000
0000
1000
0000
0001
0100
0001
0000
,
0010
0010
0000
0100
0100
0000
0100
0000
,
0100
0000
1000
0100
1000
0000
0010
0010
,
0000
0100
0001
1000
0001
1000
0001
1000
,
0001
1000
0001
1000
0001
1000
0001
1000
,
0001
1000
0001
1000
0001
1000
1001
0000
,
0000
0100
0010
0000
0000
0000
0000
0000
;

//---------------dance-single - ----------------
#NOTEDATA:;
#CHARTNAME:;
#STEPSTYPE:dance-single;
#DESCRIPTION:;
#CHARTSTYLE:;
#DIFFICULTY:Medium;
#METER:10;
#RADARVALUES:0.454354,0.620026,0.052017,0.126327,0.000000,428.000000,421.000000,7.000000,17.000000,0.000000,0.000000,0.000000,0.000000,0.000000,0.454354,0.620026,0.052017,0.126327,0.000000,428.000000,421.000000,7.000000,17.000000,0.000000,0.000000,0.000000,0.000000,0.000000;
#CREDIT:Karl with a K;
#NOTES:
0000
0000
0000
0000
,
0000
0000
0000
0000
,
0000
0000
0000
0000
,
0000
0000
0000
0000
,
0000
0000
0000
0000
,
0000
0000
0000
0000
,
0000
0000
0000
0000
,
1000
0000
0001
0000
,
1000
0000
0000
0001
0000
0000
1000
0000
,
0000
0001
0000
1000
,
0000
0001
0000
0000
1000
0000
0100
0000
,
0010
0100
1000
0001
,
0100
0010
0100
0001
,
1000
0000
0001
1000
0001
1000
0001
1000
,
0001
0000
0010
0100
0010
0000
0001
0000
,
1000
0010
0100
0000
0010
0000
1000
0000
,
1000
0010
0000
0000
1000
0000
1000
0100
,
0000
0100
0010
0000
0001
0000
0100
0010
,
0100
0000
0001
0000
1000
0100
0010
0000
,
0100
1000
0010
0100
,
0010
1000
0001
0010
,
1000
0010
0001
0010
,
1000
0010
0001
0100
,
1000
0100
0001
0100
,
1000
0100
0010
0001
,
0010
1000
0010
0001
,
0010
1000
0100
0001
,
0100
0001
0200
0000
,
1300
0000
0010
0100
0010
0000
1000
0000
,
0001
0010
0100
0000
0010
0000
0001
0000
,
0100
0010
0000
0010
,
1000
0000
0001
0000
1000
0000
0010
0100
,
0010
0000
1000
0000
0001
0010
0100
0000
,
0010
0002
0003
1000
,
0100
1000
0001
0100
,
0010
0001
0010
0000
,
0100
0001
0100
0001
,
0010
0100
0000
0001
,
0100
0010
0001
0100
,
1000
0000
0100
0010
,
1000
0100
0010
1000
,
0000
0020
0000
0030
,
0001
0000
0000
0100
0000
0000
0010
0000
,
0000
0100
0000
0000
0001
0000
1000
0000
,
0000
0100
0000
0000
0010
0000
0000
0100
,
0000
0000
1000
0000
0001
0000
0000
1000
,
0000
0000
0100
0000
0000
1000
0000
0000
,
0001
0000
1000
0000
0000
0001
0000
0000
,
0100
0000
0000
0001
0000
0000
1000
0000
,
1001
0000
0000
0001
0000
0000
0010
0000
,
0000
0001
0000
0000
1000
0000
0001
0000
,
0000
1000
0000
0000
0010
0000
0000
1000
,
0000
0000
0001
0000
1000
0000
0000
0010
,
0000
0000
0100
0000
0000
0001
0000
0000
,
0010
0000
0110
0000
0000
0110
0000
0000
,
0110
0000
0000
0110
0000
0000
0110
0000
,
1000
0000
1000
0100
0000
0100
0010
0000
,
0010
0001
0000
0001
1000
0000
1000
0010
,
0000
0010
0100
0000
0100
0001
0000
0001
,
0010
0000
0010
0100
0000
0100
1000
0000
,
1000
0001
0000
0001
0100
0000
0100
0010
,
0000
0010
1000
0000
1000
0010
0000
0010
,
0100
0000
0100
0001
0000
0001
1000
0000
,
1000
0100
0000
0100
0010
0000
0010
0001
,
0000
0001
0100
0000
0100
0010
0000
0010
,
1000
0000
1000
0001
0000
0001
0010
0000
,
0010
0100
0000
0100
1000
0100
0000
0010
,
0000
0010
0001
1000
0000
0001
0000
0000
,
1000
0010
0000
0100
0000
0100
0001
1000
,
0000
0001
0010
0000
0100
0000
0100
1000
,
0001
0000
1000
0000
0000
0001
0100
0000
,
0010
0000
0010
1000
0001
0000
0100
0001
,
0000
1000
0000
1000
0100
0010
0000
0100
,
0000
0000
0010
0001
0000
1000
0000
1000
,
0010
0100
0000
0010
1000
0000
0001
0000
,
0001
0010
0100
0000
0010
0000
0000
0100
,
1000
0000
0001
0000
0100
0010
1000
0000
,
0001
0000
0000
0001
0000
0000
0001
0000
,
0000
0001
0000
0000
1000
0000
0000
1000
,
0000
0000
1000
0000
0000
2000
0000
0000
,
3200
0000
0000
0320
0000
0000
0032
0000
,
0000
0203
0000
0000
0320
0000
0000
2030
,
0000
0000
3001
0000
0000
1000
0000
0001
,
0000
0000
1000
0000
0001
0000
0000
1000
,
0000
0001
0000
0000
1000
0000
0100
0000
,
1000
0100
0010
0001
,
0010
0001
1000
0010
,
0100
0001
0100
0010
,
1000
0100
0010
0100
,
1000
0010
0100
1000
,
0100
0001
1000
0100
,
0001
0100
1000
0010
,
0100
0010
1000
0100
,
0010
1000
0010
0001
,
1000
0010
0001
0010
,
1000
0100
0010
1000
,
0010
0000
0100
0000
1000
0000
0001
0100
,
0001
0000
0100
0000
1000
0000
0100
0010
,
0100
0001
0010
0100
,
0001
0100
0010
0001
,
1000
0001
0020
0001
,
0130
1000
0020
0100
,
1030
0010
1000
0000
0001
0010
0000
0001
,
0020
0000
0000
0000
0000
0000
0031
0010
,
0001
0000
1000
0010
0000
1000
0020
0000
,
0000
0000
0000
0000
1030
0100
0010
0000
,
0100
1000
0000
0001
0200
0000
0000
0000
,
0000
0000
0301
0100
0010
0000
1000
0100
,
0000
0010
0010
0000
0010
0000
0010
0000
,
0010
0000
0001
1000
0001
1000
0001
1000
,
0001
1000
0001
1000
0001
0000
2002
0000
,
0000
3003
0000
0000
;

//---------------dance-single - ----------------
#NOTEDATA:;
#CHARTNAME:;
#STEPSTYPE:dance-single;
#DESCRIPTION:;
#CHARTSTYLE:;
#DIFFICULTY:Easy;
#METER:8;
#RADARVALUES:0.352443,0.454686,0.111465,0.081741,0.000000,332.000000,317.000000,15.000000,11.000000,0.000000,0.000000,0.000000,0.000000,0.000000,0.352443,0.454686,0.111465,0.081741,0.000000,332.000000,317.000000,15.000000,11.000000,0.000000,0.000000,0.000000,0.000000,0.000000;
#CREDIT:Karl with a K;
#NOTES:
// measure 0
0000
0000
0000
0000
,  // measure 1
0000
0000
0000
0000
,  // measure 2
0000
0000
0000
0000
,  // measure 3
0000
0000
0000
0000
,  // measure 4
0000
0000
0000
0000
,  // measure 5
0000
0000
0000
0000
,  // measure 6
0000
0000
0000
0000
,  // measure 7
1000
0000
1000
0000
,  // measure 8
1000
0000
0000
1000
0000
0000
0001
0000
,  // measure 9
0000
0001
0000
0001
,  // measure 10
0000
0001
0000
0000
1000
0000
0001
0000
,  // measure 11
1000
0001
1000
0001
,  // measure 12
1000
0001
1000
0001
,  // measure 13
1000
0001
0001
0001
,  // measure 14
1000
0100
0010
0000
,  // measure 15
0010
0100
1000
0001
,  // measure 16
0000
0100
0000
0000
0001
0000
0000
0100
,  // measure 17
0000
0001
1000
0010
,  // measure 18
0100
0000
0100
0010
,  // measure 19
1000
1001
0000
0011
,  // measure 20
0000
0110
0000
1000
,  // measure 21
0001
0100
1000
0000
,  // measure 22
1000
0100
0001
1000
,  // measure 23
0100
0001
0000
0001
,  // measure 24
0100
1000
0001
0010
,  // measure 25
1000
0000
1000
0010
,  // measure 26
0001
1000
0010
0001
,  // measure 27
0000
0010
2000
0000
,  // measure 28
3001
0010
0100
0000
,  // measure 29
0100
0010
0001
1000
,  // measure 30
0001
1000
0000
0001
,  // measure 31
1000
0001
0001
0100
,  // measure 32
0010
0000
0010
0100
,  // measure 33
0001
2000
0000
3100
,  // measure 34
0010
0001
0100
0010
,  // measure 35
1000
0100
0010
0000
,  // measure 36
0001
0100
0010
1000
,  // measure 37
0100
0010
0000
0001
,  // measure 38
0100
0010
1000
0100
,  // measure 39
0010
0000
0001
0100
,  // measure 40
0010
1000
0100
0010
,  // measure 41
0000
0001
2000
0000
,  // measure 42
3001
0000
0000
0001
,  // measure 43
0000
0000
0010
0001
,  // measure 44
0000
0000
0001
0000
,  // measure 45
0000
0100
0001
0000
,  // measure 46
0000
1000
0000
0000
,  // measure 47
0010
1000
0000
0000
,  // measure 48
0100
0000
0000
1000
,  // measure 49
0001
0000
0000
0001
0000
0000
1000
0000
,  // measure 50
0000
1000
0000
0000
0001
0000
0010
0000
,  // measure 51
0000
0010
0000
0000
0100
0000
0000
0100
,  // measure 52
0000
0000
1000
0000
0001
0000
0000
1000
,  // measure 53
0000
0000
0001
0000
0000
1000
0000
0000
,  // measure 54
0010
0000
0100
0000
0000
0100
0000
0000
,  // measure 55
0100
0000
0000
0100
0000
0000
0010
0000
,  // measure 56
1000
0000
0000
0010
0000
0000
0100
0000
,  // measure 57
0000
0001
0000
0000
0010
0000
0000
0100
,  // measure 58
0000
0000
1000
0000
0000
0001
0000
0000
,  // measure 59
0100
0000
0000
0010
0000
0000
1000
0000
,  // measure 60
0000
0100
0000
0000
0010
0000
0000
0010
,  // measure 61
0000
0000
0001
0000
0000
0010
0000
0000
,  // measure 62
0100
0000
0000
1000
0000
0000
0010
0000
,  // measure 63
0000
0100
0000
0000
0001
0000
0000
1000
,  // measure 64
0000
0000
0100
0000
0000
0010
0000
0000
,  // measure 65
0001
0000
0000
0100
0000
0000
0010
0000
,  // measure 66
0000
0010
0000
0000
0001
1000
0000
0001
,  // measure 67
0000
0000
1000
0001
0000
1000
0000
0000
,  // measure 68
0001
1000
0000
0001
0000
0000
1000
0000
,  // measure 69
0000
0100
0010
0000
0100
0000
0000
0010
,  // measure 70
0100
0000
0010
0000
0000
0100
0010
0000
,  // measure 71
0100
0000
0000
0010
0000
0000
0001
1000
,  // measure 72
0000
0001
0000
0000
1000
0001
0000
1000
,  // measure 73
0000
0000
0001
1000
0000
0001
0000
0000
,  // measure 74
1000
0000
0000
0010
0100
0000
0010
0000
,  // measure 75
0000
0100
0010
0000
0100
0000
0000
0010
,  // measure 76
0100
0000
0010
0000
0000
0100
0000
0000
,  // measure 77
0001
0000
0000
0001
0000
0000
0001
0000
,  // measure 78
0000
0001
0000
0000
1000
0000
0000
1000
,  // measure 79
0000
0000
1000
0000
0000
1000
0000
0000
,  // measure 80
0100
0000
0000
0010
0000
0000
0001
0000
,  // measure 81
0000
0100
0000
0000
0010
0000
0000
1000
,  // measure 82
0000
0000
0001
0000
0000
0000
0000
1000
,  // measure 83
0000
0000
0001
0000
,  // measure 84
0000
1000
0000
0000
0000
0000
0100
0000
,  // measure 85
0010
0100
0010
0100
,  // measure 86
0010
0001
0100
0010
,  // measure 87
0100
0010
0100
0010
,  // measure 88
1000
0010
1000
0000
,  // measure 89
0001
0010
0001
1000
,  // measure 90
0010
0001
0010
1000
,  // measure 91
0001
0000
1000
0100
,  // measure 92
1000
0000
0001
0100
,  // measure 93
0001
1000
0100
0001
,  // measure 94
0100
1000
0001
1000
,  // measure 95
0001
0010
0001
0000
,  // measure 96
1000
0010
1000
0001
,  // measure 97
0100
1000
0100
0001
,  // measure 98
0000
1000
0001
0100
,  // measure 99
0001
0000
1000
0100
,  // measure 100
1000
0001
0010
1000
,  // measure 101
0010
0001
1000
0001
,  // measure 102
1001
0000
0110
0000
,  // measure 103
2002
0000
3003
1001
,  // measure 104
0000
0110
0000
2002
,  // measure 105
0000
3003
1001
0000
,  // measure 106
0110
0000
2002
0000
,  // measure 107
3003
1001
0000
0110
,  // measure 108
0000
1000
0001
1000
,  // measure 109
0001
1000
0001
1000
,  // measure 110
0001
0000
1000
0001
1000
0000
2002
0000
,  // measure 111
0000
3003
0000
0000
;

//---------------dance-single - ----------------
#NOTEDATA:;
#CHARTNAME:;
#STEPSTYPE:dance-single;
#DESCRIPTION:;
#CHARTSTYLE:;
#DIFFICULTY:Beginner;
#METER:2;
#RADARVALUES:0.101911,0.164597,0.252655,0.000000,0.000000,96.000000,62.000000,34.000000,0.000000,0.000000,0.000000,0.000000,0.000000,0.000000,0.101911,0.164597,0.252655,0.000000,0.000000,96.000000,62.000000,34.000000,0.000000,0.000000,0.000000,0.000000,0.000000,0.000000;
#CREDIT:Karl with a K;
#NOTES:
// measure 0
0000
0000
0000
0000
,  // measure 1
0000
0000
0000
0000
,  // measure 2
0000
0000
0000
0000
,  // measure 3
0000
0000
0000
0000
,  // measure 4
0000
0000
0000
0000
,  // measure 5
0000
0000
0000
0000
,  // measure 6
0000
0000
0000
0000
,  // measure 7
1001
0000
0000
0000
,  // measure 8
0000
0000
0000
0000
,  // measure 9
0000
0000
0000
0000
,  // measure 10
0000
0000
0000
0000
,  // measure 11
0000
0000
0000
0000
,  // measure 12
0000
0000
0000
0000
,  // measure 13
0000
0000
0000
0000
,  // measure 14
1001
0000
0000
0000
,  // measure 15
0000
0000
0000
0000
,  // measure 16
0000
0000
0000
0000
,  // measure 17
0000
0000
1001
0000
,  // measure 18
0000
0000
0000
0000
,  // measure 19
0000
0000
0000
0000
,  // measure 20
0000
0000
0000
0000
,  // measure 21
1001
0000
0000
0000
,  // measure 22
0000
0000
0000
1001
,  // measure 23
0000
0000
0000
0000
,  // measure 24
0000
0000
1001
0000
,  // measure 25
0000
0000
0000
0000
,  // measure 26
0000
1001
0000
0000
,  // measure 27
0000
0000
0000
0000
,  // measure 28
1001
0000
0000
0000
,  // measure 29
0000
0000
0000
0000
,  // measure 30
0000
0000
0000
0000
,  // measure 31
0000
0000
1001
0000
,  // measure 32
0000
0000
0000
0000
,  // measure 33
0000
0000
0000
0000
,  // measure 34
0000
0000
0000
0000
,  // measure 35
1001
0000
0000
0000
,  // measure 36
0000
0000
0000
1001
,  // measure 37
0000
0000
0000
0000
,  // measure 38
0000
0000
1001
0000
,  // measure 39
0000
0000
0000
0000
,  // measure 40
0000
1001
0000
0000
,  // measure 41
0000
0000
0000
0000
,  // measure 42
1001
0000
0000
0000
,  // measure 43
0000
0000
0000
1001
,  // measure 44
0000
0000
0000
0000
,  // measure 45
0000
0000
1001
0000
,  // measure 46
0000
0000
0000
0000
,  // measure 47
0000
1001
0000
0000
,  // measure 48
0000
0000
0000
0000
,  // measure 49
1001
0000
0000
0000
,  // measure 50
0000
0000
0000
1001
,  // measure 51
0000
0000
0000
0000
,  // measure 52
0000
0000
1001
0000
,  // measure 53
0000
0000
0000
0000
,  // measure 54
0000
1001
0000
0000
,  // measure 55
0000
0000
0000
0000
,  // measure 56
1000
0000
0000
0000
,  // measure 57
0000
0000
0000
0000
,  // measure 58
0000
0000
0000
0000
0000
0001
0000
0000
,  // measure 59
0000
0000
0000
0000
,  // measure 60
0000
0000
0000
0000
,  // measure 61
0000
1000
0000
0000
,  // measure 62
0000
0000
0000
0000
,  // measure 63
0000
0000
0000
0000
0000
0000
0000
0001
,  // measure 64
0000
0000
0000
0000
,  // measure 65
0000
0000
0000
0000
,  // measure 66
0000
0000
1000
0000
,  // measure 67
0000
1000
0000
0000
,  // measure 68
1000
0000
0000
0000
,  // measure 69
0000
0001
0000
0000
0000
0000
0000
0001
,  // measure 70
0000
0000
0000
0000
0000
0001
0000
0000
,  // measure 71
0000
0000
0000
1000
,  // measure 72
0000
0000
1000
0000
,  // measure 73
0000
1000
0000
0000
,  // measure 74
0000
0000
0000
0001
0000
0000
0000
0000
,  // measure 75
0000
0001
0000
0000
0000
0000
0000
0001
,  // measure 76
0000
0000
0000
0000
,  // measure 77
1000
0000
0000
0001
,  // measure 78
0000
0000
1000
0000
,  // measure 79
0000
0001
0000
0000
,  // measure 80
1000
0000
0000
0001
,  // measure 81
0000
0000
1000
0000
,  // measure 82
0000
0001
0000
0000
,  // measure 83
0000
0000
1000
0000
,  // measure 84
0000
0000
0000
0001
,  // measure 85
0000
0000
0000
1000
,  // measure 86
0000
0000
0000
0001
,  // measure 87
0000
0000
0000
0000
,  // measure 88
1001
0000
0000
0000
,  // measure 89
0000
0000
0000
1001
,  // measure 90
0000
0000
0000
0000
,  // measure 91
0000
0000
1001
0000
,  // measure 92
0000
0000
0000
0000
,  // measure 93
0000
1001
0000
0000
,  // measure 94
0000
0000
0000
0000
,  // measure 95
1001
0000
0000
0000
,  // measure 96
0000
0000
0000
1001
,  // measure 97
0000
0000
0000
0000
,  // measure 98
0000
0000
1001
0000
,  // measure 99
0000
0000
0000
0000
,  // measure 100
0000
1001
0000
0000
,  // measure 101
0000
0000
0000
0000
,  // measure 102
1001
0000
0000
0000
,  // measure 103
0000
0000
0000
1001
,  // measure 104
0000
0000
0000
0000
,  // measure 105
0000
0000
1001
0000
,  // measure 106
0000
0000
0000
0000
,  // measure 107
0000
1001
0000
0000
,  // measure 108
0000
0000
0000
0000
,  // measure 109
0000
0000
0000
0000
,  // measure 110
0000
0000
0000
1001
;
