#VERSION:0.83;
#TITLE:WE INTERRUPT THIS PROGRAM TO BRING YOU AN IMPORTANT MESSAGE;
#SUBTITLE:;
#ARTIST:Z-I-v Sound Team "Karl with a K";
#TITLETRANSLIT:;
#SUBTITLETRANSLIT:;
#ARTISTTRANSLIT:;
#GENRE:;
#ORIGIN:;
#CREDIT:;
#BANNER:WE INTERRUPT THIS PROGRAM TO BRING YOU AN IMPORTANT MESSAGE banner.png;
#BACKGROUND:WE INTERRUPT THIS PROGRAM TO BRING YOU AN IMPORTANT MESSAGE bg.png;
#PREVIEWVID:;
#JACKET:WE INTERRUPT THIS PROGRAM TO BRING YOU AN IMPORTANT MESSAGE jk.png;
#CDIMAGE:;
#DISCIMAGE:;
#LYRICSPATH:;
#CDTITLE:;
#MUSIC:WE INTERRUPT THIS PROGRAM TO BRING YOU AN IMPORTANT MESSAGE.ogg;
#OFFSET:-0.025000;
#SAMPLESTART:26.451000;
#SAMPLELENGTH:18.000000;
#SELECTABLE:YES;
#BPMS:0.000=150.000,
48.000=300.000,
488.000=150.000,
552.000=300.000;
#STOPS:83.000=1.200,
591.000=2.000,
596.000=0.600;
#DELAYS:;
#WARPS:;
#TIMESIGNATURES:0.000=4=4;
#TICKCOUNTS:0.000=4;
#COMBOS:0.000=1;
#SPEEDS:0.000=1.000=0.000=0;
#SCROLLS:0.000=1.000;
#FAKES:;
#LABELS:0.000=Song Start;
#BGCHANGES:;
#KEYSOUNDS:;
#ATTACKS:
;

//---------------dance-double - ----------------
#NOTEDATA:;
#CHARTNAME:;
#STEPSTYPE:dance-double;
#DESCRIPTION:;
#CHARTSTYLE:;
#DIFFICULTY:Hard;
#METER:16;
#RADARVALUES:0.725670,0.912205,0.454999,0.740223,0.254664,748.000000,681.000000,67.000000,109.000000,88.000000,0.000000,0.000000,0.000000,0.000000,0.725670,0.912205,0.454999,0.740223,0.254664,748.000000,681.000000,67.000000,109.000000,88.000000,0.000000,0.000000,0.000000,0.000000;
#CREDIT:Karl with a K;
#NOTES:
00000000
00000000
00000000
00000000
,
00000000
00000000
00000000
00000000
,
00000000
00000000
00000000
00000000
,
00000000
00000000
00000000
00000000
,
00000000
00000000
00000000
00000000
,
00000000
00000000
00000000
20000000
,
32000000
00100000
03010000
00021000
,
00000000
00030200
00000000
00000000
00002300
00000000
00000010
00000000
,
00003001
00001001
00000002
00000203
,
00000320
00000100
00001030
00021000
,
00001000
00000000
01030000
00000000
01200000
00000000
00301000
00200000
,
00001000
00300000
00101000
00000000
10100000
00000000
01100000
00000000
,
10000000
01000000
00000000
00100000
00000000
01000000
00000000
00100000
,
00000000
01000000
00000000
00100000
00010000
00000000
00100000
00000000
,
00001000
00000000
00010000
00000000
00001000
00010000
00000000
00000010
,
00001000
00000000
00000010
00000000
00000010
00000100
00000000
00000001
,
00000000
00000010
00000000
00000010
00000100
00000000
00000010
00000000
,
00000010
00001000
00000000
00010000
00001000
00000000
00010000
00000000
,
00100000
00000000
00000000
01100000
00000000
01100000
00000000
01100000
,
00000000
01100000
00000000
00000000
10100000
00000000
00000000
01010000
,
00000000
00000000
00000000
00000000
00000000
00000000
00000000
00000000
01001000
00000000
00000000
00000000
00000000
00000000
00000000
00000000
00000000
00000000
00000000
00000000
00000000
00000000
00000000
00000000
00010000
00000000
00000000
00000000
00000000
00000000
00000000
00000000
00002000
00000000
00000000
00000000
00000000
00000000
00000000
00000000
00000000
00000000
00000000
00000000
00000000
00000000
00000000
00000000
MMMM0000
00003000
00000000
00000000
00000000
00000000
00000000
00000000
MMMM0000
00000000
00000000
00000000
00000000
00000000
00000000
00000000
,
00010000
00001000
00000100
00000010
00000000
00000110
00000000
00000101
,
00000000
00001001
00000000
00000001
00000010
00000100
00000010
00000001
,
00000000
00001100
00000000
00011000
00000000
00010000
00001000
01000000
,
0020MMMM
0000MMMM
0000MMMM
1000MMMM
0000MMMM
0000MMMM
0130MMMM
0000MMMM
,
0001MMMM
00000000
00000000
0000MMMM
10000000
00000000
0000MMMM
00000000
01000000
0000MMMM
00000000
00000000
0020MMMM
00000000
00000000
00000000
00000000
00000000
00000000
00000000
00000000
00010000
00000000
00000000
,
00000000
00000000
00000000
00302000
00000000
00000000
00000000
00000000
00000000
00000000
00000000
00000000
00013000
00000000
00000020
00000000
00000000
00000000
00000000
00000000
00000000
00000000
00000000
00000000
,
00000230
00000000
00000000
00000010
00000000
00000301
00000000
00001000
,
00000100
00000010
00000001
00000000
00001000
00000000
00000001
00000100
,
00000001
00000000
00000010
00000000
00000100
00000010
00000001
00000000
,
00000020
00000000
00000000
00000000
00000000
00000000
00000000
00000000
00000000
00000001
00000000
00000000
00000000
00000000
00000000
00000000
00000130
00000000
00000000
00000000
00001000
00000000
00000000
00000000
,
00000001
00000000
00000010
00000000
00000001
00000000
00000020
00000000
00000000
00000000
00000000
00000000
,
00002000
00000000
00000000
00000030
00000000
00000000
00023000
00000000
00000000
00000000
00000000
00000000
00030000
00000000
02000000
00000000
00000000
00000000
00000000
00000000
00000000
00000000
00000000
00000000
,
03200000
00000000
00000000
00010000
00000000
01300000
00000000
10000000
,
00100000
01000000
00010000
00000000
10000000
00100000
10000000
00100000
,
02000000
03010000
01000000
00001000
,
00201000
00000000
00000000
00000000
00000000
00000000
00000000
00000000
00000000
00320000
00000000
00000000
00000000
00000000
00000000
00000000
00000000
00000000
00000000
00000000
00130000
00000000
00000000
00000000
,
00010000
00000000
00000000
00000000
10000000
00000000
00000000
00000000
00100000
00000000
00000000
00000000
02100000
00000000
00000000
00000000
00000000
00000000
00000000
00000000
00000000
03002000
00000000
00000000
,
00000000
00000000
00013000
00000000
00000010
00001000
00000001
00000000
,
00000012
00000000
00000000
00002003
00000000
00000000
00003100
00000000
,
00001000
00000001
00000100
00000000
00000120
00000000
00000000
00010030
,
00001000
00010000
00001000
00100000
00010000
10000000
00010000
00000000
,
02001000
00000000
00000000
00000000
00000000
00000000
00000000
00000000
00000000
03020000
00000000
00000000
00000000
00000000
00000000
00000000
00130000
00000000
00000000
00000000
01000000
00000000
00000000
00000000
,
10000000
00000000
00000000
00000000
00010000
00000000
00000000
00000000
01000000
00000000
00000000
00000000
01200000
00000000
00000000
00000000
00000000
00000000
00000000
00000000
00000000
00310000
00000000
00000000
,
00001000
00000000
00010000
00000000
00000100
00001000
00000001
00000000
,
00000102
00000000
00000000
00002003
00000000
00000000
00003010
00000000
,
00001000
00000001
00000010
00000000
00000002
00000000
00000023
00000000
,
00002030
00023000
00230000
10300000
,
11000000
00000000
01000000
00100000
00000000
01000000
00010000
00000000
,
00001000
00000000
00010000
00000000
00012000
00000000
00003010
00000100
,
00000000
00000010
00000001
00000000
00000001
00000000
00000100
00000000
,
00000101
00000000
00001000
00000100
00000000
00000010
00000100
00000000
,
00010000
00000000
00001000
00000000
01001000
00000000
01000000
00100000
,
00000000
01000000
00100000
00000000
10000000
00000000
00010000
00000000
,
10100000
00000000
00100000
01000000
00000000
00100000
00010000
00000000
,
00001000
00000000
00010000
00000000
00012000
00000000
00003100
00000010
,
00000000
00000100
00000001
00000000
00000001
00000000
00000010
00000000
,
00000011
00000000
00001000
00000010
00000000
00000100
00000010
00000000
,
00010000
00000000
00001000
00000000
00021000
00000000
00000000
02030000
,
00000000
00000000
03010000
00001000
00010000
00001000
00010000
00000000
,
10010000
00000000
10000000
01000000
00100000
01000000
10000000
00000000
,
00010000
01000000
00100000
01000000
00000000
00001000
00000000
00010000
,
00000100
00000000
00000010
00000100
00001000
00000000
00000010
00000100
,
00000000
00000001
00000000
00000100
00000010
00000000
00010000
00001000
,
00010000
00001000
00000000
01000000
00000000
00010000
00100000
01000000
,
00020000
00000000
01030000
00020000
00000000
00032000
00000000
00003000
,
10010000
00000000
10000000
00100000
01000000
00100000
10000000
00000000
,
00010000
00100000
01000000
00100000
00000000
00001000
00000000
00010000
,
00000010
00000000
00000100
00000010
00001000
00000000
00000100
00000010
,
00000000
00000001
00000000
00000010
00000100
00000000
00010000
00001000
,
00010000
00001000
00000000
00100000
00000000
00010000
01000000
00100000
,
00020000
00000000
00130000
00020000
00000000
00032000
00000000
00003000
,
00002001
00000000
00003001
00000010
00000100
00000010
00000001
00000000
,
00001000
00000010
00000100
00000010
00000000
00021000
00000000
00031000
,
00100000
00000000
01000000
00100000
00010000
00000000
01000000
00100000
,
00000000
20100000
00000000
30100000
01000000
00000000
00001000
00010000
,
00001000
00010000
00000000
00010020
00000000
00001030
00000100
00000010
,
00002000
00000000
00003010
00002000
00000000
00023000
00000000
00030000
,
00001001
00000000
00000001
00000100
00000010
00000100
00000001
00000000
,
00001000
00000100
00000010
00000100
00000000
00020100
00000000
00031000
,
01000000
00000000
00100000
01000000
00010000
00000000
00100000
01000000
,
00000000
21000000
00000000
31000000
00100000
00000000
00001000
00010000
,
00001000
00010000
00000000
00010200
00000000
00001300
00000010
00000100
,
00002000
00000000
00003100
00002000
00000000
00023000
00000000
00000000
,
00130000
10000000
00000000
01000000
00000000
00100000
00000000
00001000
,
00000000
00010000
00000010
00000000
00000010
00001000
00000000
00000011
,
00000000
00001010
00000000
00010000
00000010
00000000
00000000
00000000
,
00001000
00000000
00000010
00000000
00000100
00000000
00000001
00000000
00000010
00000000
00000100
00000000
,
00010000
00000000
00000000
00000000
00001000
00000000
00000000
00000000
00010000
00000000
00000000
00000000
01000000
00000000
00000000
00100000
00000000
00000000
00010000
00000000
00000000
01000000
00000000
00000000
,
00100000
00000000
00000000
00000000
10000000
01000000
00100000
00010000
,
20000000
00000000
30000000
01000000
,
00100000
00000000
00000000
01000000
00000000
00100000
00000000
00000000
01000000
00000000
00100000
00000000
,
01000000
00000000
00100000
00000000
00000000
00001000
00000000
00000000
00010000
00000000
00000000
00000020
,
00000000
00000000
00000000
00000000
00000000
00000000
00000030
00000000
00000000
00001000
00000000
00000001
,
00000010
00000000
00000000
00000001
00000000
00000000
00000001
00000000
00000100
00000000
00000000
00000010
,
00010000
00000000
00001000
00000000
00000000
00100000
00000000
00000000
00010000
00000000
00000000
00010000
,
10000000
00000000
10000000
00010000
10000000
00010000
10000000
00020000
,
00000000
00000000
00100000
00000000
00000000
00000000
00130000
00000000
00000000
01000000
00000000
00000000
,
10000000
00000000
00100000
01000000
00000000
00000000
00001000
00000000
00010000
00000000
00000000
00000100
,
00000000
00000000
00000010
00000000
00000000
00000001
00000000
00000000
00001000
00000001
00000000
00000000
,
00000100
00000000
00000000
00000000
00000001
00000000
00000000
00000000
00000000
00000000
00000200
00000000
00000000
00000000
00000000
00000000
00000000
00000000
00000310
00000000
00000000
00000100
00000000
00000000
,
00000010
00000100
00000010
00000100
00000010
00000000
00001000
00000000
,
00000001
00000000
00000010
00000100
00000000
00000000
00010000
00000000
00001000
00000000
00010000
00000000
,
00001000
00000000
00100000
00000000
00010000
00000000
20000000
00000000
00000000
30100000
00000000
00000000
,
01000000
00000000
00000000
01100000
00000000
00000000
00000000
00000000
11000000
00000000
00000000
00000000
,
01100000
00000000
00000000
00000000
00000000
00110000
00000000
00000000
00000000
10000000
00000000
00000000
,
11000000
01000000
00100000
00101000
,
00001000
00010000
00000010
00000100
,
00000001
00000000
00000100
00000000
00000010
00000100
00000001
00000000
,
00000010
00000000
00000000
00001000
00000000
00010000
00100000
00000000
,
10000000
00100000
01000000
01001000
,
00001000
00000000
00010000
00000000
00000100
00000010
00000000
00000002
,
00000003
00000000
00000011
00000000
00000001
00000000
00000010
00000001
,
00000000
00000100
00001000
00000000
00010000
00000000
01000000
00000000
,
20000000
00000000
00000000
00100000
00000000
30020000
00000000
00000000
,
00230000
02300000
23000000
30000000
,
00020000
00000000
00000000
10000000
00000000
00230000
00000000
00000000
,
00302000
00023000
00030020
00000030
,
00001001
00000001
00000010
00000100
,
00001000
00000010
00010000
00001000
,
00100000
00001000
00100000
00000000
00010000
01000000
00010000
00000000
,
10000000
00100000
01000000
00001000
00010000
00000100
00000010
00000000
,
00002100
00000000
00003020
00000000
,
00000100
00000000
00000000
00000000
00000000
00000000
00000000
00000000
00001030
00000000
00000000
00000100
00000000
00000000
00000100
00000000
,
00020100
00000000
00000000
00032000
00000000
00000000
00203000
00010000
,
00320000
00000000
00000000
00000000
00000000
00000000
01030000
00000000
00010000
00100000
01000000
10000000
00000000
10000000
00010000
10000000
,
00200000
00000000
00000000
00320000
00001000
00000000
00230000
00000000
,
20300000
00000000
32000000
00010000
,
03020000
00000000
00000000
00032000
00010000
00000000
01000000
01000000
,
00023000
00000000
00000000
00000000
00000000
00000000
01030000
00000000
10000000
01000000
00100000
00001000
00000000
00010000
00001000
00010000
,
00000010
00000000
00001000
00000100
00000110
00000000
00000002
00000000
,
00000013
00000000
00000000
00000000
00000001
00000000
00001000
00000000
00001100
00000000
00000000
00000100
00000010
00000001
00000010
00000000
,
00000002
00000000
00000000
00000203
00000000
00000000
00000320
00000000
00020030
00000000
00000000
00032000
00000000
00000000
01003000
00000000
,
00100000
00000000
00000000
00100000
00000000
00000000
10000000
01000000
00100000
00010000
00000000
00100000
00010000
00000000
10000000
00010000
,
01000000
00000000
00010000
00100000
01100000
00000000
20000000
00000000
,
31000000
00000000
00000000
00000000
10000000
00000000
00010000
00000000
00120000
00000000
00000000
00000000
10030000
00100000
10000000
00000000
,
20000000
00000000
00000000
00000000
30200000
00000000
00000000
00000000
02300000
00000000
00000000
00010000
00000000
03002000
00000000
00000000
,
00003010
00000000
00000000
00000010
00000000
00000000
00000001
00000000
00000010
00000000
00001000
00000000
00010000
00000000
01000000
00000000
,
10000000
00100000
00000000
01000000
00000000
00100000
00000000
01000000
,
00000000
00100000
00000000
01000000
00010000
00000000
00100000
00000000
,
00001000
00000000
00010000
00000000
00001000
00010000
00000000
00000010
,
00001000
00000000
00000100
00000000
00000100
00000010
00000000
00000001
,
00000000
00000100
00000000
00000100
00000010
00000000
00000100
00000000
,
00000100
00001000
00000000
00010000
00001000
00000000
00010000
00000000
,
01000000
00000000
00000000
01100000
00000000
10010000
00000000
01100000
,
00000000
10010000
00000000
00000000
11000000
00000000
00000000
00010000
,
00000000
00100000
00001000
00000000
00000000
00010000
00000000
00000010
,
00001000
00000000
00000000
00000000
00000000
00000000
00000000
00000000
00000000
00000000
00000000
00000000
00000000
00000000
00000000
00000000
00000000
00000000
00000000
00000000
00000000
00000000
00000000
00000000
00000000
00000000
00000000
00000000
00000000
00000000
00000000
00000000
00000000
00000000
00000000
00000000
00000000
00000000
00000000
00000000
00000000
00000000
00000000
00000000
00000000
00000000
00000000
00000000
00000001
00000000
00000000
00000000
00000000
00000000
00000000
00000000
00000000
00000000
00000000
00000000
00000000
00000000
00000000
00000000
00000000
00000000
00000000
00000000
00000000
00000000
00000000
00000000
00000000
00000000
00000000
00000000
00000000
00000000
00000000
00000000
00000000
00000000
00000000
00000000
00000000
00000000
00000000
00000000
00000000
00000000
00000000
00000000
00000000
00000000
00000000
00000000
00000100
00000000
00000000
00000000
00000000
00000000
00000000
00000000
00000000
00000000
00000000
00000000
00000000
00000000
00000000
00000000
00000010
00000000
00000000
00000000
00000000
00000000
00000000
00000000
00000000
00000000
00000000
00000000
00000000
00000000
00000000
00000000
00002000
00000000
00000000
00000000
00000000
00000000
00000000
00000000
00000000
00000000
00000000
00000000
00000000
00000000
00000000
00000000
MMMM0000
00000000
00000000
00003000
00000000
00000000
00000000
00000000
00000000
00000000
00000000
00000000
00000000
00000000
00000000
00000000
00000000
00000000
00000000
00000000
00000000
00000000
00000000
00000000
00000000
00000000
00000000
00000000
00000000
00000000
00000000
00000000
00000000
00000000
00000000
00000000
00000000
00000000
00000000
00000000
00000000
00000000
00000000
00000000
00000000
00000000
00000000
00000000
,
MMMM0000
MMMM0000
MMMMMMMM
MMMMMMMM
,
20020000
30030000
00000000
00000000
;

//---------------dance-double - ----------------
#NOTEDATA:;
#CHARTNAME:;
#STEPSTYPE:dance-double;
#DESCRIPTION:;
#CHARTSTYLE:;
#DIFFICULTY:Medium;
#METER:13;
#RADARVALUES:0.574327,0.810849,0.237686,0.611193,0.173171,592.000000,557.000000,35.000000,90.000000,36.000000,0.000000,0.000000,0.000000,0.000000,0.574327,0.810849,0.237686,0.611193,0.173171,592.000000,557.000000,35.000000,90.000000,36.000000,0.000000,0.000000,0.000000,0.000000;
#CREDIT:Karl with a K;
#NOTES:
00000000
00000000
00000000
00000000
,
00000000
00000000
00000000
00000000
,
00000000
00000000
00000000
00000000
,
00000000
00000000
00000000
00000000
,
00000000
00000000
00000000
00000000
,
00000000
00000000
00000000
20000000
,
30200000
00000000
00000000
20300000
,
00000000
32000000
00000000
00000000
03200000
00000000
00000000
00000000
,
00000000
00302000
00020000
00033000
,
00002020
00000000
00003000
00000230
,
00000001
00000000
00000310
00000000
00000020
00000000
00000000
00000032
,
00000000
00000000
00000023
00000000
00000000
00002030
00000000
00000000
,
00003001
00000000
00000000
00000010
00000000
00000100
00000000
00001000
,
00000000
00000100
00000000
00010000
00000000
00000000
00001000
00000000
,
00010000
00000000
00001000
00000000
01000000
00000000
00000000
00100000
,
00000000
00000000
10000000
00000000
10000000
00000000
00000000
00010000
,
00000000
00100000
00000000
00010000
00000000
00000000
01000000
00000000
,
00001000
00000000
00000000
00010000
00000000
00000000
00000100
00000000
,
00000010
00000000
00000000
00000001
00000000
00001000
00000000
00000001
,
00000000
00001000
00000000
00000000
00000010
00000000
00000000
00000010
,
00000000
00000010
00000000
00010000
00002000
00000000
MMMM3000
00000000
,
MMMM1000
00000000
01000000
00100000
00000000
00100000
00000000
00100000
,
00000000
00100000
00000000
01000000
00001000
00000000
00000000
00021000
,
00000000
00030010
00000000
00002010
00000000
00003200
00000000
00000000
,
00000320
00000000
00000000
00000031
00000000
00000100
00000000
00000000
,
00000010
00000000
00010000
00000000
00002000
00000000
00000000
01000000
,
00000000
02003000
00000000
00000000
03200000
00000000
00300000
00000000
,
00200000
00000000
00000000
10300000
00000000
01000000
00000000
00000000
,
00100000
00000000
00001000
00000000
00020000
00000000
00000000
00030000
,
00000100
00000000
00000010
00000000
00000001
00001000
00000001
00000000
,
00000020
00000000
00000000
00000031
00000000
00000010
00000000
00000000
,
00000100
00001000
00020000
00000000
,
00230000
01000000
02300000
00000000
,
03020000
00000000
00000000
01030000
00000000
10000000
00000000
00000000
,
00100000
00000000
01000000
00000000
00001000
00000000
00010000
00000010
,
00000000
00000010
00000000
00000100
00000001
00000000
00000010
00000000
,
00000011
00000000
00000000
00000021
00000000
00000130
00000000
00000000
,
00010000
00000000
00001000
00000000
00011000
00000000
00000000
00012000
,
00000000
01003000
00000000
00000000
00010000
00000000
10000000
00000000
,
10100000
00000000
00000000
10200000
00000000
01300000
00000000
00000000
,
00001000
00000000
00010000
00000000
00011000
00000000
00000000
00021000
,
00000000
00030100
00000000
00000000
00001000
00000000
00000001
00000000
,
00000011
00000000
00000000
00000012
00000000
00000103
00000000
00000000
,
00001000
00000000
00010000
00000000
00011000
00000000
00000000
00012000
,
00000000
00103000
00000000
00000000
00010000
00000000
10000000
00000000
,
11000000
00000000
00000000
21000000
00000000
30100000
00000000
00000000
,
00010000
00000000
00001000
00000000
00011000
00000000
00000000
00011000
,
00000000
00001100
00000000
00001000
00000001
00001000
00000001
00000000
,
00000002
00000000
00000000
00000203
00000000
00000000
00000301
00000000
,
00000010
00000000
00000100
00000000
00020000
00000000
00000000
00001000
,
00000000
00031000
01000000
00010000
,
00200000
00000000
00320000
10000000
,
02030000
00000000
03200000
00000000
,
20300000
01000000
30010000
10000000
,
20000000
00000000
00000000
32000000
00000000
00000000
13000000
00000000
,
00100000
00000000
01000000
00000000
00002000
00000000
00000000
00010000
,
00000000
00013000
00000100
00000010
,
00000020
00000000
00000000
00000032
00000000
00000000
00001003
00000000
,
00000001
00000000
00000100
00000000
00002000
00000000
00000000
00023000
,
00000000
00000000
00130000
01000000
00100000
01000000
00100000
00000000
,
10000000
10000000
01000000
00100000
,
00100000
00000000
00100000
00001000
00000000
00001000
00000000
00001000
,
00010000
00000000
00010000
00000000
00000010
00000000
00000010
00000100
,
00000000
00000100
00000000
00000100
00000001
00000000
00000001
00000000
,
00000010
00000100
00000000
00000100
00000000
00000100
00010000
00000000
,
00011000
00000000
00001000
00010000
00000000
00200000
00000000
00000000
,
10300000
10000000
00100000
01000000
,
01000000
00000000
01000000
00001000
00000000
00001000
00000000
00001000
,
00010000
00000000
00010000
00000000
00000100
00000000
00000100
00000010
,
00000000
00000010
00000000
00000010
00000001
00000000
00000001
00000000
,
00000100
00000010
00000000
00000010
00000000
00000010
00010000
00000000
,
00011000
00000000
00001000
00010000
00000000
02000000
00000000
00000000
,
13000000
01000000
00100000
00010000
,
01000000
00000000
00001000
00010000
00000000
00000100
00001000
00000000
,
00000100
00000010
00000001
00000100
,
00000010
00000001
00000000
00000010
00001000
00000000
00000100
00000000
,
00000010
00000100
00000000
00000010
00000000
00001000
00010000
00000000
,
01000000
00000000
10000000
00010000
00000000
01000000
00010000
00000000
,
10000000
00100000
01000000
00010000
,
00100000
00000000
00001000
00010000
00000000
00000010
00001000
00000000
,
00000010
00000100
00000001
00000010
,
00000100
00000001
00000000
00000100
00001000
00000000
00000100
00000000
,
00000010
00000000
00000100
00001000
00000000
00000100
00010000
00001000
,
00000000
01000000
00001000
01000000
00000000
00010000
10000000
00000000
,
10000000
00100000
00000000
00100000
00000000
00100000
00000000
00100000
,
00000000
00100000
01000000
00000000
00100000
00010000
00000000
00010000
,
00000000
00010000
00000000
00010000
00000010
00000000
00000000
00000000
,
00001000
00000000
00000100
00000000
00000010
00000000
00000001
00000000
00000010
00000000
00000100
00000000
,
00001000
00000000
00000000
00000000
00000001
00000000
00000000
00000000
00000100
00000000
00000000
00000000
00000010
00000000
00000000
00010000
00000000
00000000
00000010
00000000
00000000
00000000
00000000
00000000
,
00011000
00000000
00100000
00010000
,
20000000
00000000
31000000
00100000
,
00010000
01000000
00001000
00010000
,
00001000
00000000
00000010
00000000
00000000
00000001
00000000
00000000
00000100
00000000
00000000
00000020
,
00000000
00000130
00001000
00010000
,
00100000
00000000
00000000
10000000
00000000
00000000
01000000
00000000
00100000
00000000
00000000
00000000
,
00001000
00000000
00100000
00000000
00000000
00001000
00000000
00000000
00010000
00000000
00000000
00000000
,
00000010
00000000
00000100
00000000
00000010
00000000
00000100
00000020
,
00000000
00000000
00001030
00000000
00000000
00000000
00001001
00000000
00000000
00000001
00000000
00000000
,
00000010
00000000
00000000
00001000
00000000
00000000
00010000
00000000
00100000
00000000
00000000
01000000
,
00000000
00000000
00100000
00000000
00000000
00010000
00000000
00000000
00200000
00000000
00000000
00000000
,
10300000
00000000
01000000
00000000
00000000
00200000
00000000
00000000
00000000
00310000
00000000
00000000
,
00010000
00010000
00010000
10000000
,
01000000
00000000
00000000
00100000
00000000
00000000
00001000
00000000
00010000
00000000
00001000
00000000
,
00010000
00000000
00000010
00000000
00001000
00000000
00000001
00000000
00000000
00000010
00000000
00000000
,
00000000
00000000
00000000
00000012
00000000
00000000
00000000
00000000
00000203
00000000
00000000
00000000
,
00000320
00000000
00000000
00000000
00000000
00000032
00000000
00000000
00000000
00000013
00000000
00000000
,
00000210
00000000
00000301
00000010
,
00000100
00000000
00001000
00000000
,
00010000
00000000
01000000
00100000
,
00010000
00000000
00000000
00100000
00000000
10000000
00000000
00000000
,
12000000
00000000
13000000
00100000
,
01000000
00000000
00000000
00000000
00001000
00010000
00000000
00000000
,
00001000
00000000
00000010
00000000
00000100
00000000
00000100
00001000
,
00000000
00000001
00000010
00000000
00000001
00000000
00001000
00000000
,
00000100
00000000
00000000
00001000
00000000
00000000
00000010
00000000
,
00010000
00001000
01000000
00000000
,
01000000
00000000
00000000
00010000
00000000
00000000
00100000
00000000
,
00001000
00010000
00000100
00000000
,
00000010
00000001
00000100
00000000
,
00000010
00010000
00001000
00000000
,
00100000
00010000
01000000
00100000
,
10000000
00000000
01000000
00000000
00100000
00010000
10000000
00010000
,
02000000
00000000
20000000
00000000
,
00000000
00000000
00000000
00000000
30000000
00000000
00000000
00000000
03100000
00000000
00000000
10000000
00010000
00000000
00010000
00000000
,
20000000
00000000
00000000
32000000
00000000
00000000
03200000
00000000
,
00010000
00000000
00000000
00000000
00000000
00000000
00000000
00000000
00301000
00010000
00000000
00001000
00000000
00010000
00001000
00000000
,
00000020
00000000
00000000
00000032
00000000
00000000
00000023
00000000
,
00000230
00000000
00000000
00000000
00000000
00000000
00000000
00000000
00001300
00000000
00000000
00001000
00000010
00000000
00001000
00000000
,
00000020
00000000
00000000
00000001
00000032
00000000
00000013
00000100
,
00000002
00000000
00000000
00000000
00000000
00000000
00000103
00000000
00000010
00000000
00000010
00010000
00000000
00010000
00001000
00000000
,
00100000
01000000
00210000
20300000
,
30200000
00000000
00000000
00000000
00010000
00000000
00000000
00000000
00320000
00000000
00000000
01030000
00100000
01000000
00100000
00000000
,
20000000
00000000
00000000
30200000
00000000
00000000
00320000
00000000
00032000
00000000
00000000
00003020
00000000
00000000
00000031
00000000
,
00000010
00000000
00000000
00000010
00000000
00000000
00000100
00000000
00000010
00001000
00000000
00001000
00000000
00001000
00010000
00001000
,
00010000
00100000
01100000
10000000
,
01000000
00000000
00000000
00000000
00100000
00000000
00000000
00000000
01200000
00000000
00000000
00000000
00310000
00100000
00000000
00000000
,
00020000
01000000
00032000
00010000
,
00003010
00000000
00000000
00001000
00000000
00000000
00000100
00000000
00000010
00000001
00000010
00000100
00000010
00000001
00000010
00000000
,
00000001
00000000
00000000
00000100
00000000
00000010
00000000
00001000
,
00000000
00000010
00000000
00010000
00000000
00000000
00001000
00000000
,
00010000
00000000
00001000
00000000
00100000
00000000
00000000
01000000
,
00000000
00000000
10000000
00000000
10000000
00000000
00000000
00010000
,
00000000
01000000
00000000
00010000
00000000
00000000
00100000
00000000
,
00001000
00000000
00000000
00010000
00000000
00000000
00000010
00000000
,
00000100
00000000
00000000
00000001
00000000
00001000
00000000
00000001
,
00000000
00001000
00000000
00000000
00000110
00000000
00000000
00000110
,
00000000
00000010
00000100
00000000
00000000
00000110
00000000
00000010
,
00000100
00000000
00000000
00000110
00000000
00000000
00000001
00000100
00000001
MMMM0000
00000000
00000000
,
MMMM0000
MMMM0000
MMMMMMMM
MMMMMMMM
,
00022000
00033000
00000000
00000000
;

//---------------dance-double - ----------------
#NOTEDATA:;
#CHARTNAME:;
#STEPSTYPE:dance-double;
#DESCRIPTION:;
#CHARTSTYLE:;
#DIFFICULTY:Easy;
#METER:10;
#RADARVALUES:0.336641,0.557459,0.061119,0.441417,0.020373,347.000000,338.000000,9.000000,65.000000,0.000000,0.000000,0.000000,0.000000,0.000000,0.336641,0.557459,0.061119,0.441417,0.020373,347.000000,338.000000,9.000000,65.000000,0.000000,0.000000,0.000000,0.000000,0.000000;
#CREDIT:Karl with a K;
#NOTES:
00000000
00000000
00000000
00000000
,
00000000
00000000
00000000
00000000
,
00000000
00000000
00000000
00000000
,
00000000
00000000
00000000
00000000
,
00000000
00000000
00000000
00000000
,
00000000
00000000
00000000
00000000
,
20000000
00000000
00000000
32000000
,
00000000
00000000
03020000
00000000
,
00000000
00032000
00000000
00000000
,
00003020
00000000
00000000
00000031
,
00000100
00000010
00000002
00000000
,
00000000
00000000
00000023
00000000
00000000
00000230
00000000
00000000
,
00000310
00000000
00000000
00000010
00000000
00000010
00000000
00000010
,
00000000
00000010
00000000
00000010
00000000
00000000
00010000
00000000
,
00010000
00000000
00010000
00000000
00010000
00000000
00000000
00010000
,
00000000
00000000
00001000
00000000
00001000
00000000
00000000
00001000
,
00000000
00001000
00000000
00001000
00000000
00000000
01000000
00000000
,
01000000
00000000
00000000
01000000
00000000
00000000
01000000
00000000
,
00100000
00000000
00000000
00100000
00000000
00100000
00000000
00100000
,
00000000
00100000
00000000
00000000
10000000
00000000
00000000
10000000
,
00000000
10000000
00000000
00000000
22000000
00000000
33000000
00000000
,
00000000
00000000
00000000
00000000
,
00000000
00000000
00000000
00000000
,
00000000
00000000
02000000
00000000
,
03200000
00000000
00000000
00301000
,
00010000
00000000
00000020
00000000
,
00000000
00000000
00002030
00000000
,
00003200
00000000
00000000
00000000
,
00000000
00000000
00001300
00000001
,
00000100
00000000
00000010
00000000
,
00020000
00000000
00000000
00000000
00000000
00000000
00000000
00000000
00001000
00000000
00000000
00000000
,
00031000
00000000
02000000
00000000
,
03020000
00000000
00230000
00000000
,
20300000
00000000
00000000
00000000
,
00000000
00000000
30100000
00000000
,
00010000
00000000
10000000
00000000
,
00200000
00000000
00000000
00310000
,
00001000
00000000
00000020
00000000
,
00000000
00000000
00000032
00000000
,
00000203
00000000
00000000
00000000
,
00000000
00000000
00001300
00000100
,
00000010
00000000
00010000
00000000
,
00002000
00000000
00000000
00000000
00000000
00000000
00000000
00000000
00010000
00000000
00000000
00000000
,
00013000
00000000
02000000
00000000
,
23000000
00000000
30200000
00000000
,
00320000
00000000
00000000
00000000
,
00000000
00000000
00032000
00000000
,
00003200
00000000
00000302
00000000
,
00000013
00000000
00000000
00000100
00000000
00000000
00000010
00000000
,
00001000
00000000
00000000
00000000
00000010
00000000
00000000
00000100
,
00000000
00000010
00000001
00000000
,
00002000
00000000
00003200
00000000
,
00020300
00000000
00032000
00000000
,
00000000
00003000
00001000
01000000
,
00100000
00000000
00000000
01000000
00000000
00000000
00100000
00000000
,
00010000
00000000
00000000
00000000
00100000
00000000
00000000
01000000
,
00000000
00100000
10000000
00000000
,
00100000
00000000
00000000
00010000
00000000
00000000
00001000
00000000
,
00010000
00000000
00001000
00000000
00000010
00000000
00000000
00000100
,
00000000
00000010
00000010
00000010
,
00000001
00000000
00000001
00000000
,
00000100
00000000
00000000
00000010
00000000
00000100
00000000
00000000
,
00000010
00000000
00010000
00000000
00001000
00000000
00000000
00010000
,
00000000
00001000
00000000
00000000
00100000
00000000
00000000
00000000
,
01000000
00000000
10000000
00000000
,
00100000
00000000
00000000
00100000
00000000
00100000
00000000
00000000
,
10000000
00000000
10000000
00000000
,
01000000
00000000
00000000
00100000
00000000
01000000
00000000
00000000
,
00100000
00000000
00001000
00000000
00010000
00000000
00000000
00001000
,
00000000
00010000
00000000
00000000
00000010
00000000
00000000
00000000
,
00000100
00000000
00000001
00000000
,
00000010
00000000
00000000
00000010
00000000
00000010
00000000
00000000
,
00000001
00000000
00000100
00000000
,
00000010
00000000
00000100
00000000
,
00001000
00000000
00010000
00000000
,
01000000
00000000
00100000
00000000
,
00010000
00000000
00100000
00000000
,
01000000
00000000
10000000
00000000
,
00010000
00000000
01000000
00000000
,
00100000
00000000
00010000
00000000
,
00001000
00000000
00000010
00000000
,
00001000
00000000
00010000
00000000
,
00100000
00000000
00010000
00000000
,
00001000
00000000
00000010
00000000
,
00000001
00000000
00000000
00000001
00000000
00000001
00000000
00000001
,
00000000
00000001
00000000
00000000
00011000
00000000
00000000
00011000
,
00000000
00011000
00000000
00000000
10010000
00000000
00000000
00000000
,
10000000
00000000
00100000
00000000
,
00010000
00000000
00001000
00000100
,
00000110
00000000
00000000
00000000
,
00000002
00000000
00000000
00000103
,
00000010
00000000
00000010
00000000
,
00000010
00000000
00000100
00000000
,
00000001
00000000
00001000
00000000
,
00000100
00000000
00000010
00000000
,
00001000
00000000
00010000
00000000
,
01000000
00000000
00000000
00000000
00100000
00000000
00000000
00200000
,
00000000
00000000
00300000
00010000
,
10000000
00000000
00000000
00000000
00000000
00000000
00100000
00000000
00000000
00000000
00000000
00010000
,
00000000
00000000
00000000
00000000
00000000
00001000
00000000
00000000
00000000
00000000
00000000
00000000
,
00000010
00000000
00000100
00000000
,
00000010
00000001
00000010
00000000
,
00000001
00000000
00000100
00000000
,
00001000
00000000
00010000
00000000
,
00000000
00000000
00000000
00100000
00000000
00000000
00000000
00000000
01000000
00000000
00000000
00000000
,
00100000
00000000
00000000
00000000
00000000
00100000
00000000
00000000
00000000
10000000
00000000
00000000
,
20000000
00000000
30000000
01000000
,
00100000
00000000
00001000
00000000
,
00020000
00000000
00000000
00000000
00000000
00030100
00000000
00000000
,
00000010
00000000
00000000
00000001
00000000
00000001
00000000
00000000
,
00000002
00000000
00000003
00000100
,
00000010
00000000
00000000
00000000
00000000
00010000
00000000
00000000
,
00000000
00000000
00001000
00000000
01000000
00000000
00000000
00100000
,
00000000
00000000
10000000
00000000
00000000
10000000
00000000
00000000
,
01000000
00000000
00100000
00000000
,
00010000
00000000
10000000
00000000
,
01000000
00000000
00100000
00000000
,
00010000
00000000
10000000
00000000
,
01000000
00000000
00010000
00000000
,
00001000
00000000
00000100
00000000
,
00000001
00000000
00000100
00000000
,
00000010
00000100
00000010
00000100
,
00001002
00000000
00000023
00000000
,
00000000
00000000
00000230
00000000
,
00020300
00000000
00000000
00032000
00000000
00000000
00203000
00000000
,
00010000
00000000
00310000
00010000
,
20000000
00000000
30200000
00000000
,
00320000
00000000
00230000
00320000
,
00032000
00000000
00000000
00003020
00000000
00000000
00000100
00000000
,
00000230
00000000
00000310
00000001
,
00001002
00000000
00000103
00000010
,
00020000
00000100
00032000
01000000
,
00013000
00100000
01000000
00010000
,
20000000
00100000
30010000
00010000
,
20000000
00000000
31000000
00100000
,
00002000
00100000
00023000
00000010
,
00031000
00000100
00000001
00000010
,
00000002
00000000
00000000
00000000
00001003
00000010
00001000
00000000
,
00000100
00000000
00000000
00000100
00000000
00000100
00000000
00000100
,
00000000
00000100
00000000
00000100
00000000
00000000
00010000
00000000
,
00010000
00000000
00010000
00000000
00010000
00000000
00000000
00010000
,
00000000
00000000
00001000
00000000
00001000
00000000
00000000
00001000
,
00000000
00001000
00000000
00001000
00000000
00000000
00100000
00000000
,
00100000
00000000
00000000
00100000
00000000
00000000
00100000
00000000
,
01000000
00000000
00000000
01000000
00000000
01000000
00000000
01000000
,
00000000
01000000
00000000
00000000
10000000
00000000
00000000
10000000
,
00000000
00000000
00100000
00000000
00000000
00100000
00000000
00000000
,
01000000
00000000
01000000
00000000
00010000
10000000
00000000
00000000
,
00000000
00000000
00000000
00000000
,
00002002
00003003
00000000
00000000
;

//---------------dance-double - ----------------
#NOTEDATA:;
#CHARTNAME:;
#STEPSTYPE:dance-double;
#DESCRIPTION:;
#CHARTSTYLE:;
#DIFFICULTY:Challenge;
#METER:18;
#RADARVALUES:0.902237,1.165596,0.502536,0.679103,0.404066,930.000000,856.000000,74.000000,100.000000,92.000000,0.000000,0.000000,0.000000,0.000000,0.902237,1.165596,0.502536,0.679103,0.404066,930.000000,856.000000,74.000000,100.000000,92.000000,0.000000,0.000000,0.000000,0.000000;
#CREDIT:Karl with a K;
#NOTES:
00000000
00000000
00000000
00000000
,
00000000
00000000
00000000
00000000
,
00000000
00000000
00000000
00000000
,
00000000
00000000
00000000
00000000
,
00000000
00000000
00000000
00000000
,
00000000
00000000
00000000
20000000
,
30200000
00000000
01000000
00000000
01000000
00000000
00000000
01000000
00000000
02300000
00000000
00000000
03002000
00000000
00010000
00000000
,
00010000
00000000
00023000
00001000
00000000
00032000
00000000
00000000
00003020
00000000
00000001
00000000
00000001
00000000
00000000
00000001
,
00000000
00000032
00000000
00000000
00002003
00000000
00000010
00000000
00003002
00000010
00000000
00000010
00000000
00000010
00000000
00000000
,
00000023
00000000
00000100
00000000
00000100
00000000
00000000
00000100
00000000
00000230
00000000
00000000
00020300
00000000
00001000
00000000
,
00032000
00000000
00000000
00000000
00100000
00000000
00100000
00000000
00103000
00000000
00010000
10000000
00010000
10000000
00100000
10000000
,
00000000
10000000
00010000
10000000
00010000
00000000
00100000
01000000
00100000
01000000
00000000
10000000
00000000
00100000
10000000
00000000
,
00010000
10000000
00000000
10010000
00000000
11000000
00000000
01010000
,
00000000
00011000
00000000
00010000
00001000
00000000
00011000
00000000
,
00001100
00000000
00000101
00000000
00000001
00000100
00000000
00000100
,
00000001
00000000
00000011
00000000
00000001
00000010
00000000
00001010
,
00000000
00011000
00000000
00001000
00010000
00000000
00011000
00000000
,
00010000
00001000
00000000
00001000
00010000
00000000
00011000
00000000
,
00101000
00000000
00000000
10010000
00000000
10100000
00000000
01001000
,
00000000
00011000
00000000
00000000
00010100
00000000
00000000
00001001
,
00000000
00010010
00000000
00001000
00100000
00000000
MMMMMMMM
0000MMMM
,
10000000
00000000
01000000
00100000
01000000
00000000
00100000
00000000
00000000
00000000
00101000
00000000
00000000
00000000
00011000
00000000
,
00000000
00000000
00010020
00000000
00000000
00000000
00001030
00000001
00001000
00000000
00000000
00000000
00000100
00000000
00010000
00000000
,
00001000
00000000
00000000
00100000
00000000
00000000
00010000
00000000
00000000
01000000
00000000
00000000
00100000
00000000
00000000
10000000
00000000
00000000
00100000
00000000
01000000
00000000
00100000
00000000
,
1000MMMM
0000MMMM
0100MMMM
1000MMMM
0000MMMM
0100MMMM
0010MMMM
0100MMMM
,
0010MMMM
00000000
00000000
00000000
00001000
00000000
00000000
00000000
00010000
00000000
00000000
00000000
00000010
00000000
00000000
00000000
00000000
00000000
00000100
00000000
00000000
00000001
00000000
00000000
,
00000000
00000000
00000000
00000010
00000000
00000000
00000100
00000000
00000000
00001000
00000000
00000000
00000100
00000000
00020000
00000000
00000000
00000000
00030010
00000000
00000000
00000000
00000000
00000000
,
00001000
00000000
00000100
00001000
00000010
00000100
00000010
00001000
,
00000001
00000010
00000001
00000000
00000100
00000000
00000010
00010000
,
00001000
00100000
01000000
10000000
01000000
00100000
00010000
00000000
,
10000000
00000000
00000000
00000000
00000000
00000000
00100000
00000000
00000000
10000000
00000000
00000000
00000000
00000000
00000000
00000000
00100000
00000000
00000000
00000000
01000000
00000000
00000000
00000000
,
00001000
00000000
00000000
00000000
00010000
00000000
00000000
00000000
00000100
00000000
00000000
00000000
00000020
00000000
00000000
00000000
00000000
00000000
00000000
00000000
00000000
00000031
00000000
00000000
,
00000200
00000000
00002300
00000000
00013000
00000100
00001000
00000000
,
00001000
00000000
00000010
00001000
00000100
00000010
00000100
00001000
,
00000001
00000000
00000000
00000100
00000000
00000000
00000001
00000000
00000000
00000000
00000000
00000000
00000010
00000000
00000001
00000000
00000010
00000000
00000001
00000000
00000000
00001000
00000000
00000000
,
00000010
00010000
00002000
00000000
00103000
00010000
10000000
00100000
,
00020000
00000000
00130000
00020000
00000000
00130000
01000000
00000000
,
00010000
00000000
00000000
00000000
10000000
00000000
00000000
00000000
01000000
00000000
00000000
00000000
00020000
00000000
00000000
00000000
00000000
00000000
01030000
00000000
00000000
00020000
00000000
00000000
,
00000000
00031000
00010000
00000010
00001000
00000001
00001000
00000010
,
00000002
00000000
00000013
00000002
00000000
00000013
00000100
00000000
,
00000001
00000010
00000100
00001000
00000020
00000000
00001030
00000100
,
00000010
00000001
00001000
00000100
00010000
00001000
00100000
01000000
,
00020000
00000000
00000000
00000000
00000000
00000000
01030000
00000000
00000000
00020000
00000000
00000000
00000000
00000000
00000000
00000000
01030000
00000000
00000000
00000000
00100000
00000000
00000000
00000000
,
00010000
00000000
00000000
00000000
10000000
00000000
00000000
00000000
00100000
00000000
00000000
00000000
00020000
00000000
00000000
00000000
00000000
00000000
00130000
00000000
00000000
00020000
00000000
00000000
,
00031000
00000000
00010000
00000100
00001000
00000001
00001000
00000100
,
00000002
00000000
00000103
00000002
00000000
00000103
00000020
00000000
,
00000031
00000100
00000010
00001000
00000200
00000000
00010300
00000100
,
00001000
00000001
00001000
00000010
00010000
00001000
00100000
00000000
,
10010000
00000000
10000000
01000000
00100000
00010000
01000000
00100000
,
10000000
00010000
01000000
00100000
01000000
00100000
10000000
01000000
,
00100000
00001000
00010000
00001000
00010000
00000010
00001000
00000100
,
00002000
00000000
00003001
00000100
00000010
00001000
00000100
00000010
,
00000001
00000010
00000100
00000010
00000100
00000010
00000001
00000100
,
00000010
00010000
00001000
00010000
00002000
00000000
01003000
00000000
,
10010000
00000000
10000000
00100000
01000000
00010000
00100000
01000000
,
10000000
00010000
00100000
01000000
00100000
01000000
10000000
00100000
,
01000000
00001000
00010000
00001000
00010000
00000100
00001000
00000010
,
00001000
00000010
00000100
00000001
00000010
00000100
00001000
00000100
,
00010000
00000100
00001000
00000100
00000020
00000000
00000000
00000032
,
00000000
00000000
00000000
00000000
00000000
00000000
00000000
00000000
00002003
00003000
00000000
00000000
00002000
00003000
00000000
00000000
00020000
00030000
00000000
00000000
00020000
00030000
00000000
00000000
10000000
00000000
00000000
00000000
00000000
00000000
00000000
00000000
,
10010000
00000000
10000000
00100000
01000000
00001000
00010000
00000000
,
00001000
00010000
00000100
00000010
00000000
00000001
00000000
00000100
,
00000010
00000000
00010000
00001000
00010000
00000000
00001000
01000000
,
00000000
00001000
00000000
00100000
00010000
00000000
10000000
01000000
,
00100000
00001000
00000000
00010000
00000000
00000010
00001000
00000100
,
00000002
00000000
00001003
00000020
00000000
00000032
00000000
00000003
,
00000011
00000000
00000001
00000010
00000100
00010000
00001000
00000000
,
00010000
00001000
01000000
00100000
00000000
10000000
00000000
01000000
,
00100000
00000000
00001000
00010000
00001000
00000000
00010000
00000100
,
00000000
00010000
00000000
00000010
00001000
00000000
00000001
00000100
,
00000010
00010000
00000000
00001000
00000000
00100000
00010000
01000000
,
10000000
00000000
00010000
00200000
00000000
20300000
00000000
30000000
,
10100000
00000000
10000000
01000000
00100000
00001000
00010000
00000100
,
00001000
00000100
00000010
00000001
00001000
00000020
00000000
00001030
,
00000001
00000100
00000010
00010000
00001000
00100000
01000000
10000000
,
01000000
00200000
00000000
01300000
10000000
00100000
01000000
00001000
,
00010000
00000100
00001000
00000002
00000000
00000013
00000100
00010000
,
00001000
00100000
01000000
10000000
00100000
01000000
00001000
00010000
,
00000200
00000000
00001300
00000100
00000010
00000001
00000100
00000010
,
00010000
00001000
00100000
01000000
10000000
00020000
00000000
01030000
,
00010000
00100000
00001000
00010000
00000010
00000100
00000001
00001000
,
00000010
00000002
00000000
00000013
00001000
00000100
00010000
00001000
,
00100000
01000000
00100000
20000000
00000000
30100000
01000000
00020000
,
00000000
00031000
00010000
02000000
00000000
03010000
00001000
00000010
,
00000001
00000010
00000000
00000110
00000000
00000011
00000000
00001010
,
00000000
00000010
00010000
00000000
00001000
00100000
00000000
00110000
,
00000000
10200000
00000000
01300000
00100000
00000000
00000000
00000000
,
10000000
00000000
01000000
00000000
00010000
00000000
00001000
00000000
00000010
00000000
00000001
00000000
,
00000100
00000000
00000000
00000000
00001000
00000000
00000000
00000000
00010000
00000000
00000000
00000000
00100000
00000000
00000000
10000000
00000000
00000000
01000000
00000000
00000000
00010000
00000000
00000000
,
00001000
00000000
00000000
00000000
00001000
00010000
00000100
00000010
,
00000002
00000100
00001003
00000100
,
00000010
00000000
00000000
00000100
00000000
00000010
00000100
00000000
00000010
00000000
00000100
00000000
,
00000010
00000000
00000001
00000000
00000000
00000001
00000000
00000000
00000100
00000000
00000000
00002000
,
00000000
00000000
00000000
00013000
00000000
00000000
00100000
00000000
00000000
01000000
00000000
00010000
,
00100000
00000000
00000000
01000000
00000000
10000000
00010000
00000000
00100000
00000000
00000000
00001000
,
00010000
00000000
00000010
00000000
00000000
00000100
00000000
00000000
00000001
00000000
00000000
00000010
,
00000200
00000000
00010300
00001000
00010000
00001000
00010000
00002000
,
00000000
00000000
00100000
00000000
00000000
00000000
02003000
00000000
00000000
03020000
00000000
00000000
,
10030000
00000000
01000000
00100000
00000000
00001000
00010000
00000000
00000100
00000000
00000000
00000010
,
00000000
00000000
00000001
00000000
00000000
00000100
00000000
00000000
00000100
00000010
00000000
00000000
,
00001000
00000000
00000000
00000000
00000001
00000000
00000000
00000000
00000000
00000000
00000200
00000000
00000000
00000000
00000000
00000000
00000000
00000000
00000310
00000000
00000000
00000100
00000000
00000000
,
00000010
00000000
00000000
00010000
00000000
00000000
00001000
00000000
00000000
00100000
00000000
00000000
00010000
00000000
00000000
00000000
10000000
00000000
00010000
00000000
00000000
00000000
00000000
00000000
,
10000000
00000000
00100000
01000000
00000000
00001000
00010000
00000000
00000010
00000000
00000100
00000000
,
00000001
00000000
00000010
00000000
00000100
00000000
00000001
00000000
00000000
00001000
00000000
00000000
,
00000010
00000000
00000000
00000110
00000000
00000000
00000000
00000000
00001001
00000000
00000000
00000000
,
00011000
00000000
00000000
00000000
00000000
10100000
00000000
00000000
00000000
11000000
00000000
00000000
,
02200000
00000000
03300000
01001000
,
00001000
00010000
00100000
10000000
,
00020000
00000000
00000000
00000000
00000000
01030000
00001000
00000000
,
00020000
00000000
00000000
00030100
00000000
00000020
00000000
00000030
,
00000010
00000000
00000000
00000000
00000001
00000000
00000010
00000000
00000100
00000000
00010000
00000000
,
00001000
00000000
00001000
00000000
01000000
00100000
00000000
20000000
,
00000000
00000000
00100000
00000000
30010000
00000000
00010000
00100000
,
00000000
00100000
00001000
00000000
00010000
00000000
00001000
00000000
,
00000100
00000000
00000001
00001000
00000100
00000010
00000001
00000000
,
00000020
00000000
00000032
00000000
00000103
00001000
00010000
00000000
,
01000000
00000000
10000000
00010000
01000000
00100000
10000000
00000000
,
00100000
10000000
00010000
10000000
00100000
01000000
00001000
00010000
,
00000100
00010000
00001000
00010000
00000100
00010000
00001000
00010000
,
00000010
00010000
00001000
00010000
00000010
00010000
00001000
00010000
,
00000001
00000010
00001000
00010000
00100000
10000000
01000000
00100000
,
00001000
00000000
00100000
00000000
00001000
00000000
00100000
00000000
00000000
00001000
00000000
00000000
00010000
00000000
00000010
00000000
00010000
00000000
00000010
00000000
00000000
00000000
00000000
00000000
,
00000202
00000300
00000020
00000030
,
00002000
00000000
00000000
00000000
00000003
00000000
00003100
00000000
00000120
00000000
00000000
00002030
00010000
00000000
01003000
00000000
,
01002000
00000000
00000000
02003000
00010000
00000000
03200000
01300000
,
01100000
00000000
00000000
00000000
00000000
00000000
01000000
00000000
00100000
10000000
01000000
00100000
00001000
00010000
00000010
00010000
,
00000020
00000000
00000000
00000032
00001000
00000000
00000023
00000000
,
00002030
00000000
00000000
00000000
00000000
00000000
00003100
00000000
00000110
00000000
00000000
00000100
00000010
00000000
00000100
00000000
,
00021000
00000000
00000000
00100000
00230000
00000000
01000000
01300000
,
01020000
00000000
00000000
00000000
00000000
00000000
01000000
00000000
10030000
00100000
01000000
00001000
00000000
00001000
00010000
00000100
,
00000020
00000001
00000100
00002030
,
00003020
00000000
00000000
00000000
00000031
00000000
00000100
00000000
00000110
00000000
00000000
00000100
00000010
00010000
00001000
00000000
,
00011000
00000000
00010000
00100000
00000000
00100000
10000000
00000000
01000000
00000000
01000000
00100000
00000000
00001000
00000000
00000000
,
00010000
00000000
00000000
00010000
00000000
00000000
00000100
00000000
00000010
00000100
00000010
00000100
00000010
00000001
00000100
00000010
,
00002000
00000000
00000100
00000000
00000010
00000000
00023000
01000000
,
02030000
00000000
00000000
00000000
03100000
00000000
10000000
00000000
10100000
00000000
10000000
01000000
00100000
00001000
00010000
00000000
,
00021000
00000000
00000000
00000000
00000010
00000000
00000000
00000000
00030010
00000000
00000100
00001000
00000000
00001000
00000100
00000000
,
00000110
00000000
00000000
00000001
00001000
00000000
00000100
00000000
00000010
00000100
00010000
00001000
01000000
00100000
01000000
00100000
,
10000000
00010000
00000000
10010000
00000000
10100000
00000000
01001000
,
00000000
00011000
00000000
00010000
00001000
00000000
00011000
00000000
,
00010100
00000000
00000101
00000000
00000001
00000100
00000000
00000100
,
00000001
00000000
00000011
00000000
00000001
00000010
00000000
00010010
,
00000000
00011000
00000000
00001000
00010000
00000000
00101000
00000000
,
00010000
00001000
00000000
00001000
00010000
00000000
00010010
00000000
,
00101000
00000000
00000000
10010000
00000000
11000000
00000000
00101000
,
00000000
00011000
00000000
00000000
00010010
00000000
00000000
00001001
,
00000000
00000100
00000010
00000000
00000000
00011000
00000000
00001000
,
00100000
00000000
00000000
00000000
00000000
00000000
00000000
00000000
00000000
00000000
00000000
00000000
00000000
00000000
00000000
00000000
00000000
00000000
00000000
00000000
00000000
00000000
00000000
00000000
00000000
00000000
00000000
00000000
00000000
00000000
00000000
00000000
00000000
00000000
00000000
00000000
00000000
00000000
00000000
00000000
00000000
00000000
00000000
00000000
00000000
00000000
00000000
00000000
02100000
00000000
00000000
00000000
00000000
00000000
00000000
00000000
00000000
00000000
00000000
00000000
00000000
00000000
00000000
00000000
00000000
00000000
00000000
00000000
00000000
00000000
00000000
00000000
00000000
00000000
00000000
00000000
00000000
00000000
00000000
00000000
00000000
00000000
00000000
00000000
00000000
00000000
00000000
00000000
00000000
00000000
00000000
00000000
00000000
00000000
00000000
00000000
03010000
00000000
00000000
00000000
00000000
00000000
00000000
00000000
00000000
00000000
00000000
00000000
00000000
00000000
00000000
00000000
01000000
00000000
00000000
00000000
00000000
00000000
00000000
00000000
00000000
00000000
00000000
00000000
00000000
00000000
00000000
00000000
20000000
00000000
00000000
00000000
00000000
00000000
00000000
00000000
00000000
00000000
00000000
00000000
00000000
00000000
00000000
00000000
00000000
00000000
00000000
3000MMMM
00000000
00000000
00000000
00000000
00000000
00000000
00000000
00000000
00000000
00000000
00000000
00000000
00000000
00000000
00000000
00000000
00000000
00000000
00000000
00000000
00000000
00000000
00000000
00000000
00000000
00000000
00000000
00000000
00000000
00000000
00000000
00000000
00000000
00000000
00000000
00000000
00000000
00000000
00000000
00000000
00000000
00000000
00000000
00000000
,
0000MMMM
00000000
0000MMMM
00000000
MMMMMMMM
MMMMMMMM
MMMMMMMM
MMMMMMMM
,
00000202
00000303
00000000
00000000
;

//---------------dance-single - XO DS JA RH- TS- JU+ Mines-----------------
#NOTEDATA:;
#CHARTNAME:;
#STEPSTYPE:dance-single;
#DESCRIPTION:XO DS JA RH- TS- JU+ Mines-;
#CHARTSTYLE:;
#DIFFICULTY:Hard;
#METER:16;
#RADARVALUES:0.752834,0.962884,0.441417,0.753805,0.275037,776.000000,711.000000,65.000000,111.000000,16.000000,0.000000,0.000000,0.000000,0.000000,0.752834,0.962884,0.441417,0.753805,0.275037,776.000000,711.000000,65.000000,111.000000,16.000000,0.000000,0.000000,0.000000,0.000000;
#CREDIT:Karl with a K;
#NOTES:
// measure 0
0000
0000
0000
0000
,  // measure 1
0000
0000
0000
0000
,  // measure 2
0000
0000
0000
0000
,  // measure 3
0000
0000
0000
0000
,  // measure 4
0000
0000
0000
0000
,  // measure 5
0000
0000
0000
2000
,  // measure 6
3020
0100
1030
2001
,  // measure 7
0000
3200
0000
0000
0320
0000
0100
0000
,  // measure 8
0031
1001
0002
0203
,  // measure 9
0320
0001
0130
0102
,  // measure 10
2003
0000
3200
0000
0302
0000
1003
0020
,  // measure 11
0000
0032
1000
0100
,  // measure 12
1003
0010
0000
0100
0000
1000
0000
0100
,  // measure 13
0000
0010
0000
1000
0001
0000
0010
0000
,  // measure 14
0100
0000
0001
0000
0100
0010
0000
0001
,  // measure 15
1000
0000
0010
0000
0010
1000
0000
0001
,  // measure 16
0000
0010
0000
0010
0001
0000
0100
0000
,  // measure 17
0100
0001
0000
1000
0100
0000
0100
0000
,  // measure 18
0010
0000
0000
0110
0000
1001
0000
0110
,  // measure 19
0000
1001
0000
0000
1010
0000
0000
0101
,  // measure 20
0000
1100
0000
1000
0001
0000
MMMM
MMMM
,  // measure 21
0001
1000
0010
0100
0000
0011
0000
1100
,  // measure 22
0000
1001
0000
0001
0100
0010
0100
0001
,  // measure 23
0000
1100
0000
0110
0000
1000
0001
0100
,  // measure 24
0020
0000
0000
1000
0000
0000
0130
0000
,  // measure 25
0001
0000
0000
0000
0010
0000
0000
0000
0100
0000
0000
0000
0020
0000
0000
0000
0000
0000
0000
0000
0000
1000
0000
0000
,  // measure 26
0000
0230
0000
0000
2300
0000
0000
0000
,  // measure 27
3002
0000
0000
0100
0000
1003
0000
0001
,  // measure 28
0010
0100
1000
0000
0001
0000
1000
0010
,  // measure 29
0100
0001
1000
0001
0010
0100
1000
0000
,  // measure 30
0020
0000
0000
0000
0000
0000
0000
0000
0000
1000
0000
0000
0000
0000
0000
0000
0130
0000
0000
0000
0001
0000
0000
0000
,  // measure 31
0010
0000
0100
0000
0010
0000
0200
0000
0000
0000
0000
0000
,  // measure 32
0302
0203
2300
0000
,  // measure 33
3020
0000
0000
0001
0000
0130
0000
0001
,  // measure 34
0010
0100
1000
0000
1000
0100
0010
0100
,  // measure 35
1000
0001
1000
0000
0100
1000
0100
0000
,  // measure 36
0021
0000
0000
0000
0000
0000
0000
0000
0000
0032
0000
0000
0000
0000
0000
0000
0000
0000
0000
0000
0103
0000
0000
0000
,  // measure 37
0010
0000
0000
0000
1000
0000
0000
0000
0010
0000
0000
0000
0210
0000
0000
0000
0000
0000
0000
0000
0000
0302
0000
0000
,  // measure 38
0000
0000
1003
0000
0100
0010
0001
0000
,  // measure 39
2010
0000
0000
3002
0000
0000
0103
0000
,  // measure 40
0010
1000
0100
0000
0120
0000
0000
0031
,  // measure 41
0100
0010
0100
0001
0010
0100
1000
0000
,  // measure 42
1020
0000
0000
0000
0000
0000
0000
0000
0000
2030
0000
0000
0000
0000
0000
0000
3100
0000
0000
0000
0010
0000
0000
0000
,  // measure 43
0001
0000
0000
0000
1000
0000
0000
0000
0100
0000
0000
0000
0210
0000
0000
0000
0000
0000
0000
0000
0000
2300
0000
0000
,  // measure 44
0000
0000
3001
0000
0100
0010
1000
0000
,  // measure 45
2100
0000
0000
3002
0000
0000
0013
0000
,  // measure 46
0100
1000
0010
0000
0120
0000
0000
1030
,  // measure 47
0100
0010
0100
1000
0010
0100
0001
0000
,  // measure 48
2010
0000
3010
0100
0000
0010
0100
0000
,  // measure 49
2000
0000
3100
0000
1002
0000
0013
0100
,  // measure 50
0000
0010
0100
0000
0001
0000
0100
0000
,  // measure 51
1001
0000
1000
0010
0000
0100
0010
0000
,  // measure 52
1000
0000
0001
0000
1001
0000
1000
0100
,  // measure 53
0000
0010
0100
0000
1000
0000
0001
0000
,  // measure 54
2100
0000
3100
0010
0000
0100
0010
0000
,  // measure 55
2000
0000
3010
0000
1002
0000
0103
0010
,  // measure 56
0000
0100
0010
0000
0001
0000
0010
0000
,  // measure 57
1001
0000
1000
0100
0000
0010
0100
0000
,  // measure 58
1000
0000
0001
0000
1002
0000
0000
0203
,  // measure 59
0000
0000
0310
0001
0010
1000
0010
0000
,  // measure 60
1001
0000
1000
0010
0100
0010
1000
0000
,  // measure 61
0001
0010
0100
0010
0000
0001
0000
1000
,  // measure 62
0100
0000
0010
0100
1000
0000
0010
0100
,  // measure 63
0000
0001
0000
0010
0100
0000
1000
0001
,  // measure 64
1000
0001
0000
0010
0000
0001
0100
0010
,  // measure 65
0002
0000
0013
2000
0000
3002
0000
0003
,  // measure 66
1001
0000
1000
0100
0010
0100
1000
0000
,  // measure 67
0001
0100
0010
0100
0000
0001
0000
1000
,  // measure 68
0010
0000
0100
0010
1000
0000
0100
0010
,  // measure 69
0000
0001
0000
0100
0010
0000
1000
0001
,  // measure 70
1000
0001
0000
0100
0000
0001
0010
0100
,  // measure 71
0002
0000
0103
2000
0000
3002
0000
0003
,  // measure 72
1001
0000
1000
0100
0010
0001
0020
0000
,  // measure 73
0031
1000
0001
0100
0010
0200
0000
0000
,  // measure 74
0301
0100
0010
1000
0001
1000
0100
1000
,  // measure 75
0001
0020
0000
0031
0010
0001
1000
0001
,  // measure 76
0010
0100
1000
0020
0000
0130
0001
0010
,  // measure 77
0100
1000
0010
0100
0001
1000
0001
0000
,  // measure 78
1001
0000
1000
0010
0100
0001
0200
0000
,  // measure 79
0301
1000
0001
0010
0100
0020
0000
0000
,  // measure 80
0031
0010
0100
1000
0001
1000
0010
1000
,  // measure 81
0001
0200
0000
0301
0100
0001
1000
0001
,  // measure 82
0100
0010
1000
0200
0000
0310
0001
0200
,  // measure 83
0000
0310
1000
0200
0000
0310
0001
0100
,  // measure 84
0001
1000
0000
0100
0000
0010
0000
0001
,  // measure 85
0000
0100
0010
0000
0010
1000
0000
0011
,  // measure 86
0000
1100
0000
0001
1000
0000
0000
0000
,  // measure 87
1000
0000
0100
0000
0010
0000
0001
0000
0100
0000
0010
0000
,  // measure 88
1000
0000
0000
0000
0001
0000
0000
0000
1000
0000
0000
0000
0100
0000
0000
0010
0000
0000
0001
0000
0000
1000
0000
0000
,  // measure 89
0001
0000
0000
0000
1000
0100
0010
0001
,  // measure 90
2000
0000
3000
0100
,  // measure 91
0010
0000
0000
0100
0000
0010
0000
0000
0100
0000
0010
0000
,  // measure 92
0100
0000
0010
0000
0000
0001
0000
0000
0100
0000
0000
0020
,  // measure 93
0000
0000
0000
0000
0000
0000
0030
0000
0000
1000
0000
0100
,  // measure 94
0010
0000
0000
0001
0000
0000
0100
0000
0010
0000
0000
1000
,  // measure 95
0001
0000
0010
0000
0000
0100
0000
0000
0010
0000
0000
0001
,  // measure 96
1000
0000
0001
1000
0001
1000
0001
2000
,  // measure 97
0000
0000
0010
0000
0000
0000
3010
0000
0000
0100
0000
0000
,  // measure 98
0001
0000
0010
0100
0000
1000
0001
0000
1000
0000
0000
0100
,  // measure 99
0000
0000
1000
0000
0000
0001
0000
0000
0010
0001
0000
0000
,  // measure 100
0100
0000
0000
0000
0010
0000
0000
0000
0000
0000
0200
0000
0000
0000
0000
0000
0000
0000
0310
0000
0000
0100
0000
0000
,  // measure 101
0010
0000
0000
0100
0000
0000
0010
0000
0000
0100
0000
0000
0010
0000
0000
0000
0100
0000
0001
0000
0000
0000
0000
0000
,  // measure 102
1000
0000
0010
0100
0000
0001
1000
0000
0001
0000
0100
0000
,  // measure 103
0001
0000
1000
0000
0100
0000
0010
0000
0000
0001
0000
0000
,  // measure 104
0000
0000
0000
1010
0000
0000
0000
0000
0110
0000
0000
0000
,  // measure 105
1010
0000
0000
0000
0000
0011
0000
0000
0000
0100
0000
0000
,  // measure 106
1001
1000
0100
0011
,  // measure 107
0001
0100
0010
0100
,  // measure 108
0001
0000
1000
0000
0100
0010
0001
0000
,  // measure 109
0010
0000
0001
0100
0000
0010
1000
0000
,  // measure 110
1001
0001
0100
1010
,  // measure 111
1000
0000
0100
0000
0010
0001
0100
0000
,  // measure 112
0001
0000
0001
0000
0100
0000
0010
1000
,  // measure 113
0000
0020
0000
1030
0000
0100
0000
0000
,  // measure 114
0210
0000
0000
0320
0000
0032
0000
0000
,  // measure 115
0023
0230
2300
3010
,  // measure 116
0210
0000
0000
0320
0000
2030
0000
0000
,  // measure 117
3020
0230
0302
1003
,  // measure 118
0001
0100
0001
0000
1000
0000
0001
0000
,  // measure 119
1000
0100
1000
0000
0001
0000
1000
0000
,  // measure 120
0010
0100
0010
0000
1000
0100
0010
0000
,  // measure 121
0001
0100
0010
1000
0100
0010
0001
0000
,  // measure 122
2100
0000
3020
0000
,  // measure 123
0100
0000
0000
0000
0000
0000
0000
0000
1030
0000
0000
0001
0000
0000
0100
0000
,  // measure 124
0102
0000
0000
0203
0000
0000
0320
0100
,  // measure 125
2030
0000
0000
0000
3000
0000
0100
0000
0010
0001
1000
0001
0000
1000
0100
0010
,  // measure 126
0200
0000
0000
0302
0100
0000
0203
0000
,  // measure 127
2300
0000
3001
0201
,  // measure 128
2300
0000
0000
3200
0010
0000
0001
0301
,  // measure 129
2000
0000
0000
0000
0000
0000
3010
0000
0100
0001
1000
0001
0000
1000
0010
0100
,  // measure 130
0002
0000
1003
0100
0011
0000
0002
0000
,  // measure 131
0203
0000
0000
0000
0310
0000
0100
0000
1010
0000
0000
0001
0010
0100
1000
0000
,  // measure 132
0002
0000
0000
0023
0000
0000
0230
0000
0320
0000
0000
0032
0000
0000
0103
0000
,  // measure 133
0010
0000
0000
1010
0000
0000
1000
0010
0100
0001
0000
0010
0100
0000
0010
0001
,  // measure 134
2000
0000
3001
0100
1010
0000
2000
0000
,  // measure 135
3200
0000
0000
0000
0310
0000
0100
0000
0011
0000
0000
1000
0010
0100
0001
0000
,  // measure 136
2000
0000
0000
0000
3020
0000
0000
0000
0230
0000
0000
0010
0000
0001
0000
0000
,  // measure 137
0301
0000
0000
1010
0000
0000
1000
0100
0010
0100
0000
1000
0010
0000
0100
0001
,  // measure 138
1000
0100
0000
0010
0000
1000
0000
0010
,  // measure 139
0000
0100
0000
1000
0001
0000
0100
0000
,  // measure 140
0010
0000
0001
0000
0010
0100
0000
0001
,  // measure 141
1000
0000
0100
0000
0100
1000
0000
0001
,  // measure 142
0000
0100
0000
0100
0001
0000
0010
0000
,  // measure 143
0010
0001
0000
1000
0010
0000
0010
0000
,  // measure 144
0100
0000
0000
0110
0000
0011
0000
1100
,  // measure 145
0000
1001
0000
0000
1010
0000
0000
0101
,  // measure 146
0000
1000
0001
0000
0000
1001
0000
1000
,  // measure 147
0001
0000
0000
1001
0000
0000
1000
0100
0020
0030
0000
0000
,  // measure 148
0000
0000
MMMM
MMMM
,  // measure 149
2002
3003
0000
0000
;

//---------------dance-single - XO+ DS JA XMOD BU- RH- TS- JU+ Mines-----------------
#NOTEDATA:;
#CHARTNAME:;
#STEPSTYPE:dance-single;
#DESCRIPTION:XO+ DS JA XMOD BU- RH- TS- JU+ Mines-;
#CHARTSTYLE:;
#DIFFICULTY:Challenge;
#METER:18;
#RADARVALUES:0.919700,1.216274,0.556865,0.624775,0.427835,948.000000,866.000000,82.000000,92.000000,24.000000,0.000000,0.000000,0.000000,0.000000,0.919700,1.216274,0.556865,0.624775,0.427835,948.000000,866.000000,82.000000,92.000000,24.000000,0.000000,0.000000,0.000000,0.000000;
#CREDIT:Karl with a K;
#NOTES:
// measure 0
0000
0000
0000
0000
,  // measure 1
0000
0000
0000
0000
,  // measure 2
0000
0000
0000
0000
,  // measure 3
0000
0000
0000
0000
,  // measure 4
0000
0000
0000
0000
,  // measure 5
0000
0000
0000
1000
,  // measure 6
1020
0000
0100
0000
0100
0000
0000
0100
0000
0230
0000
0000
0302
0000
1000
0000
,  // measure 7
1000
0000
2003
0100
0000
3200
0000
0000
0320
0000
0100
0000
0100
0000
0000
0100
,  // measure 8
0000
0130
1000
0001
1000
0000
1000
0001
2000
0001
0000
3001
0000
1000
0100
0010
,  // measure 9
0200
0000
0010
0000
0010
0000
0000
0010
0000
0320
0000
0000
0031
0000
0001
0100
,  // measure 10
0002
0010
0000
0000
0010
0000
0010
0000
0013
0000
0001
0100
0001
0100
0010
1000
,  // measure 11
0000
1000
0100
1000
0100
0000
0010
0100
0010
0100
0000
1000
0000
0010
1000
0000
,  // measure 12
0001
1000
0000
1001
0000
1100
0000
0101
,  // measure 13
0000
1001
0000
0001
0010
0000
0110
0000
,  // measure 14
1100
0000
1010
0000
0001
0010
0000
0010
,  // measure 15
0001
0000
0011
0000
0001
1000
0000
1010
,  // measure 16
0000
1100
0000
1000
0001
0000
0110
0000
,  // measure 17
0001
1000
0000
1000
0001
0000
1010
0000
,  // measure 18
0101
0000
0000
1100
0000
0011
0000
1010
,  // measure 19
0000
0101
0000
0000
0110
0000
0000
1001
,  // measure 20
0000
0001
0000
0010
0100
0000
MMMM
MMMM
,  // measure 21
1000
0000
0010
0100
0010
0000
1000
0000
0000
0000
1010
0000
0000
0000
0011
0000
,  // measure 22
0000
0000
0101
0000
0000
0000
0001
0100
0010
0000
0000
0000
1000
0000
0100
0000
,  // measure 23
0010
0000
0000
0001
0000
0000
0100
0000
0000
0010
0000
0000
1000
0000
0000
0100
0000
0000
0010
0000
0001
0000
1000
0000
,  // measure 24
0010
0000
0100
0001
0100
0010
0100
0000
,  // measure 25
0010
0000
0000
0000
1000
0000
0000
0000
0100
0000
0000
0000
0010
0000
0000
0000
0000
0000
0100
0000
0000
1000
0000
0000
,  // measure 26
0100
0000
0000
0010
0000
0000
0100
0000
0000
0000
0000
0000
0010
0000
0002
0000
0000
0000
1003
0000
0000
0000
0000
0000
,  // measure 27
0001
0000
0010
0001
0100
0010
0100
0001
,  // measure 28
1000
0100
1000
0000
0010
0000
0100
0001
,  // measure 29
0010
0100
1000
0010
0100
0010
1000
0000
,  // measure 30
0100
0000
0000
0000
0000
0000
0010
0000
0000
0001
0000
0000
0010
0000
0000
0000
0100
0000
0000
0000
0010
0000
0000
0000
,  // measure 31
0100
0000
0000
0000
1000
0000
0000
0000
0010
0000
0000
0000
0100
0000
0000
0000
0000
0000
0010
0000
0000
1000
0000
0000
,  // measure 32
0020
0032
0023
1030
,  // measure 33
0001
0000
0100
0001
0010
0100
0010
0001
,  // measure 34
1000
0000
0000
0010
0000
0000
1000
0000
0000
0010
0000
0000
0100
0000
0001
0000
0100
0000
0001
0000
0000
1000
0000
0000
,  // measure 35
0010
0000
1000
0100
0001
0100
0010
0000
,  // measure 36
2000
0000
3010
2000
0000
3010
0001
0000
,  // measure 37
1000
0000
0000
0000
0010
0000
0000
0000
0100
0000
0000
0000
2000
0000
0000
0000
0000
0000
3100
0000
0000
2000
0000
0000
,  // measure 38
0000
3100
0010
0000
1000
0001
0010
0100
,  // measure 39
0002
0000
0103
0002
0000
0103
0010
0000
,  // measure 40
0001
0100
0010
0000
0002
0000
0013
0001
,  // measure 41
0010
0100
0001
0010
0001
1000
0100
0000
,  // measure 42
0002
0000
0000
0000
0000
0000
1003
0000
0000
0002
0000
0000
0000
0000
0000
0000
1003
0000
0000
0000
0010
0000
0000
0000
,  // measure 43
0001
0000
0000
0000
1000
0000
0000
0000
0010
0000
0000
0000
0002
0000
0000
0000
0000
0000
1003
0000
0000
0002
0000
0000
,  // measure 44
1003
0100
0010
1000
0100
0010
0001
0010
,  // measure 45
2000
0000
3001
2000
0000
3001
0100
1000
,  // measure 46
0001
0100
0010
0100
2000
0000
3001
1000
,  // measure 47
0001
0010
1000
0001
0010
0001
1000
0000
,  // measure 48
1001
0000
1000
0100
0010
0001
0100
0010
,  // measure 49
0001
0010
0100
0010
1000
0001
1000
0010
,  // measure 50
0100
0001
0010
0100
0001
0100
0010
0100
,  // measure 51
2000
0000
3001
0100
0010
1000
0100
0010
,  // measure 52
1000
0010
0100
0010
0001
1000
0001
0010
,  // measure 53
0100
1000
0010
0100
1000
0100
0010
0000
,  // measure 54
0110
0000
0001
0010
0100
1000
0010
0001
,  // measure 55
1000
0001
0010
0100
0001
1000
0001
0100
,  // measure 56
0010
1000
0100
0001
1000
0001
0100
0010
,  // measure 57
0002
0000
1003
0010
0100
0001
0010
1000
,  // measure 58
0001
1000
0010
0100
2000
0000
0002
3000
,  // measure 59
0000
0000
0000
0000
0000
0000
0000
0000
0203
0300
0000
0000
0200
0300
0000
0000
0200
0300
0000
0000
0200
0300
0000
0000
1000
0000
0000
0000
0000
0000
0000
0000
,  // measure 60
1001
0000
0001
0010
0100
1000
0001
0000
,  // measure 61
1000
0001
0100
0010
0000
1000
0000
0100
,  // measure 62
0010
0000
0001
0100
0001
0000
1000
0100
,  // measure 63
0000
1000
0000
0010
0100
0000
0001
0100
,  // measure 64
0010
1000
0000
0100
0000
0010
0001
0010
,  // measure 65
2000
0000
3001
0200
0000
2300
0000
3000
,  // measure 66
1001
0000
0001
0100
0010
1000
0001
0000
,  // measure 67
1000
0001
0010
0100
0000
1000
0000
0010
,  // measure 68
0100
0000
0001
0010
0001
0000
1000
0010
,  // measure 69
0000
1000
0000
0100
0010
0000
0001
0010
,  // measure 70
0100
1000
0000
0010
0000
0100
0001
0100
,  // measure 71
2000
0000
3001
0020
0000
2030
0000
3000
,  // measure 72
1001
0000
0001
0010
0100
1000
0100
0010
,  // measure 73
0001
1000
0010
0100
0001
0020
0000
0031
,  // measure 74
1000
0010
0100
0001
1000
0001
0010
0100
,  // measure 75
1000
0020
0000
0130
0001
0010
0100
1000
,  // measure 76
0001
0100
0001
0020
0000
0130
1000
0010
,  // measure 77
0100
0001
0010
0100
1000
0100
0010
0001
,  // measure 78
0200
0000
0301
0100
0010
1000
0010
0100
,  // measure 79
0001
1000
0100
0010
0001
0200
0000
0301
,  // measure 80
1000
0100
0010
0001
1000
0001
0100
0010
,  // measure 81
1000
0200
0000
0310
0001
0100
0010
1000
,  // measure 82
0001
0010
0100
0002
0000
0103
0010
2000
,  // measure 83
0000
3010
0100
0002
0000
0103
1000
0010
,  // measure 84
1000
0010
0000
0011
0000
1010
0000
0110
,  // measure 85
0000
1000
0010
0000
0001
0010
0000
0110
,  // measure 86
0000
1020
0000
0130
0110
0000
0000
0000
,  // measure 87
1000
0000
0010
0000
0001
0000
1000
0000
0100
0000
0001
0000
,  // measure 88
0010
0000
0000
0000
1000
0000
0000
0000
0010
0000
0000
0000
0001
0000
0000
0010
0000
0000
0100
0000
0000
0010
0000
0000
,  // measure 89
0110
0000
0000
0000
0001
1000
0100
0010
,  // measure 90
0002
0100
1000
0103
,  // measure 91
0010
0000
0000
1000
0000
0100
0010
0000
0100
0000
0010
0000
,  // measure 92
0100
0000
0010
0000
0000
0001
0000
0000
0100
0000
0000
0002
,  // measure 93
0000
0000
0000
1000
0000
0000
1003
0000
0000
0001
0000
0100
,  // measure 94
0010
0000
0000
0100
0000
0001
1000
0000
0010
0000
0000
1000
,  // measure 95
0100
0000
0010
0000
0000
0001
0000
0000
0010
0000
0000
0100
,  // measure 96
2000
0000
3010
0100
0010
0100
0010
0200
,  // measure 97
0000
0000
0010
0000
0000
0000
0301
0000
0000
0002
0000
0000
,  // measure 98
1003
0000
0100
0010
0000
0001
1000
0000
0010
0000
0000
0100
,  // measure 99
0000
0000
0001
0000
0000
0010
0000
0000
0100
0010
0000
0000
,  // measure 100
0001
0000
0000
0000
1000
0000
0000
0000
0000
0000
0002
0000
0000
0000
0000
0000
0000
0000
1003
0000
0000
0010
0000
0000
,  // measure 101
0100
0000
0000
0010
0000
0000
0100
0000
0000
0010
0000
0000
0100
0000
0000
0000
0001
0000
1000
0000
0000
0000
0000
0000
,  // measure 102
0001
0000
0100
0010
0000
1000
0001
0000
0010
0000
0100
0000
,  // measure 103
1000
0000
0010
0000
0100
0000
0001
0000
1000
0010
0000
0000
,  // measure 104
1000
0000
0000
0110
0000
0000
0000
0000
1001
0000
0000
0000
,  // measure 105
0011
0000
0000
0000
0000
0011
0000
0000
0000
1100
0000
0000
,  // measure 106
0210
0000
1300
0011
,  // measure 107
0001
0100
0010
1000
,  // measure 108
0002
0000
0000
0000
1003
0100
0010
0000
,  // measure 109
0012
0000
0000
0103
0000
0120
0000
0030
,  // measure 110
1010
0000
0000
0000
1000
0000
0010
0000
0100
0000
0001
0000
,  // measure 111
1000
0000
0001
0000
0010
0001
0000
2000
,  // measure 112
0000
0000
0010
0000
3001
0000
0001
0010
,  // measure 113
0000
0010
0100
0000
1000
0000
0100
0000
,  // measure 114
0010
0000
0001
0100
0010
1000
0010
0000
,  // measure 115
0020
0000
2030
0000
3100
0010
0100
0000
,  // measure 116
0001
0000
0100
0010
0001
0100
1000
0000
,  // measure 117
2000
0000
3200
0000
0310
0100
0010
0100
,  // measure 118
0001
0100
0010
1000
0100
0010
0001
0100
,  // measure 119
1000
0100
0001
1000
0100
0001
0100
1000
,  // measure 120
0010
0001
0010
1000
0100
0001
0100
1000
,  // measure 121
0010
0000
0100
0000
0001
0000
1000
0000
0000
0100
0000
0000
0010
0000
0001
0000
0100
0000
0010
0000
1000
0000
0100
0000
,  // measure 122
2000
0100
3020
0000
,  // measure 123
0230
0000
0000
0000
0000
0000
0310
0000
1020
0000
0000
2030
0010
0000
3001
0000
,  // measure 124
2001
0000
0000
3200
1000
0000
0310
0100
,  // measure 125
1001
0000
0000
0000
0000
0000
0100
0000
0010
1000
0100
0010
0001
0100
0010
1000
,  // measure 126
0020
0000
0000
0032
1000
0000
0023
0000
,  // measure 127
1030
0000
0000
0000
0000
0000
0100
0000
0110
0000
0000
0010
0001
0000
0100
0000
,  // measure 128
0201
0000
0000
0310
0020
0000
0130
1000
,  // measure 129
2100
0000
0000
0000
0000
0000
3100
0000
1000
0100
0010
0001
0100
0010
0001
0010
,  // measure 130
2000
0100
3020
0032
,  // measure 131
0023
0000
0000
0000
1030
0000
0100
0000
0110
0000
0000
0010
0001
0100
0010
0000
,  // measure 132
1010
0000
1000
0010
0000
0100
0001
0000
0011
0000
0001
0010
0000
0100
0000
0000
,  // measure 133
1000
0000
0000
0110
0000
0000
0001
0000
0100
0010
0100
0010
1000
0100
0010
0001
,  // measure 134
2000
0010
3200
0302
,  // measure 135
0203
0000
0000
0000
1300
0000
0010
0000
0110
0000
0000
0100
0001
0010
0100
0000
,  // measure 136
2001
0000
0000
0000
0100
0000
0000
0000
3001
0000
0100
0010
0000
0010
0100
0000
,  // measure 137
0110
0000
0000
0001
1000
0000
0100
0000
0010
0001
0100
1000
0100
0010
1000
0001
,  // measure 138
1000
0001
0000
1001
0000
0101
0000
1100
,  // measure 139
0000
1001
0000
1000
0010
0000
0110
0000
,  // measure 140
0101
0000
0011
0000
1000
0010
0000
0010
,  // measure 141
1000
0000
1010
0000
1000
0001
0000
0011
,  // measure 142
0000
0101
0000
0001
1000
0000
0110
0000
,  // measure 143
1000
0001
0000
0001
1000
0000
0011
0000
,  // measure 144
1100
0000
0000
0101
0000
1010
0000
0011
,  // measure 145
0000
1100
0000
0000
0110
0000
0000
1001
,  // measure 146
0000
0100
0110
0000
0000
1001
0000
0010
,  // measure 147
0110
0000
0000
0000
0000
0000
0000
0000
0000
0000
0000
0000
0000
0000
0000
0000
0000
0000
0000
0000
0000
0000
0000
0000
0000
0000
0000
0000
0000
0000
0000
0000
0000
0000
0000
0000
0000
0000
0000
0000
0000
0000
0000
0000
0000
0000
0000
0000
1001
0000
0000
0000
0000
0000
0000
0000
0000
0000
0000
0000
0000
0000
0000
0000
0000
0000
0000
0000
0000
0000
0000
0000
0000
0000
0000
0000
0000
0000
0000
0000
0000
0000
0000
0000
0000
0000
0000
0000
0000
0000
0000
0000
0000
0000
0000
0000
0001
0000
0000
0000
0000
0000
0000
0000
0000
0000
0000
0000
0000
0000
0000
0000
0100
0000
0000
0000
0000
0000
0000
0000
0000
0000
0000
0000
0000
0000
0000
0000
2000
0000
0000
0000
0000
0000
0000
0000
0000
0000
0000
0000
0000
0000
0000
0000
0000
3000
0000
0000
0000
0000
0000
0000
0000
0000
0000
0000
0000
0000
0000
0000
0000
0000
0000
0000
0000
0000
0000
0000
0000
0000
0000
0000
0000
0000
0000
0000
0000
0000
0000
0000
0000
0000
0000
0000
0000
0000
0000
0000
0000
0000
0000
0000
,  // measure 148
0000
0000
0000
0000
MMMM
MMMM
MMMM
MMMM
,  // measure 149
0220
0330
0000
0000
;

//---------------dance-single - ----------------
#NOTEDATA:;
#CHARTNAME:;
#STEPSTYPE:dance-single;
#DESCRIPTION:;
#CHARTSTYLE:;
#DIFFICULTY:Beginner;
#METER:6;
#RADARVALUES:0.224104,0.505932,0.251268,0.298805,0.000000,231.000000,194.000000,37.000000,44.000000,0.000000,0.000000,0.000000,0.000000,0.000000,0.224104,0.505932,0.251268,0.298805,0.000000,231.000000,194.000000,37.000000,44.000000,0.000000,0.000000,0.000000,0.000000,0.000000;
#CREDIT:Karl with a K;
#NOTES:
0000
0000
0000
0000
,
0000
0000
0000
0000
,
0000
0000
0000
0000
,
0000
0000
0000
0000
,
0000
0000
0000
0000
,
0000
0000
0000
0000
,
2000
0000
0000
3000
,
0000
0000
0002
0000
,
0000
0003
0000
0000
,
0200
0000
0000
0300
,
0000
0000
0020
0000
,
0000
0030
0000
0000
,
2002
0000
0000
0000
,
0000
0000
0000
0000
,
0000
0000
3003
0000
,
0000
1001
0000
0000
,
0000
0000
0000
0110
,
0000
0000
0000
0000
,
2002
0000
0000
0000
,
3003
0000
0220
0000
,
0330
0000
0110
0000
,
0000
0000
0000
0000
,
0000
0000
0000
0000
,
0000
0000
0000
0000
,
1000
0000
0000
0000
,
1000
0000
0010
0000
,
0000
0000
0010
0000
,
0100
0000
0000
0000
,
0000
0000
0100
0000
,
0000
0000
0100
0000
,
0001
0000
0000
0000
,
0001
0000
0010
0000
,
0000
0000
0010
0000
,
0010
0000
0000
0000
,
0000
0000
0100
0000
,
0000
0000
0100
0000
,
2000
0000
3000
0000
,
0100
0000
0020
0000
,
0030
0000
0001
0000
,
0002
0000
0000
0000
,
0000
0000
0003
0000
,
0001
0000
0100
0000
,
0002
0000
0003
0000
,
0100
0000
0020
0000
,
0030
0000
1000
0000
,
2000
0000
0000
0000
,
0000
0000
3000
0000
,
0000
0000
1000
0000
,
0110
0000
0001
0000
,
0100
0000
0110
0000
,
1000
0000
0100
0000
,
0220
0000
0000
0000
,
0000
0000
0330
0000
,
0000
0000
1001
0000
,
0110
0000
0001
0000
,
0010
0000
0110
0000
,
1000
0000
0010
0000
,
0110
0000
1001
0000
,
0110
0000
2002
0000
,
3003
1000
1000
0000
,
1000
0000
0010
0000
,
0100
0000
0001
0000
,
0100
0000
0010
0000
,
1000
0000
0001
0000
,
0010
0000
0100
0000
,
0010
0000
0010
0000
,
0001
0000
0010
0000
,
0100
0000
1000
0000
,
0100
0000
0010
0000
,
0001
0000
1000
0000
,
0010
0000
0100
0000
,
0010
0000
0010
0000
,
1000
0000
1000
0000
,
1000
0000
0100
0000
,
0100
0000
0100
0000
,
0010
0000
0010
0000
,
0010
0000
0001
0000
,
0100
0000
0010
0000
,
1000
0000
1000
0000
,
1000
0000
0010
0000
,
0010
0000
0010
0000
,
0100
0000
0100
0000
,
0100
0000
0001
0000
,
0010
0000
0100
0000
,
1000
0000
1000
0000
,
1000
0000
0001
0000
,
0001
0000
1001
0000
,
0220
0000
0000
0000
,
0330
0000
1001
0000
,
1001
0000
0000
0000
,
1000
0000
0000
0000
,
0001
0000
0100
0000
,
0001
0000
0001
0000
,
1000
0000
0000
0000
,
0001
0000
0010
0000
,
0001
0000
0001
0000
,
1000
0000
1000
0000
,
1000
0000
0000
0000
,
1000
0000
0100
0000
,
0010
0000
0001
0000
,
1000
0000
1000
0000
,
0001
0000
0000
0000
,
0001
0000
0100
0000
,
0010
0000
1000
0000
,
0000
1001
0000
0000
,
0110
0000
0000
0000
,
1000
0000
0000
0010
,
0000
0000
1000
0000
,
0001
0000
0000
0100
,
0010
0000
1000
0000
,
0001
0000
0000
0010
,
0000
0000
0001
0000
,
0000
1000
0100
0000
,
0010
0000
0001
0000
,
1000
0000
1000
0000
,
0001
0000
0001
0000
,
1000
0000
0100
0000
,
0010
0000
0001
0000
,
0100
0000
0010
0000
,
1000
0000
0001
0000
,
1001
0000
0110
0000
,
1001
0000
0110
0000
,
2002
0000
0000
0000
,
0000
0000
3003
0000
,
0220
0000
0000
0000
,
0000
0000
0330
0000
,
0220
0000
0000
0000
,
0000
0000
0330
0000
,
2002
0000
0000
0000
,
0000
0000
3003
0000
,
2000
0000
0000
0000
,
3200
0000
0320
0000
,
0032
0000
0000
0000
,
2003
0000
0000
0000
,
3002
0000
0000
0000
,
0203
0000
0320
0000
,
2030
0000
0000
0000
,
3002
0000
0003
0000
,
2002
0000
0000
0000
,
0000
0000
0000
0000
,
0000
0000
3003
0000
,
0000
1001
0000
0000
,
0000
0000
0000
0110
,
0000
0000
0000
0000
,
2002
0000
0000
0000
,
3003
0000
0110
0000
,
0000
0110
0000
0000
,
0010
0100
0010
0000
,
0000
0000
0000
0000
,
1001
0000
0000
0000
;

//---------------dance-single - XO- DS- JA XMOD RH- TS- JU Mines-----------------
#NOTEDATA:;
#CHARTNAME:;
#STEPSTYPE:dance-single;
#DESCRIPTION:XO- DS- JA XMOD RH- TS- JU Mines-;
#CHARTSTYLE:;
#DIFFICULTY:Medium;
#METER:14;
#RADARVALUES:0.629626,0.962884,0.380298,0.604402,0.247873,649.000000,593.000000,56.000000,89.000000,8.000000,0.000000,0.000000,0.000000,0.000000,0.629626,0.962884,0.380298,0.604402,0.247873,649.000000,593.000000,56.000000,89.000000,8.000000,0.000000,0.000000,0.000000,0.000000;
#CREDIT:Karl with a K;
#NOTES:
// measure 0
0000
0000
0000
0000
,  // measure 1
0000
0000
0000
0000
,  // measure 2
0000
0000
0000
0000
,  // measure 3
0000
0000
0000
0000
,  // measure 4
0000
0000
0000
0000
,  // measure 5
0000
0000
0000
0002
,  // measure 6
0023
0000
0000
0032
,  // measure 7
0000
0203
0000
0000
0320
0000
0000
0000
,  // measure 8
0000
2030
3200
0300
,  // measure 9
0022
0000
0003
0230
,  // measure 10
1000
0000
0310
0000
0012
0000
0000
0203
,  // measure 11
0000
0000
0320
0000
0000
2030
0000
3000
,  // measure 12
0011
0000
0000
0010
0000
0100
0000
1000
,  // measure 13
0000
0001
0000
1010
0000
0000
0001
0000
,  // measure 14
1000
0000
0001
0000
0100
0000
0000
0110
,  // measure 15
0000
0000
1000
0000
1000
0000
0000
0001
,  // measure 16
0000
0100
0000
0001
0000
0000
0011
0000
,  // measure 17
0001
0000
0000
1001
0000
0000
1100
0000
,  // measure 18
1001
0000
0000
0001
0000
0100
0000
0010
,  // measure 19
0000
1000
0000
0000
1010
0000
0000
0011
,  // measure 20
0000
0011
0000
0001
0020
0000
0030
0000
,  // measure 21
0001
0000
0100
0010
0000
1000
0000
1010
,  // measure 22
0000
0010
0000
0100
0001
0000
0000
1002
,  // measure 23
0000
0013
0000
0110
0000
0100
0000
0000
,  // measure 24
2000
0000
0000
3100
0000
0010
0000
0000
,  // measure 25
0001
0000
0100
0000
0002
0000
0000
0103
,  // measure 26
0000
0020
0000
0000
2030
0000
0000
0000
,  // measure 27
3200
0000
0000
1300
0000
0100
0000
0000
,  // measure 28
0010
0001
1000
0100
,  // measure 29
0010
0000
0001
0100
0010
1000
0001
0000
,  // measure 30
2000
0000
0000
0000
0000
0000
0000
0000
0000
3010
0000
0000
0000
0000
0000
0000
0100
0000
0000
0000
0001
0000
0000
0000
,  // measure 31
0010
0000
0100
0000
1000
0000
0002
0000
0000
0000
0000
0000
,  // measure 32
0023
0230
2300
0000
,  // measure 33
3020
0000
0000
0130
0000
0020
0000
0000
,  // measure 34
0130
0000
0001
0000
1000
0000
0010
0100
,  // measure 35
0000
0001
0000
0010
0100
1000
0100
0000
,  // measure 36
1002
0000
0000
0103
0000
0010
0000
0000
,  // measure 37
1000
0000
0100
0000
2001
0000
0000
3100
,  // measure 38
0000
0020
0000
0000
0032
0000
0103
0000
,  // measure 39
0210
0000
0000
0301
0000
0100
0000
0000
,  // measure 40
0010
1000
1001
1000
,  // measure 41
0010
0000
1000
0100
0010
0001
1000
0000
,  // measure 42
1002
0000
0000
0000
0000
0000
0000
0000
0000
0013
0000
0000
0000
0000
0000
0000
0100
0000
0000
0000
1000
0000
0000
0000
,  // measure 43
0010
0000
0100
0000
0001
0000
2001
0000
0000
0000
0000
0000
,  // measure 44
3020
0230
0302
0003
,  // measure 45
0021
0000
0000
0130
0000
0020
0000
0000
,  // measure 46
0130
0000
1000
0000
0001
0000
0010
0100
,  // measure 47
0000
1000
0000
0010
0100
0001
0100
0000
,  // measure 48
0101
0000
0000
0001
0100
0000
0010
0000
,  // measure 49
1000
0000
0100
0000
1100
0000
0000
1000
,  // measure 50
0100
0010
0001
0100
,  // measure 51
0020
0000
2030
0010
,  // measure 52
3200
0000
0320
0000
,  // measure 53
0032
0010
0103
0001
,  // measure 54
1010
0000
0000
0001
0010
0000
0100
0000
,  // measure 55
1000
0000
0010
0000
0011
0000
0000
1000
,  // measure 56
0010
0100
0001
0010
,  // measure 57
1010
0000
0000
0001
0100
0000
0010
0000
,  // measure 58
1000
0000
0100
0000
0020
0000
0000
2030
,  // measure 59
0000
0000
3010
0100
0010
0100
0010
0000
,  // measure 60
1000
0000
0010
1000
0010
0000
1000
0000
,  // measure 61
0100
0000
0100
0010
0000
0001
0000
0010
,  // measure 62
0001
0000
0010
0000
0010
0000
0001
0100
,  // measure 63
0000
0010
0000
0100
0001
0000
1000
0000
,  // measure 64
1000
0010
0000
0100
0000
0010
1000
0000
,  // measure 65
1001
0000
0001
0010
0000
0200
0000
0000
,  // measure 66
1300
0000
0100
1000
0100
0000
1000
0000
,  // measure 67
0010
0000
0010
0100
0000
0001
0000
0100
,  // measure 68
0001
0000
0100
0000
0100
0000
0001
0010
,  // measure 69
0000
0100
0000
0010
0001
0000
1000
0000
,  // measure 70
1000
0100
0000
0010
0000
0100
1000
0000
,  // measure 71
1001
0000
0001
0100
0000
0020
0000
0000
,  // measure 72
1030
0010
0100
0001
,  // measure 73
0010
0000
0001
0010
0000
0100
1000
0000
,  // measure 74
0001
1000
0100
1000
,  // measure 75
0010
0001
0000
0010
1000
0000
0100
0000
,  // measure 76
0010
1000
0000
0010
0000
0001
1000
0000
,  // measure 77
0001
0000
0100
0010
0000
1000
0001
0000
,  // measure 78
1000
0100
0010
0001
,  // measure 79
0100
0000
0001
0100
0000
0010
1000
0000
,  // measure 80
0001
1000
0010
1000
,  // measure 81
0100
0001
0000
0100
1000
0000
0010
0000
,  // measure 82
0100
1000
0000
0001
0000
0010
1000
0010
,  // measure 83
0000
1000
0100
1000
0000
0001
0010
0000
,  // measure 84
0001
0010
0000
0010
0000
0010
0000
0010
,  // measure 85
0000
0010
0100
0000
0010
0001
0000
1001
,  // measure 86
0000
1001
0000
1000
0010
0000
0000
0000
,  // measure 87
1000
0000
0100
0000
0010
0000
0001
0000
0100
0000
0010
0000
,  // measure 88
1000
0000
0000
0000
0100
0000
0000
0000
0010
0000
0000
0000
0001
0000
0000
0100
0000
0000
0010
0000
0000
0000
0000
0000
,  // measure 89
0110
0000
0010
1000
,  // measure 90
2000
0000
3100
0010
,  // measure 91
0001
0000
0000
0100
0000
0001
0000
0000
0100
0000
0001
0000
,  // measure 92
0100
0000
0001
0000
0000
0010
0000
0000
0100
0000
0000
2000
,  // measure 93
0000
3100
0010
0001
,  // measure 94
0001
0000
0000
0100
0000
0000
0001
0000
0010
0000
0000
0001
,  // measure 95
1000
0000
0010
0000
0000
0100
0000
0000
0010
0000
0000
0100
,  // measure 96
0001
0000
0000
0010
0000
0000
0010
0000
0000
0010
0002
0000
,  // measure 97
0000
0000
0013
0000
0000
0000
1001
0000
0000
1000
0000
0000
,  // measure 98
0100
0000
0000
0010
0000
0000
0001
0000
0100
0000
0000
0001
,  // measure 99
0000
0000
1000
0000
0000
0001
0000
0000
0020
0000
0000
0000
,  // measure 100
0031
0000
0010
0000
0000
0200
0000
0000
0000
0310
0000
0000
,  // measure 101
0010
0000
0000
0010
0000
0000
0010
0000
0001
1000
0000
0000
,  // measure 102
0100
0000
0000
0010
0000
0000
0001
0000
0100
0000
0010
0000
,  // measure 103
1000
0000
0001
0000
0010
0000
0100
0000
0000
1000
0000
0000
,  // measure 104
0000
0000
0000
2010
0000
0000
0000
0000
3200
0000
0000
0000
,  // measure 105
0320
0000
0000
0000
0000
0032
0000
0000
0103
0001
0000
0000
,  // measure 106
0210
0000
0301
1001
,  // measure 107
1000
1000
0010
0100
,  // measure 108
0001
0000
0000
0000
0100
0010
0000
0000
,  // measure 109
1000
0000
0000
0010
0000
0001
0000
0000
,  // measure 110
0021
0000
1030
1001
,  // measure 111
0100
0000
0001
0000
1000
0010
0000
2000
,  // measure 112
0000
0000
3001
0000
0001
0000
1000
0010
,  // measure 113
0000
0100
0001
0000
1000
0000
0100
0000
,  // measure 114
1100
0000
0000
1000
0000
0000
0010
0000
,  // measure 115
1010
1000
0001
0000
,  // measure 116
0101
0000
0000
0001
0000
0000
0010
0000
,  // measure 117
0011
0001
1000
0000
,  // measure 118
0100
1000
0010
0100
,  // measure 119
0001
0010
0100
1000
,  // measure 120
0010
0001
0010
1000
,  // measure 121
0100
0000
0001
0000
0100
0010
0100
0010
,  // measure 122
0200
0000
0020
0000
,  // measure 123
0000
0000
0000
0000
0030
0000
0000
0000
1300
0000
0000
1000
0001
0000
0100
0000
,  // measure 124
0002
0000
0000
0203
0000
0000
0320
0000
,  // measure 125
1000
0000
0000
0000
0000
0000
0000
0000
1030
0010
0000
0100
0000
0001
1000
0000
,  // measure 126
0200
0000
0000
0302
0000
0000
0203
0000
,  // measure 127
0320
0000
0000
0000
0000
0000
0000
0000
0031
0000
0000
0100
0010
0000
0100
0000
,  // measure 128
0002
0000
0000
0010
0023
0000
0130
1000
,  // measure 129
0020
0000
0000
0000
0000
0000
0130
0000
0010
1000
0010
1000
0000
0100
0010
0100
,  // measure 130
0020
0100
0001
0032
,  // measure 131
2003
0000
0000
0000
0001
0000
0000
0000
3200
0000
0000
1300
0001
0100
0001
0000
,  // measure 132
2000
0000
0000
3200
0000
0000
0302
0000
0203
0000
0000
0320
0000
0000
0031
0000
,  // measure 133
1000
0000
0000
1001
0000
0000
0001
0000
0100
0010
0100
0010
0000
1000
0010
1000
,  // measure 134
0020
0100
1000
2030
,  // measure 135
3002
0000
0000
0000
1003
0000
0100
0000
0010
0000
0100
1000
0001
0010
0001
0000
,  // measure 136
2001
0000
0000
0000
0100
0000
0000
0000
3002
0000
0000
0010
0000
1000
0000
0000
,  // measure 137
0013
0000
0000
0011
0000
0000
0001
0000
0100
0010
1000
0001
0010
0100
1000
0001
,  // measure 138
1000
0000
0000
0010
0000
0100
0000
0001
,  // measure 139
0000
1000
0000
0011
0000
0000
1000
0000
,  // measure 140
0001
0000
1000
0000
0100
0000
0000
0110
,  // measure 141
0000
0000
0001
0000
0001
0000
0000
1000
,  // measure 142
0000
0100
0000
1000
0000
0000
1010
0000
,  // measure 143
1000
0000
0000
1001
0000
0000
1100
0000
,  // measure 144
1001
0000
0000
1000
0000
0100
0000
0010
,  // measure 145
0000
0001
0000
0000
0011
0000
0000
1010
,  // measure 146
0000
1000
0100
0000
0000
0101
0000
0001
,  // measure 147
0010
0000
0000
0110
0000
0000
0010
0100
0010
0000
0000
0000
,  // measure 148
0000
0000
MMMM
MMMM
,  // measure 149
2002
3003
0000
0000
;

//---------------dance-single - ----------------
#NOTEDATA:;
#CHARTNAME:;
#STEPSTYPE:dance-single;
#DESCRIPTION:;
#CHARTSTYLE:;
#DIFFICULTY:Easy;
#METER:10;
#RADARVALUES:0.390969,0.658815,0.251268,0.488954,0.027164,403.000000,366.000000,37.000000,72.000000,0.000000,0.000000,0.000000,0.000000,0.000000,0.390969,0.658815,0.251268,0.488954,0.027164,403.000000,366.000000,37.000000,72.000000,0.000000,0.000000,0.000000,0.000000,0.000000;
#CREDIT:Karl with a K;
#NOTES:
// measure 0
0000
0000
0000
0000
,  // measure 1
0000
0000
0000
0000
,  // measure 2
0000
0000
0000
0000
,  // measure 3
0000
0000
0000
0000
,  // measure 4
0000
0000
0000
0000
,  // measure 5
0000
0000
0000
0000
,  // measure 6
2000
0000
0000
3200
,  // measure 7
0000
0000
0320
0000
,  // measure 8
0000
0032
0203
0000
,  // measure 9
0320
0000
0000
1030
,  // measure 10
0100
0000
0010
0000
0020
0000
0000
0001
,  // measure 11
0000
0000
0032
0000
0000
0203
0000
0000
,  // measure 12
0310
0000
0000
0010
0000
0010
0000
0010
,  // measure 13
0000
0010
0000
0010
0000
0000
1000
0000
,  // measure 14
1000
0000
1000
0000
1000
0000
0000
1000
,  // measure 15
0000
0000
0001
0000
0001
0000
0000
0001
,  // measure 16
0000
0001
0000
0001
0000
0000
0010
0000
,  // measure 17
0010
0000
0000
0010
0000
0000
0010
0000
,  // measure 18
0100
0000
0000
0100
0000
0100
0000
0100
,  // measure 19
0000
0100
0000
0000
1000
0000
0000
1000
,  // measure 20
0000
1000
0000
0000
2002
0000
3003
0000
,  // measure 21
0000
0000
0000
0000
,  // measure 22
0000
0000
0000
0000
,  // measure 23
0000
0000
0002
0000
,  // measure 24
0023
0000
0000
0031
,  // measure 25
0100
0000
0002
0000
,  // measure 26
0000
0000
0023
0000
,  // measure 27
0230
0000
0000
0000
,  // measure 28
0000
0000
1300
0001
,  // measure 29
0100
0010
1000
0000
,  // measure 30
0002
0000
0000
0000
0000
0000
0000
0000
0100
0000
0000
0000
,  // measure 31
1003
0001
0200
0000
,  // measure 32
0302
0000
2003
0000
,  // measure 33
3020
0000
0000
0000
,  // measure 34
0000
0000
0000
0000
0130
0000
0000
0001
,  // measure 35
0000
0010
0000
0000
0100
0000
1000
0000
,  // measure 36
1020
0000
0000
1000
0000
0000
1030
0000
,  // measure 37
0100
0000
0000
0000
2001
0000
0000
0001
,  // measure 38
0000
0000
3020
0000
,  // measure 39
0230
0000
0000
0001
0000
0000
0000
0000
,  // measure 40
0001
0000
0301
1000
,  // measure 41
0100
0010
0001
0000
,  // measure 42
2000
0000
0000
0000
0000
0000
0000
0000
0100
0000
0000
0000
,  // measure 43
3001
1000
0200
0000
,  // measure 44
2300
0000
3002
0000
,  // measure 45
0023
0000
0000
0001
0000
0000
0000
0000
,  // measure 46
0001
0000
0130
1000
,  // measure 47
0010
0100
0001
1000
,  // measure 48
1001
0000
0000
1000
0000
0000
0100
0000
,  // measure 49
0010
0000
0001
0000
0001
0000
0000
0100
,  // measure 50
0000
0010
1000
0001
,  // measure 51
2000
0000
3200
0000
,  // measure 52
0320
0000
0032
0000
,  // measure 53
0000
0000
1003
0001
,  // measure 54
1001
0000
0000
0001
0000
0000
0100
0000
,  // measure 55
0010
0000
1000
0000
1000
0000
0000
0100
,  // measure 56
0000
0010
0001
0010
,  // measure 57
0010
0000
0000
0001
0000
0000
0100
0000
,  // measure 58
0001
0000
0100
0000
0020
0000
0000
2030
,  // measure 59
0000
3001
1000
1001
,  // measure 60
0001
0000
0100
0000
,  // measure 61
0010
0000
0000
1000
0000
0010
0000
0000
,  // measure 62
1000
0000
0100
0000
0010
0000
0000
0100
,  // measure 63
0000
0010
0000
0000
0001
0000
0000
0000
,  // measure 64
0100
0000
0010
0000
,  // measure 65
1000
0000
0000
0001
0000
1001
0000
0000
,  // measure 66
1000
0000
0100
0000
,  // measure 67
0010
0000
0000
0001
0000
0010
0000
0000
,  // measure 68
0001
0000
0100
0000
0010
0000
0000
0100
,  // measure 69
0000
0010
0000
0000
1000
0000
0000
0000
,  // measure 70
0100
0000
0010
0000
,  // measure 71
0001
0000
0000
1000
0000
1001
0000
0000
,  // measure 72
1000
0000
0100
0000
,  // measure 73
0010
0000
0001
0000
,  // measure 74
0100
0000
0010
0000
,  // measure 75
1000
0000
0010
0000
,  // measure 76
0100
0000
0010
0000
,  // measure 77
1000
0000
0100
0000
,  // measure 78
1000
0000
0001
0000
,  // measure 79
0010
0000
0100
0000
,  // measure 80
1000
0000
0010
0000
,  // measure 81
0100
0000
0001
0000
,  // measure 82
1000
0000
0010
0000
,  // measure 83
0010
0000
0010
0000
,  // measure 84
1000
0000
0000
0001
0000
1000
0000
0001
,  // measure 85
0000
1000
0000
0000
0100
0000
0000
0001
,  // measure 86
0000
0100
0000
0000
0110
0000
0000
0000
,  // measure 87
1000
0000
0010
0000
,  // measure 88
0001
0000
0010
0100
,  // measure 89
0110
0000
0000
0000
,  // measure 90
2000
0000
0000
3100
,  // measure 91
0010
0000
0100
0000
,  // measure 92
0010
0000
0001
0000
,  // measure 93
0100
0000
0001
0000
,  // measure 94
1000
0000
0010
0000
,  // measure 95
0100
0000
0001
0000
,  // measure 96
0100
0000
0000
0000
0010
0000
0000
0020
,  // measure 97
0000
0000
0030
1000
,  // measure 98
0001
0000
0000
0000
0000
0000
0100
0000
0000
0000
0000
0001
,  // measure 99
0000
0000
0000
0000
0000
0010
0000
0000
0001
0000
0000
0000
,  // measure 100
1000
0000
0100
0010
,  // measure 101
0010
0010
0010
0001
,  // measure 102
1000
0000
0100
0000
,  // measure 103
1000
0010
1000
0010
,  // measure 104
0000
0000
0000
1010
0000
0000
0000
0000
1000
0000
0000
0000
,  // measure 105
0100
0000
0000
0000
0000
0010
0000
0000
0000
0001
0000
0000
,  // measure 106
0101
0000
0000
1100
,  // measure 107
0100
0000
1000
0000
,  // measure 108
0002
0000
0000
0000
0000
1003
0000
0000
,  // measure 109
0010
0000
0000
0100
0000
0001
0000
0000
,  // measure 110
0012
0000
0003
0110
,  // measure 111
0001
0000
0000
0000
0000
1000
0000
0000
,  // measure 112
0000
0000
0001
0000
0100
0000
0000
0010
,  // measure 113
0000
0000
1000
0000
0000
1000
0000
0000
,  // measure 114
1100
0000
0010
0000
,  // measure 115
0011
0000
1000
0000
,  // measure 116
1010
0000
0100
0000
,  // measure 117
0101
0000
1000
0000
,  // measure 118
0100
0000
0001
0000
,  // measure 119
0100
0000
1000
0000
,  // measure 120
0010
0000
0001
0000
,  // measure 121
0010
0100
0001
1000
,  // measure 122
1002
0000
0023
0000
,  // measure 123
0000
0000
0230
0300
,  // measure 124
1002
0000
0000
0203
0000
0000
0320
0000
,  // measure 125
0001
0000
1030
0100
,  // measure 126
0002
0000
0203
0000
,  // measure 127
2300
0000
3100
1001
,  // measure 128
2000
0000
0000
3020
0000
0000
0130
0000
,  // measure 129
0210
0000
0000
0000
0000
0000
0000
0000
0301
0000
0000
0001
0000
0000
1000
0000
,  // measure 130
2001
0000
3200
0320
,  // measure 131
0032
0103
0101
1001
,  // measure 132
0002
0023
0230
2300
,  // measure 133
3002
0010
1003
0110
,  // measure 134
2000
0000
3020
0230
,  // measure 135
0302
0013
0011
1001
,  // measure 136
2000
3020
0230
0302
,  // measure 137
2003
0000
0001
0000
3001
0010
0001
0000
,  // measure 138
1100
0000
0000
0100
0000
0100
0000
0100
,  // measure 139
0000
0100
0000
0100
0000
0000
1000
0000
,  // measure 140
1000
0000
1000
0000
1000
0000
0000
1000
,  // measure 141
0000
0000
0001
0000
0001
0000
0000
0001
,  // measure 142
0000
0001
0000
0001
0000
0000
0100
0000
,  // measure 143
0100
0000
0000
0100
0000
0000
0100
0000
,  // measure 144
0010
0000
0000
0010
0000
0010
0000
0010
,  // measure 145
0000
0010
0000
0000
1010
0000
0000
0011
,  // measure 146
0000
0000
1100
0000
0000
0101
0000
0000
,  // measure 147
1001
0000
1001
0000
0001
1000
0000
0000
,  // measure 148
0000
0000
0000
0000
,  // measure 149
0220
0330
0000
0000
;
