#VERSION:0.83;
#TITLE:ULTRA POWER;
#SUBTITLE:;
#ARTIST:SARUKANI;
#TITLETRANSLIT:;
#SUBTITLETRANSLIT:;
#ARTISTTRANSLIT:;
#GENRE:;
#ORIGIN:;
#CREDIT:;
#BANNER:STPlatinum.png;
#BACKGROUND:STPlatinum-bg.png;
#PREVIEWVID:;
#JACKET:STPlatinum-jacket.png;
#CDIMAGE:;
#DISCIMAGE:;
#LYRICSPATH:;
#CDTITLE:;
#MUSIC:ULTRA POWER.ogg;
#OFFSET:1.654000;
#SAMPLESTART:25.368000;
#SAMPLELENGTH:15.000000;
#SELECTABLE:YES;
#BPMS:0.000=142.000;
#STOPS:;
#DELAYS:;
#WARPS:;
#TIMESIGNATURES:0.000=4=4;
#TICKCOUNTS:0.000=4;
#COMBOS:0.000=1;
#SPEEDS:0.000=0.500=0.000=0,
36.000=1.000=32.000=0;
#SCROLLS:0.000=1.000,
32.000=0.000,
33.750=2.000,
34.000=0.000,
34.250=2.000,
34.500=0.000,
34.750=2.000,
35.000=0.000,
35.250=2.000,
35.500=0.000,
35.750=2.000,
36.000=1.000;
#FAKES:;
#LABELS:0.000=Song Start;
#BGCHANGES:;
#KEYSOUNDS:;
#ATTACKS:
;

//---------------dance-single - XO DS+ JA- XMOD BU RH- JU----------------
#NOTEDATA:;
#CHARTNAME:Please doublestep this a lot.;
#STEPSTYPE:dance-single;
#DESCRIPTION:XO DS+ JA- XMOD BU RH- JU;
#CHARTSTYLE:;
#DIFFICULTY:Challenge;
#METER:18;
#RADARVALUES:0.748221,0.941303,0.341895,0.683791,0.727437,720.000000,673.000000,47.000000,94.000000,0.000000,0.000000,18.000000,0.000000,0.000000,0.748221,0.941303,0.341895,0.683791,0.727437,720.000000,673.000000,47.000000,94.000000,0.000000,0.000000,18.000000,0.000000,0.000000;
#CREDIT:Hi. This is Karl.;
#OFFSET:1.654000;
#BPMS:0.000000=142.000000
;
#STOPS:;
#DELAYS:;
#WARPS:;
#TIMESIGNATURES:0.000000=4=4
;
#TICKCOUNTS:0.000000=4
;
#COMBOS:0.000000=1
;
#SPEEDS:0.000000=0.500000=0.000000=0
,36.000000=1.000000=32.000000=0
,130.000000=0.500000=2.000000=0
,162.000000=1.000000=2.000000=0
,283.500000=0.500000=0.500000=0
,284.000000=1.000000=2.000000=0
,288.000000=0.500000=4.000000=0
,300.000000=1.000000=24.000000=0
;
#SCROLLS:0.000000=1.000000
,32.000000=0.000000
,33.750000=2.000000
,34.000000=0.000000
,34.250000=2.000000
,34.500000=0.000000
,34.750000=2.000000
,35.000000=0.000000
,35.250000=2.000000
,35.500000=0.000000
,35.750000=2.000000
,36.000000=1.000000
,66.000000=0.000000
,66.250000=2.000000
,66.500000=0.000000
,66.750000=2.000000
,67.000000=0.000000
,67.250000=2.000000
,67.500000=1.000000
,68.000000=0.500000
,68.500000=1.500000
,69.000000=1.000000
,80.000000=0.500000
,80.500000=1.500000
,81.000000=0.500000
,81.500000=1.500000
,82.000000=0.500000
,82.500000=1.500000
,83.000000=0.500000
,83.500000=1.500000
,84.000000=1.000000
,99.500000=0.000000
,100.000000=2.000000
,100.500000=1.000000
,112.000000=0.500000
,112.500000=1.500000
,113.000000=0.500000
,113.500000=1.500000
,114.000000=0.500000
,114.500000=1.500000
,115.000000=0.500000
,115.500000=1.500000
,116.000000=1.000000
,146.000000=0.000000
,146.250000=2.000000
,146.500000=0.000000
,146.750000=2.000000
,147.000000=1.000000
,188.000000=0.500000
,188.500000=1.500000
,189.000000=1.000000
,195.000000=1.500000
,195.500000=0.500000
,196.000000=1.000000
,220.000000=0.500000
,220.500000=1.500000
,221.000000=1.000000
,227.000000=1.500000
,227.500000=0.500000
,228.000000=1.000000
,230.000000=1.500000
,230.500000=0.500000
,231.000000=1.000000
,232.000000=0.250000
,232.250000=0.500000
,232.500000=0.750000
,232.750000=1.000000
,233.250000=1.250000
,233.500000=1.500000
,233.750000=1.750000
,234.000000=1.500000
,234.500000=0.500000
,235.000000=1.500000
,235.500000=0.500000
,236.000000=1.000000
,238.000000=1.500000
,238.500000=0.500000
,239.000000=1.000000
,240.000000=0.250000
,240.250000=0.500000
,240.500000=0.750000
,240.750000=1.000000
,241.250000=1.250000
,241.500000=1.500000
,241.750000=1.750000
,242.000000=1.500000
,242.500000=0.500000
,243.000000=1.000000
,246.000000=1.500000
,246.500000=0.500000
,247.000000=1.500000
,247.500000=0.500000
,248.000000=0.250000
,248.250000=0.500000
,248.500000=0.750000
,248.750000=1.000000
,249.250000=1.250000
,249.500000=1.500000
,249.750000=1.750000
,250.000000=1.500000
,250.500000=0.500000
,251.000000=1.000000
,254.000000=1.500000
,254.500000=0.500000
,255.000000=1.000000
,256.000000=0.500000
,256.500000=1.500000
,257.000000=0.500000
,257.500000=1.500000
,258.000000=0.500000
,258.500000=1.500000
,259.000000=0.500000
,259.500000=1.500000
,260.000000=0.500000
,260.500000=1.500000
,261.000000=1.000000
,276.000000=0.000000
,277.500000=2.000000
,278.000000=1.000000
,288.000000=0.500000
,288.500000=1.500000
,289.000000=0.500000
,289.500000=1.500000
,290.000000=0.500000
,290.500000=1.500000
,291.000000=0.500000
,291.500000=1.500000
,292.000000=1.000000
,322.000000=0.000000
,322.250000=2.000000
,322.500000=0.000000
,322.750000=2.000000
,323.000000=1.000000
;
#FAKES:;
#LABELS:0.000000=Song Start
;
#NOTES:
0000
0000
0000
0000
,
0000
0000
0000
0000
,
0000
0000
0000
0000
,
0000
0000
0000
0000
,
0000
0000
0000
0000
,
0000
1000
0000
1000
,
0000
0000
0001
0000
0000
0001
0001
0000
,
0000
0010
0000
0100
,
0000
0000
0000
0000
,
1000
0010
0100
0100
,
0100
0000
0000
0000
0001
0000
0000
0000
0100
0000
0101
0000
0000
0101
0000
0000
,
1001
0001
0010
0010
,
0010
0000
0000
0000
0100
0000
0000
0000
1000
0000
0000
0000
0001
1000
0010
0000
,
1001
0000
0001
0000
0010
0100
1000
0001
,
1000
0000
0010
0000
0100
0010
1000
0001
,
1000
1000
0001
0001
1000
1000
0001
0001
,
1000
0010
0100
0001
1000
0100
0010
0001
0400
0000
0000
0000
0000
0000
0000
0300
,
2010
0000
0000
0000
3001
0000
0010
0000
0200
1000
0320
0001
0430
0000
0000
0000
,
1300
0000
0001
0000
1000
0000
0001
0000
1000
0000
0000
0000
0010
0000
0000
0100
0000
0000
0010
0000
0000
0100
0000
0000
0010
0000
0001
0000
0000
0000
0010
0000
0000
0100
0000
0000
0004
0000
0000
0000
0000
0000
0000
0000
0000
0000
0000
0000
,
1003
0000
0000
0020
0000
0000
1030
0000
0000
0100
0000
0000
0010
0001
1000
0010
1000
0001
0040
0000
0000
0000
0000
0000
,
0031
0110
0011
0101
,
2100
0000
0010
0000
3001
0000
0100
0000
0020
1000
0230
0001
0340
0000
0000
0000
,
1030
0000
0000
0000
0000
0000
0001
0000
1000
0000
0001
0000
1000
0000
0000
0100
0000
0000
0010
0000
0000
0100
0000
0000
0010
0000
1000
0000
0000
0000
0010
0000
0000
0100
0000
0000
4000
0000
0000
0000
0000
0000
0000
0000
0000
0000
0000
0000
,
3001
0000
0000
0020
0000
0000
0031
0000
0000
0100
0000
0000
0010
1000
0001
0010
0001
1000
0040
0000
0000
0000
0000
0000
,
2030
0010
3002
0100
2003
0100
3002
0013
,
0000
0000
0012
0000
1003
0000
0100
0000
2000
0100
3002
0010
4003
0000
0000
0000
,
3001
0000
0100
0000
0010
0000
1000
0000
0001
0000
0000
0000
0010
0000
0000
0100
0000
0000
1000
0000
0000
0001
0000
0000
0010
0000
1000
0000
0000
0000
0010
0000
0000
0001
0000
0000
0400
0000
0000
0000
0000
0000
0000
0000
0000
0000
0000
0000
,
0310
0000
0000
0200
0000
0000
1300
0000
0000
0100
0000
0000
0001
0100
0001
1000
0100
1000
0004
0000
0000
0000
0000
0000
,
0103
0110
1010
1100
,
0102
0000
0010
0000
1003
0000
0100
0000
2000
0010
3002
0100
4003
0000
0000
0000
,
3001
0000
0000
0000
0000
0000
0010
0000
0100
0000
1000
0000
0100
0000
0000
0010
0000
0000
0001
0000
0000
1000
0000
0000
0010
0000
0001
0000
0000
0000
0010
0000
0000
1000
0000
0000
0400
0000
0000
0000
0000
0000
0000
0000
0000
0000
0000
0000
,
0310
0000
0000
0200
0000
0000
0301
0000
0000
0100
0000
0000
1000
0100
1000
0001
0100
0001
4000
0000
0000
0000
0000
0000
,
3002
1000
0203
0010
0302
1000
0023
0100
,
0031
0000
1000
0100
0100
0100
0010
0001
,
0000
0000
1000
0010
0010
0110
0120
0000
,
1030
0000
0001
0100
0100
0100
0010
1000
,
0000
0001
0001
0010
0010
0110
2002
3003
,
1000
0000
0010
0100
0100
0100
0010
1000
,
0000
0000
0100
0010
0010
0110
0120
0000
,
0031
0000
0100
0010
0010
0010
0100
0001
,
0000
0020
2030
3002
0103
1000
1000
1000
,
0100
0000
0110
0000
0001
0100
0010
1000
0001
0100
0010
1000
0001
1000
0010
1000
,
0100
0000
1000
0100
0010
0001
1000
0100
0010
0100
0010
1000
0010
0001
0100
0010
,
1000
0000
1001
0000
0001
0010
0100
1000
0001
0010
0100
1000
0001
1000
0100
1000
,
0010
0000
1000
0010
0100
0001
1000
0010
0100
0010
0100
1000
0200
0000
0301
0000
,
1000
0000
1000
0000
0001
1000
0001
0010
0100
0010
0001
1000
0100
0010
0100
1000
,
0001
0000
1000
0001
0100
0001
0100
0010
1000
0100
0010
1000
0010
0100
0010
0000
,
0011
0000
0000
0000
1000
0001
1000
0010
0100
0010
1000
0001
0010
0100
0010
0001
,
0100
0000
0020
0000
0031
0000
0001
0010
0100
0020
0000
0030
2002
0000
3003
0000
,
0010
0000
0110
0000
2000
0010
3001
0100
0010
1000
0001
0100
0001
1000
0100
1000
,
0010
0000
0200
0001
0310
1000
0001
0100
0010
1000
0100
0001
0100
1000
0001
0010
,
0100
0000
0110
0000
2000
0100
3001
0010
0100
1000
0001
0010
0001
1000
0010
1000
,
0100
0000
0020
0001
0130
1000
0001
0010
0100
1000
0010
0001
0020
0000
1030
0000
,
0001
0000
0001
0000
2000
0001
3100
1000
0100
0010
0001
1000
0010
0100
0010
1000
,
0001
0000
2000
0001
3010
1000
0010
0100
0001
1000
0001
0100
0001
1000
0100
0000
,
1100
0000
0000
0000
0002
1000
0013
0001
0010
0100
1000
0001
0100
0010
0100
0001
,
1000
0100
0001
1000
0010
0001
0202
0303
,
0100
0000
0000
0001
0000
0000
1000
0000
0000
0100
0000
0000
1000
0000
0000
0001
0000
0000
0100
0000
0000
0000
0000
0000
2002
0000
0000
0000
0000
0000
3003
0000
0000
0000
0000
0000
0001
0000
0000
0000
0001
0000
0000
0000
0001
0000
0000
0000
,
0400
0000
2300
3004
,
0013
0000
1000
0010
0100
0001
0010
0100
2000
0000
0000
0000
3100
0010
0100
0010
,
0004
0000
0000
0000
0023
0000
2030
3001
,
0100
0000
0000
1000
0000
0000
0000
0000
0000
0000
0000
0000
1000
0000
0000
0000
0000
0000
0000
0000
0010
0000
0000
0000
2002
0000
0000
0000
0000
0000
3000
0000
0000
0000
0000
0000
0403
0000
0000
0000
0000
0000
0000
0000
0000
0000
0000
0000
,
0340
0000
0000
0000
0000
0000
0000
0000
2030
0000
0000
0000
3100
0010
0001
1000
,
0100
0000
0000
0000
0000
0000
0010
0000
0000
0001
0000
0000
0000
0000
0000
0100
0000
0000
0010
0000
0000
1000
0000
0000
0002
0000
0000
0000
0000
0000
0000
0000
0000
0000
0000
0000
0103
0000
0000
0000
0100
0000
0000
0000
0100
0000
0000
0000
,
0200
2300
3002
0023
,
2030
0000
0000
0000
3100
0000
0000
0000
0100
0010
0002
0100
2003
0010
3001
0100
,
0010
0100
0002
0010
2003
0100
3001
0010
0100
0010
0002
0100
2003
0010
3001
0100
,
0010
0000
0000
0000
0010
0000
0000
0000
1000
0100
2000
0100
3002
0010
1003
0100
,
0010
0100
2000
0010
3002
0100
1003
0010
0100
0010
2000
0100
3002
0010
1003
0100
,
0020
0000
0000
0000
0000
0000
0000
0000
0031
0100
0020
1000
0230
0010
0301
0010
,
0001
0010
0200
1000
0320
0100
0031
0100
0001
0100
0020
1000
0230
0010
0302
0000
,
0023
0000
0001
0000
0230
0000
1000
0000
1300
0010
0200
0001
0320
0100
1030
0100
,
1000
0011
1010
0101
,
1000
0000
0001
0100
0100
0100
0010
1000
,
0000
0000
0001
0010
0010
0110
0120
0001
,
0031
0000
1100
0100
0010
0100
0110
0001
,
1000
1000
1010
0010
0100
0110
2002
3003
,
0001
0000
0011
0010
0100
0010
0110
0001
,
1000
0000
1010
0010
0100
0110
0120
0000
,
1030
0000
1100
0100
0010
0100
0110
0002
,
0003
0200
2300
3002
0013
0010
0020
1030
;

//---------------dance-single - XO- DS JA BU- JU----------------
#NOTEDATA:;
#CHARTNAME:;
#STEPSTYPE:dance-single;
#DESCRIPTION:XO- DS JA BU- JU;
#CHARTSTYLE:;
#DIFFICULTY:Hard;
#METER:15;
#RADARVALUES:0.679634,0.763627,0.283700,0.509206,0.432825,654.000000,615.000000,39.000000,70.000000,0.000000,0.000000,0.000000,0.000000,0.000000,0.679634,0.763627,0.283700,0.509206,0.432825,654.000000,615.000000,39.000000,70.000000,0.000000,0.000000,0.000000,0.000000,0.000000;
#CREDIT:Karl with a K;
#OFFSET:1.654000;
#BPMS:0.000000=142.000000
;
#STOPS:;
#DELAYS:;
#WARPS:;
#TIMESIGNATURES:0.000000=4=4
;
#TICKCOUNTS:0.000000=4
;
#COMBOS:0.000000=1
;
#SPEEDS:0.000000=1.000000=0.000000=0
;
#SCROLLS:0.000000=1.000000
;
#FAKES:;
#LABELS:0.000000=Song Start
;
#NOTES:
0000
0000
0000
0000
,
0000
0000
0000
0000
,
0000
0000
0000
0000
,
0000
0000
0000
0000
,
0000
0000
0000
0000
,
1000
0000
0010
0100
0001
0100
0000
0001
,
0000
0000
0010
0100
1000
0010
0210
0000
,
0301
0000
0010
0100
1000
0100
0000
1000
,
0000
0100
0100
0100
0010
0010
0001
0001
,
1000
0000
1000
0000
0001
0100
0010
0100
,
0001
0000
0000
0000
0001
0000
0000
0000
1000
0000
0100
0000
0000
1100
0000
0000
,
1001
0000
0001
0000
1000
0100
0010
0100
,
1000
0000
0000
0000
1000
0000
0000
0000
0001
0000
0100
0000
0001
1000
0001
0000
,
1000
0100
1000
0100
0010
0001
0010
0001
,
1000
0010
1000
0010
0100
0001
0100
0001
,
0100
0010
0001
0010
1000
0100
0001
0100
,
0010
0010
0100
0100
0010
0010
0110
0000
,
1001
0000
0000
0000
1002
0000
0103
0000
0010
1000
0001
1000
0020
0000
0000
0000
,
1030
0000
0001
0000
1000
0000
0001
0000
0000
0000
0000
0000
1000
0000
0000
0100
0000
0000
0010
0000
0000
0000
0000
0000
0001
0000
0000
0010
0000
0000
0100
0000
0000
0000
0000
0000
0020
0000
0000
0000
0000
0000
0000
0000
0000
0000
0000
0000
,
0031
0000
0000
0000
0000
0000
2001
0000
0000
3010
0000
0000
0100
0001
0100
0001
0000
0000
0200
0000
0000
0000
0000
0000
,
0302
0023
0230
2300
,
3002
0000
0010
0000
1003
0000
0100
0000
0010
0001
1000
0001
0020
0000
0000
0000
,
0031
0000
0000
0000
0000
0000
1000
0000
0001
0000
1000
0000
0001
0000
0000
0100
0000
0000
0010
0000
0000
0000
0000
0000
1000
0000
0000
0010
0000
0000
0100
0000
0000
0000
0000
0000
0120
0000
0000
0000
0000
0000
0000
0000
0000
0000
0000
0000
,
1030
0000
0000
0000
0000
0000
1002
0000
0000
0013
0000
0000
0100
1000
0100
1000
0000
0000
0200
0000
0000
0000
0000
0000
,
1300
0100
0010
0100
2000
3020
0032
0023
,
0030
0000
0010
0000
0120
0000
1030
0000
0100
0010
0001
0010
0200
0000
0000
0000
,
0310
0000
0100
0000
0010
0000
0100
0000
0000
0000
0000
0000
0010
0000
0000
0001
0000
0000
0100
0000
0000
0000
0000
0000
0001
0000
0000
0010
0000
0000
0001
0000
0000
0000
0000
0000
0020
0000
0000
0000
0000
0000
0000
0000
0000
0000
0000
0000
,
0130
0000
0000
0000
0000
0000
0210
0000
0000
1300
0000
0000
0010
1000
0010
1000
0000
0000
0020
0000
0000
0000
0000
0000
,
2030
3200
0320
0032
,
0103
0000
0020
0000
0100
0000
1030
0000
0010
0100
0001
0100
0020
0000
0000
0000
,
0130
0000
0000
0000
0000
0000
0010
0000
0100
0000
0010
0000
0100
0000
0000
0001
0000
0000
0010
0000
0000
0000
0000
0000
0100
0000
0000
0010
0000
0000
0100
0000
0000
0000
0000
0000
0020
0000
0000
0000
0000
0000
0000
0000
0000
0000
0000
0000
,
0130
0000
0000
0000
0000
0000
0210
0000
0000
1300
0000
0000
0001
0010
0001
0010
0000
0000
0002
0000
0000
0000
0000
0000
,
1003
0010
0100
0010
2000
3200
0302
0203
,
1300
0000
0001
0100
0010
0100
0001
1000
,
0000
0000
1000
0100
0010
0001
1001
0000
,
0110
0000
1000
0100
0010
0100
1000
0001
,
0000
1000
1000
0010
0010
0100
0110
0000
,
1001
0000
1000
0010
0100
0010
1000
0001
,
0000
0000
0001
0010
0100
1000
1001
0000
,
0110
0000
0001
0010
0100
0010
0001
1000
,
0000
0001
0001
0100
0100
0010
0010
1000
,
1000
0000
0100
0000
0010
0001
0010
0000
0001
1000
0001
0000
1000
0010
1000
0000
,
0001
0000
1000
0100
1000
0000
0001
0100
0001
0010
0001
1000
0001
0000
0001
0000
,
1000
0000
0010
0000
0100
0001
0100
0000
0001
1000
0001
0000
1000
0100
1000
0000
,
0001
0000
1000
0010
1000
0000
0001
0010
0001
0100
0001
1000
0001
0000
0001
0000
,
1001
0000
1000
0000
0100
0010
0100
0000
0010
0001
0010
0000
0001
0100
0001
0000
,
0100
0000
0001
0000
0100
0010
0100
0000
0010
1000
0001
1000
0100
1000
0100
0000
,
0110
0000
0000
0000
0010
0100
0010
0000
0001
0010
0001
0000
0100
0010
1000
0000
,
0100
0000
0001
0000
0100
0000
0010
0000
0010
0001
0000
0000
1001
0000
0000
0000
,
0001
0000
0010
0000
0100
1000
0100
0000
1000
0001
1000
0000
0001
0100
0001
0000
,
1000
0000
0001
0010
0001
0000
1000
0010
1000
0100
1000
0001
1000
0000
1000
0000
,
0001
0000
0100
0000
0010
1000
0010
0000
1000
0001
1000
0000
0001
0010
0001
0000
,
1000
0000
0001
0100
0001
0000
1000
0100
1000
0010
1000
0001
1000
0000
1000
0000
,
1001
0000
0001
0000
0010
0100
0010
0000
0100
1000
0100
0000
1000
0010
1000
0000
,
0010
0000
1000
0000
0010
0100
0010
0000
0100
0001
1000
0001
0010
0001
0010
0000
,
0110
0000
0000
0000
0100
0010
0100
0000
1000
0100
1000
0000
0100
0010
0001
0000
,
0100
1000
0100
0001
0010
0100
0110
0000
,
2000
0000
0000
0100
0000
0000
0000
0000
0000
3002
0000
0000
0100
0000
0000
0000
0000
0000
1003
0000
0000
0000
0000
0000
0220
0000
0000
0000
0000
0000
0330
0000
0000
0000
0000
0000
1000
0000
0000
0000
0010
0000
0000
0000
0100
0000
0000
0000
,
0002
1000
0023
0230
,
1300
0000
0001
0100
0001
1000
0100
1000
0002
0000
0000
0000
1003
0010
1000
0010
,
0200
0000
0001
0000
0320
0000
1030
1000
,
0001
0010
0000
0000
0100
0000
0000
0000
0210
0000
0000
0000
2300
0000
0000
0000
,
3020
0000
0000
0000
1000
0000
0000
0000
0230
0000
0000
0000
0301
0100
0001
0100
,
0001
0000
0000
0000
0000
0000
1000
0000
0000
0100
0000
0000
0000
0000
0000
1000
0000
0000
0001
0000
0000
0000
0000
0000
2001
0000
0000
0000
0000
0000
0000
0000
0000
0000
0000
0000
3001
0000
0000
0000
0010
0000
0000
0000
0100
0000
0000
0000
,
2000
3020
0230
0302
,
1003
0000
0000
0000
0110
0000
0000
0000
0002
0000
0100
0000
1003
0100
0010
0001
,
2000
0000
0100
0000
3001
0100
0010
1000
0002
0000
0100
0000
1003
0100
0010
0001
,
1000
0000
0000
0000
0001
0000
0000
0000
2000
0000
0010
0000
3001
0010
0100
1000
,
0002
0000
0010
0000
1003
0010
0100
0001
2000
0000
0010
0000
3001
0010
0100
1000
,
0001
0000
0000
0000
0000
0000
0000
0000
0002
0000
1000
0000
0013
0100
0010
0001
,
2000
0000
0001
0000
3010
0100
0010
1000
0002
0000
1000
0000
0013
0100
0010
0001
,
1000
0000
1000
0000
0001
0000
0001
0000
2000
0000
0001
0000
3100
0010
0100
1000
,
0002
0023
0230
2300
,
3001
0000
1000
0010
0100
0010
1000
0001
,
0000
0000
0001
0010
0100
1000
1001
0001
,
0110
0000
1010
0010
0100
0010
0001
0010
,
0000
1000
1000
0100
0010
0110
1001
0000
,
1001
0000
1100
0100
0010
0100
0001
0100
,
0000
0000
1000
0100
0010
0011
1001
0000
,
0110
0000
1000
0010
0100
0010
0001
0010
,
0000
1000
1000
0100
0100
0010
0011
0000
;

//---------------dance-single - XO DS- JA- JU Spins-----------------
#NOTEDATA:;
#CHARTNAME:;
#STEPSTYPE:dance-single;
#DESCRIPTION:XO DS- JA- JU Spins-;
#CHARTSTYLE:;
#DIFFICULTY:Medium;
#METER:12;
#RADARVALUES:0.459324,0.500067,0.218231,0.167310,0.007274,442.000000,412.000000,30.000000,23.000000,0.000000,0.000000,0.000000,0.000000,0.000000,0.459324,0.500067,0.218231,0.167310,0.007274,442.000000,412.000000,30.000000,23.000000,0.000000,0.000000,0.000000,0.000000,0.000000;
#CREDIT:Karl with a K;
#OFFSET:1.654000;
#BPMS:0.000000=142.000000
;
#STOPS:;
#DELAYS:;
#WARPS:;
#TIMESIGNATURES:0.000000=4=4
;
#TICKCOUNTS:0.000000=4
;
#COMBOS:0.000000=1
;
#SPEEDS:0.000000=1.000000=0.000000=0
;
#SCROLLS:0.000000=1.000000
;
#FAKES:;
#LABELS:0.000000=Song Start
;
#NOTES:
0000
0000
0000
0000
,
0000
0000
0000
0000
,
0000
0000
0000
0000
,
0000
0000
0000
0000
,
0000
0000
0000
0000
,
1000
0010
0000
0100
,
0000
0010
0000
0100
,
0001
0010
0000
0100
,
0000
0000
0000
0000
,
1000
1000
0100
0100
,
0001
0000
0000
0000
0001
0000
0000
0000
0010
0000
1000
0000
0000
1000
0000
0000
,
0001
0001
0100
0100
,
1000
1000
0010
0001
,
1000
0100
0001
0010
,
1000
0010
0001
0100
,
1000
0010
1000
0000
0001
0010
0001
0000
,
0100
0001
0100
0001
1000
0100
1000
0010
,
1000
0000
1001
0000
0001
0100
0020
0000
,
1030
1000
0100
0010
0001
1000
0002
0000
,
1003
0000
0110
0000
0100
0010
0100
0000
,
0110
1001
1010
0101
,
1001
0000
1000
0001
1000
0100
0020
0000
,
0031
0001
0100
0010
1000
0001
2000
0000
,
3001
0000
0101
0000
0100
0010
0100
0000
,
0001
0001
0010
0100
,
0000
1000
1001
0000
1000
0100
0020
0000
,
0031
0001
0100
0010
1000
0001
2000
0000
,
3001
0000
0110
0000
0010
0100
0010
0000
,
0110
1001
0011
1100
,
1001
0000
0001
1000
0001
0100
0020
0000
,
1030
1000
0100
0010
0001
1000
0002
0000
,
1003
0000
1010
0000
0010
0100
0010
0000
,
1000
1000
0100
0010
,
0001
0000
1000
0000
0100
0010
0000
0001
,
0000
1000
0010
0110
,
1001
0000
0001
0000
0100
0010
0000
1000
,
0000
0001
0010
0110
,
1000
0000
0001
0000
0010
0100
0000
1000
,
0000
0001
0100
0110
,
1001
0000
1000
0000
0010
0100
0000
0001
,
0000
0000
1000
0000
0100
0100
0100
0000
,
1000
0100
0010
0100
1000
0000
0001
0000
,
1000
0010
0100
0010
1000
0001
1000
0000
,
0001
0010
0100
0010
0001
0000
1000
0000
,
0001
0100
0010
0100
0001
1000
0001
0000
,
1000
0100
0010
0100
0001
0100
0010
0000
,
0001
0100
0010
0100
1000
0100
0010
0000
,
1000
0000
0010
0100
0010
0001
0010
1000
,
0001
0010
1000
0010
0001
0000
1001
0000
,
1000
0100
0010
0100
0001
0100
0010
0100
,
1000
0010
0100
0010
0001
0010
0100
0001
,
0100
0010
0100
0001
0100
0010
0100
1000
,
0100
0001
0010
0100
0010
1000
0010
0100
,
0001
0100
1000
0100
0001
0100
1000
0001
,
1000
0010
0001
0010
1000
0010
0001
0010
,
1000
0000
0001
0010
1000
0001
0100
1000
,
0100
0100
0010
1001
,
0001
0000
0000
0100
0000
0000
1000
0000
0120
0000
0000
0000
1030
0000
0000
0000
,
0021
0000
1030
0020
,
0031
1000
0100
0001
0200
0000
0310
0001
,
0200
0000
0000
0000
1300
0000
0100
0001
,
1000
1000
1020
0032
,
2003
0000
0000
0000
3100
0000
0001
0001
,
0001
0010
0100
0010
1000
0000
0001
0000
,
0100
0100
1000
1000
,
0002
0000
0000
0000
1003
0100
0001
1000
,
0010
0001
0100
1000
0001
0010
1000
0100
,
0002
0000
0203
0000
1300
0010
0001
1000
,
0100
0001
0010
1000
0001
0100
1000
0001
,
1000
0000
0000
0000
0001
0010
1000
0001
,
0100
1000
0010
0001
1000
0100
0001
0010
,
0001
0001
0001
0001
0001
0100
1000
0001
,
0020
2030
3200
0320
,
0031
0000
1000
0000
0010
0100
0000
0001
,
0000
0000
1000
0000
0100
0000
0100
0010
,
1001
0000
0001
0000
0010
0100
1000
0010
,
0100
0000
0010
0000
0100
0010
0110
0000
,
1000
0000
0001
0000
0100
0010
1000
0001
,
1000
0000
0001
0000
0010
0100
0110
0000
,
1001
0000
1000
0000
0100
0010
0001
1000
,
0001
1000
1000
0010
0010
0001
0010
1000
;

//---------------dance-single - ----------------
#NOTEDATA:;
#CHARTNAME:;
#STEPSTYPE:dance-single;
#DESCRIPTION:;
#CHARTSTYLE:;
#DIFFICULTY:Easy;
#METER:9;
#RADARVALUES:0.297210,0.352443,0.058195,0.152762,0.000000,286.000000,278.000000,8.000000,21.000000,0.000000,0.000000,0.000000,0.000000,0.000000,0.297210,0.352443,0.058195,0.152762,0.000000,286.000000,278.000000,8.000000,21.000000,0.000000,0.000000,0.000000,0.000000,0.000000;
#CREDIT:Karl with a K;
#OFFSET:1.654000;
#BPMS:0.000000=142.000000
;
#STOPS:;
#DELAYS:;
#WARPS:;
#TIMESIGNATURES:0.000000=4=4
;
#TICKCOUNTS:0.000000=4
;
#COMBOS:0.000000=1
;
#SPEEDS:0.000000=1.000000=0.000000=0
;
#SCROLLS:0.000000=1.000000
;
#FAKES:;
#LABELS:0.000000=Song Start
;
#NOTES:
0000
0000
0000
0000
,
0000
0000
0000
0000
,
0000
0000
0000
0000
,
0000
0000
0000
0000
,
0000
0000
0000
0000
,
1000
0000
1000
0000
,
0001
0000
0001
0000
,
1000
0000
1000
0000
,
0000
0000
0000
0000
,
0001
0100
0001
0100
,
0001
0100
0001
0001
,
1000
0100
1000
0100
,
1000
0100
1000
1000
,
0001
0010
0100
1000
,
1000
0010
0100
0001
,
0001
1000
0001
1000
,
0100
0000
0010
0100
0010
0000
0110
0000
,
2001
3001
1000
0200
,
0310
0100
1000
0001
,
1000
1000
0002
0203
,
0310
0010
0100
0100
,
0001
0010
0100
0020
,
0031
1000
0010
2000
,
3200
0310
0001
0002
,
1003
1000
0001
0001
,
0000
1000
0001
0000
0001
0000
0020
0000
,
0130
0010
0001
1000
,
0001
0001
2000
3020
,
0130
0100
0010
0010
,
1000
0100
0010
0200
,
1300
0001
0100
0002
,
0023
0130
1000
2000
,
3001
0001
1000
1000
,
0001
0000
0100
0000
,
0010
0000
1000
0000
,
1000
0000
0100
0000
,
0010
0000
0001
0000
,
1000
0000
0010
0000
,
0100
0000
0001
0000
,
0001
0000
0010
0000
,
0000
0000
0100
0000
1000
1000
1000
0000
,
0010
0100
1000
0100
,
0010
1000
0100
0010
,
0100
0010
1000
0010
,
0100
1000
0001
0010
,
0010
0100
0001
0100
,
0010
0001
0100
0010
,
0100
0010
0001
0010
,
0100
0001
1000
1001
,
1000
0010
0001
0010
,
1000
0001
0010
0100
,
1000
0100
0001
0100
,
1000
0001
1000
0001
,
0001
0010
1000
0010
,
0100
1000
0010
0100
,
0001
0100
1000
0100
,
0010
1000
0001
1001
,
1000
1000
1200
0010
,
0320
0000
0031
0001
,
0001
1000
0101
0100
,
0020
0000
0000
0000
1030
0000
1000
0001
,
1000
0001
0021
0230
,
0320
0100
0031
1000
,
1000
0100
0011
0010
,
0001
0100
1000
0100
,
0001
0000
1000
0001
1000
0000
0100
0000
,
0001
0100
1000
0100
,
0010
0000
0001
0100
,
1000
0100
0001
0010
,
0001
0000
1000
0010
,
0001
0010
1000
0001
,
1000
1000
1000
0000
0001
0000
0010
0000
,
1000
0010
0001
0100
,
0001
0000
0010
0000
,
0100
0000
1000
0001
,
1000
0001
0010
0001
,
0100
0010
0001
0010
,
1000
0001
0100
0001
,
0010
0100
0001
0100
,
1000
0100
0001
1000
,
0010
0000
0001
0000
0100
0010
0100
0000
;

//---------------dance-single - ----------------
#NOTEDATA:;
#CHARTNAME:;
#STEPSTYPE:dance-single;
#DESCRIPTION:;
#CHARTSTYLE:;
#DIFFICULTY:Beginner;
#METER:5;
#RADARVALUES:0.171467,0.264332,0.072744,0.087292,0.000000,165.000000,155.000000,10.000000,12.000000,0.000000,0.000000,0.000000,0.000000,0.000000,0.171467,0.264332,0.072744,0.087292,0.000000,165.000000,155.000000,10.000000,12.000000,0.000000,0.000000,0.000000,0.000000,0.000000;
#CREDIT:Karl with a K;
#OFFSET:1.654000;
#BPMS:0.000000=142.000000
;
#STOPS:;
#DELAYS:;
#WARPS:;
#TIMESIGNATURES:0.000000=4=4
;
#TICKCOUNTS:0.000000=4
;
#COMBOS:0.000000=1
;
#SPEEDS:0.000000=1.000000=0.000000=0
;
#SCROLLS:0.000000=1.000000
;
#FAKES:;
#LABELS:0.000000=Song Start
;
#NOTES:
0000
0000
0000
0000
,
0000
0000
0000
0000
,
0000
0000
0000
0000
,
0000
0000
0000
0000
,
0000
0000
0000
0000
,
1000
0000
0000
0000
,
1000
0000
0000
0000
,
0001
0000
0000
0000
,
0000
0000
0000
0000
,
0001
0000
0000
0000
,
1000
0000
0000
0000
,
0001
0000
0000
0000
,
1000
0000
0000
0000
,
0001
0000
1000
0000
,
0001
0000
1000
0000
,
0001
0000
0001
0000
,
1000
1000
1000
0000
,
1000
0000
0100
0000
,
0010
0000
0001
0000
,
0001
0000
0100
0000
,
0010
0010
0010
0000
,
1000
0000
0001
0000
,
0010
0000
0100
0000
,
1000
0000
0010
0000
,
0100
0100
0100
0100
,
0000
0001
0001
0000
,
0010
0000
0100
0000
,
1000
0000
0010
0000
,
0100
0100
0100
0000
,
0001
0000
1000
0000
,
0010
0000
0100
0000
,
0001
0000
0010
0000
,
0100
0100
0100
0100
,
0100
0000
0000
0000
,
0000
0000
0000
0000
,
0010
0000
0000
0000
,
0000
0000
0000
0000
,
0001
0000
0000
0000
,
0000
0000
0000
0000
,
1000
0000
0000
0000
,
0000
0000
0000
0000
,
0001
0000
1000
0000
,
0001
0000
1000
0000
,
0010
0000
0100
0000
,
0010
0000
0100
0000
,
0001
0000
1000
0000
,
0001
0000
1000
0000
,
0100
0000
0010
0000
,
0100
0000
0010
0000
,
0001
1000
0001
0000
,
0100
0010
0100
0000
,
0001
1000
0001
0000
,
0010
0100
0010
0000
,
0001
0001
1000
0000
,
0010
0100
0010
0000
,
1000
0001
1000
0000
,
0100
0010
0100
0000
,
1000
1000
2002
3003
,
0200
0300
0220
0330
,
0001
0001
1001
0000
,
0020
0030
0220
0330
,
0100
0100
0110
0000
,
2000
3000
1001
0000
,
0010
0010
0110
0000
,
0002
0003
2002
3003
,
1001
0000
1000
0100
,
1000
0100
1000
0000
,
0001
0000
0001
0100
,
0001
0100
0001
0000
,
0000
0000
0001
0010
,
0001
0010
0001
0000
,
1000
1000
0010
1000
,
0010
1000
0001
0000
,
1000
0000
0000
0000
,
0000
0000
0000
0000
,
0001
0000
0001
0000
,
1000
0000
1000
0000
,
0100
0000
0010
0000
,
0001
0000
0100
0000
,
0010
0000
1000
0000
,
0001
0000
0000
0110
;

//---------------dance-double - ----------------
#NOTEDATA:;
#CHARTNAME:;
#STEPSTYPE:dance-double;
#DESCRIPTION:;
#CHARTSTYLE:;
#DIFFICULTY:Challenge;
#METER:18;
#RADARVALUES:0.700418,0.941303,0.240054,0.247329,0.680153,674.000000,641.000000,33.000000,34.000000,0.000000,0.000000,18.000000,0.000000,0.000000,0.700418,0.941303,0.240054,0.247329,0.680153,674.000000,641.000000,33.000000,34.000000,0.000000,0.000000,18.000000,0.000000,0.000000;
#CREDIT:Karl with a K;
#OFFSET:1.654000;
#BPMS:0.000000=142.000000
;
#STOPS:;
#DELAYS:;
#WARPS:;
#TIMESIGNATURES:0.000000=4=4
;
#TICKCOUNTS:0.000000=4
;
#COMBOS:0.000000=1
;
#SPEEDS:0.000000=0.500000=0.000000=0
,36.000000=1.000000=32.000000=0
,130.000000=0.500000=2.000000=0
,162.000000=1.000000=2.000000=0
,283.500000=0.500000=0.500000=0
,284.000000=1.000000=2.000000=0
,288.000000=0.500000=4.000000=0
,300.000000=1.000000=24.000000=0
;
#SCROLLS:0.000000=1.000000
,32.000000=0.000000
,33.750000=2.000000
,34.000000=0.000000
,34.250000=2.000000
,34.500000=0.000000
,34.750000=2.000000
,35.000000=0.000000
,35.250000=2.000000
,35.500000=0.000000
,35.750000=2.000000
,36.000000=1.000000
,66.000000=0.000000
,66.250000=2.000000
,66.500000=0.000000
,66.750000=2.000000
,67.000000=0.000000
,67.250000=2.000000
,67.500000=1.000000
,68.000000=0.500000
,68.500000=1.500000
,69.000000=1.000000
,80.000000=0.500000
,80.500000=1.500000
,81.000000=0.500000
,81.500000=1.500000
,82.000000=0.500000
,82.500000=1.500000
,83.000000=0.500000
,83.500000=1.500000
,84.000000=1.000000
,99.500000=0.000000
,100.000000=2.000000
,100.500000=1.000000
,112.000000=0.500000
,112.500000=1.500000
,113.000000=0.500000
,113.500000=1.500000
,114.000000=0.500000
,114.500000=1.500000
,115.000000=0.500000
,115.500000=1.500000
,116.000000=1.000000
,146.000000=0.000000
,146.250000=2.000000
,146.500000=0.000000
,146.750000=2.000000
,147.000000=1.000000
,188.000000=0.500000
,188.500000=1.500000
,189.000000=1.000000
,195.000000=1.500000
,195.500000=0.500000
,196.000000=1.000000
,220.000000=0.500000
,220.500000=1.500000
,221.000000=1.000000
,227.000000=1.500000
,227.500000=0.500000
,228.000000=1.000000
,230.000000=1.500000
,230.500000=0.500000
,231.000000=1.000000
,232.000000=0.250000
,232.250000=0.500000
,232.500000=0.750000
,232.750000=1.000000
,233.250000=1.250000
,233.500000=1.500000
,233.750000=1.750000
,234.000000=1.500000
,234.500000=0.500000
,235.000000=1.500000
,235.500000=0.500000
,236.000000=1.000000
,238.000000=1.500000
,238.500000=0.500000
,239.000000=1.000000
,240.000000=0.250000
,240.250000=0.500000
,240.500000=0.750000
,240.750000=1.000000
,241.250000=1.250000
,241.500000=1.500000
,241.750000=1.750000
,242.000000=1.500000
,242.500000=0.500000
,243.000000=1.000000
,246.000000=1.500000
,246.500000=0.500000
,247.000000=1.500000
,247.500000=0.500000
,248.000000=0.250000
,248.250000=0.500000
,248.500000=0.750000
,248.750000=1.000000
,249.250000=1.250000
,249.500000=1.500000
,249.750000=1.750000
,250.000000=1.500000
,250.500000=0.500000
,251.000000=1.000000
,254.000000=1.500000
,254.500000=0.500000
,255.000000=1.000000
,256.000000=0.500000
,256.500000=1.500000
,257.000000=0.500000
,257.500000=1.500000
,258.000000=0.500000
,258.500000=1.500000
,259.000000=0.500000
,259.500000=1.500000
,260.000000=0.500000
,260.500000=1.500000
,261.000000=1.000000
,276.000000=0.000000
,277.500000=2.000000
,278.000000=1.000000
,288.000000=0.500000
,288.500000=1.500000
,289.000000=0.500000
,289.500000=1.500000
,290.000000=0.500000
,290.500000=1.500000
,291.000000=0.500000
,291.500000=1.500000
,292.000000=1.000000
,322.000000=0.000000
,322.250000=2.000000
,322.500000=0.000000
,322.750000=2.000000
,323.000000=1.000000
;
#FAKES:;
#LABELS:0.000000=Song Start
;
#NOTES:
00000000
00000000
00000000
00000000
,
00000000
00000000
00000000
00000000
,
00000000
00000000
00000000
00000000
,
00000000
00000000
00000000
00000000
,
00000000
00000000
00000000
00000000
,
00000000
10000000
00000000
01000000
,
00000000
00000000
00100000
00000000
00000000
00001000
00001000
00000000
,
00000000
00010000
00000000
00000010
,
00000000
00000000
00000000
00000000
,
00001000
00000010
00000100
00000100
,
00000100
00000000
00000000
00000000
00000001
00000000
00000000
00000000
00000010
00000000
00000011
00000000
00000000
00001100
00000000
00000000
,
00011000
00001000
00100000
00100000
,
00100000
00000000
00000000
00000000
01000000
00000000
00000000
00000000
10000000
00000000
00000000
00000000
00010000
10000000
00100000
00000000
,
10010000
00000000
00010000
00000000
00100000
00001000
00010000
00000100
,
00000010
00000000
00000001
00000000
00000100
00000010
00010000
00001000
,
01000000
01000000
00100000
00100000
10000000
10000000
01000000
01000000
,
10000000
00100000
10000000
00100000
01000000
00010000
01000000
00001000
00040000
00000000
00000000
00000000
00000000
00000000
00030000
00000000
,
00002000
00000000
00000000
00000000
00003010
00000000
00000001
00000000
00000100
00000010
00010000
00001000
04000000
00000000
00000000
00000000
,
03010000
00000000
01000000
00000000
00100000
00000000
10000000
00000000
00000000
00000000
00000000
00000000
00010000
00000000
00000000
00100000
00000000
00000000
00001000
00000000
00000000
00000000
00000000
00000000
00010000
00000000
00000010
00000000
00000000
00000000
00000100
00000000
00000000
00001000
00000000
00000000
00040000
00000000
00000000
00000000
00000000
00000000
00000000
00000000
00000000
00000000
00000000
00000000
,
00031000
00000000
00000000
00000200
00000000
00000000
00000301
00000000
00000000
00000010
00000000
00000000
00000100
00000010
00000100
00000010
00000100
00000010
00000400
00000000
00000000
00000000
00000000
00000000
,
00010300
00011000
00110000
01010000
,
10020000
00000000
00230000
00000000
01300000
00000000
10000000
00000000
01000000
00100000
00001000
00010000
00000400
00000000
00000000
00000000
,
00001300
00000000
00000000
00000000
00000000
00000000
00000100
00000000
00000010
00000000
00000100
00000000
00001000
00000000
00000000
00000010
00000000
00000000
00010000
00000000
00000000
00000000
00000000
00000000
00001000
00000000
00100000
00000000
00000000
00000000
01000000
00000000
00000000
00010000
00000000
00000000
00004000
00000000
00000000
00000000
00000000
00000000
00000000
00000000
00000000
00000000
00000000
00000000
,
00013000
00000000
00000000
02000000
00000000
00000000
13000000
00000000
00000000
00100000
00000000
00000000
01000000
00100000
01000000
00100000
01000000
00100000
04000000
00000000
00000000
00000000
00000000
00000000
,
03001000
00010000
00000010
00000100
00000001
00000010
00000100
00001000
,
00000000
00000000
00021000
00000000
01030000
00000000
10000000
00000000
00100000
01000000
00001000
00010000
00000040
00000000
00000000
00000000
,
00001030
00000000
00000010
00000000
00000100
00000000
00000001
00000000
00000000
00000000
00000000
00000000
00001000
00000000
00000000
00000100
00000000
00000000
00010000
00000000
00000000
00000000
00000000
00000000
00001000
00000000
01000000
00000000
00000000
00000000
00100000
00000000
00000000
00010000
00000000
00000000
00004000
00000000
00000000
00000000
00000000
00000000
00000000
00000000
00000000
00000000
00000000
00000000
,
00013000
00000000
00000000
00200000
00000000
00000000
10300000
00000000
00000000
01000000
00000000
00000000
00100000
01000000
00100000
01000000
00100000
01000000
00400000
00000000
00000000
00000000
00000000
00000000
,
00301000
00011000
00001100
00001010
,
00002001
00000000
00003200
00000000
00000310
00000000
00000001
00000000
00000010
00000100
00010000
00001000
00400000
00000000
00000000
00000000
,
00310000
00000000
00000000
00000000
00000000
00000000
00100000
00000000
01000000
00000000
00100000
00000000
00010000
00000000
00000000
01000000
00000000
00000000
00001000
00000000
00000000
00000000
00000000
00000000
00010000
00000000
00000100
00000000
00000000
00000000
00000010
00000000
00000000
00001000
00000000
00000000
00040000
00000000
00000000
00000000
00000000
00000000
00000000
00000000
00000000
00000000
00000000
00000000
,
00031000
00000000
00000000
00000020
00000000
00000000
00000031
00000000
00000000
00000100
00000000
00000000
00000010
00000100
00000010
00000100
00000010
00000100
00000040
00000000
00000000
00000000
00000000
00000000
,
00010030
00001000
01000000
00100000
10000000
01000000
00100000
00010000
,
10000000
00000000
00100000
10000000
00010000
00100000
00000000
00001000
,
00000000
00000000
00100000
00001000
00010000
00001000
00000020
00000000
,
00000031
00000000
00000010
00000001
00001000
00000010
00000000
00010000
,
00000000
00001000
00010000
00100000
10000000
01000000
01100000
00000000
,
10000000
00000000
01000000
10000000
00010000
01000000
00000000
00001000
,
00000000
00000000
01000000
00001000
00010000
00001000
00000200
00000000
,
00000301
00000000
00000100
00000001
00001000
00000100
00000000
00010000
,
00000000
00001000
00010000
01000000
00000000
00000000
00000000
00000000
,
10000000
00000000
01100000
00000000
00010000
01000000
00100000
10000000
00010000
01000000
00001000
00010000
00000100
00000010
00000001
00001000
,
00000001
00000000
00000010
00000100
00001000
00000010
00000100
00000001
00001000
00000010
00010000
00001000
00100000
01000000
10000000
00010000
,
10000000
00000000
01100000
00000000
00010000
00100000
01000000
10000000
00010000
00100000
00001000
00010000
00000010
00000100
00000001
00001000
,
00000001
00000000
00000100
00000010
00001000
00000100
00000010
00000001
00001000
00000100
00010000
00001000
01000000
00100000
10000000
00000000
,
10010000
00000000
00000000
00000000
10000000
01000000
00100000
00001000
00010000
00001000
01000000
00001000
00010000
00000100
00000010
00000001
,
00001000
00000000
00000001
00001000
00000001
00000010
00000100
00010000
00001000
00010000
00000010
00010000
00001000
00100000
01000000
10000000
,
00010000
00000000
00000000
00000000
10000000
00100000
01000000
00001000
00010000
00001000
00100000
00001000
00010000
00000010
00000100
00000001
,
00000010
00000000
00001000
00000000
00010000
00000000
00001000
00010000
00100000
01000000
00000000
00000000
01100000
00000000
00000000
00000000
,
00010000
00000000
01100000
00000000
10000000
01000000
00100000
10000000
00100000
01000000
10000000
00100000
01000000
00001000
00010000
00000100
,
00000010
00000000
00000100
00000010
00000001
00000100
00000010
00000001
00000010
00000100
00001000
00010000
00001000
00000000
00100000
00000000
,
00010000
00000000
01100000
00000000
10000000
00100000
01000000
10000000
01000000
00100000
10000000
01000000
00100000
00001000
00010000
00000010
,
00000100
00000000
00000010
00000100
00000001
00000010
00000100
00000001
00000100
00000010
00001000
00010000
00001000
00000000
01000000
00000000
,
00010000
00000000
01100000
00000000
10000000
01000000
00010000
01000000
10000000
00010000
10000000
00100000
01000000
00001000
00010000
00000100
,
00000010
00000000
00000001
00000100
00001000
00000100
00000001
00001000
00000001
00000010
00001000
00010000
00001000
00000000
00100000
00000000
,
00110000
00000000
00000000
00000000
10000000
00010000
01000000
10000000
01000000
00010000
10000000
01000000
00100000
00001000
00010000
00000010
,
00000100
00000001
00000010
00000100
00001000
00010000
01100000
00000000
,
00010000
00000000
00000000
10000000
00000000
00000000
00100000
00000000
00000000
10000000
00000000
00000000
00000000
00000000
00000000
00010000
00000000
00000000
10000000
00000000
00000000
00000000
00000000
00000000
20020000
00000000
00000000
00000000
00000000
00000000
30030000
00000000
00000000
00000000
00000000
00000000
00010000
00000000
00000000
00000000
00001000
00000000
00000000
00000000
00000010
00000000
00000000
00000000
,
00000400
00000000
00000301
00000040
,
00000130
00000000
00010000
00001000
00100000
00001000
01000000
00100000
20000000
00000000
00000000
00000000
31000000
00100000
00001000
00010000
,
00004000
00000000
00013000
00000110
,
00000001
00000100
00000000
00000000
00001000
00000000
00000000
00000000
00210000
00000000
00000000
00000000
04300000
00000000
00000000
00000000
,
43000000
00000000
00000000
00000000
00000000
00000000
00000000
00000000
30100000
00000000
00000000
00000000
01000000
00001000
01000000
00001000
,
00010000
00000000
00000000
00000000
00000000
00000000
00000100
00000000
00000000
00000010
00000000
00000000
00000000
00000000
00000000
00000001
00000000
00000000
00000100
00000000
00000000
00000010
00000000
00000000
00002000
00000000
00000000
00000000
00000000
00000000
00000000
00000000
00000000
00000000
00000000
00000000
00013000
00000000
00000000
00000000
00100000
00000000
00000000
00000000
01000000
00000000
00000000
00000000
,
20000000
30200000
20300000
32000000
,
03100000
00000000
00000000
00000000
00010000
00000000
00000000
00000000
00020000
00000000
10030000
01000000
00010000
00001000
00000010
00000001
,
00002000
00000000
00003001
00000100
00001000
00010000
00100000
10000000
00020000
00000000
10030000
01000000
00010000
00001000
00000010
00000001
,
00001000
00000000
00000000
00000000
00000000
00000000
00000000
00000000
00002000
00000000
00003001
00000010
00001000
00010000
01000000
10000000
,
00020000
00000000
10030000
00100000
00010000
00001000
00000100
00000001
00002000
00000000
00003001
00000010
00001000
00010000
01000000
10000000
,
00010000
00000000
00000000
00000000
00000000
00000000
00000000
00000000
00020000
00100000
10030000
01000000
00010000
00001000
00000010
00000001
,
00002000
00000010
00003001
00000100
00001000
00010000
00100000
10000000
00020000
00100000
10030000
01000000
00010000
00001000
00000010
00000001
,
00001000
00000000
00000000
00000000
00000000
00000000
00000000
00000000
00002000
00000100
00003001
00000010
00001000
00010000
01000000
10000000
,
00010000
00101000
00010010
00000110
,
00000001
00000000
00000100
00000001
00001000
00000100
00000000
00010000
,
00000000
00000000
00000100
00010000
00001000
00010000
02000000
00100000
,
13000000
00000000
10100000
10000000
00010000
00100000
00001000
00010000
,
00000000
00010000
00000100
00000010
00000001
00000100
00001000
00000100
,
00000001
00000000
00000101
00000001
00001000
00000100
00010000
00001000
,
00000000
00000000
01000000
00001000
00010000
01000000
02100000
00000000
,
13000000
00000000
11000000
10000000
00010000
01000000
00000000
00001000
,
00000000
00010000
00001000
00000100
00000010
00000010
00000020
00000030
;

//---------------dance-double - ----------------
#NOTEDATA:;
#CHARTNAME:;
#STEPSTYPE:dance-double;
#DESCRIPTION:;
#CHARTSTYLE:;
#DIFFICULTY:Hard;
#METER:16;
#RADARVALUES:0.612086,0.792997,0.167310,0.349170,0.320072,589.000000,566.000000,23.000000,48.000000,0.000000,0.000000,0.000000,0.000000,0.000000,0.612086,0.792997,0.167310,0.349170,0.320072,589.000000,566.000000,23.000000,48.000000,0.000000,0.000000,0.000000,0.000000,0.000000;
#CREDIT:Karl with a K;
#OFFSET:1.654000;
#BPMS:0.000000=142.000000
;
#STOPS:;
#DELAYS:;
#WARPS:;
#TIMESIGNATURES:0.000000=4=4
;
#TICKCOUNTS:0.000000=4
;
#COMBOS:0.000000=1
;
#SPEEDS:0.000000=1.000000=0.000000=0
;
#SCROLLS:0.000000=1.000000
;
#FAKES:;
#LABELS:0.000000=Song Start
;
#NOTES:
00000000
00000000
00000000
00000000
,
00000000
00000000
00000000
00000000
,
00000000
00000000
00000000
00000000
,
00000000
00000000
00000000
00000000
,
00000000
00000000
00000000
00000000
,
10000000
00000000
00100000
00000000
01000000
00001000
00000000
00010000
,
00000000
00000000
00000010
00000000
00000100
00000001
00000020
00000000
,
00000031
00000000
00000010
00000000
00000100
00010000
00000000
00001000
,
00000000
01000000
01000000
00000000
00100000
10000000
01000000
10000000
,
00100000
00000000
10000000
00000000
00010000
00100000
01000000
00000000
,
00100000
00000000
00000000
00000000
00001000
00000000
00000000
00000000
00010000
00000000
00001000
00000000
00000000
00011000
00000000
00000000
,
00000010
00000000
00001000
00000000
00000001
00000010
00000100
00000000
,
00010000
00000000
00000000
00000000
00001000
00000000
00000000
00000000
00100000
00000000
01000000
00000000
10000000
01000000
10000000
00000000
,
00100000
01000000
00010000
00100000
01000000
00100000
00001000
00010000
,
00000010
00000100
00000001
00000010
00000100
00010000
00001000
00010000
,
01000000
10000000
00100000
00010000
00001000
00000100
00000001
00000010
,
00001000
00001000
00010000
00010000
01000000
00100000
00010000
00000000
,
10020000
00000000
00000000
00000000
00130000
00000000
00001000
00000000
01000000
00010000
01000000
00010000
02000000
00000000
00000000
00000000
,
03001000
00000000
00001000
00000000
00010000
00000100
00000010
00000000
00001000
00000010
00000000
00000000
00000002
00000000
00000000
00000000
,
00002003
00000000
00003100
00010000
00000010
00000010
00000020
00000000
,
00010030
00011000
00101000
01010000
,
10000000
00000000
00100000
00000000
01000000
00000000
00001000
00000000
00100000
00010000
00100000
00010000
00200000
00000000
00000000
00000000
,
00301000
00000000
00001000
00000000
00010000
00000010
00000100
00000000
00001000
00000100
00000000
00000000
00000002
00000000
00000000
00000000
,
00002003
00000000
00003010
00010000
00000100
00000100
00000200
00000000
,
00010300
00001000
00010000
00001000
00100000
01000000
10000000
00010000
,
00000000
00000000
10020000
00000000
00130000
00000000
00010000
00000000
01000000
00001000
00010000
00001000
02000000
00000000
00000000
00000000
,
03010000
00000000
00001000
00000000
00000100
00000010
00000100
00000000
00000001
00000100
00000010
00000000
00000002
00000000
00000000
00000000
,
00002003
00000000
00003100
00010000
00000010
00000100
00002000
00000000
,
00013000
00011000
01001000
00110000
,
10000000
00000000
00100000
00000000
01000000
00000000
00001000
00000000
00100000
00001000
00010000
00001000
00200000
00000000
00000000
00000000
,
00310000
00000000
00001000
00000000
00000010
00000100
00000010
00000000
00000001
00000010
00000100
00000000
00000002
00000000
00000000
00000000
,
00002003
00000000
00003010
00010000
00000100
00001000
00020000
00000000
,
00130000
00001000
00010000
00001000
00100000
01000000
10000000
00000000
,
10000000
00000000
00010000
01000000
00100000
01000000
00000000
00010000
,
00000000
00000000
00100000
00001000
00010000
00001000
00000010
00000000
,
00000001
00000000
00001000
00000010
00000100
00000010
00000000
00001000
,
00000000
00000100
00010000
00000000
00001000
00010000
01000000
00000000
,
10000000
00000000
00010000
00100000
01000000
00100000
00000000
00010000
,
00000000
00000000
01000000
00001000
00010000
00001000
00000100
00000000
,
00000001
00000000
00001000
00000100
00000010
00000100
00000000
00001000
,
00000000
00000010
00010000
00001000
00000010
00001000
00010000
01000000
,
10000000
00000000
01000000
00000000
00100000
00010000
00100000
00000000
00001000
01000000
00001000
00000000
00010000
00000100
00010000
00000000
,
00000010
00000000
00000100
00000001
00000100
00000000
00000001
00000010
00000001
00000000
00000010
00000000
00001000
00000000
00010000
00000000
,
01000000
00000000
10000000
00000000
00100000
01000000
00100000
00000000
01000000
00010000
01000000
00000000
00001000
00010000
00001000
00000000
,
00010000
00000000
00000100
00001000
00000100
00000000
00000010
00000001
00001000
00000000
00000010
00000000
00000001
00000000
00000010
00000000
,
00000110
00000000
00001000
00000000
00000100
00001000
00000100
00000000
00010000
00000010
00010000
00000000
00001000
00100000
00001000
00000000
,
01000000
00000000
00100000
10000000
00100000
00000000
10000000
01000000
10000000
00000000
01000000
00000000
00010000
00000000
00001000
00000000
,
00011000
00000000
00000000
00000000
00010000
00000010
00000100
00000000
00000010
00001000
00000010
00000000
00010000
00001000
00010000
00000000
,
00001000
00010000
01000000
00100000
01000000
10000000
10010000
00000000
,
10000000
00000000
00100000
00000000
01000000
00010000
01000000
00000000
00001000
00100000
00001000
00010000
00000010
00010000
00000100
00000000
,
00000010
00000000
00000010
00000001
00000010
00000000
00000001
00000100
00000001
00001000
00000100
00000010
00001000
00000000
00010000
00000000
,
00100000
00000000
10000000
00000000
01000000
00100000
01000000
00000000
00100000
00010000
00100000
00001000
00010000
00001000
00010000
00000000
,
00000010
00000000
00000010
00001000
00000010
00000000
00000100
00000001
00001000
00000100
00000010
00000001
00001000
00000000
00000100
00000000
,
00000110
00000000
00001000
00000000
00000010
00001000
00000010
00000000
00010000
00000100
00010000
00001000
01000000
00001000
00100000
00000000
,
01000000
00000000
01000000
10000000
01000000
00000000
10000000
01000000
10000000
00010000
01000000
00100000
00010000
00000000
00001000
00000000
,
00011000
00000000
00000000
00000000
00010000
00000100
00000010
00000000
00000100
00001000
00000100
00010000
00001000
00010000
00001000
00000000
,
00010000
00010000
00100000
00100000
01000000
00010000
10010000
00000000
,
01100000
00000000
00000000
00000000
00000000
00000000
00000000
00000000
00000000
10000000
00000000
00000000
01000000
00000000
00000000
00000000
00000000
00000000
00100000
00000000
00000000
00000000
00000000
00000000
02200000
00000000
00000000
00000000
00000000
00000000
03300000
00000000
00000000
00000000
00000000
00000000
00100000
00000000
00000000
00000000
00001000
00000000
00000000
00000000
00010000
00000000
00000000
00000000
,
00000020
00001030
00001001
00002000
,
00003100
00000000
00000010
00000001
00000010
00000100
00000010
00000000
00002000
00000000
00000000
00000000
00013000
00001000
00010000
00001000
,
02000000
03010000
01100000
00011000
,
00010000
00000010
00000000
00000000
00000100
00000000
00000000
00000000
00000110
00000000
00000000
00000000
00000002
00000000
00000000
00000000
,
00000023
00000000
00000000
00000000
00002030
00000000
00000000
00000000
00013000
00000000
00000000
00000000
01000000
00100000
01000000
00100000
,
01000000
00000000
00000000
00000000
00000000
00000000
10000000
00000000
00000000
00100000
00000000
00000000
00000000
00000000
00000000
01000000
00000000
00000000
00010000
00000000
00000000
00000000
00000000
00000000
20010000
00000000
00000000
00000000
00000000
00000000
00000000
00000000
00000000
00000000
00000000
00000000
30010000
00000000
00000000
00000000
00100000
00000000
00000000
00000000
00010000
00000000
00000000
00000000
,
02000000
03002000
00023000
00030200
,
00000320
00000000
00000000
00000000
00000031
00000000
00000000
00000000
00000200
00000000
00001300
00000000
00010000
01000000
00100000
00000000
,
02000000
00000000
03010000
00000000
00001000
00000100
00000010
00000000
00000200
00000000
00001300
00000000
00010000
01000000
00100000
00000000
,
01000000
00000000
00000000
00000000
00000000
00000000
00000000
00000000
02000000
00000000
03010000
00000000
00001000
00000100
00000010
00000000
,
00000200
00000000
00001300
00000000
00010000
01000000
00100000
00000000
02000000
00000000
03010000
00000000
00001000
00000100
00000010
00000000
,
00000100
00000000
00000000
00000000
00000000
00000000
00000000
00000000
00000020
00000000
00001030
00000000
00010000
00100000
01000000
00000000
,
00200000
00000000
00310000
00000000
00001000
00000010
00000100
00000000
00000020
00000000
00001030
00000000
00010000
00100000
01000000
00000000
,
00100000
00000000
01000000
00000000
01000000
00000000
01000000
00000000
00200000
00000000
00310000
00000000
00001000
00000010
00000100
00000000
,
00000020
00002030
00003200
00000320
,
00000031
00000000
00001000
00000100
00000010
00000100
00000000
00001000
,
00000000
00000000
00000010
00010000
00001000
00010000
00100000
10000000
,
10000000
00000000
00010000
00100000
01000000
00100000
00000000
00010000
,
00000000
01000000
00001000
00010000
00010000
00001000
00000100
00000100
,
00000001
00000000
00001000
00000010
00000100
00000010
00000000
00001000
,
00000000
00000000
00000100
00010000
00001000
00010000
01000000
00000000
,
10000000
00000000
00010000
01000000
00100000
01000000
00000000
00010000
,
00000000
00100000
00001000
00010000
00000010
00010000
00001100
00000000
;

//---------------dance-double - ----------------
#NOTEDATA:;
#CHARTNAME:;
#STEPSTYPE:dance-double;
#DESCRIPTION:;
#CHARTSTYLE:;
#DIFFICULTY:Medium;
#METER:12;
#RADARVALUES:0.439580,0.469924,0.189134,0.116390,0.007274,423.000000,397.000000,26.000000,16.000000,0.000000,0.000000,0.000000,0.000000,0.000000,0.439580,0.469924,0.189134,0.116390,0.007274,423.000000,397.000000,26.000000,16.000000,0.000000,0.000000,0.000000,0.000000,0.000000;
#CREDIT:Karl with a K;
#OFFSET:1.654000;
#BPMS:0.000000=142.000000
;
#STOPS:;
#DELAYS:;
#WARPS:;
#TIMESIGNATURES:0.000000=4=4
;
#TICKCOUNTS:0.000000=4
;
#COMBOS:0.000000=1
;
#SPEEDS:0.000000=1.000000=0.000000=0
;
#SCROLLS:0.000000=1.000000
;
#FAKES:;
#LABELS:0.000000=Song Start
;
#NOTES:
00000000
00000000
00000000
00000000
,
00000000
00000000
00000000
00000000
,
00000000
00000000
00000000
00000000
,
00000000
00000000
00000000
00000000
,
00000000
00000000
00000000
00000000
,
10000000
00100000
00000000
01000000
,
00000000
00010000
00000000
00100000
,
00001000
00010000
00000000
00000010
,
00000000
00000000
00000000
00000000
,
00001000
00000100
00000010
00000001
,
00000100
00000000
00000000
00000000
00000010
00000000
00000000
00000000
00010000
00000000
00001000
00000000
00000000
00001000
00000000
00000000
,
00010000
00001000
01000000
00100000
,
10000000
01000000
00100000
00010000
,
10000000
00100000
00010000
00100000
,
10000000
01000000
00010000
01000000
,
10000000
00100000
01000000
00000000
00001000
00010000
00000100
00000000
,
00000010
00000100
00000010
00000001
00000100
00001000
00010000
01000000
,
10000000
00000000
10010000
00000000
00010000
01000000
00002000
00000000
,
00013000
00000100
00000010
00000001
00000100
00001000
00020000
00000000
,
01030000
00000000
01100000
00000000
01000000
10000000
00100000
00000000
,
10100000
00110000
00101000
00010100
,
00001001
00000000
00000001
00001000
00000100
00010000
00002000
00000000
,
00103000
00100000
00010000
01000000
00100000
10000000
02000000
00000000
,
13000000
00000000
10100000
00000000
10000000
00100000
00010000
00000000
,
00001000
00000010
00000100
00001000
,
00000000
00000001
00001001
00000000
00001000
00000100
00020000
00000000
,
00031000
01000000
00100000
10000000
01000000
00010000
00002000
00000000
,
00003100
00000000
00000110
00000000
00000100
00000001
00000010
00000000
,
00000011
00001010
00010010
01001000
,
10010000
00000000
10000000
00010000
01000000
00001000
00020000
00000000
,
00030010
00000010
00001000
00000100
00000010
00000001
00000200
00000000
,
00000301
00000000
00000011
00000000
00000001
00000010
00001000
00000000
,
00010000
00100000
01000000
00010000
,
10000000
00000000
10000000
00000000
01000000
00100000
00000000
00001000
,
00000000
00010000
00000010
00000110
,
00001001
00000000
00000001
00000000
00000010
00000100
00000000
00010000
,
00000000
00001000
00100000
01100000
,
10000000
00000000
00010000
00000000
00100000
01000000
00000000
10000000
,
00000000
00010000
01000000
01001000
,
00011000
00000000
00010000
00000000
00000010
00000100
00000000
00000001
,
00000000
00000000
00000010
00000000
00001000
00010000
00100000
00000000
,
10000000
01000000
00100000
00010000
01000000
00000000
00001000
00000000
,
00010000
00000010
00000100
00000001
00000010
00000100
00001000
00000000
,
00000001
00000010
00000100
00001000
00000010
00000000
00010000
00000000
,
00001000
01000000
00100000
10000000
01000000
00100000
00010000
00000000
,
00001000
01000000
00100000
01000000
00010000
01000000
00100000
00000000
,
10000000
01000000
00100000
00010000
00100000
00001000
00100000
00000000
,
00010000
00000000
01000000
00100000
01000000
00001000
00010000
00000010
,
00001000
00000100
00000001
00000100
00001000
00000000
00001010
00000000
,
00000001
00000100
00000010
00010000
00001000
01000000
00100000
00000000
,
10000000
01000000
00100000
00001000
00010000
00000100
00000010
00000000
,
00000001
00000100
00000010
00001000
00010000
01000000
00100000
00000000
,
10000000
01000000
00100000
00010000
00001000
00000100
00000010
00000000
,
00000001
00000010
00000100
00010000
00001000
00100000
01000000
00000000
,
10000000
00100000
01000000
00001000
00010000
00000010
00000100
00000000
,
00000001
00000000
00000010
00001000
00010000
00100000
01000000
00010000
,
10000000
00100000
00010000
00001000
00000010
00000001
00001001
00000000
,
00000001
00000000
00000000
00000100
00000000
00000000
00001000
00000000
00020000
00000000
00000000
00000000
00130000
00000000
00000000
00000000
,
02000000
00000000
03100000
20000000
,
31000000
00000000
00010000
00001000
00020000
00000000
00030010
00001000
,
00000200
00000000
00000310
00000001
,
00000010
00001000
00020000
00230000
,
20300000
00000000
31000000
00010000
,
00010000
00001000
00000100
00000010
00001000
00000000
00000001
00000000
,
00000001
00000010
00001000
00010000
,
01000000
00000000
00000000
00000000
10000000
01000000
00100000
00010000
,
01000000
00001000
00010000
00000100
00000010
00000001
00000100
00000010
,
00001000
00000000
00001000
00000000
00000001
00000010
00000100
00001000
,
00000010
00010000
00001000
00100000
01000000
10000000
00100000
10000000
,
01000000
00000000
00000000
00000000
10000000
00100000
01000000
00010000
,
00100000
00001000
00010000
00000010
00000100
00000001
00000010
00000100
,
00001000
00000010
00001000
00000000
00000001
00000100
00000010
00001000
,
00000100
00010000
00001000
00000100
,
00000001
00000000
00000001
00000000
00000100
00000010
00000000
00010000
,
00000000
00000000
00001000
00000000
00100000
00000000
00100000
01000000
,
10000000
00000000
10000000
00000000
00100000
01000000
00000000
00001000
,
00000000
00010000
00010000
00000000
00000010
00000000
00000110
00000000
,
00000001
00000000
00001000
00000000
00000010
00000100
00000000
00000001
,
00000000
00000000
00001000
00000000
00000100
00010000
00001000
00000000
,
00011000
00000000
00001000
00000000
00100000
01000000
00000000
10000000
,
00000000
00100000
00100000
00000000
00010000
00001000
00011000
00000000
;

//---------------dance-double - ----------------
#NOTEDATA:;
#CHARTNAME:;
#STEPSTYPE:dance-double;
#DESCRIPTION:;
#CHARTSTYLE:;
#DIFFICULTY:Easy;
#METER:9;
#RADARVALUES:0.285779,0.293703,0.029097,0.050921,0.000000,275.000000,271.000000,4.000000,7.000000,0.000000,0.000000,0.000000,0.000000,0.000000,0.285779,0.293703,0.029097,0.050921,0.000000,275.000000,271.000000,4.000000,7.000000,0.000000,0.000000,0.000000,0.000000,0.000000;
#CREDIT:Karl with a K;
#OFFSET:1.654000;
#BPMS:0.000000=142.000000
;
#STOPS:;
#DELAYS:;
#WARPS:;
#TIMESIGNATURES:0.000000=4=4
;
#TICKCOUNTS:0.000000=4
;
#COMBOS:0.000000=1
;
#SPEEDS:0.000000=1.000000=0.000000=0
;
#SCROLLS:0.000000=1.000000
;
#FAKES:;
#LABELS:0.000000=Song Start
;
#NOTES:
// measure 0
00000000
00000000
00000000
00000000
,  // measure 1
00000000
00000000
00000000
00000000
,  // measure 2
00000000
00000000
00000000
00000000
,  // measure 3
00000000
00000000
00000000
00000000
,  // measure 4
00000000
00000000
00000000
00000000
,  // measure 5
10000000
00000000
01000000
00000000
,  // measure 6
10000000
00000000
00010000
00000000
,  // measure 7
01000000
00000000
00001000
00000000
,  // measure 8
00000000
00000000
00000000
00000000
,  // measure 9
00010000
00000100
00000010
00000001
,  // measure 10
00000100
00000010
00010000
00001000
,  // measure 11
01000000
00100000
10000000
01000000
,  // measure 12
00100000
00010000
01000000
00100000
,  // measure 13
10000000
00100000
01000000
00001000
,  // measure 14
00001000
00010000
00000100
00000100
,  // measure 15
00000010
00000001
00000100
00001000
,  // measure 16
00010000
01000000
10000000
01100000
,  // measure 17
20000000
31000000
00100000
00001000
,  // measure 18
00010000
00000100
00000010
00000001
,  // measure 19
00001000
00001000
00000010
00010000
,  // measure 20
00001000
00100000
00010000
01000000
,  // measure 21
00010000
00100000
01000000
10000000
,  // measure 22
00100000
00010000
00001000
00000010
,  // measure 23
00000001
00000010
00001000
00010000
,  // measure 24
00001000
00010000
00000010
00000100
,  // measure 25
00000000
00000001
00000100
00000000
00000010
00000000
00010000
00000000
,  // measure 26
00001000
01000000
00100000
10000000
,  // measure 27
00010000
00010000
00100000
00001000
,  // measure 28
00010000
00000010
00001000
00000100
,  // measure 29
00001000
00000010
00000100
00000001
,  // measure 30
00000010
00001000
00010000
00100000
,  // measure 31
10000000
00100000
00010000
00001000
,  // measure 32
00010000
00001000
00100000
01000000
,  // measure 33
10000000
00000000
01000000
00000000
,  // measure 34
00100000
00000000
00001000
00000000
,  // measure 35
00010000
00000000
00000100
00000000
,  // measure 36
00000010
00000000
00000001
00000000
,  // measure 37
00000001
00000000
00000100
00000000
,  // measure 38
00000010
00000000
00010000
00000000
,  // measure 39
00001000
00000000
01000000
00000000
,  // measure 40
00000000
00100000
10000000
10000000
,  // measure 41
01000000
00100000
00010000
00100000
,  // measure 42
01000000
00100000
00001000
00010000
,  // measure 43
00000100
00000010
00000001
00000010
,  // measure 44
00000100
00000010
00000001
00000100
,  // measure 45
00000010
00000100
00000001
00000100
,  // measure 46
00000010
00010000
00001000
00010000
,  // measure 47
00100000
01000000
00010000
01000000
,  // measure 48
00001000
00010000
00000010
00000110
,  // measure 49
00000100
00000010
00001000
00000010
,  // measure 50
00000100
00000010
00010000
00001000
,  // measure 51
01000000
00100000
10000000
00100000
,  // measure 52
01000000
00100000
10000000
01000000
,  // measure 53
00100000
01000000
10000000
01000000
,  // measure 54
00100000
00001000
00010000
00001000
,  // measure 55
00000010
00000100
00001000
00000100
,  // measure 56
00001000
00000010
00010000
00011000
,  // measure 57
00010000
01000000
10000000
00100000
,  // measure 58
02000000
00000000
13000000
01000000
,  // measure 59
00010000
00100000
10000000
00100000
,  // measure 60
00020000
00000000
00031000
00000100
,  // measure 61
00000010
00000010
00002000
00003010
,  // measure 62
00000002
00000203
00001300
00010000
,  // measure 63
00001000
00000010
00000001
00001000
,  // measure 64
00000010
00010000
00001000
01000000
,  // measure 65
00010000
10010000
10000000
01000000
,  // measure 66
00010000
00001000
00000100
00000001
,  // measure 67
00001000
00000000
00000001
00000100
,  // measure 68
00001000
00010000
01000000
10000000
,  // measure 69
00010000
00000000
10000000
00100000
,  // measure 70
00010000
00001000
00000010
00000001
,  // measure 71
00001000
00001000
00000001
00000010
,  // measure 72
00001000
00010000
00001000
00000100
,  // measure 73
00000001
00000000
00000100
00000000
,  // measure 74
00000010
00000000
00010000
00001000
,  // measure 75
00001000
01000000
00010000
10000000
,  // measure 76
00100000
10000000
00010000
00010000
,  // measure 77
10000000
01000000
00100000
00010000
,  // measure 78
00100000
00001000
00010000
00010000
,  // measure 79
00010000
00000010
00000100
00000002
,  // measure 80
00000003
00000010
00000001
00000001
;
