#VERSION:0.83;
#TITLE:The End;
#SUBTITLE:;
#ARTIST:Lil Uzi Vert feat. BABYMETAL;
#TITLETRANSLIT:;
#SUBTITLETRANSLIT:;
#ARTISTTRANSLIT:;
#GENRE:;
#ORIGIN:;
#CREDIT:;
#BANNER:;
#BACKGROUND:;
#PREVIEWVID:;
#JACKET:;
#CDIMAGE:;
#DISCIMAGE:;
#LYRICSPATH:;
#CDTITLE:;
#MUSIC:The End.ogg;
#OFFSET:0.000000;
#SAMPLESTART:32.727547;
#SAMPLELENGTH:15.000000;
#SELECTABLE:YES;
#DISPLAYBPM:110.000000:440.000000;
#BPMS:0.000=110.000,
20.000=220.000,
32.000=110.000,
34.000=440.000,
82.000=220.000,
88.000=110.000,
89.000=440.000,
117.000=880.000,
121.000=220.000,
135.000=110.000,
136.000=220.000,
214.000=110.000,
215.000=440.000,
271.000=220.000,
275.000=110.000,
308.000=220.000,
386.000=440.000,
402.000=110.000;
#STOPS:117.000=0.091,
118.333=0.091,
119.667=0.091;
#DELAYS:;
#WARPS:;
#TIMESIGNATURES:0.000=4=4;
#TICKCOUNTS:0.000=4;
#COMBOS:0.000=1;
#SPEEDS:0.000=1.000=0.000=0;
#SCROLLS:0.000=1.000;
#FAKES:;
#LABELS:0.000=Song Start;
#BGCHANGES:;
#KEYSOUNDS:;
#ATTACKS:
;

//---------------dance-single - XO FS DS JA- XMOD FL- BU- JU-----------------
#NOTEDATA:;
#CHARTNAME:;
#STEPSTYPE:dance-single;
#DESCRIPTION:XO FS DS JA- XMOD FL- BU- JU-;
#CHARTSTYLE:;
#DIFFICULTY:Challenge;
#METER:18;
#RADARVALUES:0.879441,1.459487,0.251636,0.539219,0.575167,685.000000,657.000000,28.000000,60.000000,8.000000,0.000000,0.000000,0.000000,0.000000,0.879441,1.459487,0.251636,0.539219,0.575167,685.000000,657.000000,28.000000,60.000000,8.000000,0.000000,0.000000,0.000000,0.000000;
#CREDIT:Karl with a K;
#DISPLAYBPM:110.000000:440.000000;
#NOTES:
0000
0000
0000
0000
,
0000
0000
0000
0000
,
0000
0000
0000
0000
0000
0000
0000
2000
,
3100
0000
0000
0000
0010
0000
0100
0010
0001
0000
1000
0000
0010
0000
0000
0000
0100
0000
0100
0000
0010
0000
0220
0000
0000
0000
0330
0000
1001
0000
0001
0000
,
0010
0000
0100
0000
0110
0000
0000
0000
0011
0000
0001
0000
0000
0000
1010
0000
1000
0000
0010
0000
0010
0000
0100
0010
0100
0000
0000
0000
0100
0000
0000
0000
,
0001
0000
0010
0100
1000
0000
0010
0100
0001
0000
0010
0100
1000
0100
0010
0000
,
0001
0000
0100
0010
1000
0000
0100
0010
0001
0000
0100
0010
1000
0010
0100
0000
,
0001
0010
0100
1000
0100
0010
0001
1000
0010
0100
0001
0100
0010
1000
0001
0010
,
0100
0010
0001
1000
0010
0120
0000
0000
0130
0000
0000
0000
1000
0000
0000
0000
,
0100
0001
0010
1000
,
0010
0100
0010
0001
,
0100
0010
0100
1000
,
0100
0001
1000
0100
,
0001
0100
1000
0010
,
0001
0010
0100
0010
,
1000
0000
0100
0000
0010
0100
0010
0000
,
0100
0001
0100
0000
0010
0000
1000
0000
,
0010
0001
0100
1000
,
0100
0010
0100
0001
,
0010
0000
0000
0100
0000
0000
0010
0000
1000
0000
0010
0000
,
0001
0000
0000
0000
0000
0000
0000
0000
0100
0000
0000
0000
0000
0000
0000
0000
0001
0000
0000
0000
0000
0000
0000
0000
1000
0000
0000
0000
0000
0000
0010
0000
0000
M000
0000
0000
0010
0000
0000
0000
0000
0000
0001
0000
0000
0000
0000
0000
,
2000
0000
0000
0000
3001
0000
0100
000M
0100
0000
1000
0000
0100
0000
0000
0000
,
0210
1300
0010
0100
,
0010
0001
0010
0100
,
0010
1000
0100
0010
,
0100
0000
0001
0000
0100
0000
0010
0100
,
0010
0001
0100
0010
,
0100
1000
0100
0010
,
0100
0001
0010
0100
,
0010
0000
0000
1000
0000
0000
0000
0001
0000
0000
0000
0100
,
0000
0000
0000
0000
1000
0000
0100
M000
0100
0000
0001
0000
0010
000M
0010
0000
,
1000
0000
0001
0000
1000
0000
0010
M000
0010
0000
0001
0000
0100
000M
0100
0000
,
1000
0000
0001
0000
1000
0000
0100
M000
0100
0000
0010
0000
0100
00M0
0100
0000
,
0001
0000
0000
0000
0000
0000
0100
0000
0000
0000
0000
0000
1000
0000
0000
0010
0000
0000
0100
0000
0000
0000
0000
0000
0001
0000
0000
0010
0000
0000
0100
0000
0000
0000
0000
0000
1000
0010
0000
0001
0000
0000
1000
0100
0000
0001
0000
0000
,
2100
0000
0010
0000
0001
0000
3010
0100
,
0001
0000
0100
0000
0010
0000
0000
1000
0010
0000
0100
0000
0001
0000
1000
0000
,
0002
0100
0103
0001
0010
0001
1001
0000
,
0002
0000
0010
0000
0013
0000
0001
0100
0001
0000
1000
0100
1000
0000
0001
0000
,
0102
0000
0010
0000
1000
0000
0013
0100
,
1000
0000
0100
0000
0010
0000
0000
0001
0010
0000
0100
0000
1000
0000
0001
0000
,
2000
0000
3100
1000
0010
0000
1001
0000
,
2000
0000
3010
1000
0100
0100
0010
0001
,
0012
0000
0100
0000
1000
0000
0103
0010
,
1000
0010
0100
0001
0100
0010
1000
0001
,
2000
0000
3010
2000
3010
0000
1000
0000
0100
0000
1000
0000
1001
0000
0000
0000
,
2000
0000
3100
2000
3100
0000
1000
0000
0010
1000
0001
0000
0010
0100
1000
0000
,
2001
0000
0000
0000
0000
0000
3100
0010
0001
0010
0100
1000
,
0002
0000
0000
0000
0000
0000
0103
0000
0010
0000
1000
0000
0002
0000
0000
0010
0000
0000
0000
0000
0000
0000
0000
0000
,
2003
0000
3100
0010
0001
0000
0100
0000
,
0001
0000
0010
0000
0010
0000
0000
0000
0100
1000
0001
1000
0100
0010
0001
0000
,
0100
0001
0020
0000
0000
0100
0031
0100
,
0001
0100
0020
0230
2300
0000
3002
0000
,
0013
1000
0200
0000
0000
0010
1300
0010
,
1000
0000
0000
0000
0100
0000
0000
0000
0010
0000
0000
0000
0100
0000
0000
0000
0001
0000
1000
0000
0000
0010
0000
0000
0001
0000
0000
0000
0000
0000
0000
0000
,
0001
0000
0010
0000
0000
0000
0100
0010
,
0100
1000
0001
0100
,
0000
0010
0220
0000
,
0330
1001
1000
0010
,
0100
0100
0000
0100
,
0001
0000
0001
1000
,
0100
0010
0100
1000
,
0000
1000
0000
0001
,
0001
0000
0010
0100
1000
0100
0020
0000
,
0000
0031
0000
1000
,
1000
0000
0010
0100
0001
0100
0020
0000
,
0000
0000
1030
0000
0000
0000
0001
0100
,
0010
1000
0100
0010
0001
0100
0010
1000
,
0100
0010
0001
0000
0101
0000
1000
0100
,
0010
0000
0001
0000
1000
0000
2002
0000
0000
0000
3003
0000
0001
0000
1000
0010
,
0100
0000
0100
0000
0001
0000
1000
0100
0010
0000
0010
0001
1000
0000
0001
0100
,
0010
1000
0010
0000
1000
0001
0000
0010
0100
0000
0100
1000
0001
0000
1000
0001
,
0100
0000
0100
0000
0001
0000
1000
0001
0010
0000
0010
0100
1000
0000
0001
0100
,
0010
0100
0010
0000
1000
0100
0000
0100
0010
0000
0011
0000
0001
0000
0000
0000
,
0001
0000
0001
0000
0010
0100
0010
0001
1000
0000
0020
0000
0130
0000
0000
0010
,
1000
0010
1000
0000
0001
0010
0100
0010
0001
0000
0002
0000
0103
0000
0000
0000
,
0001
0000
0001
0000
1000
0000
1000
0000
0010
0000
0010
0100
0002
0000
0003
0001
,
0100
0000
0000
0000
0010
0000
0000
0000
2000
0000
0000
0000
3000
0000
1000
0000
0100
0000
0010
0100
0010
0000
0001
0000
0100
0000
0010
0100
0010
0000
1000
0000
,
2001
0000
0000
0000
3010
0000
0100
0000
0001
0000
0010
0000
0100
0000
0000
1000
,
0001
0010
0001
0100
0002
0100
0103
0001
,
0010
0000
0001
0000
1001
0000
0000
0000
0002
0000
0010
0000
0013
0000
0001
0100
,
0001
0000
1000
0100
1000
0000
0001
0000
0102
0000
0000
0000
0010
0000
0000
0000
,
1000
0000
0000
0000
0013
0000
0100
0000
1000
0000
0010
0000
0100
0000
0000
0001
,
1000
0100
1000
0001
2000
0000
3100
1000
,
0010
0000
1001
0000
2000
0000
3010
1000
,
0100
0000
0010
0001
0010
0001
0010
0000
0012
0000
0000
0000
0100
0000
0000
0000
,
1000
0000
0103
0010
1000
0100
0010
0001
,
1000
0000
0010
0000
1000
0000
0001
0000
2000
0000
3010
0200
0310
0000
1000
0000
,
0100
0000
1000
0000
1001
0000
0000
0001
2000
0000
3100
0020
0130
0000
1000
0000
,
0010
1000
0001
0000
0010
0100
1000
0000
2001
0000
0000
0000
0000
0000
0000
0000
,
3100
0010
0001
0100
0010
1000
0002
0000
0000
0103
0010
0100
,
0001
0000
0100
0000
0001
0010
0001
0000
2000
0000
0000
0000
3100
0000
0010
0000
,
0001
0000
0100
0001
0010
0000
0010
0100
,
1000
0001
0010
0000
0001
0100
0001
0000
1002
0000
0000
0000
0000
0000
0000
0000
,
0103
0010
1000
0100
0010
0001
2000
0000
0000
0100
0000
0000
,
3020
0000
0000
2030
0000
0000
3002
0000
0000
0013
0100
1000
,
0002
0000
0000
1003
0010
0100
0010
0000
,
0010
1000
0100
0000
0010
0100
1000
0000
2002
0000
0000
0000
0000
0000
0000
0000
,
0000
0000
0000
0000
,
3003
0000
0000
0000
1000
0100
0010
0001
,
1000
0010
0100
0001
0010
0100
0001
0100
,
0010
0001
0100
0010
0200
0000
0000
0000
,
0000
0000
0300
0000
;

//---------------dance-single - XO DS JA XMOD FL- BU- JU-----------------
#NOTEDATA:;
#CHARTNAME:;
#STEPSTYPE:dance-single;
#DESCRIPTION:XO DS JA XMOD FL- BU- JU-;
#CHARTSTYLE:;
#DIFFICULTY:Hard;
#METER:16;
#RADARVALUES:0.681727,1.185833,0.314545,0.700985,0.274103,531.000000,496.000000,35.000000,78.000000,0.000000,0.000000,0.000000,0.000000,0.000000,0.681727,1.185833,0.314545,0.700985,0.274103,531.000000,496.000000,35.000000,78.000000,0.000000,0.000000,0.000000,0.000000,0.000000;
#CREDIT:Karl with a K;
#DISPLAYBPM:110.000000:440.000000;
#NOTES:
0000
0000
0000
0000
,
0000
0000
0000
0000
,
0000
0000
0000
0000
0000
0000
0000
0001
,
1010
0000
0010
0000
0100
0010
1000
0000
0100
0100
0000
0011
0000
0001
0100
1000
,
0100
0100
0010
0000
0010
1000
0000
0100
0100
0010
0010
0010
2000
0000
3020
0000
,
0031
0000
0100
0000
0010
0000
0100
0000
0001
1000
0001
0010
0001
0000
0010
0000
,
0001
0000
0010
0000
0100
0000
0010
0000
0001
1000
0001
0100
0001
0000
0100
0000
,
0010
1000
0010
0000
1000
0001
1000
0000
0100
0010
0100
0000
0010
0001
0010
0000
,
1000
0010
1000
0010
1000
2002
3003
0000
1000
0000
0000
0000
1010
0000
0000
0000
,
0000
0101
0000
0011
,
0000
1100
0000
1000
,
0100
0001
0100
0010
,
0001
1000
0001
0010
,
0011
0000
1100
0000
,
1010
0000
0101
0000
,
0100
0000
0010
0000
1000
0010
0000
0000
,
0010
0100
0001
0101
,
0000
1010
0000
1100
,
0000
0011
0000
0001
,
0100
0000
0000
1000
0000
0000
0100
0000
0000
0000
0010
0000
,
0001
0000
0000
0000
0010
0000
2000
0000
0000
0010
0000
0000
,
3001
0000
0010
0100
0000
0100
1000
0000
,
0020
0130
1000
0100
,
0010
1000
0100
0010
,
0100
0010
0100
1000
,
0001
0000
0200
0000
0000
0000
0301
1000
,
0001
1000
0100
0000
0001
0000
0100
0000
,
0010
0001
0100
0010
,
0100
0010
0100
0001
,
1000
0000
0000
0100
0000
0000
0000
0100
0000
0000
0000
0100
,
0000
0000
1000
0100
0000
0100
0010
0100
,
0000
0100
0001
0100
0000
0100
0010
0100
,
0000
1000
0010
0100
0000
0100
1000
0100
,
0000
0000
0000
0000
0000
0000
0100
0000
0000
0000
0000
0000
0010
0000
0000
0100
0000
0000
0000
0000
0000
0000
0000
0000
0010
0000
0000
0100
0000
0000
0000
0000
0000
0000
0000
0000
0001
0010
0000
0000
0000
0000
0100
1000
0000
0000
0000
0000
,
0102
0000
1000
0000
0100
0000
1003
0100
,
0010
0000
0100
0000
1000
0000
0000
1000
0001
0000
0010
0000
0001
0000
0100
0000
,
0002
0000
1003
0001
0010
0000
0001
0000
,
2000
0000
3001
0010
0001
0100
0101
0000
,
2100
0000
0001
0000
0100
0000
3001
0100
,
0010
0000
0100
0000
0001
0000
0000
0001
1000
0000
0010
0000
1000
0000
0100
0000
,
2000
0000
3001
1000
0010
0000
1000
0000
,
0002
0000
1003
0010
1000
1000
0110
0000
,
2010
0000
0001
0000
0010
0000
3001
0010
,
0100
0010
0001
0000
1000
0100
1000
0010
,
2000
0001
3001
1000
0100
0000
1001
0000
,
0002
0000
1003
0100
1000
1000
0010
0100
,
1002
0000
0203
0010
,
0302
1000
0023
0230
,
2300
0100
3002
0000
,
0103
0010
1000
0000
0110
0000
1001
0000
,
1000
1000
0020
0000
0000
0000
0030
0100
,
0100
0000
0001
0100
0020
0000
2030
0000
,
3001
0001
0020
0000
0000
0000
0030
0100
,
0100
0000
0000
0000
1000
0000
0100
0000
0010
0001
0000
0000
0100
0000
0000
0000
,
0100
0010
0000
1000
,
0001
1000
0000
0100
,
0100
0010
0002
0000
,
0000
0203
0000
0310
,
0010
0100
0000
0100
,
0001
0000
0001
1000
,
0010
0010
0010
2000
,
0000
3200
0000
1300
,
0001
0000
0100
0001
0100
0000
0020
0000
,
0000
0230
0000
0301
,
1000
0000
0100
1000
0100
0000
0020
0000
,
0000
0230
0000
0301
,
0100
1000
0001
0100
,
1000
0000
0100
0010
0100
0000
0001
0000
,
0000
0000
0000
0000
0000
0000
1001
0000
0000
0000
0000
0000
2000
0000
0000
0100
,
0000
0000
0100
0000
3002
0000
0000
1000
0000
0000
0013
0010
0002
0000
0000
0100
,
0000
0000
0100
0000
2003
0000
0000
0001
0000
0000
3010
0010
0200
0000
0000
0010
,
0000
0000
0010
0000
0302
0000
0000
0010
0000
0000
0013
0100
0020
0000
0000
0100
,
0000
0000
0100
0000
0032
0000
0000
0103
0000
0000
1001
0000
0002
0000
0000
0010
,
0000
0000
0010
0000
2003
0000
0000
0001
0000
0000
3100
0100
2000
0000
0000
0010
,
0000
0000
0010
0000
3002
0000
0000
1000
0000
0000
0103
0100
0020
0000
0000
0100
,
0000
0000
0100
0000
2030
0000
0000
0100
0000
0000
3100
0000
0210
0000
0000
0000
,
0320
0000
0000
0000
0032
0000
0000
0000
0103
0000
0000
0000
0100
0000
0000
0000
0100
0000
0010
0100
0010
0000
0000
0000
1000
0000
0001
1000
0001
0000
0000
0000
,
2100
0000
0000
0000
3001
0000
0100
0000
0010
0000
0100
0000
0001
0000
0000
0001
,
1000
0010
1000
0100
2000
0000
3001
1000
,
0010
0000
1000
0000
0002
0000
0013
1000
,
0010
0001
0011
0000
0102
0000
1000
0000
,
0100
0000
0000
0000
1003
0000
0100
0000
0010
0000
0100
0000
1000
0000
0000
1000
,
0001
0010
0001
0100
0002
0000
1003
0001
,
0010
0000
0001
0000
2000
0000
3010
0001
,
0010
1000
0110
0000
0012
0000
1000
0000
,
0010
0000
1003
0010
0100
0010
1000
0000
,
0001
0100
0001
0010
0002
1000
1003
0001
,
0100
0000
1001
0000
2000
0000
3100
0001
,
0100
1000
0001
0010
0100
2000
0001
0000
0000
0000
0000
0000
,
3200
0010
2300
0001
,
3020
0230
0302
0100
,
2003
0000
0000
0000
3100
0010
0001
0100
,
1000
0000
0100
0010
1002
0000
0000
0000
,
0023
0100
0032
1000
,
0203
0320
2030
0010
,
3002
0000
0000
0000
0103
0010
1000
0000
,
0100
0001
0100
0000
0220
0000
0000
0000
,
0000
0000
0000
0000
,
0000
0000
0330
0000
0001
0100
0001
0000
,
1000
0000
0100
0000
0010
0100
1000
0000
,
0010
0100
0020
0000
,
0000
0000
0030
0000
;

//---------------dance-single - XO DS- JA XMOD JU----------------
#NOTEDATA:;
#CHARTNAME:;
#STEPSTYPE:dance-single;
#DESCRIPTION:XO DS- JA XMOD JU;
#CHARTSTYLE:;
#DIFFICULTY:Medium;
#METER:14;
#RADARVALUES:0.582870,0.812873,0.377453,0.727946,0.040441,454.000000,412.000000,42.000000,81.000000,0.000000,0.000000,0.000000,0.000000,0.000000,0.582870,0.812873,0.377453,0.727946,0.040441,454.000000,412.000000,42.000000,81.000000,0.000000,0.000000,0.000000,0.000000,0.000000;
#CREDIT:Karl with a K;
#DISPLAYBPM:110.000000:440.000000;
#NOTES:
0000
0000
0000
0000
,
0000
0000
0000
0000
,
0000
0000
0000
0000
0000
0000
0000
1000
,
0001
0000
0010
0000
0000
0000
0010
0000
0100
0100
0000
1000
0000
1000
0000
0000
,
0001
0000
0100
0000
0100
0001
0000
0001
0100
0000
0010
0000
0010
0000
0010
0000
,
1000
0100
0010
0010
,
0001
0100
0010
0010
,
1000
0100
0010
0000
0001
0100
0010
0000
,
1000
0000
0000
0000
0000
1002
0000
0000
0203
0000
0000
0000
2300
0000
0000
0000
,
0000
3002
0000
0023
,
0000
2030
0000
3200
,
1000
0320
0000
0230
,
0320
0032
0023
0000
,
2030
0000
3002
0000
,
0203
0000
1300
0010
,
1000
0000
0010
0100
,
0010
0001
0020
0032
,
0000
2003
0000
3200
,
0000
0302
0000
0023
,
0001
0000
0000
0230
0000
0000
0310
0000
0000
0000
0100
0000
,
1000
0000
0100
0000
1000
0000
0200
0000
0000
0302
0000
0000
,
2003
0000
3010
0001
0000
1000
0010
0100
,
0020
1030
0100
1000
,
0100
0010
0001
0010
,
0001
1000
0010
1000
,
0010
0100
0001
0100
,
0001
1000
0001
0000
0010
0000
0100
0000
,
1000
0010
0100
0001
,
1000
0001
0001
0001
,
0001
0200
0000
0000
,
0000
0000
0301
0010
0000
0000
0010
0100
,
0000
0000
0100
1000
0000
0000
1000
0001
,
0000
0000
0001
0100
0001
0000
0100
0010
,
0100
0000
0010
1000
0100
0000
0110
0000
,
1001
0000
0011
0000
1001
0000
1000
0100
,
1000
0000
0010
0000
0100
0010
0100
0000
,
0002
0000
0000
1003
0010
0000
1000
0000
,
2000
0000
0000
3010
1000
0100
0010
0000
,
1001
0000
1010
0000
1001
0000
0001
0100
,
0001
0000
0010
0000
0100
0010
0100
0000
,
2000
0000
0000
3001
0010
0000
0001
0000
,
0002
0000
0000
0013
0001
0100
0010
0000
,
1001
0000
1100
0000
1001
0000
0001
0010
,
0001
0000
0100
0000
0010
0100
0010
0000
,
2000
0000
3001
0100
0001
0000
1000
0000
,
0002
0000
0103
0001
0010
0100
1000
0000
,
2002
3003
0202
0303
,
0220
0330
1010
2000
,
0001
3200
0320
0000
,
0031
1000
0001
0000
1000
0001
1000
0000
,
0110
0020
0000
1030
,
0100
1000
0100
0000
0020
0000
0030
0000
,
0110
0020
0000
0031
,
0100
0001
0100
0000
0010
0000
1000
0000
,
0100
1000
0000
0001
,
0000
1001
0000
0001
,
0100
0000
0200
0010
,
0000
0301
0000
1000
,
0001
1000
0000
0001
,
0001
0000
0010
0010
,
0100
0100
0100
1000
,
0000
1001
0000
0001
,
0100
0001
0100
0020
,
0030
0010
0000
1000
,
0100
1000
0100
0020
,
0000
0100
0000
0130
,
1000
0010
0100
0001
,
0010
0100
1000
1001
,
0000
0000
0000
2002
0000
3003
0002
0000
,
1003
1000
1000
1000
1000
0010
0200
0000
,
0301
0001
0001
0001
0001
0010
0200
0000
,
1300
1000
0010
0010
0010
0010
0200
0000
,
0301
0001
0010
0010
0010
0010
0200
0000
,
1300
1000
0001
0001
0010
0010
0200
0000
,
1300
1000
0001
0001
0100
0100
0020
0000
,
0130
0100
0010
0010
0100
0100
0110
0000
,
1001
0000
0110
0000
1001
0000
1000
0001
,
1001
0000
0001
0010
0001
1000
0010
0000
,
0010
0100
0010
0000
2000
0000
0000
3001
,
0100
0000
0001
0000
0020
0000
0000
1030
,
0010
0001
1000
0000
1001
0000
0101
0000
,
1001
0000
1000
0010
1000
0001
0010
0000
,
0010
0100
0010
0000
0002
0000
0000
1003
,
0100
0000
1000
0000
0020
0000
0000
0031
,
0010
1000
0001
0000
1001
0000
0011
0000
,
1001
0000
1000
0100
1000
0010
0100
0000
,
0100
0010
0100
0000
0002
0000
1003
0010
,
0100
0000
0001
0000
0020
0000
1030
0010
,
0001
0100
0010
1000
2002
0000
3003
0000
,
2020
3030
0220
0330
,
0101
0002
1000
0023
,
0100
0130
1000
0001
,
1000
0110
2002
3003
,
0022
0033
0220
0330
,
1100
2000
0001
3020
,
0100
0130
0001
1000
,
0001
0010
0100
1000
2002
0000
0000
0000
,
0000
0000
0000
0000
,
3003
0000
0000
0000
1000
0010
1000
0000
,
0100
0000
0010
0000
0001
0100
0001
0000
,
0100
0010
0100
0000
;

//---------------dance-single - ----------------
#NOTEDATA:;
#CHARTNAME:;
#STEPSTYPE:dance-single;
#DESCRIPTION:;
#CHARTSTYLE:;
#DIFFICULTY:Easy;
#METER:10;
#RADARVALUES:0.382589,0.541915,0.116831,0.359479,0.004493,298.000000,285.000000,13.000000,40.000000,0.000000,0.000000,0.000000,0.000000,0.000000,0.382589,0.541915,0.116831,0.359479,0.004493,298.000000,285.000000,13.000000,40.000000,0.000000,0.000000,0.000000,0.000000,0.000000;
#CREDIT:Karl with a K;
#DISPLAYBPM:110.000000:440.000000;
#NOTES:
// measure 0
0000
0000
0000
0000
,  // measure 1
0000
0000
0000
0000
,  // measure 2
0000
0000
0000
0000
0000
0000
0000
1000
,  // measure 3
0000
0000
0001
0000
0000
0000
1000
0000
0100
0000
0000
0100
0000
0000
0100
0000
,  // measure 4
1000
1000
0001
0000
0100
0100
0100
0000
,  // measure 5
0010
0100
0020
0000
,  // measure 6
1030
0100
0020
0000
,  // measure 7
0031
0001
1000
1000
,  // measure 8
0001
0000
1000
1000
,  // measure 9
0000
0100
0000
0010
,  // measure 10
0000
0001
0000
0100
,  // measure 11
0000
0100
0000
0100
,  // measure 12
0010
0000
1000
0000
,  // measure 13
0010
0000
0100
0000
,  // measure 14
0001
0000
0010
0000
,  // measure 15
0100
0000
0001
1000
,  // measure 16
0001
0000
0001
0001
,  // measure 17
0000
0100
0000
0010
,  // measure 18
0000
1000
0000
0100
,  // measure 19
0000
0100
0010
0000
,  // measure 20
0010
0000
0001
0100
,  // measure 21
1001
0000
1000
0100
,  // measure 22
1001
1000
0100
1000
,  // measure 23
0000
0001
0000
0000
,  // measure 24
0000
0001
0100
0001
,  // measure 25
0000
0001
0000
0000
,  // measure 26
1000
1000
0000
1100
,  // measure 27
0000
1001
0000
1100
,  // measure 28
0000
0101
0000
1001
,  // measure 29
0000
0101
0000
0000
,  // measure 30
0000
1000
0100
1000
,  // measure 31
0000
0001
0100
0001
,  // measure 32
0000
1000
0100
0010
,  // measure 33
0001
0100
0010
0110
,  // measure 34
2000
3020
0230
0301
,  // measure 35
0001
1000
0000
0010
,  // measure 36
1000
0000
0000
0100
0010
0000
0000
0000
,  // measure 37
0001
0000
0000
0010
0100
0000
1000
0000
,  // measure 38
0002
0023
0230
1300
,  // measure 39
1000
0001
0000
0010
,  // measure 40
0001
0000
0000
0100
0010
0000
0000
0000
,  // measure 41
1000
0000
0000
0010
0100
0000
1001
0000
,  // measure 42
0002
0203
0320
1030
,  // measure 43
1000
0001
0000
0100
,  // measure 44
0001
0000
0000
0010
0100
0000
0000
0000
,  // measure 45
1000
0000
0000
0100
0010
0000
0001
0000
,  // measure 46
2000
0000
3200
0000
,  // measure 47
0320
0000
0031
0002
,  // measure 48
0000
0203
0010
0000
,  // measure 49
0301
0001
1000
1000
,  // measure 50
0100
0020
0000
0130
,  // measure 51
0100
1000
0020
0000
,  // measure 52
0130
0020
0000
0130
,  // measure 53
0100
0001
0010
0001
,  // measure 54
0000
0001
0000
0000
,  // measure 55
0000
1000
0000
0001
,  // measure 56
0000
0000
1001
0000
,  // measure 57
0000
1001
0000
1000
,  // measure 58
0000
0100
0000
0010
,  // measure 59
0010
0000
0001
0001
,  // measure 60
0000
1000
0000
1000
,  // measure 61
0000
1000
0000
0001
,  // measure 62
0000
0100
0000
0010
,  // measure 63
0000
0010
0000
1000
,  // measure 64
0000
0100
0000
0010
,  // measure 65
0000
0010
0000
0001
,  // measure 66
0000
0100
0000
0010
,  // measure 67
0000
1000
0000
0100
,  // measure 68
0000
0000
0000
1000
0000
0000
1000
0000
,  // measure 69
0001
0100
0010
1000
,  // measure 70
1000
0100
0010
0001
,  // measure 71
0001
0100
0010
0100
,  // measure 72
0001
1000
0100
1000
,  // measure 73
0001
0010
0100
1000
,  // measure 74
1000
0010
0100
0001
,  // measure 75
0001
0010
0100
0020
,  // measure 76
0032
0000
2003
0000
0010
0000
3001
0100
,  // measure 77
0020
1030
1000
0001
,  // measure 78
0000
0000
0100
0000
0001
0000
0000
0010
,  // measure 79
0100
0000
0000
0000
1000
0000
0000
0100
,  // measure 80
0010
0001
2000
3200
,  // measure 81
0320
0031
0001
1000
,  // measure 82
0000
0000
0100
0000
1000
0000
0000
0010
,  // measure 83
0100
0000
0000
0000
0001
0000
0000
0100
,  // measure 84
0010
1001
2000
3020
,  // measure 85
0230
0301
0001
1000
,  // measure 86
0000
0000
0010
0000
1000
0000
0000
0100
,  // measure 87
0010
0000
0000
0000
0001
0000
0000
0010
,  // measure 88
0100
1000
0002
0000
,  // measure 89
0023
0000
0230
0000
,  // measure 90
1300
2000
0000
3020
,  // measure 91
0100
0000
1030
1000
,  // measure 92
0001
0001
2000
0000
,  // measure 93
3020
0000
0230
0000
,  // measure 94
0301
0002
0000
0023
,  // measure 95
0100
0000
0031
0001
,  // measure 96
1000
1000
0002
0000
,  // measure 97
0000
0000
0000
0000
,  // measure 98
0000
0000
1003
0001
,  // measure 99
1000
0001
1000
0001
,  // measure 100
1000
0001
1000
0000
;

//---------------dance-single - ----------------
#NOTEDATA:;
#CHARTNAME:;
#STEPSTYPE:dance-single;
#DESCRIPTION:;
#CHARTSTYLE:;
#DIFFICULTY:Beginner;
#METER:5;
#RADARVALUES:0.243932,0.345100,0.125818,0.152779,0.000000,190.000000,176.000000,14.000000,17.000000,0.000000,0.000000,0.000000,0.000000,0.000000,0.243932,0.345100,0.125818,0.152779,0.000000,190.000000,176.000000,14.000000,17.000000,0.000000,0.000000,0.000000,0.000000,0.000000;
#CREDIT:Karl with a K;
#OFFSET:0.000000;
#BPMS:0.000000=220.000000
;
#STOPS:;
#DELAYS:;
#WARPS:;
#TIMESIGNATURES:0.000000=4=4
;
#TICKCOUNTS:0.000000=4
;
#COMBOS:0.000000=1
;
#SPEEDS:0.000000=1.000000=0.000000=0
;
#SCROLLS:0.000000=1.000000
;
#FAKES:;
#LABELS:0.000000=Song Start
;
#DISPLAYBPM:220.000000;
#NOTES:
// measure 0
0000
0000
0000
0000
,  // measure 1
0000
0000
0000
0000
,  // measure 2
0000
0000
0000
0000
,  // measure 3
0000
0000
0000
0000
,  // measure 4
0000
0000
0000
0000
,  // measure 5
0000
0000
0000
1000
,  // measure 6
0000
1000
0000
1000
,  // measure 7
0000
0000
0000
1000
0000
0000
1000
0000
,  // measure 8
0001
0000
0001
0000
,  // measure 9
0001
0000
0001
0000
,  // measure 10
1000
0000
0001
0000
,  // measure 11
1000
0000
0001
0000
,  // measure 12
1000
1000
1000
0000
,  // measure 13
0001
0000
0000
0000
0000
0001
0000
0000
,  // measure 14
1000
0100
0010
0100
,  // measure 15
1000
0100
0010
0000
,  // measure 16
0001
0010
0100
0010
,  // measure 17
0001
0010
0100
0000
,  // measure 18
1000
0010
0100
0010
,  // measure 19
1000
0010
0100
0000
,  // measure 20
0001
0010
0001
0000
,  // measure 21
0001
0100
0020
0000
,  // measure 22
1030
1000
1000
0000
,  // measure 23
0001
0001
0001
0000
,  // measure 24
1000
1000
1000
0000
,  // measure 25
0001
0001
0001
0000
,  // measure 26
0100
0100
0100
0000
,  // measure 27
0010
0010
0010
0000
,  // measure 28
1000
1000
1000
0000
,  // measure 29
0100
0100
0010
0000
,  // measure 30
0001
0000
0010
0000
,  // measure 31
0100
0000
0100
0000
,  // measure 32
1000
0000
0010
0000
,  // measure 33
0100
0000
0010
0000
,  // measure 34
1000
0000
0010
0000
,  // measure 35
0100
0000
0100
0000
,  // measure 36
0001
0000
0010
0000
,  // measure 37
0100
0000
0010
0000
,  // measure 38
0001
0000
1000
0000
,  // measure 39
0010
0000
0100
0000
,  // measure 40
0001
0000
0010
0000
,  // measure 41
0100
0000
1000
0000
,  // measure 42
2002
0000
3003
0000
,  // measure 43
0220
0000
0330
0000
,  // measure 44
1001
0000
0110
0000
,  // measure 45
1000
0000
1000
0000
,  // measure 46
0001
0020
0000
0030
,  // measure 47
0100
0000
1000
0000
,  // measure 48
1000
0020
0000
0030
,  // measure 49
0100
0000
0001
0000
,  // measure 50
1000
1000
0000
0000
,  // measure 51
0001
0000
0000
0001
0000
0000
0000
0000
,  // measure 52
0001
0001
0000
0000
,  // measure 53
1000
0000
1000
0000
,  // measure 54
1000
0100
1000
0000
,  // measure 55
0001
0100
0001
0000
,  // measure 56
1000
0010
0100
0001
,  // measure 57
1000
0000
0000
0000
0000
0100
0000
0000
,  // measure 58
1000
0000
0000
0000
,  // measure 59
0000
0000
0000
0000
,  // measure 60
0100
0000
0000
0000
,  // measure 61
0000
0000
0000
0000
,  // measure 62
0010
0000
0000
0000
,  // measure 63
0000
0000
0000
0000
,  // measure 64
0001
0000
0000
0000
,  // measure 65
0000
0000
0000
0000
,  // measure 66
1000
0000
0000
0000
,  // measure 67
0000
0000
0000
0000
,  // measure 68
0010
0000
0000
0000
,  // measure 69
0000
0000
0000
0000
,  // measure 70
0100
0000
0000
0000
,  // measure 71
0000
0000
0000
0000
,  // measure 72
0001
0000
0001
0000
,  // measure 73
0001
0000
0001
0000
,  // measure 74
1000
0000
0100
0000
,  // measure 75
0010
0010
0000
0000
,  // measure 76
0001
0000
0100
0000
,  // measure 77
0010
0000
0100
0000
,  // measure 78
0001
0000
0100
0000
,  // measure 79
0010
0010
0000
0000
,  // measure 80
1000
0000
0100
0000
,  // measure 81
0010
0000
0100
0000
,  // measure 82
1000
0000
0001
0000
,  // measure 83
0100
0010
0000
0000
,  // measure 84
1000
0000
0100
0000
,  // measure 85
0010
0000
0001
0000
,  // measure 86
2002
0000
3003
0000
,  // measure 87
0220
0000
0330
0000
,  // measure 88
1001
0000
0110
0000
,  // measure 89
0001
0000
0001
0000
,  // measure 90
2002
0000
3003
0000
,  // measure 91
0220
0000
0330
0000
,  // measure 92
1001
0000
0110
0000
,  // measure 93
1000
0000
1000
0000
,  // measure 94
2002
0000
0000
0000
,  // measure 95
0000
0000
0000
3003
,  // measure 96
1001
0000
0000
0000
;
