#VERSION:0.83;
#TITLE:Terminator Oscillator;
#SUBTITLE:;
#ARTIST:Static-X;
#TITLETRANSLIT:;
#SUBTITLETRANSLIT:;
#ARTISTTRANSLIT:;
#GENRE:;
#ORIGIN:;
#CREDIT:;
#BANNER:Terminator Oscillator-banner.png;
#BACKGROUND:Terminator Oscillator-bg.png;
#PREVIEWVID:;
#JACKET:Terminator Oscillator-jacket.png;
#CDIMAGE:;
#DISCIMAGE:Terminator Oscillator.png;
#LYRICSPATH:;
#CDTITLE:;
#MUSIC:Terminator Oscillator.ogg;
#OFFSET:0.000000;
#SAMPLESTART:101.244873;
#SAMPLELENGTH:13.727036;
#SELECTABLE:YES;
#BPMS:0.000=139.870;
#STOPS:;
#DELAYS:;
#WARPS:;
#TIMESIGNATURES:0.000=4=4;
#TICKCOUNTS:0.000=4;
#COMBOS:0.000=1;
#SPEEDS:0.000=1.000=0.000=0;
#SCROLLS:0.000=1.000,
227.000=0.000,
234.000=1.000;
#FAKES:;
#LABELS:0.000=Song Start;
#BGCHANGES:;
#KEYSOUNDS:;
#ATTACKS:
;

//---------------dance-single - XO+ FS SS? DS JA+ XMOD STR[2|1-1-1/1] JU+ HS+----------------
#NOTEDATA:;
#CHARTNAME:;
#STEPSTYPE:dance-single;
#DESCRIPTION:XO+ FS SS? DS JA+ XMOD STR[2|1-1-1/1] JU+ HS+;
#CHARTSTYLE:;
#DIFFICULTY:Challenge;
#METER:18;
#RADARVALUES:0.702590,0.955132,0.480974,0.602912,0.677429,726.000000,655.000000,71.000000,89.000000,43.000000,0.000000,0.000000,0.000000,0.000000,0.702590,0.955132,0.480974,0.602912,0.677429,726.000000,655.000000,71.000000,89.000000,43.000000,0.000000,0.000000,0.000000,0.000000;
#CREDIT:Karl with a K as squidzippy;
#NOTES:
0000
0000
0000
0000
,
0000
0000
0000
0000
,
0000
0000
0000
0000
,
0000
0000
0000
0000
,
0000
0000
0000
0000
,
0000
0000
0000
0000
,
0000
0000
0000
0000
,
0000
2000
3000
0002
0003
2000
3000
0002
,
0003
2000
3000
0002
0003
0020
0030
0200
,
0300
2000
3000
0002
0003
2000
3000
0002
,
0003
2000
3000
0020
0030
0M20
0230
0300
,
2000
0000
3001
0001
0010
0001
0001
0100
0002
0000
1003
1000
0010
1000
1000
0100
,
2000
0000
3001
0001
0010
0001
0001
0100
0002
0000
1003
0001
1000
0000
0200
0000
,
2300
0000
3010
0010
0001
0010
0010
0100
0002
0000
0013
0010
1000
0010
0010
0100
,
2000
0000
3010
0010
0001
0010
0010
0100
0002
0000
0013
0100
0010
0000
0200
0000
,
2300
0000
3100
0100
0001
0100
0100
0010
0002
0000
0103
0100
1000
0100
0100
0010
,
2000
0000
3100
0100
0001
0100
0100
0010
0002
0000
0103
0010
0100
0000
0002
0000
,
1003
0000
0100
0100
0010
0001
0001
0100
0001
0000
0100
0100
0010
1000
1000
0100
,
1000
0000
1000
0010
1000
0000
0001
0010
0001
1000
0001
1000
0001
0100
0001
0100
,
0001
0010
0001
1000
0010
1000
0001
0010
0001
0100
0010
1000
0100
0010
0001
0100
,
0001
0010
1000
0001
0100
1000
0001
1000
0010
0001
0010
1000
1010
0000
0000
0000
,
0000
0000
0000
0000
,
0000
0000
0000
0000
0000
0000
0000
0000
0000
0000
0000
0000
0000
0000
0010
1000
,
0020
0000
0100
0001
0M00
0000
0000
0000
0001
0000
010M
1000
0M00
0000
0000
0000
,
1000
0000
M100
0001
0M00
0000
0000
0000
0001
0000
013M
1000
0000
0000
1100
0000
,
0021
0000
010M
1000
0M00
0000
1000
0000
1000
0000
M130
0001
0000
0000
0000
0000
,
1020
0000
1000
0001
M000
0000
0031
1000
002M
0000
1030
0001
0100
0000
0101
0000
,
1200
0000
M010
0001
00M0
0000
0000
0000
0001
0000
001M
1000
00M0
0000
0000
0000
,
1000
0000
M310
0001
00M0
0000
0200
0000
0001
0000
031M
1000
0000
0000
1100
0000
,
0201
0000
001M
1000
00M0
0000
1000
0000
1000
0000
M310
0001
1000
0010
0001
0010
,
0220
0330
0000
0000
0000
0000
0201
0000
,
0310
0000
0100
0100
2000
0000
3100
0100
0020
0000
0130
0100
0002
0000
0103
0000
,
2100
0000
3100
0100
0002
0000
0103
0100
0020
0000
0130
0100
2000
0000
3100
0000
,
0110
0010
1010
1000
1100
0100
0110
0010
,
0011
0000
0001
0000
0101
0000
0100
0000
0001
0010
0001
0000
1001
0000
1000
0001
,
2000
0000
3010
0010
0002
0000
0013
0010
0200
0000
0310
0010
2000
0000
3010
0000
,
0012
0000
0013
0010
2000
0000
3010
0010
0200
0000
0310
0010
0002
0000
0013
0000
,
0110
0100
0101
0001
0011
0010
0110
0100
,
1100
0000
1000
0000
1010
0000
0010
0000
0100
0010
0100
0010
1000
0001
1000
0001
,
2000
0000
0000
0000
,
0000
0000
0000
0000
,
0020
0000
0000
0000
,
0000
0000
0000
0030
,
3002
0010
0000
0010
,
0000
0100
0000
0103
,
0020
0001
0000
1000
,
0000
0001
0000
1030
,
0100
0000
1000
0001
1000
0000
0001
0000
0100
0000
0001
1000
0001
0000
1000
0000
,
0100
0000
1000
0001
1000
0000
0100
0000
1000
0000
0001
0000
0101
0000
2000
0000
,
3010
0000
1000
0100
1000
0000
0001
0000
0010
0000
0001
0100
0001
0000
1000
0000
,
0020
1030
0020
0031
0020
1030
2200
3000
,
1300
0100
0010
0100
0010
0001
0010
0001
1000
0010
0100
0010
0100
0001
0100
0001
,
0100
0000
0001
0000
0010
0100
0000
0011
0000
0010
1000
0000
1001
0000
0000
0000
,
0001
0100
0010
0100
0010
1000
0010
1000
0001
0010
0100
0010
0100
1000
0100
1000
,
0100
0000
1000
0000
0010
0100
0000
1010
0000
0010
0001
0000
1001
0000
0000
0000
,
1000
0100
0010
0001
0100
0010
1000
0100
1000
0010
0001
1000
0100
0001
1000
0001
,
0100
010M
1000
0010
M010
0001
0100
0001
1001
0000
0000
0000
0000
0000
0000
0000
,
0000
0000
0000
0000
,
0000
0000
0000
0000
0000
0000
0220
0330
,
2001
0000
3001
0001
0020
0000
0031
0001
0200
0000
0301
0001
0020
0000
0130
0000
,
1002
0000
1003
1000
0020
0000
1030
1000
0200
0000
1300
1000
0020
0000
0130
0000
,
1001
0001
0011
0010
1010
1000
1001
0001
,
0101
0000
0100
0000
1100
0000
1000
0000
1000
0010
0001
0000
0020
0000
1030
0000
,
1002
0000
1003
1000
0200
0000
1300
1000
0020
0000
1030
1000
0200
0000
0310
0000
,
2001
0000
3001
0001
0200
0000
0301
0001
0020
0000
0031
0001
0200
0000
0310
0000
,
1001
1000
1010
0010
0011
0001
1001
1000
,
1100
0000
0100
0000
0101
0000
0001
0000
1000
0010
1000
0010
0100
0001
0100
0001
,
1000
0000
1000
0100
0001
0000
0001
0100
1000
0000
1000
0100
0001
0000
0001
0100
,
1000
0000
1000
0010
0001
0000
0001
0010
1000
0000
0020
0000
0030
0000
0010
0000
,
0110
0100
1100
1000
1010
0010
0011
0001
,
0101
0100
0101
0001
0011
0010
1010
1000
,
1100
0000
0100
1000
0010
0000
0100
0001
0010
0000
0100
1000
0010
0000
0100
0000
,
0110
0000
0010
1000
0100
0000
M100
0001
0010
0000
0020
0000
0030
0000
0100
0000
,
1001
1000
1100
0100
0101
0001
0011
0010
,
0001
0010
0001
0010
0001
0010
0001
0010
0001
1000
0010
0001
1000
0100
0001
0100
,
0020
1000
0100
M000
0001
0100
000M
0000
1000
0100
M000
0001
0100
000M
0100
0001
,
0M00
0001
1000
000M
1000
0001
M000
0000
0001
1000
000M
1000
0001
M000
0031
1000
,
0010
1000
1100
0100
1100
1000
1010
0010
,
0001
0010
1000
0010
0001
0010
1000
1000
,
0200
1000
0001
M000
0001
1000
000M
0000
1000
0001
M000
0001
1000
000M
1000
0001
,
M000
0010
1000
00M0
0010
0001
00M0
0000
0010
1000
00M0
0010
0001
00M0
0301
1000
,
0100
1000
1100
1000
1010
0010
0011
0001
,
0101
0000
0100
0000
1100
0000
1000
0001
0010
1000
0010
0001
0010
1000
0010
0001
;

//---------------dance-single - XO DS- JA XMOD STR[1-1] JU+----------------
#NOTEDATA:;
#CHARTNAME:;
#STEPSTYPE:dance-single;
#DESCRIPTION:XO DS- JA XMOD STR[1-1] JU+;
#CHARTSTYLE:;
#DIFFICULTY:Hard;
#METER:15;
#RADARVALUES:0.636783,0.758487,0.521620,0.169357,0.342102,658.000000,581.000000,77.000000,25.000000,0.000000,0.000000,0.000000,0.000000,0.000000,0.636783,0.758487,0.521620,0.169357,0.342102,658.000000,581.000000,77.000000,25.000000,0.000000,0.000000,0.000000,0.000000,0.000000;
#CREDIT:Karl with a K as squidzippy;
#NOTES:
// measure 0
0000
0000
0000
0000
,  // measure 1
0000
0000
0000
0000
,  // measure 2
0000
0000
0000
0000
,  // measure 3
0000
0000
0000
0000
,  // measure 4
0000
0000
0000
0000
,  // measure 5
0000
0000
0000
0000
,  // measure 6
0000
0000
0000
0000
,  // measure 7
1000
0000
1000
0100
0000
0000
1000
0000
0001
0000
0001
0100
0000
0000
0001
0000
,  // measure 8
1000
0000
1000
0100
0000
0000
1000
0000
0001
0000
0001
0100
0000
0000
0010
0000
,  // measure 9
0100
0000
0100
0001
0000
0000
0010
0000
0100
0000
0100
1000
0000
0000
0010
0000
,  // measure 10
0100
0000
0100
0001
0000
0000
0010
0000
0100
0000
1000
0001
2000
0000
0000
0000
,  // measure 11
3001
0100
1010
0001
1000
0100
0011
1000
,  // measure 12
0001
0100
1010
0001
0100
1100
0000
0101
,  // measure 13
1000
0001
1010
0100
0001
1000
0011
0100
,  // measure 14
1000
0000
0001
0000
1010
0000
0100
0000
0001
0010
0001
0000
0011
0000
0010
0100
,  // measure 15
1000
0100
0110
1000
0001
0100
0110
0001
,  // measure 16
1000
0100
0110
0001
0100
1001
0000
0110
,  // measure 17
0010
0100
1010
0001
0010
0100
0011
1000
,  // measure 18
0010
0000
0100
0000
1010
0000
1000
0001
1000
0001
1000
0001
1000
0001
1000
0000
,  // measure 19
0010
1000
0010
1000
0000
0010
1000
0000
0001
0100
0001
0100
0000
0001
0100
0000
,  // measure 20
0001
0010
0001
0010
0000
0100
1000
0000
0001
1000
0001
1000
0001
0000
0000
0000
,  // measure 21
0000
2000
3000
0002
0003
2000
3000
0002
,  // measure 22
0003
0000
2000
0000
3000
0000
0002
0000
0003
0000
0000
0000
0000
0000
1000
0100
,  // measure 23
1000
0000
0100
1000
0000
0000
0000
0000
0001
0000
0100
0001
0000
0000
0000
0000
,  // measure 24
1000
0000
0100
0001
0000
0000
0000
0000
0001
0000
0100
1000
0000
0000
1001
0000
,  // measure 25
0001
0000
0100
1000
0000
0000
0001
0000
1000
0000
0100
0001
0000
0000
0000
0000
,  // measure 26
1000
0000
0000
1000
0010
0000
0000
0000
0100
0000
0000
0100
0001
0000
0100
0000
,  // measure 27
0001
0000
1000
0100
0000
0000
0000
0000
1000
0000
0001
0100
0000
0000
0000
0000
,  // measure 28
0010
0000
1000
0100
0000
0000
0100
0000
0010
0000
0001
0100
0000
0000
0101
0000
,  // measure 29
1001
0000
1000
0001
0000
0000
1000
0000
0100
0000
0001
0100
0010
0100
0010
0000
,  // measure 30
2002
3003
0000
0000
0000
0000
0110
0000
,  // measure 31
1001
1000
1010
0010
0110
0100
0101
0001
,  // measure 32
1000
0001
0011
0010
0110
0100
1100
2000
,  // measure 33
3001
0010
0001
0001
1000
0010
1000
1000
,  // measure 34
0010
0000
0100
0000
0001
0000
0001
0000
0010
0100
1000
0000
1010
0000
2000
0000
,  // measure 35
3001
0010
0011
0001
1001
1000
1100
0100
,  // measure 36
1000
0010
1010
1000
1001
0001
0101
0100
,  // measure 37
0001
0010
1000
0001
1000
0010
0001
1000
,  // measure 38
0010
0000
0001
0000
0010
0000
1000
0000
0010
1000
0010
1000
0001
0100
0001
0100
,  // measure 39
2000
0100
0100
0100
,  // measure 40
0100
0100
0100
3100
,  // measure 41
0002
0100
0100
0100
,  // measure 42
0100
0100
0100
0100
,  // measure 43
0103
0011
1000
0011
,  // measure 44
0100
0011
1000
0011
,  // measure 45
0100
1010
0001
1010
,  // measure 46
0100
1010
0001
1010
,  // measure 47
0001
0001
0010
0100
1000
1000
0010
0100
,  // measure 48
0001
0001
0010
0100
1000
0010
0100
0001
,  // measure 49
1000
1000
0010
0100
0001
0001
0010
0001
,  // measure 50
0011
1010
1001
0002
,  // measure 51
1003
0010
1000
0010
1000
0010
1000
0010
1000
0010
1000
0010
1000
0010
1000
0010
,  // measure 52
0100
0000
0100
0000
0010
0000
0000
1000
0000
0001
0000
0000
0011
0000
0000
0000
,  // measure 53
0001
0010
0001
0010
0001
0010
0001
0010
0001
0010
0001
0010
0001
0010
0001
0010
,  // measure 54
0100
0000
0100
0000
0010
0000
0000
0001
0000
1000
0000
0000
1001
0000
0000
0000
,  // measure 55
1000
0001
1000
0001
0000
0001
1000
0000
0001
1000
0001
1000
0000
1000
0001
0000
,  // measure 56
0100
0010
0100
0010
0100
0010
0100
0010
0200
0000
0000
0300
0000
0000
0000
0000
,  // measure 57
0000
0000
0000
0000
,  // measure 58
0000
0000
0000
1001
,  // measure 59
0110
0010
0011
0001
0101
0100
0110
0010
,  // measure 60
0001
0010
1010
1000
1100
0100
0110
0020
,  // measure 61
0031
1000
0010
0010
1000
0001
0010
0010
,  // measure 62
0001
0000
0100
0000
0010
0000
0010
0000
1000
0100
1000
0000
1010
0000
0100
0000
,  // measure 63
0110
0010
1010
1000
1100
0100
0110
0010
,  // measure 64
1000
0010
0011
0001
0101
0100
0110
0020
,  // measure 65
0130
0001
0010
0010
0100
1000
0010
0010
,  // measure 66
1000
0000
0100
0000
0010
0000
0010
0001
0010
0001
0010
0000
0100
0010
0100
0000
,  // measure 67
1000
0001
0011
0010
1010
1000
1100
0100
,  // measure 68
1000
0010
1010
0010
0011
0001
0101
0200
,  // measure 69
0301
0010
0010
0010
0100
0010
0001
0001
,  // measure 70
1000
0000
0010
0000
0010
0000
0010
0000
0100
0010
0100
0000
0001
0000
0001
0000
,  // measure 71
1000
0010
1010
1000
1100
0100
0101
0001
,  // measure 72
1000
0100
0011
0001
0101
0100
1100
2000
,  // measure 73
3001
1000
1000
1000
0010
1000
1000
0100
,  // measure 74
1000
0001
1000
0001
1000
0001
1000
0000
0001
0100
0001
0000
1000
0100
1000
0000
,  // measure 75
2000
0000
0000
0010
0000
0000
0100
0000
0001
0000
0000
0010
0000
0000
0100
0000
,  // measure 76
3002
0000
0000
0010
0000
0000
0100
0000
1000
0000
0000
0013
0001
0000
0200
0000
,  // measure 77
0301
1000
0010
0010
1000
0001
0010
0010
,  // measure 78
0001
0000
0001
0000
1000
0000
1000
0000
0010
0100
0000
0000
0010
0000
0100
0000
,  // measure 79
0002
0000
0000
0100
0000
0000
0010
0000
1000
0000
0000
0100
0000
0000
0010
0000
,  // measure 80
2003
0000
0000
0100
0000
0000
0010
0000
3001
1000
0000
0100
1000
0000
0020
0000
,  // measure 81
1030
0100
0010
0010
0001
0100
0010
0010
,  // measure 82
1000
0000
0100
0000
0010
0000
0010
0001
1000
0010
1000
0010
1000
0010
1000
0010
;

//---------------dance-single - ----------------
#NOTEDATA:;
#CHARTNAME:;
#STEPSTYPE:dance-single;
#DESCRIPTION:;
#CHARTSTYLE:;
#DIFFICULTY:Easy;
#METER:8;
#RADARVALUES:0.266133,0.392401,0.142260,0.128711,0.000000,275.000000,254.000000,21.000000,19.000000,0.000000,0.000000,0.000000,0.000000,0.000000,0.266133,0.392401,0.142260,0.128711,0.000000,275.000000,254.000000,21.000000,19.000000,0.000000,0.000000,0.000000,0.000000,0.000000;
#CREDIT:Karl with a K as squidzippy;
#NOTES:
// measure 0
0000
0000
0000
0000
,  // measure 1
0000
0000
0000
0000
,  // measure 2
0000
0000
0000
0000
,  // measure 3
0000
0000
0000
0000
,  // measure 4
0000
0000
0000
0000
,  // measure 5
0000
0000
0000
0000
,  // measure 6
0000
0000
0000
0000
,  // measure 7
1000
0000
0001
0000
,  // measure 8
1000
0000
0001
0000
,  // measure 9
1000
0000
0100
0000
,  // measure 10
0010
0000
0001
0000
,  // measure 11
1000
0010
1000
0010
,  // measure 12
1000
0010
1000
0000
,  // measure 13
0001
0010
0001
0010
,  // measure 14
0001
0010
0001
0010
,  // measure 15
0100
0010
0100
0010
,  // measure 16
0100
0010
0100
0000
,  // measure 17
1000
0001
1000
0001
,  // measure 18
1000
0001
1000
0001
,  // measure 19
0120
0100
0100
0100
,  // measure 20
0100
0100
0100
0130
,  // measure 21
0000
0000
0000
0000
,  // measure 22
0000
0000
0000
0000
,  // measure 23
1000
0000
0100
0000
,  // measure 24
0001
0000
0100
0000
,  // measure 25
1000
0000
0100
0000
,  // measure 26
0010
0000
0001
0000
,  // measure 27
0001
0000
0100
0000
,  // measure 28
1000
0000
0100
0000
,  // measure 29
0001
0000
0100
0000
,  // measure 30
0110
0000
0000
0000
,  // measure 31
0110
0010
1000
0010
,  // measure 32
0110
0001
0010
0001
,  // measure 33
1000
1000
0001
0001
,  // measure 34
0010
0010
0100
0100
,  // measure 35
0110
0010
0001
0010
,  // measure 36
0110
1000
0010
1000
,  // measure 37
0001
0001
1000
1000
,  // measure 38
0010
0010
0100
0100
,  // measure 39
0002
0000
0000
0000
,  // measure 40
2003
0000
0000
0000
,  // measure 41
3020
0000
0000
0000
,  // measure 42
0230
0000
0000
0000
,  // measure 43
0302
0000
0203
0000
,  // measure 44
0320
0000
2030
0000
,  // measure 45
3002
0000
0023
0000
,  // measure 46
0230
0000
2300
0000
,  // measure 47
3001
0001
1000
1000
,  // measure 48
0001
0001
0001
0100
,  // measure 49
0010
0010
0100
0100
,  // measure 50
0010
0010
1000
0200
,  // measure 51
1300
1000
1000
0000
0001
0001
0001
0000
,  // measure 52
1000
0000
0000
0000
,  // measure 53
0010
0010
0010
0000
0100
0100
0100
0000
,  // measure 54
0010
0000
0000
0000
,  // measure 55
1002
1000
1000
1000
,  // measure 56
1000
1000
1003
0000
,  // measure 57
0000
0000
0000
0000
,  // measure 58
0000
0000
0000
0000
,  // measure 59
1001
0010
1000
0010
,  // measure 60
1001
0010
0001
0010
,  // measure 61
0100
0100
0010
0010
,  // measure 62
0001
0001
1000
1000
,  // measure 63
1001
0010
0001
0010
,  // measure 64
1001
0010
1000
0010
,  // measure 65
0100
0100
0010
0010
,  // measure 66
1000
1000
1001
1001
,  // measure 67
0110
1000
0010
1000
,  // measure 68
0110
0001
0010
0001
,  // measure 69
1000
0010
1000
0000
0001
0010
0001
0000
,  // measure 70
1000
0010
1000
0000
0001
0010
0001
0000
,  // measure 71
0110
0001
0010
0001
,  // measure 72
0110
1000
0010
1000
,  // measure 73
0001
0100
0001
0000
1000
0100
1000
0000
,  // measure 74
0001
0010
0001
0000
1000
0010
1000
0000
,  // measure 75
2010
0001
0010
3001
,  // measure 76
0012
1000
0010
1003
,  // measure 77
1000
1000
1000
0000
0001
0001
0001
0000
,  // measure 78
0010
0010
0010
0000
0001
0001
0001
0000
,  // measure 79
0012
1000
0100
1003
,  // measure 80
2010
0001
0100
3001
,  // measure 81
0001
0001
0001
0000
1000
1000
1000
0000
,  // measure 82
0010
0100
0010
0000
0100
0010
0100
0000
;

//---------------dance-single - ----------------
#NOTEDATA:;
#CHARTNAME:;
#STEPSTYPE:dance-single;
#DESCRIPTION:;
#CHARTSTYLE:;
#DIFFICULTY:Medium;
#METER:11;
#RADARVALUES:0.412264,0.477206,0.101614,0.121937,0.071130,426.000000,411.000000,15.000000,18.000000,0.000000,0.000000,0.000000,0.000000,0.000000,0.412264,0.477206,0.101614,0.121937,0.071130,426.000000,411.000000,15.000000,18.000000,0.000000,0.000000,0.000000,0.000000,0.000000;
#CREDIT:Karl with a K as squidzippy;
#NOTES:
// measure 0
0000
0000
0000
0000
,  // measure 1
0000
0000
0000
0000
,  // measure 2
0000
0000
0000
0000
,  // measure 3
0000
0000
0000
0000
,  // measure 4
0000
0000
0000
0000
,  // measure 5
0000
0000
0000
0000
,  // measure 6
0000
0000
0000
0000
,  // measure 7
1000
0100
0001
0100
,  // measure 8
1000
0100
0001
0100
,  // measure 9
1000
0010
0001
0010
,  // measure 10
1000
0010
1000
2000
,  // measure 11
3001
1000
0010
0000
1000
0001
0010
0000
,  // measure 12
0001
1000
0010
0000
1000
0100
0000
0100
,  // measure 13
1000
0001
0010
0000
0001
1000
0010
0000
,  // measure 14
1000
0001
0010
0000
0001
0100
0000
0100
,  // measure 15
0010
0100
0001
0000
0010
0100
1000
0000
,  // measure 16
0010
0100
0001
0000
0010
0100
0000
0010
,  // measure 17
0100
0010
0001
0000
0100
0010
1000
0000
,  // measure 18
0100
0010
0001
0000
0010
0100
0010
0000
,  // measure 19
0012
0000
0000
0010
0000
0000
0010
0000
1000
0000
0000
1000
0000
0000
1000
0000
,  // measure 20
0010
0000
0000
0010
0000
0000
0010
0000
1003
0000
0000
1000
0010
0000
0000
0000
,  // measure 21
0000
0100
0000
0100
,  // measure 22
0000
0100
0000
0100
,  // measure 23
0001
0000
0000
0001
0000
0000
0000
0000
1000
0000
0000
1000
0000
0000
0000
0000
,  // measure 24
0001
0000
0000
0001
0000
0000
0000
0000
1000
0000
0000
1000
0000
0000
0000
0000
,  // measure 25
0010
0000
0000
0010
0000
0000
0000
0000
0100
0000
0000
0100
0000
0000
0000
0000
,  // measure 26
0010
0001
0010
1000
,  // measure 27
1000
0000
0000
1000
0000
0000
0000
0000
0001
0000
0000
0001
0000
0000
0000
0000
,  // measure 28
0010
0000
0000
0010
0000
0000
0000
0000
0001
0000
0000
0001
0000
0000
0000
0000
,  // measure 29
0010
0000
0000
0010
0000
0000
0000
0000
0100
0000
0000
0100
0000
0000
0000
0000
,  // measure 30
1001
0000
0000
0000
,  // measure 31
0110
0000
2010
0000
0001
0000
3010
0100
,  // measure 32
0001
0000
0012
0000
1000
0000
0013
0100
,  // measure 33
0010
0100
0010
0100
0010
0001
1000
0000
,  // measure 34
0010
0100
0010
0100
0010
1000
0010
1000
,  // measure 35
0001
0000
0021
0000
0100
0000
0031
0100
,  // measure 36
0010
0000
1020
0000
0100
0000
1030
0100
,  // measure 37
0010
0100
0010
0100
1000
0100
1000
0000
,  // measure 38
0010
0100
0010
0100
0001
0100
0001
0100
,  // measure 39
0001
0000
0100
0000
,  // measure 40
0010
0000
1000
0000
,  // measure 41
0010
0000
1000
0000
,  // measure 42
0100
0000
0010
0000
,  // measure 43
0002
0010
0023
0100
,  // measure 44
0230
1000
2300
0010
,  // measure 45
3020
0100
0230
0001
,  // measure 46
0302
1000
2003
3001
,  // measure 47
1000
1000
0000
0000
0001
0001
0000
0000
,  // measure 48
1000
1000
0000
0000
0001
0001
0100
0000
,  // measure 49
0010
0010
0000
0000
0100
0100
0000
0000
,  // measure 50
0010
0010
0000
0000
1000
1000
0100
0000
,  // measure 51
1000
0100
0010
0001
1000
0100
0010
0001
,  // measure 52
1000
0000
0000
0000
0010
0000
0000
0010
0000
0000
0100
0000
0100
0000
0000
0000
,  // measure 53
0001
0100
0010
1000
0001
0100
0010
1000
,  // measure 54
0001
0000
0000
0000
0010
0000
0000
0010
0000
0000
0100
0000
0100
0000
0000
0000
,  // measure 55
1000
0000
0000
0010
0000
0000
0001
0000
1000
0000
0000
0100
0000
0000
0001
0000
,  // measure 56
0010
0000
0000
0100
0000
0000
0010
0000
0110
0000
0000
0000
0000
0000
0000
0000
,  // measure 57
0000
0000
0000
0000
,  // measure 58
0000
0000
0000
0110
,  // measure 59
1001
0000
1020
0000
0100
0000
0031
0010
,  // measure 60
1000
0000
0021
0000
0100
0000
1030
0010
,  // measure 61
0001
1000
0010
1000
0001
0010
0001
0010
,  // measure 62
0100
0010
0100
0010
0001
0010
0001
0000
,  // measure 63
0101
0000
0210
0000
1000
0000
0301
1000
,  // measure 64
0100
0000
0210
0000
0001
0000
1300
0001
,  // measure 65
1000
0001
0010
0001
1000
0010
1000
0010
,  // measure 66
0100
0010
0100
0001
0010
0010
0010
0010
,  // measure 67
0100
1000
0010
1000
0010
1000
0010
0000
,  // measure 68
0100
0001
0010
0001
0010
0001
0010
0000
,  // measure 69
0001
0001
0001
0001
1000
1000
1000
1000
,  // measure 70
0010
0010
0010
0010
1000
1000
1000
0010
,  // measure 71
0100
0001
0010
0001
0010
0001
0010
0000
,  // measure 72
0100
1000
0010
1000
0010
1000
0010
0000
,  // measure 73
1000
1000
1000
1000
0001
0001
0001
0001
,  // measure 74
0010
0001
0010
0001
1000
0100
1000
0100
,  // measure 75
1000
0010
1000
0100
1000
0010
1000
0100
,  // measure 76
1000
0010
1000
0100
1000
0010
0000
0100
,  // measure 77
0001
0010
0001
0100
0001
0010
0001
0100
,  // measure 78
0001
1000
0001
1000
0001
1000
0001
1000
,  // measure 79
0001
0010
0001
0100
0001
0010
0001
0100
,  // measure 80
0001
0010
0001
0100
0001
0010
0000
0100
,  // measure 81
1000
0010
1000
0100
1000
0010
1000
0100
,  // measure 82
1000
0010
1000
0100
1000
1000
0001
0001
;

//---------------dance-single - ----------------
#NOTEDATA:;
#CHARTNAME:;
#STEPSTYPE:dance-single;
#DESCRIPTION:;
#CHARTSTYLE:;
#DIFFICULTY:Beginner;
#METER:3;
#RADARVALUES:0.126776,0.224229,0.006774,0.040646,0.000000,131.000000,130.000000,1.000000,6.000000,0.000000,0.000000,0.000000,0.000000,0.000000,0.126776,0.224229,0.006774,0.040646,0.000000,131.000000,130.000000,1.000000,6.000000,0.000000,0.000000,0.000000,0.000000,0.000000;
#CREDIT:Karl with a K;
#NOTES:
// measure 0
0000
0000
0000
0000
,  // measure 1
0000
0000
0000
0000
,  // measure 2
0000
0000
0000
0000
,  // measure 3
0000
0000
0000
0000
,  // measure 4
0000
0000
0000
0000
,  // measure 5
0000
0000
0000
0000
,  // measure 6
0000
0000
0000
0000
,  // measure 7
0000
0000
0000
0000
,  // measure 8
0000
0000
0000
0000
,  // measure 9
0000
0000
0000
0000
,  // measure 10
0000
0000
0000
0000
,  // measure 11
1000
0000
1000
0000
,  // measure 12
1000
0000
1000
0000
,  // measure 13
0001
0000
0001
0000
,  // measure 14
0001
0000
0001
0000
,  // measure 15
0010
0000
0010
0000
,  // measure 16
0010
0000
0010
0000
,  // measure 17
0100
0000
0100
0000
,  // measure 18
0100
0000
0100
0000
,  // measure 19
2002
0000
0000
0000
,  // measure 20
0000
0000
0000
3003
,  // measure 21
0000
0000
0000
0000
,  // measure 22
0000
0000
0000
0000
,  // measure 23
1000
0000
0000
0000
,  // measure 24
1000
0000
0000
0000
,  // measure 25
1000
0000
0000
0000
,  // measure 26
0000
0000
0000
0000
,  // measure 27
0001
0000
0000
0000
,  // measure 28
0001
0000
0000
0000
,  // measure 29
0001
0000
0000
0000
,  // measure 30
0000
0000
0000
0000
,  // measure 31
1000
1000
1000
0000
,  // measure 32
0001
0001
0001
0000
,  // measure 33
0100
0100
0100
0000
,  // measure 34
0010
0010
0010
0000
,  // measure 35
1000
1000
1000
0000
,  // measure 36
0001
0001
0001
0000
,  // measure 37
0010
0010
0010
0000
,  // measure 38
0100
0100
0100
0000
,  // measure 39
0000
0000
0000
0000
,  // measure 40
0000
0000
0000
0000
,  // measure 41
0000
0000
0000
0000
,  // measure 42
0000
0000
0000
0000
,  // measure 43
0000
0000
0000
0000
,  // measure 44
0000
0000
0000
0000
,  // measure 45
0000
0000
0000
0000
,  // measure 46
0000
0000
0000
0000
,  // measure 47
1000
0000
1000
0000
,  // measure 48
1000
0000
0000
0000
,  // measure 49
0001
0000
0001
0000
,  // measure 50
0001
0000
0000
0000
,  // measure 51
0100
0100
0100
0100
,  // measure 52
0100
0000
0000
0000
,  // measure 53
0010
0010
0010
0010
,  // measure 54
0010
0000
0000
0000
,  // measure 55
1000
1000
1000
1000
,  // measure 56
1000
1000
1000
0000
,  // measure 57
0000
0000
0000
0000
,  // measure 58
0000
0000
0000
0000
,  // measure 59
0001
0001
0001
0000
,  // measure 60
1000
1000
1000
0000
,  // measure 61
0010
0010
0010
0000
,  // measure 62
0100
0100
0100
0000
,  // measure 63
0001
0001
0001
0000
,  // measure 64
1000
1000
1000
0000
,  // measure 65
0100
0100
0100
0000
,  // measure 66
0010
0010
0010
0000
,  // measure 67
0001
0001
0001
0001
,  // measure 68
0001
0001
0001
0000
,  // measure 69
1000
1000
1000
1000
,  // measure 70
1000
1000
1000
0000
,  // measure 71
0010
0010
0010
0010
,  // measure 72
0010
0010
0010
0000
,  // measure 73
0100
0100
0100
0100
,  // measure 74
0100
0100
0100
0000
,  // measure 75
0002
0000
0000
0000
,  // measure 76
0000
0000
0000
0003
,  // measure 77
0020
0000
0000
0000
,  // measure 78
0000
0000
0000
0030
,  // measure 79
0200
0000
0000
0000
,  // measure 80
0000
0000
0000
0300
,  // measure 81
2000
0000
0000
3000
,  // measure 82
0001
0001
0001
0001
;
