#VERSION:0.83;
#TITLE:インターネットが遅いさん;
#SUBTITLE:;
#ARTIST:かめりあ feat. ななひら;
#TITLETRANSLIT:Super-Slow-Internet-san;
#SUBTITLETRANSLIT:;
#ARTISTTRANSLIT:Camellia feat. nanahira;
#GENRE:;
#ORIGIN:;
#CREDIT:Karl with a K as Very Laggy;
#BANNER:Super-Slow-Internet-san banner.png;
#BACKGROUND:Super-Slow-Internet-san bg.png;
#PREVIEWVID:;
#JACKET:Super-Slow-Internet-san jk.png;
#CDIMAGE:;
#DISCIMAGE:;
#LYRICSPATH:;
#CDTITLE:;
#MUSIC:Super-Slow-Internet-san.ogg;
#OFFSET:-0.025000;
#SAMPLESTART:79.083015;
#SAMPLELENGTH:19.349937;
#SELECTABLE:YES;
#BPMS:0.000=100.000,
32.000=50.000,
32.500=100.000,
68.000=50.000,
69.000=100.000,
132.875=50.000,
133.125=100.000,
136.875=50.000,
137.125=100.000,
138.875=50.000,
139.125=100.000,
140.625=50.000,
140.875=100.000,
141.375=50.000,
141.625=100.000,
142.125=50.000,
142.375=100.000,
142.875=50.000,
143.125=100.000,
145.375=50.000,
145.625=100.000,
148.875=50.000,
149.125=100.000,
152.875=50.000,
153.125=100.000,
157.375=50.000,
157.625=100.000,
158.125=50.000,
158.375=100.000,
158.875=50.000,
159.125=100.000,
161.375=50.000,
161.625=100.000,
170.875=50.000,
171.125=100.000,
179.875=50.000,
180.125=100.000,
186.625=50.000,
186.875=100.000,
187.875=50.000,
188.125=100.000,
188.375=50.000,
188.625=100.000,
196.125=50.000,
196.875=100.000;
#STOPS:;
#DELAYS:;
#WARPS:32.000=0.062,
32.125=0.062,
32.250=0.062,
32.375=0.062,
32.500=0.125,
32.750=0.125,
33.000=0.125,
33.250=0.125,
33.500=0.125,
33.750=0.125,
34.000=0.125,
34.250=0.125,
68.000=0.062,
68.125=0.062,
68.250=0.062,
68.375=0.062,
68.500=0.062,
68.625=0.062,
68.750=0.062,
68.875=0.062,
132.875=0.062,
133.000=0.062,
136.875=0.062,
137.000=0.062,
138.875=0.062,
139.000=0.062,
140.625=0.062,
140.750=0.062,
141.375=0.062,
141.500=0.062,
142.125=0.062,
142.250=0.062,
142.875=0.062,
143.000=0.062,
145.375=0.062,
145.500=0.062,
148.875=0.062,
149.000=0.062,
152.875=0.062,
153.000=0.062,
157.375=0.062,
157.500=0.062,
158.125=0.062,
158.250=0.062,
158.875=0.062,
159.000=0.062,
161.375=0.062,
161.500=0.062,
170.875=0.062,
171.000=0.062,
179.875=0.062,
180.000=0.062,
186.625=0.062,
186.750=0.062,
187.875=0.062,
188.000=0.062,
188.375=0.062,
188.500=0.062,
196.125=0.062,
196.250=0.062,
196.375=0.062,
196.500=0.062,
196.625=0.062,
196.750=0.062;
#TIMESIGNATURES:0.000=4=4;
#TICKCOUNTS:0.000=4;
#COMBOS:0.000=1;
#SPEEDS:0.000=0.500=0.000=0,
20.000=1.000=12.000=0,
100.500=0.250=0.500=0,
117.000=0.500=8.000=0,
125.000=1.000=4.000=0,
213.000=0.500=0.500=0,
214.500=1.000=0.500=0;
#SCROLLS:0.000=1.000,
32.000=0.500,
34.500=0.000,
34.625=2.000,
34.750=1.000,
36.500=0.000,
36.625=2.000,
36.750=0.000,
36.875=2.000,
37.000=1.000,
52.500=0.000,
52.750=2.000,
53.000=1.000,
84.500=0.000,
84.750=2.000,
85.000=1.000,
101.000=0.000,
101.125=2.000,
101.250=0.000,
101.375=2.000,
101.500=0.000,
101.625=2.000,
101.750=0.000,
101.875=2.000,
102.000=0.000,
102.125=2.000,
102.250=0.000,
102.375=2.000,
102.500=0.000,
102.625=2.000,
102.750=0.000,
102.875=2.000,
103.000=0.000,
103.125=2.000,
103.250=0.000,
103.375=2.000,
103.500=0.000,
103.625=2.000,
103.750=0.000,
103.875=2.000,
104.000=0.000,
104.125=2.000,
104.250=0.000,
104.375=2.000,
104.500=0.000,
104.625=2.000,
104.750=0.000,
104.875=2.000,
105.000=0.000,
105.125=2.000,
105.250=0.000,
105.375=2.000,
105.500=0.000,
105.625=2.000,
105.750=0.000,
105.875=2.000,
106.000=0.000,
106.125=2.000,
106.250=0.000,
106.375=2.000,
106.500=0.000,
106.625=2.000,
106.750=0.000,
106.875=2.000,
107.000=0.000,
107.125=2.000,
107.250=0.000,
107.375=2.000,
107.500=0.000,
107.625=2.000,
107.750=0.000,
107.875=2.000,
108.000=0.000,
108.125=2.000,
108.250=0.000,
108.375=2.000,
108.500=0.000,
108.625=2.000,
108.750=0.000,
108.875=2.000,
109.000=0.000,
109.125=2.000,
109.250=0.000,
109.375=2.000,
109.500=0.000,
109.625=2.000,
109.750=0.000,
109.875=2.000,
110.000=0.000,
110.125=2.000,
110.250=0.000,
110.375=2.000,
110.500=0.000,
110.625=2.000,
110.750=0.000,
110.875=2.000,
111.000=0.000,
111.125=2.000,
111.250=0.000,
111.375=2.000,
111.500=0.000,
111.625=2.000,
111.750=0.000,
111.875=2.000,
112.000=0.000,
112.125=2.000,
112.250=0.000,
112.375=2.000,
112.500=0.000,
112.625=2.000,
112.750=0.000,
112.875=2.000,
113.000=0.000,
113.125=2.000,
113.250=0.000,
113.375=2.000,
113.500=0.000,
113.625=2.000,
113.750=0.000,
113.875=2.000,
114.000=0.000,
114.125=2.000,
114.250=0.000,
114.375=2.000,
114.500=0.000,
114.625=2.000,
114.750=0.000,
114.875=2.000,
115.000=0.000,
115.125=2.000,
115.250=0.000,
115.375=2.000,
115.500=0.000,
115.625=2.000,
115.750=0.000,
115.875=2.000,
116.000=0.000,
116.125=2.000,
116.250=0.000,
116.375=2.000,
116.500=0.000,
116.625=2.000,
116.750=0.000,
116.875=2.000,
117.000=0.000,
117.125=2.000,
117.250=0.000,
117.375=2.000,
117.500=0.000,
117.625=2.000,
117.750=0.000,
117.875=2.000,
118.000=0.000,
118.125=2.000,
118.250=0.000,
118.375=2.000,
118.500=0.000,
118.625=2.000,
118.750=0.000,
118.875=2.000,
119.000=0.000,
119.125=2.000,
119.250=0.000,
119.375=2.000,
119.500=0.000,
119.625=2.000,
119.750=0.000,
119.875=2.000,
120.000=0.000,
120.125=2.000,
120.250=0.000,
120.375=2.000,
120.500=0.000,
120.625=2.000,
120.750=0.000,
120.875=2.000,
121.000=0.000,
121.125=2.000,
121.250=0.000,
121.375=2.000,
121.500=0.000,
121.625=2.000,
121.750=0.000,
121.875=2.000,
122.000=0.000,
122.125=2.000,
122.250=0.000,
122.375=2.000,
122.500=0.000,
122.625=2.000,
122.750=0.000,
122.875=2.000,
123.000=0.000,
123.125=2.000,
123.250=0.000,
123.375=2.000,
123.500=0.000,
123.625=2.000,
123.750=0.000,
123.875=2.000,
124.000=0.000,
124.125=2.000,
124.250=0.000,
124.375=2.000,
124.500=0.000,
124.625=2.000,
124.750=0.000,
124.875=2.000,
125.000=0.000,
125.125=2.000,
125.250=0.000,
125.375=2.000,
125.500=0.000,
125.625=2.000,
125.750=0.000,
125.875=2.000,
126.000=0.000,
126.125=2.000,
126.250=0.000,
126.375=2.000,
126.500=0.000,
126.625=2.000,
126.750=0.000,
126.875=2.000,
127.000=0.000,
127.125=2.000,
127.250=0.000,
127.375=2.000,
127.500=0.000,
127.625=2.000,
127.750=0.000,
127.875=2.000,
128.000=0.000,
128.125=2.000,
128.250=0.000,
128.375=2.000,
128.500=0.000,
128.625=2.000,
128.750=0.000,
128.875=2.000,
129.000=0.000,
130.125=2.000,
130.250=0.000,
130.375=2.000,
130.500=0.000,
130.625=2.000,
130.750=0.000,
130.875=2.000,
131.000=0.000,
131.188=2.333,
131.250=0.000,
131.312=2.333,
131.375=0.000,
131.438=2.333,
131.500=0.000,
131.688=2.333,
131.750=0.000,
131.812=2.333,
131.875=0.000,
131.938=2.333,
132.000=0.000,
132.188=2.333,
132.250=0.000,
132.312=2.333,
132.375=0.000,
132.438=2.333,
132.500=1.000,
212.500=0.000,
212.750=2.000,
213.000=1.000,
213.250=0.000,
213.375=2.000,
213.500=0.000,
213.625=2.000,
213.750=0.000,
213.875=2.000,
214.000=0.000,
214.125=2.000,
214.250=0.000,
214.375=2.000,
214.500=1.000;
#FAKES:;
#LABELS:0.000=Song Start;
#BGCHANGES:;
#KEYSOUNDS:;
#ATTACKS:
;

//---------------dance-single - XO DS JA XMOD BU JU Mines- Rolls----------------
#NOTEDATA:;
#CHARTNAME:;
#STEPSTYPE:dance-single;
#DESCRIPTION:XO DS JA XMOD BU JU Mines- Rolls;
#CHARTSTYLE:;
#DIFFICULTY:Challenge;
#METER:16;
#RADARVALUES:0.641281,0.812216,0.145510,0.582038,1.058582,617.000000,597.000000,20.000000,80.000000,25.000000,0.000000,15.000000,0.000000,5.000000,0.641281,0.812216,0.145510,0.582038,1.058582,617.000000,597.000000,20.000000,80.000000,25.000000,0.000000,15.000000,0.000000,5.000000;
#CREDIT:Karl with a K as Very Laggy;
#NOTES:
0000
0000
0000
0000
,
0000
0000
0000
0000
,
0000
0000
0000
0000
,
0000
0000
0000
0000
,
0000
0000
0000
0000
,
1000
0000
1000
0000
0100
0000
0010
0100
0000
0100
0000
0010
0001
1000
0001
1000
,
0001
0000
0000
0000
0000
0000
1000
0000
0000
0000
0000
0000
0010
0000
0000
0000
0000
0000
0010
0000
0000
0100
0000
0000
0010
0000
0100
0000
0010
0000
0100
0000
0010
0000
0100
0000
0001
0000
0000
0010
0000
0000
0100
0000
0000
1000
0000
0000
,
0001
0000
0001
0000
1000
0000
1000
0000
0010
0000
0010
0000
1000
0000
1000
0000
0100
0010
0100
0010
0001
0010
0001
0010
0001
0100
0010
1000
0001
1000
0100
0010
,
M004
0000
M000
0000
M000
0000
M000
0000
0000
0000
M000
0010
0000
0010
0003
0010
,
0001
1000
0100
0000
1000
0000
1000
0000
0001
0000
0100
0000
0010
0000
1000
0000
0001
0000
0010
0000
0100
0000
0001
0000
0000
0000
0001
0000
0100
0000
0000
0000
,
1000
0000
0000
0002
0000
0103
0010
1000
0001
0000
0010
0200
0000
0000
0010
0000
,
0310
0001
0010
0001
1000
0100
1000
0100
1000
0000
0100
0000
0010
0000
0001
0000
1000
0000
0010
0000
0100
0000
1000
0000
0000
0000
1000
0000
0100
0000
0000
0000
,
0001
0000
0000
2000
0000
3020
0031
0000
1000
0000
0100
0002
0000
0103
0010
0000
,
1000
0000
0100
0010
0100
0000
0000
0000
1000
0000
0010
0000
0100
0000
0001
0000
1000
0000
0100
0000
0010
0000
1000
0000
0000
0000
1000
0000
0010
0000
0000
0000
,
0001
0000
0000
2000
0000
3010
0100
0001
1000
0000
0100
0020
0000
0000
0100
0000
,
0130
1000
0100
1000
0001
0010
0001
0010
0001
0000
0010
0000
0100
0000
1000
0000
0001
0000
0100
0000
0010
0000
0001
0000
0000
0000
0001
0000
0010
0000
0000
0000
,
1000
0000
0000
0020
0000
0000
0001
0000
0100
0000
1030
0000
1000
0100
0010
0002
,
0000
0000
0003
0000
101M
0010
0100
0010
1000
0000
0001
2000
0000
3100
1000
0010
,
0100
0220
0330
1010
0000
0001
0010
0100
0010
0001
0100
0002
0000
1003
0100
0010
,
0100
0220
0330
0011
0000
1000
0100
0010
0010
0100
1000
0001
0100
0010
0010
0100
,
0002
0000
0010
0000
1003
0010
0000
0100
0001
0100
0010
1000
0002
0023
1030
0000
,
0110
0000
0001
1000
0001
0000
0000
0000
1M1M
0000
0010
0000
0100
0000
2000
0000
0000
0000
3200
0000
0000
0000
0301
0000
0010
0000
0100
0000
0010
0000
2000
0000
,
0000
3020
0000
0032
0000
1003
0100
1000
0001
0100
0002
0000
1003
0100
0010
0000
,
0110
0000
0100
0000
0000
0100
0000
0000
1000
0000
0000
0000
1010
0000
0000
0000
0001
0000
0010
0000
0100
0000
0001
0000
0000
0000
0100
0010
0001
0000
0000
0001
,
0200
0000
0310
0000
1000
0000
1100
0000
0001
0100
0010
0001
0000
0010
0100
0000
,
0002
0100
2003
0000
0000
0000
0000
0000
,
0000
3200
0000
0000
,
0000
0320
0100
0001
,
0100
0032
0000
0000
,
0000
0000
1003
0010
1000
0010
0100
0001
,
0100
0001
1000
0100
0010
0001
0100
0010
,
1000
0001
1000
1000
1000
1000
0001
0001
,
0001
0000
0001
0000
MMMM
0000
0000
0000
0000
0000
0000
0000
0004
0003
4000
3000
,
0004
0003
1000
2020
3030
0040
0001
0000
0100
0000
1030
0002
0000
1003
0100
0400
,
1000
0000
0310
0022
0033
0040
1000
0000
0100
0000
0031
4000
0000
3001
0100
0010
,
0001
0010
4000
0000
3010
00M2
0000
0013
20M0
0000
3010
00M2
0000
1003
0100
0010
,
0001
0010
0200
0000
0310
20M0
0000
3010
00M2
1003
0010
M1M2
0000
0010
0010
0010
,
1003
0000
0001
0100
0001
0000
M2M2
0000
0303
0000
0400
0000
1000
0000
0000
0000
0010
0000
0000
0000
0301
0000
2000
0000
0000
0000
3001
0000
1000
0000
0040
0000
,
0100
0000
1030
2200
3300
0400
0001
0000
0010
0000
1300
0004
0000
1003
0010
0001
,
0010
0000
0100
0000
0001
1000
0001
0000
0100
0000
2M00
0000
0000
0000
3100
0000
0M02
0000
0000
0000
0103
0000
2M00
0000
0000
0000
3001
0000
0100
0000
0010
0000
,
1000
0010
2000
0000
3100
0M02
0000
0103
2M00
3001
0100
0020
2030
0100
0100
0100
,
3001
0000
1000
0010
1000
0000
4000
0000
0001
0000
0000
0000
0001
0000
0000
0000
0001
0000
0000
0000
0100
0000
0000
0000
3001
0000
0100
0000
0001
0000
0020
0000
,
0000
0031
0010
0100
1000
0100
0010
1000
0010
0010
0001
0002
0000
0103
0010
0001
,
0000
0010
0000
1000
1001
0000
1000
0004
1000
0000
0010
0000
1003
0100
1000
0020
,
0000
0031
0010
1000
0100
0000
0010
0001
0000
0100
0000
0010
0000
1000
0100
0002
,
0000
0000
0103
0010
0100
0000
0000
0000
1001
0000
0000
0000
1000
0000
0004
0000
1000
0000
0000
0000
0100
0000
0000
0000
1003
0000
0100
0000
1000
0000
0020
0000
,
0000
0000
1030
0000
0010
0000
0100
0000
0001
0000
0100
0000
0020
0000
0000
0032
0000
0000
0023
0000
2030
0000
0000
0000
3100
0000
0020
0000
MM0M
0000
0000
0000
,
0000
0032
0000
0003
1001
0000
0001
1000
2001
0000
3100
1000
1200
0310
0001
0020
,
0000
0000
0130
0010
0100
0000
0010
0000
1000
0000
1000
0000
0001
0000
0001
0000
0100
0000
0100
0000
1000
0000
1000
0000
0010
1000
0100
1000
0010
0100
0010
1000
,
0002
0000
0000
0000
1003
0100
0010
0001
1000
0010
0100
1000
0000
1000
0100
0000
,
0001
0000
0000
2000
0000
3100
0010
0001
1000
0000
0010
0200
0000
0000
0010
0000
,
0310
1000
0010
1000
0001
0100
0001
0100
0001
0000
0100
0000
0010
0000
1000
0000
0001
0000
0010
0000
0100
0000
0001
0000
0000
0000
0001
0000
0100
0000
0000
0000
,
1000
0000
0000
0002
0000
0023
1030
0000
0001
0000
0100
2000
0000
3100
0010
0000
,
0001
0000
0100
0010
0100
0000
0000
0000
0001
0000
0010
0000
0100
0000
1000
0000
0001
0000
0100
0000
0010
0100
0001
0100
0001
0000
0010
0000
0001
0000
0000
0000
,
1000
0000
0001
0002
0000
0013
0100
1000
0001
0000
0100
0020
1000
0000
1000
0000
,
0130
0000
0001
0100
0001
0000
0001
0000
1000
0000
0010
0000
0100
0000
0001
0000
1000
0000
0100
0000
0010
0000
1000
0000
0001
0000
1000
0000
0010
0000
0000
0000
,
0001
0000
0000
0000
0010
0000
0002
0000
1003
0000
0100
1000
0100
0000
0010
0000
0100
0000
0010
0000
0001
0000
0010
0000
0001
0000
0100
0010
0100
0000
2000
0000
,
0200
3300
0000
0000
;

//---------------dance-single - XO DS JA XMOD BU- JU- Mines-----------------
#NOTEDATA:;
#CHARTNAME:;
#STEPSTYPE:dance-single;
#DESCRIPTION:XO DS JA XMOD BU- JU- Mines-;
#CHARTSTYLE:;
#DIFFICULTY:Hard;
#METER:14;
#RADARVALUES:0.516559,0.624782,0.043653,0.523834,0.847593,497.000000,491.000000,6.000000,72.000000,32.000000,0.000000,0.000000,0.000000,11.000000,0.516559,0.624782,0.043653,0.523834,0.847593,497.000000,491.000000,6.000000,72.000000,32.000000,0.000000,0.000000,0.000000,11.000000;
#CREDIT:Karl with a K;
#NOTES:
0000
0000
0000
0000
,
0000
0000
0000
0000
,
0000
0000
0000
0000
,
0000
0000
0000
0000
,
0000
0000
0000
0000
,
1000
0000
0010
0000
1000
0000
0010
0200
0000
0302
0000
0023
0000
0000
0000
0000
,
0031
0100
0010
1000
0100
0010
0002
0100
,
1003
0000
0000
0000
1000
0000
0000
0000
0010
0000
0000
0000
0010
0000
0000
0000
0100
0000
0001
0000
0010
0000
0100
0000
1000
0100
1000
0000
0001
0100
0001
0000
,
M000
0000
M000
0000
0000
0000
M000
0000
0000
0000
M000
M000
0000
M000
0000
M000
,
M000
M000
M000
M000
0001
0010
0100
1000
0001
0010
0000
0001
0000
0001
1000
0000
,
0100
0000
0000
0020
0000
0130
0001
0100
1000
0000
0010
0200
0000
0000
0010
0000
,
0301
1000
0001
1000
0001
0100
0010
1000
0001
0100
0000
0001
0000
0001
1000
0000
,
0010
0000
0000
0200
0000
0310
0001
0000
0010
0000
1000
0200
0000
0310
1000
0000
,
0010
0000
0100
1000
0100
0000
0000
0000
1000
0000
0010
0000
0100
0000
0001
0000
1000
0000
0010
0000
0000
0000
1000
0000
0000
0000
1000
0000
0001
0000
0000
0000
,
0100
0000
0000
0020
0000
0130
1000
0100
0001
0000
0010
0200
0000
0000
0010
0000
,
1300
0001
1000
0001
1000
0100
0010
0001
1000
0100
0000
1000
0000
1000
0001
0000
,
0100
0000
0000
0200
0000
0000
0001
0000
0320
0000
1000
0000
0031
0010
1000
0200
,
0000
0000
0000
0000
1300
0100
0010
0000
0001
0000
0001
0100
0000
0010
1000
0100
,
0010
0200
0000
0001
0000
1300
0010
0100
0001
1000
0000
1000
0000
0010
1000
0100
,
0010
0002
0000
1003
0000
0001
0100
0010
0100
0001
0010
0100
0010
1000
0010
0100
,
2000
0000
0010
0000
3001
0010
0000
0010
0001
0100
0010
0100
2000
3200
0320
0000
,
1030
0001
0001
0000
1000
0100
0010
0001
0000
1001
0000
1000
0001
0100
0010
1000
,
0000
1001
0000
0002
0000
0013
0010
0100
0100
1000
0001
0000
1000
0010
0100
0000
,
0010
0000
0100
0000
0000
0001
0000
0000
2000
0000
0000
0000
0100
0000
0000
0000
3001
0000
0010
0000
0100
0000
0010
0000
0000
0000
0001
0000
0001
0000
0000
0100
,
0020
0000
0030
0000
2000
0000
0010
0000
3001
0100
0010
0100
0000
0001
0010
0000
,
0020
0030
0002
0000
0000
0000
0000
0000
,
0000
0203
0000
0000
,
0000
0320
0000
1000
,
0000
2030
0000
0000
,
0000
0000
3001
0010
0001
0000
1000
0010
,
1000
0000
0001
0100
0001
0000
1000
0100
,
1000
0000
0001
0010
0100
0010
0001
0010
,
0100
0010
MMMM
0000
0000
0000
MMMM
MMMM
,
MMMM
0000
1000
0020
0000
0031
0010
1000
0001
1000
0001
0020
0000
0031
0100
0200
,
0000
0000
0301
0020
0000
1030
0010
0001
1000
0001
1000
0020
0000
1030
0100
0010
,
0010
0001
0002
0000
0103
0020
0000
0130
0020
0000
0130
0020
0000
1030
0000
1000
,
0010
0100
0001
0000
0010
0200
0000
0310
0200
0000
0310
0200
0000
1300
0000
1000
,
0001
0000
1000
0100
1000
0000
0200
0000
0000
0000
0301
0000
0100
0000
1000
0000
0001
0000
1000
0000
0001
0000
0200
0000
0000
0000
0301
0000
0010
0000
0020
0000
,
0000
0000
0031
0200
0000
1300
0100
0001
1000
0001
1000
0200
0000
0310
0010
0010
,
0010
0001
0002
1000
0013
0200
0000
0310
0200
0000
0310
0200
0000
1300
0000
0100
,
0010
0001
0100
0000
0100
0020
0000
0130
0020
0000
0130
0020
0000
1030
0000
1000
,
0001
0000
1000
0010
1000
0000
0002
0000
1000
0000
0000
0000
1000
0000
0000
0000
1000
0000
0000
0000
0100
0000
0000
0000
1003
0000
0100
0000
0000
0000
0020
0000
,
0000
0000
0000
0000
0031
0010
0100
0010
0001
0001
0000
2000
0000
3001
0100
0020
,
0000
1000
1000
2030
0001
0000
0001
0000
0001
0000
0100
0000
3001
0100
0000
0020
,
0000
0000
0031
0010
1000
0000
0010
1000
0000
0001
0000
0010
0000
0100
0010
0002
,
0000
0000
0000
0000
0010
0000
0010
0000
0010
0000
0100
0000
1003
0100
0000
0002
,
0000
0000
0000
0000
0103
0010
0001
0000
0100
0010
1000
0000
MMMM
0000
MMMM
0000
,
MMMM
0000
MMMM
0000
1001
0000
0001
0000
0101
0000
0100
0000
0110
0000
0010
0001
,
0000
0000
0010
0000
1000
0000
0001
0000
1000
0000
0100
0000
0010
0000
0001
0000
0010
0000
0100
0000
1000
0000
0001
0000
1000
0010
1000
0000
0001
0010
0002
0000
,
0020
0000
0000
0030
1003
0100
0010
0001
1000
0100
0000
1000
0000
1000
0001
0000
,
0010
0000
0000
0200
0000
0310
1000
0010
0001
0000
0100
0020
0000
0000
0100
0000
,
1030
0001
1000
0001
1000
0010
0100
0001
1000
0010
0000
1000
0000
1000
0001
0000
,
0100
0000
0000
0020
0000
0130
1000
0000
0100
0000
0001
0020
0000
0130
0001
0000
,
0100
0000
0010
0001
0010
0000
0000
0000
1001
0000
0000
0000
0000
0000
0000
0000
0000
0000
0000
0000
1000
0001
1000
0001
1000
0000
0001
0000
1000
0000
0000
0000
,
0010
0000
0000
0200
0000
0310
0001
0010
1000
0000
0100
0020
0000
0000
0100
0000
,
0031
1000
1000
0001
0001
0010
0100
1000
0001
0010
0000
0001
0000
0001
1000
0000
,
0010
0000
0000
0020
0000
0000
0001
0000
0230
0000
0010
0000
1300
0100
0001
0020
,
2000
3030
0000
0000
;

//---------------dance-single - ----------------
#NOTEDATA:;
#CHARTNAME:;
#STEPSTYPE:dance-single;
#DESCRIPTION:;
#CHARTSTYLE:;
#DIFFICULTY:Medium;
#METER:10;
#RADARVALUES:0.347144,0.416521,0.043653,0.349223,0.345585,334.000000,328.000000,6.000000,48.000000,0.000000,0.000000,0.000000,0.000000,2.000000,0.347144,0.416521,0.043653,0.349223,0.345585,334.000000,328.000000,6.000000,48.000000,0.000000,0.000000,0.000000,0.000000,2.000000;
#CREDIT:Karl with a K;
#NOTES:
0000
0000
0000
0000
,
0000
0000
0000
0000
,
0000
0000
0000
0000
,
0000
0000
0000
0000
,
0000
0000
0000
0000
,
1000
1000
1000
0000
0001
0001
0001
0000
,
1000
0100
0010
0000
0001
0100
0010
0000
,
1000
0000
1000
0000
0001
0000
0001
0000
0100
0000
0010
0000
1000
0100
0010
0001
,
0000
0000
0000
0000
,
0000
0000
0000
0000
1000
0000
1000
0000
0001
0010
0000
0001
0000
1000
0001
0000
,
0100
0000
0000
0002
0000
0000
1003
0000
1000
0000
0010
0200
0000
0000
0000
0000
,
0301
0000
1000
0000
0001
0000
0001
0000
1000
0010
0000
1000
0000
0001
1000
0000
,
0100
0000
0000
2000
0000
0000
0010
0000
3001
0000
0000
0002
0000
0000
0100
0000
,
1003
0010
1000
0000
0001
0000
0001
0000
1000
0100
0000
1000
0000
0001
1000
0000
,
0010
0000
0000
2000
0000
0000
3001
0000
0001
0000
0100
0020
0000
0000
0000
0000
,
1030
0000
0001
0000
1000
0000
1000
0000
0001
0100
0000
0001
0000
1000
0001
0000
,
0010
0000
0000
0002
0000
0000
0010
0000
1003
0000
2000
0000
0100
0000
3001
0200
,
0000
0000
0000
0000
0301
0000
0001
0000
0001
0000
0100
0010
0000
0000
1000
0000
,
1000
0200
0000
0310
0000
0001
0000
0000
1000
0000
0010
1000
0000
0000
0001
0000
,
0001
0200
0000
0310
0000
0000
1000
0000
0100
0000
0010
0000
0001
0000
0100
0000
,
0020
0000
1030
0010
0100
0001
0010
0010
,
0020
0000
0030
0000
0001
0000
0000
0001
0000
0100
0000
0010
1000
0000
0000
1000
,
0000
0100
0000
0010
0000
0000
0010
0000
0001
0000
1000
0000
0001
0000
1000
0000
,
1001
0000
0000
0000
0110
0000
0000
0000
1000
0000
0100
1000
0000
0000
0001
0000
,
0001
0000
0000
0000
0110
0000
0000
0000
0001
0000
0100
0001
0000
0000
1000
0000
,
1001
2000
0000
0000
,
0000
3200
0000
0000
,
0000
0320
0000
0000
,
0000
0032
0000
0000
,
0000
1003
1000
0001
,
0001
0100
0100
0010
,
0010
0000
1000
0001
1000
0001
0100
0010
,
1000
0100
0000
0000
0000
0000
0000
0000
,
0000
0000
0000
2000
0000
3100
0010
0000
0100
1000
0000
0002
0000
0103
0010
2000
,
0000
0000
3000
0002
0000
0103
0010
0000
0100
0001
0000
2000
0000
3100
0010
0002
,
0000
0000
0000
0000
1003
0000
0000
1000
0000
0000
1000
0000
0000
0100
0000
0000
,
0010
0000
0000
0000
0001
0000
0000
0001
0000
0000
0001
0000
0000
0100
0000
0000
,
0010
1000
0000
0002
0000
0013
0100
0000
0010
0001
0000
2000
0000
3010
0100
0002
,
0000
0000
0003
2000
0000
3010
0100
0000
0010
1000
0000
0002
0000
0013
0100
2000
,
0000
0000
0000
0000
3001
0000
0000
0001
0000
0000
0001
0000
0000
0010
0000
0000
,
0100
0000
0000
0000
1000
0000
0000
1000
0000
0000
1000
0000
0000
0010
0000
0000
,
0100
0000
0002
0100
1003
0000
2000
0100
,
3001
0000
1000
0100
0010
0001
0000
0100
,
0010
0010
2000
0100
3001
0000
0002
0100
,
2003
0000
0010
0000
3001
0000
0100
0000
0010
0000
1000
0100
0000
0000
0010
0000
,
0001
0010
0010
0000
0002
0000
0010
0000
1003
0000
0000
0000
2000
0000
0010
0000
,
3001
0000
1000
0010
0100
0001
0020
0000
,
0000
0130
2000
0010
3001
0000
0002
0010
,
2003
0000
0100
0000
3001
0000
0010
0000
0100
0000
1000
0010
0000
0110
0000
1001
,
0000
0000
0000
0000
0001
0000
0001
0000
1000
0100
0000
1000
0000
0001
1000
0000
,
0010
0000
0000
2000
0000
0000
3001
0000
0001
0000
0100
0020
0000
0000
0000
0000
,
1030
0000
0001
0000
1000
0000
1000
0000
0001
0100
0000
0001
0000
1000
0001
0000
,
0010
0000
0000
0002
0000
0000
0100
0000
1003
0000
0000
2000
0000
0000
0010
0000
,
3001
0100
0001
0000
1000
0000
0000
0000
0000
0000
0000
0000
1000
0000
0001
0000
,
0100
0000
0000
0002
0000
0000
1003
0000
1000
0000
0010
0200
0000
0000
0010
0000
,
0301
0000
1000
0000
0001
0000
0001
0000
1000
0010
0000
1000
0000
0001
1000
0000
,
0100
0000
0000
2000
0000
0000
3100
0000
0001
0000
0100
0000
1000
0010
0100
2000
,
0000
3000
0000
0000
;

//---------------dance-single - ----------------
#NOTEDATA:;
#CHARTNAME:;
#STEPSTYPE:dance-single;
#DESCRIPTION:;
#CHARTSTYLE:;
#DIFFICULTY:Easy;
#METER:6;
#RADARVALUES:0.186044,0.312391,0.101857,0.145510,0.003638,179.000000,165.000000,14.000000,20.000000,0.000000,0.000000,0.000000,0.000000,12.000000,0.186044,0.312391,0.101857,0.145510,0.003638,179.000000,165.000000,14.000000,20.000000,0.000000,0.000000,0.000000,0.000000,12.000000;
#CREDIT:Karl with a K;
#NOTES:
0000
0000
0000
0000
,
0000
0000
0000
0000
,
0000
0000
0000
0000
,
0000
0000
0000
0000
,
0000
0000
0000
0000
,
1000
0100
0010
0010
,
0001
0100
0010
0010
,
1000
0010
1000
0000
0001
0010
0001
0000
,
0000
0000
0000
0000
,
0000
0000
1000
0000
0000
0100
0000
0000
,
0010
0000
0001
0000
0000
0200
0000
0000
,
0010
0000
0301
0000
0000
0100
0000
0000
,
0010
0000
1000
0000
0000
0100
0000
0000
,
0010
0000
0001
0000
0000
0010
0000
0000
,
0100
0000
1000
0000
0000
0020
0000
0000
,
0100
0000
1030
0000
0000
0010
0000
0000
,
0100
0001
0010
0100
,
0110
0000
1001
0000
0000
1000
0000
0000
,
0010
0000
0100
0000
0000
0001
0000
0000
,
1000
1000
0010
0100
,
0001
1000
0100
0010
,
0002
0003
1000
0000
1000
0000
0001
0000
,
0001
0100
0100
0010
,
0010
1000
1000
0100
,
0100
0010
0010
0001
,
0001
2000
0000
0000
,
0000
0000
0000
0000
,
0000
3200
0000
0000
,
0000
0320
0000
0000
,
0000
0032
0000
0000
,
0000
0000
0000
0000
,
0000
0203
0000
0320
,
0000
0030
0000
0000
,
0000
0000
1001
0000
0010
0100
0000
0100
,
0010
0000
1001
0000
0100
0010
0000
0010
,
0100
0000
1001
0000
0000
1001
0000
0000
,
1001
0000
0110
0000
0000
0110
0000
0000
,
0110
0000
1001
0000
1000
0001
0000
0001
,
1000
0000
0110
0000
0001
1000
0000
1000
,
0001
0000
0110
0000
0000
0110
0000
0000
,
0110
0000
1001
0000
0000
1001
0000
0000
,
1001
1000
1000
1000
,
0020
0230
0000
0320
,
2030
3001
0001
0001
,
0020
0230
0000
0320
,
0032
1003
0100
0010
,
0001
1000
0010
0020
,
0000
1030
0010
0100
,
0001
1000
0001
0100
0001
0000
1000
0100
,
2000
0000
3001
0000
0000
0010
0000
0000
,
0100
0000
1000
0000
0000
0020
0000
0000
,
0100
0000
1030
0000
0000
0010
0000
0000
,
0100
0000
0001
0000
0000
0010
0000
0000
,
0100
0000
1000
0000
0000
0100
0010
0000
,
0001
0100
0010
1000
,
0100
0010
0001
1000
0001
0000
1000
0001
,
1000
0000
0000
0000
0001
0000
0010
0000
0100
0000
1000
0000
0010
0000
0000
0220
,
0000
0330
0000
0000
;

//---------------dance-single - ----------------
#NOTEDATA:;
#CHARTNAME:;
#STEPSTYPE:dance-single;
#DESCRIPTION:;
#CHARTSTYLE:;
#DIFFICULTY:Beginner;
#METER:2;
#RADARVALUES:0.044692,0.103676,0.000000,0.000000,0.000000,43.000000,43.000000,0.000000,0.000000,0.000000,0.000000,0.000000,0.000000,5.000000,0.044692,0.103676,0.000000,0.000000,0.000000,43.000000,43.000000,0.000000,0.000000,0.000000,0.000000,0.000000,0.000000,5.000000;
#CREDIT:Karl with a K;
#NOTES:
0000
0000
0000
0000
,
0000
0000
0000
0000
,
0000
0000
0000
0000
,
0000
0000
0000
0000
,
0000
0000
0000
0000
,
1000
0000
0000
0000
,
0000
0000
0000
0000
,
0001
0000
0000
0000
,
0000
0000
0000
0000
,
0000
1000
0000
0000
,
0000
1000
0000
0000
,
0000
0001
0000
0000
,
0000
0001
0000
0000
,
0000
1000
0000
0000
,
0000
1000
0000
0000
,
0000
0001
0000
0000
,
0000
0010
0000
0100
,
0000
1000
0000
0000
,
0000
0000
0000
0000
,
0000
0001
0000
0000
,
0000
0000
0000
0000
,
0000
0100
0000
0000
,
0000
0000
0000
0000
,
0000
0010
0000
0000
,
0000
0000
0000
0000
,
0000
0000
0000
0000
,
0000
0000
0000
0000
,
0000
0000
0000
0000
,
0000
0000
0000
0000
,
0000
1000
0000
0000
,
0000
0000
0000
0000
,
0000
0001
0000
0000
,
0000
0000
0000
0000
,
0000
1000
0000
0000
,
0000
0001
0000
0000
,
0000
0010
0000
0000
,
0000
0100
0000
0000
,
0000
1000
0000
0000
,
0000
0001
0000
0000
,
0000
0100
0000
0000
,
0000
0010
0000
0000
,
0000
1000
0000
1000
,
0000
1000
0000
0000
,
0000
0001
0000
0001
,
0000
0001
0000
0000
,
1000
0000
0001
0000
,
1000
0000
0000
0000
,
0000
0001
0000
1000
,
0000
0001
0000
0000
,
0000
1000
0000
0000
,
0000
1000
0000
0000
,
0000
0001
0000
0000
,
0000
0001
0000
0000
,
0000
1000
0000
0000
,
0000
0001
0000
0000
,
0000
1000
0000
0001
,
0000
0100
0000
0010
,
0010
0000
0000
0000
;

//---------------dance-double - ----------------
#NOTEDATA:;
#CHARTNAME:;
#STEPSTYPE:dance-double;
#DESCRIPTION:;
#CHARTSTYLE:;
#DIFFICULTY:Challenge;
#METER:15;
#RADARVALUES:0.584117,0.749738,0.101857,0.487457,0.942174,562.000000,548.000000,14.000000,67.000000,28.000000,0.000000,0.000000,0.000000,18.000000,0.584117,0.749738,0.101857,0.487457,0.942174,562.000000,548.000000,14.000000,67.000000,28.000000,0.000000,0.000000,0.000000,18.000000;
#CREDIT:Karl with a K;
#NOTES:
00000000
00000000
00000000
00000000
,
00000000
00000000
00000000
00000000
,
00000000
00000000
00000000
00000000
,
00000000
00000000
00000000
00000000
,
00000000
00000000
00000000
00000000
,
10000000
00000000
01000000
00000000
00100000
00000000
00001000
00010000
00000000
00001000
00000000
00000010
00000000
00000001
00001000
00000001
,
00001000
00000000
00000000
00000000
00000000
00000000
00000001
00000000
00000000
00000000
00000000
00000000
00000100
00000000
00000000
00000000
00000000
00000000
00001000
00000000
00000000
00010000
00000000
00000000
01000000
00000000
00100000
00000000
01000000
00000000
00100000
00000000
01000000
00000000
00100000
00000000
00010000
00000000
00000000
00100000
00000000
00000000
01000000
00000000
00000000
10000000
00000000
00000000
,
00100000
00000000
00100000
00000000
01000000
00000000
01000000
00000000
00010000
00000000
00010000
00000000
00100000
00000000
00100000
00000000
01000000
00100000
01000000
00000000
00010000
00001000
00010000
00000000
00001000
00010000
00001000
00000000
00000100
00000010
00000100
00000010
,
MMMM4000
00000000
MMMM0000
00000000
MMMM0000
00000000
MMMM0000
00000000
00000000
00000000
MMMM0000
00003100
00000000
00001000
00000000
00010000
,
01000000
00100000
01000000
00000000
00100000
00000000
00100000
00000000
10000000
00000000
01000000
00000000
00100000
00000000
00001000
00000000
00010000
00000000
00000010
00000000
00000100
00000000
00001000
00000000
00000000
00000000
00001000
00000000
00000100
00000000
00000000
00000000
,
00000001
00000000
00000000
00000020
00000000
00001030
00010000
00000010
00001000
00000000
00000010
00000200
00000000
00000000
00000010
00000000
,
00000310
00010000
00001000
00000010
00000001
00000100
00000010
00010000
00001000
00100000
01000000
00010000
00000000
00010000
01000000
00000000
,
10000000
00000000
00000000
00200000
00000000
01300000
00010000
00000000
00100000
00000000
01000000
00020000
00000000
00031000
00000100
00000000
,
00000010
00000000
00000100
00000010
00000100
00000000
00000000
00000000
00000001
00000000
00000010
00000000
00000100
00000000
00010000
00000000
00001000
00000000
01000000
00000000
00100000
00000000
00010000
00000000
00000000
00000000
00010000
00000000
00100000
00000000
00000000
00000000
,
10000000
00000000
00000000
02000000
00000000
03010000
00001000
01000000
00010000
00000000
01000000
00200000
00000000
00000000
01000000
00000000
,
01300000
00001000
00010000
01000000
10000000
00100000
01000000
00001000
00010000
00000100
00000010
00001000
00000000
00001000
00000010
00000000
,
00000001
00000000
00000000
00000020
00000000
00000000
00001030
00000000
00010000
00000000
00100000
00000000
00010000
00001000
01000000
00200000
,
00000000
00000000
00000000
00000000
10300000
01000000
00100000
00001000
00010000
00000000
00001000
00010000
00000000
00010000
00000100
00000010
,
00000001
00001000
00000000
00001001
00000000
00000001
00000100
00000010
00010000
00001000
00010000
00001000
00000000
00001000
01000000
00100000
,
10000000
00010000
00000000
10010000
00000000
10000000
01000000
00100000
00010000
00100000
00001000
00010000
00000010
00000100
00000001
00000010
,
00000200
00000000
00001000
00000000
00001300
00000001
00000000
00000100
00000010
00010000
00001000
00010000
01000000
00100000
00020000
00000000
,
00031000
00010000
10000000
00000000
00010000
00100000
01000000
00020000
00000000
00031000
00000000
00001000
00010000
00000010
00000100
00002000
,
00000000
00013000
00000000
00000200
00000000
00000310
00000001
00000100
00000010
00010000
00001000
00000000
00010000
01000000
10000000
00000000
,
00100000
00000000
01000000
00000000
00000000
01000000
00000000
00000000
00010000
00000000
00000000
00000000
01010000
00000000
00000000
00000000
00010000
00000000
10000000
00000000
01000000
00000000
00100000
00000000
00000000
00000000
01000000
00100000
01000000
00000000
00000000
00010000
,
00002000
00000000
00000000
00000000
00013000
00000000
00011000
00000000
00001000
00010000
00000010
00000200
00000000
00000301
00000010
00000000
,
00000110
00000002
00000000
00000000
,
00000000
00000203
00000000
00000000
,
00000000
00000320
00010000
00001000
,
00010000
00002030
00000000
00000000
,
00000000
00000000
00003100
00000010
00000100
00000010
00000001
00000100
,
00000001
00000100
00000010
00010000
00000010
00010000
00001000
00100000
,
00001000
00100000
00010000
00010000
00010000
00010000
00010000
00010000
,
00010000
00010000
MMMMMMMM
00000000
00000000
00000000
0000MMMM
0000MMMM
,
0000MMMM
00000000
0000MMMM
20100000
00000000
31000000
00100000
00020000
00001000
00031000
00000100
00000020
00000000
00000031
00000100
00000002
,
00000000
00000000
00000003
00000012
00000000
00000103
00000010
00002000
00010000
00013000
01000000
00200000
10000000
10300000
01000000
00100000
,
00010000
00010000
10000000
00000000
00100000
02000000
00000000
03010000
02000000
00000000
03001000
02000000
00000000
03010000
00000000
00001000
,
00000010
00000100
00000001
00000000
00000010
00000200
00000000
00001300
00000200
00000000
00010300
00000200
00000000
00002300
00000000
00013000
,
00100000
00000000
01000000
00100000
01000000
00000000
20000000
00000000
00000000
00000000
30100000
00000000
01000000
00000000
00020000
00000000
00001000
00000000
00031000
00000000
00000010
00000000
00000200
00000000
00000000
00000000
00000301
00000000
00000010
00000000
00000002
00000000
,
00000000
00000000
00000003
00000102
00000000
00000013
00000100
00002000
00010000
00013000
00100000
02000000
00000000
13000000
00100000
01000000
,
00010000
00010000
10000000
00000000
01000000
00200000
00000000
00310000
00200000
00000000
00301000
00200000
00000000
00310000
00000000
00001000
,
00000100
00000010
00000001
00000000
00000100
00000020
00000000
00001030
00000020
00000000
00010030
00000020
00000000
00002030
00000000
00013000
,
00100000
00000000
01000000
00100000
01000000
00000000
00000000
00000000
10010000
00000000
00000000
00000000
00010000
00000000
00000000
00000000
00010000
00000000
00000000
00000000
01000000
00000000
00000000
00000000
00010000
00000000
01000000
00000000
00010000
00000000
00002000
00000000
,
00000000
00000000
00023000
00000000
00130000
00100000
01000000
10000000
00010000
00100000
00001000
00020000
00000000
00030010
00000100
00000002
,
00000000
00000000
00001003
00000000
00001001
00000000
00001000
00000000
00001000
00000000
00000100
00000000
00001000
00000100
00001000
00020000
,
00000000
00000000
00130000
00010000
01000000
00000000
00010000
00001000
00000000
00000100
00000000
00010000
00000000
00001000
00100000
02000000
,
00000000
00000000
13000000
01000000
10000000
00000000
00000000
00000000
10010000
00000000
00000000
00000000
00010000
00000000
00000000
00000000
00010000
00000000
00000000
00000000
00100000
00000000
00000000
00000000
00010000
00000000
00100000
00000000
00010000
00000000
00002000
00000000
,
00000000
00000000
00023000
00000000
01030000
01000000
00100000
10000000
00010000
01000000
00002000
00000000
00013000
00000100
00000020
00000000
,
00000000
00000030
00001001
00001000
00001010
00000010
00010010
00010000
,
00001000
00000000
00010000
00001000
00010000
00000000
00001000
00000000
00100000
00000000
00010000
00000000
00100000
00000000
00010000
00000000
01000000
00000000
00100000
00000000
01000000
00000000
00100000
00000000
10000000
00100000
01000000
00000000
00001000
00010000
00001000
00000000
,
00000020
00000000
00000000
00000000
00000031
00000010
00000100
00010000
00001000
01000000
00100000
00010000
00000000
00010000
00100000
00000000
,
10000000
00000000
00000000
02000000
00000000
03010000
00001000
01000000
00010000
00000000
01000000
00200000
00000000
00000000
01000000
00000000
,
01300000
00001000
00010000
01000000
10000000
00100000
01000000
00001000
00010000
00000100
00000010
00001000
00000000
00001000
00000010
00000000
,
00000001
00000000
00000000
00000200
00000000
00000310
00001000
00000000
00000100
00000000
00000010
00002000
00000000
00013000
00100000
00000000
,
01000000
00000000
00100000
01000000
00100000
00000000
00000000
00000000
10000000
00000000
00000000
00000000
00000000
00000000
00000000
00000000
00000000
00000000
00000000
00000000
01000000
00100000
01000000
00100000
01000000
00000000
00010000
00000000
01000000
00000000
00000000
00000000
,
10000000
00000000
00100000
00200000
00000000
00310000
00001000
00100000
00010000
00000000
00100000
02000000
00000000
00000000
00100000
00000000
,
03100000
00001000
00010000
00100000
10000000
01000000
00100000
00001000
00010000
00000010
00000100
00001000
00000000
00001000
00000100
00000001
,
00001000
00000000
00000000
00000000
00000001
00000000
00000020
00000000
00000000
00000000
00001030
00000010
00001000
00000000
00010000
00000000
00001000
00000000
00010000
00000000
00100000
00000000
10000000
00000000
01000000
00000000
00100000
00001000
00100000
00000000
00002000
00000000
,
00020000
00033000
00000000
00000000
;

//---------------dance-double - ----------------
#NOTEDATA:;
#CHARTNAME:;
#STEPSTYPE:dance-double;
#DESCRIPTION:;
#CHARTSTYLE:;
#DIFFICULTY:Hard;
#METER:13;
#RADARVALUES:0.483300,0.562304,0.036377,0.371049,0.767563,465.000000,460.000000,5.000000,51.000000,56.000000,0.000000,0.000000,0.000000,20.000000,0.483300,0.562304,0.036377,0.371049,0.767563,465.000000,460.000000,5.000000,51.000000,56.000000,0.000000,0.000000,0.000000,20.000000;
#CREDIT:Karl with a K;
#NOTES:
00000000
00000000
00000000
00000000
,
00000000
00000000
00000000
00000000
,
00000000
00000000
00000000
00000000
,
00000000
00000000
00000000
00000000
,
00000000
00000000
00000000
00000000
,
10000000
00000000
00100000
00000000
00100000
00000000
00100000
02000000
00000000
03002000
00000000
00023000
00000000
00000000
00000000
00000000
,
00031000
00100000
00100000
00001000
00010000
00000100
00000020
00000100
,
00000031
00000000
00000001
00000000
00000100
00000000
00000100
00000000
00000010
00010000
00000010
00010000
00001000
00100000
01000000
01000000
,
0000MMMM
00000000
0000MMMM
00000000
00000000
00000000
0000MMMM
00000000
00000000
00000000
0000MMMM
0000MMMM
00000000
0000MMMM
00000000
0000MMMM
,
0000MMMM
0000MMMM
0000MMMM
0000MMMM
10000000
00100000
01000000
00001000
00010000
00000010
00000000
00010000
00000000
00010000
00001000
00000000
,
00000100
00000000
00000000
00000020
00000000
00000130
00000001
00000010
00001000
00000000
00010000
00200000
00000000
00000000
01300000
00000000
,
00010000
10000000
00010000
00000000
10000000
01000000
00100000
00001000
00010000
00000100
00000000
00010000
00000000
00010000
00001000
00000000
,
00000010
00000000
00000000
00000200
00000000
00000000
00001300
00000000
00000001
00000000
00000010
00000100
00000000
00001000
00000010
00000000
,
00002000
00000000
00000000
00000000
00003001
00000100
00000010
00010000
00001000
01000000
00000000
00001000
00000000
00001000
00010000
00000000
,
00100000
00000000
00000000
02000000
00000000
03100000
10000000
01000000
00010000
00000000
00001000
00000200
00000000
00000000
00000310
00000000
,
00001000
00000001
00001000
00000000
00000001
00000010
00000100
00010000
00001000
00100000
00000000
00001000
00000000
00001000
00010000
00000000
,
01000000
00000000
00000000
00200000
00000000
00000000
00310000
00000000
10000000
00000000
01000000
00000000
00100000
00010000
01000000
00020000
,
00000000
00000000
00000000
00000000
10030000
01000000
00100000
00000000
00010000
00000000
01000000
00001000
00000000
00000000
00010000
00000100
,
00000010
00000002
00000000
00001003
00000000
00000001
00000100
00000010
00001000
00000000
00000100
00010000
00000000
00000000
00001000
01000000
,
00100000
20000000
00000000
30010000
00000000
10000000
01000000
00100000
01000000
00100000
00010000
01000000
00001000
00010000
00001000
00010000
,
00002000
00000000
00000000
00000000
00013000
00000010
00000000
00000100
00000010
00000100
00000001
00000000
00000001
00000010
00001000
00000000
,
00010000
01000000
01000000
00000000
10000000
00100000
01000000
00010000
00000000
01010000
00000000
00001000
00010000
00000100
00000010
00000001
,
00000000
00000011
00000000
00000002
00000000
00000103
00000010
00010000
00001000
00100000
00010000
00000000
10000000
00100000
01000000
00000000
,
00100000
00000000
01000000
00000000
00000000
00010000
00000000
00000000
10000000
00000000
00000000
00000000
11000000
00000000
00000000
00000000
00010000
00000000
01000000
00000000
00001000
00000000
00010000
00000000
00000000
00000000
00000100
00000000
00001000
00000000
00000000
00000100
,
00000020
00000000
00000030
00000000
00000001
00000000
00000101
00000000
00001000
00000100
00010000
00001000
00000000
01000000
00100000
00000000
,
00200000
00300000
20000000
00000000
00000000
00000000
00000000
00000000
,
00000000
32000000
00000000
00000000
,
00000000
03200000
00000000
00010000
,
00000000
00302000
00000000
00000000
,
00000000
00000000
00013000
00001000
00010000
00000000
00000100
00001000
,
00000100
00000000
00000010
00000001
00000010
00000000
00000001
00000100
,
00000001
00000000
00001000
00000100
00000010
00000100
00010000
00001000
,
01000000
00100000
0000MMMM
00000000
00000000
00000000
0000MMMM
0000MMMM
,
0000MMMM
00000000
00000000
20000000
00000000
31000000
00100000
00000000
00010000
00001000
00000000
00000020
00000000
00001030
00000001
00000200
,
00000000
00000000
00000300
00000002
00000000
00000103
00000010
00002000
00000000
00013000
00000000
00200000
00000000
00310000
01000000
00100000
,
00100000
10000000
01000000
00000000
00100000
00100000
00000000
00001000
00001000
00000000
00010000
00010000
00000000
00000100
00000000
00000100
,
00000010
00000001
00001000
00000000
00000010
00000010
00000000
00010000
00010000
00000000
00001000
00001000
00000000
01000000
00000000
01000000
,
00010000
00100000
00100000
02000000
00000000
13000000
01000000
00000000
00100000
00001000
00000000
00020000
00000000
00030010
00001000
00000200
,
00000000
00000000
00000300
00002000
00000000
00003001
00000100
00000000
00000010
00010000
00000000
00002000
00000000
00103000
00010000
01000000
,
00100000
10000000
10000000
10000000
00100000
00100000
00000000
00010000
00010000
00000000
00001000
00001000
00000000
00000100
00000000
00000100
,
00000001
00001000
00000100
00000000
00000010
00000010
00000000
00001000
00001000
00000000
00010000
00010000
00000000
00100000
00000000
00100000
,
10000000
00000000
00010000
10000000
00010000
00000000
20000000
00000000
00100000
00000000
00000000
00000000
00100000
00000000
00000000
00000000
00100000
00000000
00000000
00000000
31000000
00000000
00000000
00000000
10000000
00000000
01000000
00000000
00000000
00000000
00200000
00000000
,
00000000
00000000
00000000
00000000
00310000
00100000
01000000
00000000
00010000
00001000
00000000
00000200
00000000
00000301
00000010
00000200
,
00000000
00001300
00000001
00000002
00000010
00000000
00000010
00000000
00000010
00000000
00000103
00000000
00000001
00000100
00000000
00000020
,
00000000
00000000
00000031
00000010
00000100
00000000
00000010
00010000
00000000
00001000
00000000
00100000
00000000
01000000
00100000
20000000
,
00000000
30100000
00020000
00000000
00100000
00000000
00100000
00000000
00100000
00000000
01030000
00000000
10000000
01000000
00000000
00020000
,
00000000
00000000
00000000
00000000
01030000
00100000
00010000
00000000
00001000
00000000
00000020
00000000
MMMM0000
00000000
MMMM0000
00000000
,
MMMM0000
MMMM0030
00000110
00000100
00000001
00000100
00001000
00010000
,
01000000
00000000
00000000
00000000
10000000
00000000
01000000
00000000
00100000
00000000
10000000
00000000
01000000
00000000
00100000
00000000
00001000
00000000
00010000
00000000
00000100
00000000
00001000
00000000
00000010
00000000
00000100
00000000
00000001
00001000
00000001
00000000
,
00000020
00000000
00000000
00000000
00000031
00000100
00000010
00010000
00001000
01000000
00000000
00001000
00000000
00001000
00010000
00000000
,
00100000
00000000
00000000
02000000
00000000
03100000
10000000
01000000
00010000
00000000
00001000
00000200
00000000
00000000
00000310
00000000
,
00001000
00000001
00001000
00000000
00000001
00000010
00000100
00010000
00001000
00100000
00000000
00001000
00000000
00001000
00010000
00000000
,
01000000
00000000
00000000
00200000
00000000
00000000
00310000
00000000
10000000
00000000
01000000
00100000
00000000
00010000
01000000
00000000
,
00020000
00000000
00000000
00000000
01030000
00000000
00000000
00000000
00000000
00000000
00000000
00001000
00000000
00010000
00001000
00000000
,
00000100
00000000
00000000
00000020
00000000
00000130
00000001
00000010
00001000
00000000
00010000
00200000
00000000
00000000
01300000
00000000
,
00010000
10000000
00010000
00000000
10000000
01000000
00100000
00001000
00010000
00000100
00001000
00010000
00000000
00010000
00001000
00000000
,
00000010
00000000
00000000
00000010
00001000
00000010
00001000
00000001
00000010
00000001
00000010
00000100
00010000
00001000
00010000
02000000
,
00000000
03000000
00000000
00000000
;

//---------------dance-double - ----------------
#NOTEDATA:;
#CHARTNAME:;
#STEPSTYPE:dance-double;
#DESCRIPTION:;
#CHARTSTYLE:;
#DIFFICULTY:Medium;
#METER:10;
#RADARVALUES:0.339869,0.374869,0.021826,0.247366,0.334672,327.000000,324.000000,3.000000,34.000000,0.000000,0.000000,0.000000,0.000000,1.000000,0.339869,0.374869,0.021826,0.247366,0.334672,327.000000,324.000000,3.000000,34.000000,0.000000,0.000000,0.000000,0.000000,1.000000;
#CREDIT:Karl with a K;
#NOTES:
// measure 0
00000000
00000000
00000000
00000000
,  // measure 1
00000000
00000000
00000000
00000000
,  // measure 2
00000000
00000000
00000000
00000000
,  // measure 3
00000000
00000000
00000000
00000000
,  // measure 4
00000000
00000000
00000000
00000000
,  // measure 5
10000000
10000000
10000000
00000000
00100000
00100000
00100000
00000000
,  // measure 6
01000000
01000000
01000000
00000000
00010000
00010000
00010000
00000000
,  // measure 7
00100000
00000000
00100000
00000000
00001000
00000000
00001000
00000000
00010000
00000000
00010000
00000000
00000010
00000100
00000010
00000100
,  // measure 8
00000000
00000000
00000000
00000000
,  // measure 9
00000000
00000000
00000000
00000000
00000001
00000000
00000100
00000000
00000010
00000000
00000000
00010000
00000000
00010000
00001000
00000000
,  // measure 10
01000000
00000000
00000000
00020000
00000000
00000000
10030000
00000000
00010000
00000000
00100000
02000000
00000000
00000000
00000000
00000000
,  // measure 11
13000000
00000000
00010000
00000000
10000000
00000000
00100000
00000000
01000000
00000000
00000000
00001000
00000000
00001000
00010000
00000000
,  // measure 12
00000010
00000000
00000000
00002000
00000000
00000000
00003001
00000000
00001000
00000000
00000100
00000020
00000000
00000030
00000100
00000000
,  // measure 13
00001000
00000001
00001000
00000000
00000001
00000000
00000010
00000000
00000100
00000000
00000000
00010000
00000000
00010000
00001000
00000000
,  // measure 14
00100000
00000000
00000000
00020000
00000000
00000000
10030000
00000000
00010000
00000000
01000000
00200000
00000000
00000000
00000000
00000000
,  // measure 15
10300000
00000000
00010000
00000000
10000000
00000000
01000000
00000000
00100000
00000000
00000000
00001000
00000000
00001000
00010000
00000000
,  // measure 16
00000100
00000000
00000000
00000020
00000000
00000000
00000031
00000000
00000001
00000000
00001000
00000000
00000010
00001000
00000100
00000020
,  // measure 17
00000000
00000000
00000000
00000000
00000031
00000000
00000100
00000000
00000100
00000000
00000100
00000010
00000000
00000000
00010000
00000000
,  // measure 18
00010000
00001000
00000000
00100000
00000000
00010000
00000000
00000000
10000000
00000000
01000000
00100000
00000000
00000000
00001000
00000000
,  // measure 19
00001000
00010000
00000000
00000010
00000000
00000000
00001000
00000000
00000100
00000000
00000010
00000000
00000001
00000000
00000100
00000000
,  // measure 20
00000020
00000000
00001030
00000010
00000100
00000001
00000010
00001000
,  // measure 21
00010000
00000000
00100000
00000000
10000000
00000000
00000000
00010000
00000000
00010000
00000000
00100000
01000000
00000000
00000000
00100000
,  // measure 22
00000000
00100000
00000000
00001000
00000000
00000000
00010000
00000000
00000100
00000000
00001000
00000000
00000010
00000000
00000100
00000000
,  // measure 23
00001001
00000000
00000000
00000000
00000110
00000000
00000000
00000000
00000001
00000000
00000010
00000100
00000000
00000000
00010000
00000000
,  // measure 24
00001000
00000000
00000000
00000000
01100000
00000000
00000000
00000000
10000000
00000000
00100000
01000000
00000000
00000000
00001000
00000000
,  // measure 25
00010000
00020000
00000000
00000000
,  // measure 26
00000000
00030200
00000000
00000000
,  // measure 27
00000000
00002300
00000000
00000000
,  // measure 28
00000000
00003002
00000000
00000000
,  // measure 29
00000000
00000103
00000010
00010000
,  // measure 30
00001000
00100000
01000000
10000000
,  // measure 31
00010000
00000000
10000000
01000000
00100000
00001000
00010000
00000010
,  // measure 32
00000100
00000001
00000000
00000000
00000000
00000000
00000000
00000000
,  // measure 33
00000000
00000000
00000000
00000002
00000000
00000103
00000010
00000000
00010000
00001000
00000000
00200000
00000000
00310000
00000000
00020000
,  // measure 34
00000000
00000000
00030000
20000000
00000000
31000000
00100000
00000000
00001000
00010000
00000000
00000020
00000000
00001030
00000000
00000002
,  // measure 35
00000000
00000000
00000000
00000000
00001003
00000000
00000000
00001000
00000000
00000000
00001000
00000000
00000000
00000010
00000000
00000000
,  // measure 36
00000100
00000000
00000010
00000000
00010000
00000000
00000000
00010000
00000000
00000000
00010000
00000000
00000000
00001000
00000000
00000000
,  // measure 37
00100000
00010000
00000000
20000000
00000000
30100000
01000000
00000000
00001000
00010000
00000000
00000200
00000000
00001300
00000000
00002000
,  // measure 38
00000000
00000000
00003000
00000002
00000000
00000013
00000100
00000000
00010000
00001000
00000000
02000000
00000000
03010000
00000000
20000000
,  // measure 39
00000000
00000000
00000000
00000000
30010000
00000000
00000000
00010000
00000000
00000000
00010000
00000000
00000000
01000000
00000000
00000000
,  // measure 40
00100000
00000000
01000000
00000000
00001000
00000000
00000000
00001000
00000000
00000000
00001000
00000000
00000000
00010000
00000000
00000000
,  // measure 41
00000100
00001000
00000001
00000100
00000001
00000000
00000100
00001000
,  // measure 42
00010000
00000000
01000000
00100000
01000000
00100000
00000000
00010000
,  // measure 43
01000000
00100000
10000000
01000000
10000000
00000000
01000000
00010000
,  // measure 44
00001000
00000000
00000000
00000000
00000100
00000000
00000010
00001000
00000000
00001000
00000000
00000100
00000000
00000000
00000010
00000000
,  // measure 45
00000001
00001000
00000001
00000010
00000001
00000000
00000010
00001000
,  // measure 46
00010000
00000000
00100000
01000000
00100000
01000000
00100000
00000000
,  // measure 47
00000000
00000000
10000000
00100000
10000000
00100000
00010000
00001000
,  // measure 48
00000010
00000000
00000001
00000000
00000001
00000000
00000100
00000000
00000001
00000000
00000100
00001000
00000000
00010000
00000000
02000000
,  // measure 49
00000000
00000000
00000000
00000000
13000000
00000000
00100000
00000000
01000000
00000000
00000000
00001000
00000000
00001000
00010000
00000000
,  // measure 50
00000010
00000000
00000000
00002000
00000000
00000000
00003001
00000000
00001000
00000000
00000100
00000020
00000000
00000000
00000000
00000000
,  // measure 51
00000031
00000000
00001000
00000000
00000001
00000000
00000100
00000000
00000010
00000000
00000000
00010000
00000000
00010000
00001000
00000000
,  // measure 52
01000000
00000000
00000000
00020000
00000000
00000000
10030000
00000000
00010000
00000000
00100000
02000000
00000000
03000000
00100000
00000000
,  // measure 53
00010000
10000000
00010000
00000000
00100000
00000000
00000000
00000000
00000000
00000000
00000000
00010000
00000000
00010000
00001000
00000000
,  // measure 54
00000100
00000000
00000000
00002000
00000000
00000000
00003001
00000000
00001000
00000000
00000010
00000200
00000000
00000000
00000000
00000000
,  // measure 55
00000301
00000000
00001000
00000000
00000001
00000000
00000010
00000000
00000100
00000000
00000000
00010000
00000000
00010000
00001000
00000000
,  // measure 56
00100000
00000000
00010000
02000000
00000000
00000000
03100000
00000000
10000000
00000000
00010000
00000000
01000000
00100000
00010000
00002000
,  // measure 57
00000000
00003000
00000000
00000000
;

//---------------dance-double - ----------------
#NOTEDATA:;
#CHARTNAME:;
#STEPSTYPE:dance-double;
#DESCRIPTION:;
#CHARTSTYLE:;
#DIFFICULTY:Easy;
#METER:7;
#RADARVALUES:0.182926,0.310686,0.058204,0.138234,0.003638,176.000000,168.000000,8.000000,19.000000,0.000000,0.000000,0.000000,0.000000,11.000000,0.182926,0.310686,0.058204,0.138234,0.003638,176.000000,168.000000,8.000000,19.000000,0.000000,0.000000,0.000000,0.000000,11.000000;
#CREDIT:Karl with a K;
#NOTES:
// measure 0
00000000
00000000
00000000
00000000
,  // measure 1
00000000
00000000
00000000
00000000
,  // measure 2
00000000
00000000
00000000
00000000
,  // measure 3
00000000
00000000
00000000
00000000
,  // measure 4
00000000
00000000
00000000
00000000
,  // measure 5
10000000
00100000
01000000
00001000
,  // measure 6
00010000
00000100
00000010
00000001
,  // measure 7
00000100
00000010
00010000
00000000
00001000
00100000
01000000
01000000
,  // measure 8
00000000
00000000
00000000
00000000
,  // measure 9
00000000
00000000
10000000
00000000
00000000
01000000
00000000
00000000
,  // measure 10
00100000
00000000
00010000
00000000
00000000
02000000
00000000
00000000
,  // measure 11
00001000
00000000
03010000
00000000
00000000
01000000
00000000
00000000
,  // measure 12
00001000
00000000
00010000
00000000
00000000
00000100
00000000
00000000
,  // measure 13
00000010
00000000
00000001
00000000
00000000
00000010
00000000
00000000
,  // measure 14
00000100
00000000
00001000
00000000
00000000
00000020
00000000
00000000
,  // measure 15
00010000
00000000
00001030
00000000
00000000
00000010
00000000
00000000
,  // measure 16
00010000
00000000
00001000
00000000
00100000
00000000
01000000
00100000
,  // measure 17
01000000
00000000
10000000
00000000
00000000
10000000
00000000
00000000
,  // measure 18
00100000
00000000
01000000
00000000
00000000
00010000
00000000
00000000
,  // measure 19
00100000
00001000
00001000
00010000
,  // measure 20
00000010
00000000
00000100
00000000
00000001
00000000
00000010
00000010
,  // measure 21
00000002
00000003
00000001
00000000
00000001
00000000
00000010
00000000
,  // measure 22
00000010
00000100
00000100
00010000
,  // measure 23
00010000
00000000
00001000
00001000
00000000
00000000
01000000
00000000
,  // measure 24
01000000
00000000
00100000
00100000
00000000
00000000
10000000
00000000
,  // measure 25
00010000
20000000
00000000
00000000
,  // measure 26
00000000
00000000
00000000
00000000
,  // measure 27
00000000
32000000
00000000
00000000
,  // measure 28
00000000
03200000
00000000
00000000
,  // measure 29
00000000
00302000
00000000
00000000
,  // measure 30
00000000
00023000
00000000
00000000
,  // measure 31
00000000
00030020
00000000
00000230
,  // measure 32
00000000
00000300
00000000
00000000
,  // measure 33
00000000
00000000
00000101
00000000
00000001
00000100
00000000
00000010
,  // measure 34
00010000
00000000
00011000
00000000
00001000
00100000
00000000
00100000
,  // measure 35
01000000
00000000
11000000
00000000
00000000
00010000
00000000
00000000
,  // measure 36
01000000
00000000
01001000
00000000
00000000
00011000
00000000
00000000
,  // measure 37
00110000
00000000
11000000
00000000
10000000
01000000
00000000
00100000
,  // measure 38
00001000
00000000
00011000
00000000
00010000
00000010
00000000
00000010
,  // measure 39
00000100
00000000
00000101
00000000
00000000
00001000
00000000
00000000
,  // measure 40
00000100
00000000
00010100
00000000
00000000
00011000
00000000
00000000
,  // measure 41
00001010
00000001
00000100
00001000
,  // measure 42
00020000
02030000
00000000
03200000
,  // measure 43
00320000
10030000
01000000
00010000
,  // measure 44
00002000
00103000
00010000
00002000
,  // measure 45
00003100
00000010
00000001
00000000
00000010
00000000
00001000
00000000
,  // measure 46
00020000
00230000
00000000
00000000
,  // measure 47
00000000
10300000
01000000
00010000
,  // measure 48
00001000
00000000
00000010
00000100
00000010
00000100
00000020
00000000
,  // measure 49
00000030
00000000
00000001
00000000
00000000
00000100
00000000
00000000
,  // measure 50
00000010
00000000
00001000
00000000
00000000
00000200
00000000
00000000
,  // measure 51
00010000
00000000
00001300
00000000
00000000
00000100
00000000
00000000
,  // measure 52
00010000
00000000
00001000
00000000
00000000
01000000
00000000
00000000
,  // measure 53
00100000
00000000
10000000
00000000
00000000
01000000
00100000
00000000
,  // measure 54
00010000
00001000
00000100
00000010
,  // measure 55
00000001
00000100
00000010
00010000
00001000
00000000
00100000
00010000
,  // measure 56
10000000
00000000
00000000
00000000
00010000
00000000
00100000
00000000
01000000
00000000
00100000
00000000
00001000
00000000
00010000
00001000
;
