#VERSION:0.83;
#TITLE:SpaceLand☆TOYBOX;
#SUBTITLE:;
#ARTIST:OSTER project;
#TITLETRANSLIT:;
#SUBTITLETRANSLIT:;
#ARTISTTRANSLIT:;
#GENRE:;
#ORIGIN:beatmania IIDX 22 PENDUAL;
#CREDIT:;
#BANNER:Spaceland Toybox banner.png;
#BACKGROUND:Spaceland Toybox bg.png;
#PREVIEWVID:;
#JACKET:;
#CDIMAGE:;
#DISCIMAGE:;
#LYRICSPATH:;
#CDTITLE:;
#MUSIC:Spaceland Toybox.ogg;
#OFFSET:-0.197000;
#SAMPLESTART:4.034000;
#SAMPLELENGTH:22.674000;
#SELECTABLE:YES;
#BPMS:0.000=344.000,
134.000=86.000,
150.000=172.000,
194.000=344.000,
342.000=86.000,
344.000=344.000;
#STOPS:;
#DELAYS:;
#WARPS:;
#TIMESIGNATURES:0.000=4=4;
#TICKCOUNTS:0.000=4;
#COMBOS:0.000=1;
#SPEEDS:0.000=1.000=0.000=0;
#SCROLLS:0.000=1.000;
#FAKES:;
#LABELS:0.000=Song Start;
#BGCHANGES:;
#KEYSOUNDS:;
#ATTACKS:
;

//---------------dance-single - XO+ DS+ JA XMOD BU STR[3@172'3@129|2@172'3@129/2@172] JU-----------------
#NOTEDATA:;
#CHARTNAME:;
#STEPSTYPE:dance-single;
#DESCRIPTION:XO+ DS+ JA XMOD BU STR[3@172'3@129|2@172'3@129/2@172] JU-;
#CHARTSTYLE:;
#DIFFICULTY:Challenge;
#METER:18;
#RADARVALUES:1.002026,1.583436,0.228029,0.647603,0.501665,769.000000,744.000000,25.000000,71.000000,0.000000,0.000000,0.000000,0.000000,0.000000,1.002026,1.583436,0.228029,0.647603,0.501665,769.000000,744.000000,25.000000,71.000000,0.000000,0.000000,0.000000,0.000000,0.000000;
#CREDIT:Karl with a K as decorationslimit;
#NOTES:
0000
0000
0000
0000
,
0000
0000
0000
0000
,
0000
0000
0000
0000
,
0000
0000
0000
0000
,
0000
0000
0000
0000
,
0000
0000
0000
0000
,
0000
0000
0000
0000
,
0000
0000
0000
0000
,
0000
0000
0000
0000
,
0000
0000
0000
0000
1000
0001
0100
0010
,
1000
0000
0000
0001
0000
0000
0010
0000
0000
0100
0000
0000
0010
0000
0000
0001
0000
0000
0010
0000
0100
0000
0010
0000
,
0001
1000
0001
0100
0010
0000
0100
0001
,
0000
0100
0000
0020
0000
1030
0001
0010
,
0100
0010
0000
0010
0001
0000
0100
0000
,
0010
0100
0000
0020
0000
0230
0000
0302
,
0000
1003
0001
1000
0010
1000
0001
0010
,
0001
0010
0100
1000
0010
0100
0001
1000
,
0100
0010
0002
0000
1003
0001
0010
0100
,
1000
0001
0000
0001
0010
0001
0100
0010
,
0000
1000
0001
0010
0100
0000
0010
0001
,
0000
0010
0000
0200
0000
1300
0001
0100
,
0010
0100
0000
0100
0001
0000
0010
0000
,
0100
0010
0000
0200
0310
0100
0010
0001
,
1000
0001
1000
0100
1000
0001
0100
0001
,
0100
0010
1000
0100
0010
0001
1000
0010
,
1000
0000
0001
0000
1000
0000
0001
0000
1000
0000
0001
0000
0010
0000
0000
0001
0000
0000
0010
0000
0000
0100
0000
0000
,
0001
0100
0010
0001
1000
0010
0100
0010
,
0001
0010
0100
0001
1000
0001
0010
0100
,
0001
0100
0010
0100
1000
0010
0001
0010
,
0100
0000
0000
0010
0000
0000
1000
0000
0000
0001
0000
0000
1000
0000
0000
0000
0100
0000
0000
0000
0010
0000
0000
0000
,
1000
0000
0010
0000
0100
0000
1000
0000
0010
0000
0100
0000
,
1000
0000
0100
0000
0010
0000
1000
0000
0100
0000
0010
0000
,
0001
0000
0010
0000
0100
0000
1000
0000
0001
0000
0100
0000
,
1000
0000
0000
0000
0001
0000
0000
0000
0010
0000
0000
0000
2000
0000
0000
0100
0000
0000
0001
0000
0000
0100
0000
0000
,
3002
0000
0100
0000
1000
0000
0100
0000
2003
0000
0010
0000
3001
1000
0010
1000
,
0002
0013
0010
0100
1000
0100
0010
0001
1001
0000
0001
0100
0010
0000
1000
0000
,
0001
0001
1000
0000
0001
0100
0000
0100
0010
1000
0001
0000
0010
0100
1000
0100
,
1000
0000
0020
0000
1030
0100
0010
0000
0011
0000
0001
0000
0010
0000
0100
0000
,
1000
0010
1000
0010
0100
0000
0001
0000
1000
0001
1000
0000
0100
0000
0020
0000
,
0031
0010
0001
0010
0100
0010
0100
0010
0001
0000
0001
0000
1000
0000
0000
0000
,
1000
0001
0100
0000
0010
0100
0010
0100
0001
0000
0001
0000
1000
0001
0000
0001
,
1000
0200
0320
0230
1300
1000
0001
0010
,
0001
0100
0001
0000
0010
0000
0100
1000
0100
1000
0100
0000
1000
0000
0001
0000
,
1000
0010
0100
0000
0010
0100
0010
0000
2002
0000
0000
0000
0000
0000
0000
0000
,
3003
0000
0000
0000
1001
0000
0000
0000
0101
0000
0000
0000
0100
0001
0020
0100
,
0000
0000
0000
0000
0031
0100
0010
1000
0000
1000
0100
1000
0001
0010
0001
1000
,
0010
1000
0001
1000
0100
0010
0001
1000
0010
0000
0010
0000
0010
0100
0001
0100
,
0000
0000
0000
0020
0000
0000
0000
0000
0000
0000
0000
0000
1030
0000
0000
0001
0000
0000
1000
0000
0000
0000
0000
0000
0200
0000
0000
0000
0000
0000
0000
0000
0000
0000
0000
0000
0310
0000
0000
0000
0010
0000
0000
0000
0100
0000
0000
0000
,
1000
1000
0010
0100
0100
0010
2000
0000
0000
0000
0000
0000
,
3100
0020
0001
0130
,
0010
0001
2000
0010
,
3001
0200
0010
0302
,
0100
0000
1003
0100
0020
0000
0100
0000
,
0031
0020
0032
0203
,
0320
2030
3200
0010
,
0320
0100
2030
0010
,
3020
0230
2300
0000
,
0010
0000
3001
0100
,
0010
1000
2000
0100
,
0001
0000
3010
0100
0020
0000
0032
0000
,
0023
0130
0110
0110
,
0020
0000
2030
0000
3100
0001
0200
0000
,
0310
0000
2002
0000
3003
0000
0001
0010
,
0001
1000
0001
0100
0001
1000
0010
0100
,
0010
1000
0100
0010
0001
0000
0100
0000
,
0001
0010
0001
0010
0000
0100
1000
0000
,
0010
1000
0001
0100
0001
0000
0010
0100
,
0010
0000
0010
0100
1000
0010
0100
0001
,
1000
0001
0100
0010
2000
0000
0100
0000
,
3001
0002
0100
2003
,
3200
0000
0320
0000
0000
0000
0031
0010
,
0001
0100
1000
0100
,
0001
1000
0001
0000
1000
0000
0100
1000
,
0010
0000
0010
0100
0000
0100
0001
1000
,
0010
1000
0200
0000
0000
0000
0310
0100
,
2000
3010
0100
0110
,
0001
0000
1000
0000
0001
0000
1000
0000
0001
0000
1000
0000
0010
0000
0000
1000
0000
0000
0010
0000
0000
0100
0000
0000
,
1000
0100
0010
1000
0001
0010
0100
0010
,
1000
0010
0100
1000
0001
1000
0010
0100
,
1000
0100
0010
0100
0001
0010
1000
0010
,
0001
0000
0000
0011
0000
0000
0001
0000
0100
0000
0010
0000
,
0001
0000
0010
0000
0100
0000
0001
0000
0010
0000
0100
0000
,
0001
0000
0100
0000
0010
0000
0001
0000
0100
0000
0010
0000
,
1000
0000
0010
0000
0100
0000
0001
0000
1000
0000
0100
0000
,
0001
0000
1000
0000
0010
0000
0001
0000
0100
0000
1000
0000
,
0100
0000
0000
0000
0000
0000
0000
0000
0001
0000
0000
0000
0000
0000
0000
0000
0010
0000
0000
0000
0000
0000
0000
0000
2000
0000
0000
0000
0000
0000
0000
0000
0000
0001
0000
0000
0000
0000
0000
3001
0000
0000
0110
0000
0000
0000
0000
0000
,
1001
0000
0001
0100
0010
1000
0010
0100
,
0001
1000
0100
1000
0001
0010
0100
1000
,
0001
0000
1000
0000
0100
0010
0001
1000
,
0000
1000
0010
0100
0001
1000
0001
0010
,
0001
0100
0010
1000
0001
0010
0100
0010
,
1000
0010
0100
0010
0001
0100
0001
0000
,
1000
0010
0100
0001
0010
0001
1000
0000
,
0010
1000
0100
0010
0001
1000
0001
1000
,
0200
1000
1300
0000
0001
0001
2000
0100
,
3100
0000
1000
1000
0002
0100
0103
0000
,
0110
0000
0110
0000
1000
0100
0010
0001
,
0100
1000
0100
0010
1000
0000
0012
0000
,
0203
0000
0310
1000
0100
0000
0010
0001
,
0100
0000
0010
1000
0100
0001
0100
1000
,
0010
1010
1100
1010
,
0011
0101
0011
0101
,
0001
0010
1000
0000
0001
0100
1000
0010
,
0001
0000
0010
0100
1000
0100
0010
1000
,
0002
0000
0010
0000
0013
0100
0010
0001
,
0000
1000
0001
0010
0100
0010
1000
0010
,
0200
0000
1300
0001
0020
0000
0031
1000
,
0020
0000
1030
0100
0010
0100
1000
0000
,
0020
0000
0130
0000
0110
0000
0010
1000
,
0010
0000
0100
0001
0100
0000
1002
0000
,
0013
0000
0100
0010
0001
1000
0100
0000
,
1000
0000
0000
0001
0000
0000
1000
0000
0000
0001
0000
0000
0100
0000
0010
0000
0100
0000
0010
0000
0100
0000
0010
0000
,
0100
0001
0100
0010
0001
0010
0100
0001
,
1000
0100
0010
0100
0001
0100
0010
0001
,
1000
0001
0100
0010
0001
0010
0100
0010
,
1000
0100
0001
0100
0020
0000
2030
0000
,
3010
0000
0100
0010
0000
0001
0000
0020
,
0000
1030
0001
0100
1000
0010
0001
0010
,
0100
0000
0000
0001
0000
0010
0100
0000
0010
0001
0000
0010
,
0100
0000
1000
0010
0000
1000
0100
0000
0000
0220
0000
0000
,
0000
0000
0000
0000
,
0000
0000
0000
0000
,
0000
0000
0000
0000
,
0000
0000
0000
0000
,
0330
0000
0000
0000
;

//---------------dance-single - XO DS JA XMOD JU-----------------
#NOTEDATA:;
#CHARTNAME:;
#STEPSTYPE:dance-single;
#DESCRIPTION:XO DS JA XMOD JU-;
#CHARTSTYLE:;
#DIFFICULTY:Hard;
#METER:17;
#RADARVALUES:0.801360,1.300679,0.228029,0.620240,0.232590,615.000000,590.000000,25.000000,68.000000,0.000000,0.000000,0.000000,0.000000,0.000000,0.801360,1.300679,0.228029,0.620240,0.232590,615.000000,590.000000,25.000000,68.000000,0.000000,0.000000,0.000000,0.000000,0.000000;
#CREDIT:Karl with a K as decorationslimit;
#NOTES:
0000
0000
0000
0000
,
0000
0000
0000
0000
,
0000
0000
0000
0000
,
0000
0000
0000
0000
,
0000
0000
0000
0000
,
0000
0000
0000
0000
,
0000
0000
0000
0000
,
0000
0000
0000
0000
,
0000
0000
0000
0000
,
0000
0000
0000
0000
1000
0001
0100
0000
,
0010
0100
0001
0000
1000
0010
1000
0000
,
0001
0100
0001
0000
1000
0000
0100
1000
,
0000
0100
0000
0010
0000
0001
0100
0000
,
0010
1000
0000
0001
1000
0000
0100
0000
,
1000
0100
0000
0020
0000
0230
0000
2300
,
0000
3001
1000
0001
0000
1000
0100
0010
,
0001
1000
0010
1010
,
1001
0000
0011
0000
0001
1000
0100
0000
,
0010
0100
0000
1000
0001
0010
0001
1000
,
0000
1000
0001
0000
1000
0000
0100
1000
,
0000
0100
0000
0010
0000
0001
0100
0000
,
0010
1000
0000
1000
0001
0000
0100
0000
,
0001
0100
0000
0020
0000
0130
0001
0000
,
1000
0001
1000
0000
0001
1000
0010
0000
,
0100
0001
0100
0000
0010
0000
1000
0000
,
0100
0000
0100
0000
1000
0100
0010
0001
,
0100
0000
0010
0000
1000
0010
0100
0001
,
0010
0000
0100
0000
1000
0100
0010
0001
,
0100
0000
0001
0000
1000
0010
0100
0000
,
1001
0000
0000
0110
0000
0000
1000
0000
0100
0000
0010
0000
,
0001
0000
0010
0000
0100
0000
1000
0000
0010
0000
0100
0000
,
0001
0000
0100
0000
0010
0000
1000
0000
0100
0000
0010
0000
,
0001
0000
0100
0000
0010
0000
1000
0000
0100
0000
0010
0000
,
0100
0000
0001
0000
0100
0000
2000
0000
0000
3020
0000
0000
,
0230
0302
2003
3200
,
0320
0000
0032
0000
1003
0010
1000
0010
,
0100
0001
0100
0001
1000
0100
0010
0001
,
0100
1000
0100
0010
2000
0000
3010
0100
,
0001
0010
0100
1000
0020
1000
1030
0002
,
1000
1003
0200
0310
0002
0000
0103
0001
,
0020
0000
0130
0100
2000
0100
3001
0100
,
0002
1000
0013
0100
2000
0000
0010
0000
,
0100
0100
3002
0000
0203
0010
0310
2000
,
0001
3001
0200
0301
2002
0000
0000
0000
,
3003
0000
0000
0000
1001
0000
0000
0000
1100
0000
0000
0000
1000
0100
0010
0000
,
0001
0000
0000
0000
0010
0100
1000
0100
0000
1000
0001
0000
0100
0010
0100
0000
,
0010
0100
0010
0000
1000
0001
1000
0000
0010
0000
1000
0000
1000
0001
0010
0001
,
0000
0000
0000
0020
0000
0000
0000
0000
0000
0000
0000
0000
0031
0000
0000
0000
0000
0000
0010
0000
0000
0000
0000
0000
0110
0000
0000
0000
0000
0000
0000
0000
0000
0000
0000
0000
0010
0000
0000
0000
0000
0000
0000
0000
0010
0000
0000
0000
,
0001
0000
0001
0100
0000
0010
2000
0000
0000
0000
0000
0000
,
3100
0020
0130
1000
,
0010
1000
0002
0000
,
0103
0100
0001
2000
,
3100
0000
1000
0100
0020
0000
0000
0000
,
0031
2000
0000
3001
,
0010
0001
0200
0010
,
0320
0000
0032
0023
,
0230
0000
0302
0000
,
1003
0100
1000
0001
,
0100
0001
0002
0103
,
0001
0020
0031
1000
,
0001
0000
0011
0011
,
0002
0000
2003
0000
3001
1000
0001
0000
,
0100
0220
0330
0020
,
1030
0010
1000
0000
0001
1000
0001
0000
,
0010
0100
0010
0001
1000
0000
0001
0000
,
0100
0000
0010
1000
0000
1000
0010
0000
,
1000
0001
1000
0000
0100
0000
0010
0000
,
0010
0000
0001
0010
0100
1000
0100
0010
,
0001
1000
0010
1000
,
0100
0020
0030
0100
,
1000
0000
0020
0000
0000
0000
0130
0010
,
0100
0010
0001
0010
,
0100
0001
0100
0000
0010
0000
0100
0001
,
0010
0000
0010
0001
0000
1000
0001
1000
,
0010
1000
0200
0000
0000
0000
0310
0100
,
0020
0000
0032
0000
0103
0010
0100
0010
,
1000
0001
2000
0000
3001
0100
0010
1000
,
0100
0000
0010
0000
0001
0010
0100
1000
,
0010
0000
0100
0000
0001
0100
0010
1000
,
0100
0010
0100
0010
0001
0000
0100
0000
,
0001
0000
0000
0010
0000
0000
0001
0000
0100
0000
0010
0000
,
1000
0000
0010
0000
0100
0000
0001
0000
0010
0000
0100
0000
,
1000
0000
0100
0000
0010
0000
0001
0000
0100
0000
0010
0000
,
1000
0000
0100
0000
0010
0000
0001
0000
0100
0000
0010
0000
,
0100
0000
1000
0000
0100
0000
0001
0000
1000
0000
0100
0000
,
0001
0000
0000
0000
1000
0000
0000
0000
0010
0000
0000
0000
0002
0000
0000
0000
0000
0000
0003
0000
0000
1001
0000
0000
,
0002
0010
1003
2000
,
0010
0000
3001
0000
0001
0010
0100
1000
,
0001
0000
0010
0000
0100
1000
0001
0100
,
0000
0010
1000
0000
0010
1000
0001
0000
,
0010
0001
0000
0001
1000
0010
1000
0000
,
0020
0000
1000
0000
0130
0002
0000
0000
,
1003
0100
0010
0000
0001
0010
0001
0000
,
1000
0010
0100
0001
1000
0010
1000
0000
,
0001
0010
0001
0000
0010
0100
0000
0100
,
1000
0000
1000
0010
0000
0010
0100
0000
,
1001
0000
1001
0000
0100
0010
0000
0000
,
0110
0110
0000
2002
,
3003
0000
1000
0100
0010
0000
0001
0100
,
0010
0000
1000
0100
0010
0001
0100
0010
,
1000
1000
0010
0010
,
0100
0100
0001
0001
,
0010
0001
0010
0000
0100
0000
0100
1000
,
0001
0001
2002
3003
,
1000
0000
0001
0000
1000
0010
0100
0001
,
0000
0000
1000
0100
1000
0100
0010
0001
,
0010
0000
0001
0010
0001
0000
1000
0010
,
1000
0000
0010
0100
0010
0100
0010
0000
,
0200
0000
0310
0000
0101
0000
0100
0010
,
1000
0000
0100
0010
0001
0000
0022
0000
,
0033
0000
0001
1000
0001
0000
1000
0000
,
0010
1000
0010
1000
0100
0000
0110
0000
,
0001
0010
0100
1000
0010
0000
0100
0000
,
0001
0100
0010
1000
0100
0000
0010
0000
,
0001
0010
0100
1000
0010
1000
0010
1000
,
0001
0100
0010
0000
1001
0000
0110
0000
,
1000
0000
0100
0010
0000
0100
0000
0020
,
0000
0031
1000
0000
0001
0010
0001
0000
,
1000
0000
0000
0010
0000
0100
0010
0000
0000
1000
0000
0000
,
0001
0000
0000
0001
0000
0010
0000
0000
0000
0220
0000
0000
,
0000
0000
0000
0000
,
0000
0000
0000
0000
,
0000
0000
0000
0000
,
0000
0000
0000
0000
,
0330
0000
0000
0000
;

//---------------dance-single - XO- DS JA XMOD JU-----------------
#NOTEDATA:;
#CHARTNAME:;
#STEPSTYPE:dance-single;
#DESCRIPTION:XO- DS JA XMOD JU-;
#CHARTSTYLE:;
#DIFFICULTY:Medium;
#METER:14;
#RADARVALUES:0.659331,1.017923,0.136818,0.410453,0.191545,506.000000,491.000000,15.000000,45.000000,0.000000,0.000000,0.000000,0.000000,0.000000,0.659331,1.017923,0.136818,0.410453,0.191545,506.000000,491.000000,15.000000,45.000000,0.000000,0.000000,0.000000,0.000000,0.000000;
#CREDIT:Karl with a K as decorationslimit;
#NOTES:
0000
0000
0000
0000
,
0000
0000
0000
0000
,
0000
0000
0000
0000
,
0000
0000
0000
0000
,
0000
0000
0000
0000
,
0000
0000
0000
0000
,
0000
0000
0000
0000
,
0000
0000
0000
0000
,
0000
0000
0000
0000
,
0000
0000
0000
0000
0000
1000
0100
0000
,
0010
0100
1000
0000
0001
0000
0001
0000
,
1000
0000
1000
0000
0010
0000
0100
0010
,
0000
0100
0000
0002
0000
0000
1003
0000
,
0001
0010
0000
0010
0001
0000
0100
0000
,
0010
0100
0000
0010
0000
0100
0000
0001
,
0000
1000
0010
0000
0000
0010
1000
0000
,
0100
0010
0001
0001
,
0001
0000
0001
0000
0000
1000
0010
0000
,
0100
0010
0000
1000
0001
0000
0001
1000
,
0000
0100
1000
0000
0100
0000
0010
0100
,
0000
0010
0000
0002
0000
0000
1003
0000
,
0001
0100
0000
0100
0001
0000
0010
0000
,
0100
0010
0000
0100
0000
0010
0001
0000
,
1000
0000
0001
0000
1000
0100
1000
0100
,
1000
0010
0100
0100
,
0010
0000
0010
0000
1000
0100
1000
0100
,
0010
0000
0000
0000
0001
0100
0001
0100
,
0010
0000
0000
0000
1000
0010
1000
0010
,
0100
0000
0001
0001
,
0010
0000
0000
0100
0000
0000
1000
0000
0100
0000
0010
0000
,
0001
0000
1000
0000
0000
0000
0001
0000
0100
0000
0010
0000
,
1000
0000
0001
0000
0000
0000
1000
0000
0100
0000
0010
0000
,
0001
0000
0010
0000
0100
0000
1000
0000
0001
0000
0100
0000
,
0010
0000
1000
0000
0100
0000
2000
0000
0000
0000
0000
0000
,
3200
0000
0320
0000
,
0032
0000
0000
0000
1000
0000
0000
0000
1003
0000
0000
1000
0010
0000
0000
0000
,
0100
0001
0000
0000
0000
0100
0000
0100
0010
0000
0000
0000
1000
0000
0100
0000
,
0010
0100
0010
0100
1000
0001
0100
0000
,
0001
0010
0001
0000
0010
0000
0001
0100
,
0000
0100
0001
0000
1000
0001
0010
0000
,
0001
0100
0001
0000
0100
0000
0001
0010
,
0000
0010
0100
0000
2000
0000
0100
0000
,
0001
0010
3002
0010
,
1000
0103
0220
0000
,
0330
0000
0000
0000
0110
0000
0000
0000
1000
0000
0000
0000
0001
0100
0001
0100
,
0000
0000
0010
0000
1000
0000
0001
1000
0000
0000
0100
0000
0010
0000
0001
0000
,
0010
0001
0100
0010
1000
0010
0010
0010
,
1000
0000
0000
0010
0000
0000
0000
0000
0000
0000
0000
0000
1000
0000
0000
0000
0000
0000
0001
0000
0000
0000
0000
0000
0200
0000
0000
0000
0000
0000
0000
0000
0000
0000
0000
0000
0310
0000
0000
0000
0000
0000
0000
0000
0010
0000
0000
0000
,
1000
0000
1000
0100
0000
0000
2000
0000
0000
0000
0000
0000
,
3100
0020
0030
0010
,
0001
0010
0002
0000
,
1003
0200
0000
2300
,
0000
0000
3001
0100
0020
0000
0000
0000
,
0030
0020
0000
1030
,
0010
1000
0200
0000
,
0320
0000
2030
0000
,
3020
0000
0032
0000
,
0100
0000
1003
0100
,
1000
0010
0200
0000
,
1000
2300
0000
3100
,
0010
0000
1001
1001
,
0000
0000
0000
0000
0100
0010
0100
0000
,
0000
0000
0220
0000
0330
0000
1000
0001
,
1000
0000
0001
0000
0010
0100
0010
0000
,
0100
0010
0100
0000
1000
0000
0100
0000
,
1000
0020
0000
0130
,
0010
0002
0010
0013
,
0100
0000
0001
0100
0001
0000
1000
0000
,
0100
0010
0001
0100
,
0010
2000
0000
3100
,
0010
0000
2000
0000
0000
0000
3010
0100
,
0010
0000
0002
0000
,
0023
0000
0000
0000
0031
0000
0100
0010
,
1000
0000
0010
0100
0000
0000
0001
0000
,
0001
0000
0022
0000
0033
0000
0001
1000
,
0001
0000
1000
0001
1000
0000
0010
1000
,
0002
0000
0013
0000
0001
0100
0001
0100
,
0010
0000
0000
0000
1000
0100
1000
0100
,
0010
0000
0000
0000
0001
0010
0001
0010
,
0100
0100
1000
1000
,
0010
0000
0000
0010
0000
0000
1000
0000
0010
0000
0100
0000
,
0001
0000
1000
0000
0000
0000
0001
0000
0010
0000
0100
0000
,
1000
0000
0001
0000
0000
0000
1000
0000
0010
0000
0100
0000
,
0001
0000
0100
0000
0010
0000
1000
0000
0001
0000
0010
0000
,
0100
0000
1000
0000
0010
0000
0100
0000
0001
0000
0010
0000
,
0100
0000
0000
0000
1000
0000
0000
0000
0000
0000
0000
0000
2002
0000
0000
0000
0000
0000
0000
0000
0000
3003
0000
0000
,
1000
0000
0010
1000
0010
0000
1000
0000
,
0001
1000
0001
0000
0010
0000
0010
0000
,
0001
0000
1000
0000
0010
0000
0010
0100
,
0000
0001
1000
0000
0100
0000
0100
0000
,
0010
0100
0000
0000
0010
0001
0010
0000
,
0001
0000
0001
0000
1000
0100
0000
0000
,
1000
0010
1000
0000
0010
1000
0000
0000
,
0001
0010
0001
0000
0010
0001
0000
0000
,
1000
0000
1000
0000
0001
1000
0000
0001
,
1000
0000
0001
1000
0000
0001
1000
0000
,
1001
1001
0010
0100
,
0110
0110
0000
2002
,
3003
0000
1000
0100
0010
0000
0001
0010
,
0100
0000
1000
0001
1000
0000
0001
1000
,
0001
0001
0100
0100
,
0010
0010
0100
0100
,
0001
0001
1000
1000
,
0100
0100
0020
0000
,
0031
0000
0001
0000
1000
0000
1000
0010
,
0000
0000
1000
0001
1000
0000
0100
0000
,
0010
0010
0001
0001
,
0100
0100
0001
0001
,
0010
0100
0110
0000
,
1000
0010
0100
0220
,
0330
0000
0010
1000
0010
0000
1000
0000
,
0100
0000
0010
0100
0010
0100
0010
0000
,
0001
0010
0001
0010
0100
0000
0000
0000
,
1000
0010
1000
0010
0100
0000
0000
0000
,
0001
0100
0001
0100
0010
0000
0010
0000
,
1000
1000
0100
0010
,
0001
0000
0100
0001
0000
1000
0000
0001
,
0000
1000
0001
0000
0001
0010
0000
0010
,
0100
0010
0001
0100
,
0010
0000
0000
0100
0000
0010
0000
0000
0000
0220
0000
0000
,
0000
0000
0000
0000
,
0000
0000
0000
0000
,
0000
0000
0000
0000
,
0000
0000
0000
0000
,
0330
0000
0000
0000
;

//---------------dance-single - ----------------
#NOTEDATA:;
#CHARTNAME:;
#STEPSTYPE:dance-single;
#DESCRIPTION:;
#CHARTSTYLE:;
#DIFFICULTY:Easy;
#METER:11;
#RADARVALUES:0.472998,0.735167,0.145939,0.419574,0.022803,363.000000,347.000000,16.000000,46.000000,0.000000,0.000000,0.000000,0.000000,0.000000,0.472998,0.735167,0.145939,0.419574,0.022803,363.000000,347.000000,16.000000,46.000000,0.000000,0.000000,0.000000,0.000000,0.000000;
#CREDIT:Karl with a K as decorationslimit;
#NOTES:
0000
0000
0000
0000
,
0000
0000
0000
0000
,
0000
0000
0000
0000
,
0000
0000
0000
0000
,
0000
0000
0000
0000
,
0000
0000
0000
0000
,
0000
0000
0000
0000
,
0000
0000
0000
0000
,
0000
0000
0000
0000
,
0000
0000
1000
0100
,
0010
0000
0001
0010
,
0100
0000
0000
0000
1000
0000
0000
0001
,
0000
1000
0000
0001
0000
0000
0100
0000
,
0010
0000
0010
0100
,
0010
0000
0000
1000
0000
0100
0000
1000
,
0000
0100
0000
0010
,
0001
0100
0010
0010
,
0100
0100
0000
0100
,
0010
0000
1000
0010
,
0100
0000
0000
0000
0001
0000
0000
1000
,
0000
0001
0000
1000
0000
0000
0100
0000
,
0010
0000
0010
0100
,
0010
0000
0000
0001
0000
0100
0000
0001
,
0000
0100
0010
1000
,
0100
0010
0100
0010
,
0001
0100
0001
0010
,
0011
0000
1000
0010
,
1010
0000
0001
0100
,
0101
0000
1000
0100
,
0010
0000
0000
0010
0000
0000
0001
0000
0000
0000
0001
0000
,
0100
0000
0000
0000
0000
0000
0001
0000
0000
0000
0001
0000
,
0010
0000
0002
0000
,
0023
0000
0230
0000
,
2300
0000
0002
0000
,
0000
0000
0000
0000
,
0000
3003
1000
0010
,
0100
0001
0010
0100
,
1000
0001
1000
0010
,
1000
0000
0010
0000
1000
0000
0100
0010
,
0000
0010
0001
0000
0100
0000
0001
0000
,
0100
0001
0100
0010
,
1000
0001
1000
0100
,
1000
0000
0001
0000
0010
0000
0001
0010
,
0000
0010
0100
0000
0220
0000
0000
0000
,
0330
0000
0110
0000
1000
0000
0001
0100
,
0001
0000
1000
0100
1000
0000
0001
0100
,
0010
0000
1000
0000
0001
0000
0010
0001
,
0010
0001
2002
0000
,
0000
3003
2000
0000
,
3010
2000
0000
3010
,
1000
0000
0200
0000
,
0310
0002
0000
0023
,
0030
0001
0002
0000
,
0003
2000
3000
1000
,
0010
1000
0200
0000
,
0320
0000
0032
0000
,
0023
0000
0230
0000
,
1000
0000
1300
0001
,
0100
0001
0200
0000
,
0010
0320
0000
0000
,
0130
0000
0110
0010
,
0000
0000
1000
1000
,
0000
0020
0000
1030
,
0100
0010
0001
0100
,
0010
1000
0200
0000
,
0310
0002
0003
0001
,
1000
0020
0000
1000
,
1030
0010
0100
0002
,
2000
3003
2000
0000
,
3010
2000
0000
3100
,
0010
0002
0000
0013
,
0001
1000
0010
0000
,
0010
0000
2000
0000
,
3010
2000
0000
3100
,
0010
0020
0000
0031
,
0100
0001
0010
0001
,
0100
0010
1000
0010
,
1010
0000
0001
0010
,
0011
0000
1000
0100
,
0100
0010
0001
0100
,
0010
0000
0000
0010
0000
0000
1000
0000
0000
0000
0001
0000
,
0010
0000
0000
0000
0000
0000
0001
0000
0000
0000
0001
0000
,
0100
0000
0002
0000
,
0023
0000
0230
0000
,
2300
0000
0000
0000
0000
0000
3010
0000
0000
0000
0010
0000
,
0100
0000
0000
0000
0220
0000
0000
0330
,
1000
0010
1000
0010
,
1000
0100
1000
0100
,
0010
0000
0001
0000
1000
0000
0000
0001
,
0000
0010
0001
0100
,
0010
0100
0001
0100
,
0010
1000
0001
1000
,
0100
0010
0001
0000
,
0100
0010
1000
0000
,
0010
0000
0010
0000
1000
0000
0000
0100
,
0000
0000
0010
0000
0000
0001
0000
0000
,
1000
1000
0010
0100
,
0001
0001
0000
2002
,
3003
1000
0001
1000
,
0001
1000
0002
0000
,
1003
0010
1000
0100
,
1000
0010
1000
0001
,
0010
0001
0100
0001
,
0010
0001
1000
0000
,
0001
0000
0001
0100
,
0010
1000
0001
0010
,
0010
0100
0100
1000
,
1000
0100
0100
0000
,
1000
0010
0100
0000
,
0001
0010
0010
0110
,
0000
0010
0100
0010
,
0100
0010
0100
0000
,
1000
0100
1100
0000
,
0001
0100
0101
0000
,
1000
0010
0010
0100
,
0001
0001
0010
0010
,
0001
0000
0000
1000
0000
0100
0000
0010
,
0000
0000
0001
0000
0100
0010
0000
0000
,
1001
0000
0000
0000
,
0000
0000
0000
2002
,
0000
0000
0000
0000
,
0000
0000
0000
0000
,
0000
0000
0000
0000
,
0000
0000
0000
0000
,
3003
0000
0000
0000
;

//---------------dance-single - ----------------
#NOTEDATA:;
#CHARTNAME:;
#STEPSTYPE:dance-single;
#DESCRIPTION:;
#CHARTSTYLE:;
#DIFFICULTY:Beginner;
#METER:6;
#RADARVALUES:0.271029,0.382291,0.036485,0.054727,0.000000,208.000000,204.000000,4.000000,6.000000,0.000000,0.000000,0.000000,0.000000,0.000000,0.271029,0.382291,0.036485,0.054727,0.000000,208.000000,204.000000,4.000000,6.000000,0.000000,0.000000,0.000000,0.000000,0.000000;
#CREDIT:Karl with a K;
#NOTES:
// measure 0
0000
0000
0000
0000
,  // measure 1
0000
0000
0000
0000
,  // measure 2
0000
0000
0000
0000
,  // measure 3
0000
0000
0000
0000
,  // measure 4
0000
0000
0000
0000
,  // measure 5
0000
0000
0000
0000
,  // measure 6
0000
0000
0000
0000
,  // measure 7
0000
0000
0000
0000
,  // measure 8
0000
0000
0000
0000
,  // measure 9
0000
0000
1000
0000
,  // measure 10
0100
0000
1000
0000
,  // measure 11
0000
0000
0001
0000
,  // measure 12
0100
0000
0001
0000
,  // measure 13
0000
0000
1000
0000
,  // measure 14
1000
0000
1000
0000
,  // measure 15
0000
0000
0001
0000
,  // measure 16
0010
0000
0001
0000
,  // measure 17
0010
0000
0001
0000
,  // measure 18
0100
0000
0001
0000
,  // measure 19
0000
0000
1000
0000
,  // measure 20
0100
0000
1000
0000
,  // measure 21
0000
0000
0001
0000
,  // measure 22
0001
0000
0001
0000
,  // measure 23
0000
0000
1000
0000
,  // measure 24
0010
0000
1000
0000
,  // measure 25
0010
0000
1000
0000
,  // measure 26
1000
0000
0001
0000
,  // measure 27
0001
0000
1000
0000
,  // measure 28
1000
0000
0001
0000
,  // measure 29
0010
0000
0001
0000
,  // measure 30
0100
0000
0010
0000
,  // measure 31
0100
0000
0001
0000
,  // measure 32
0010
0000
0100
0000
,  // measure 33
1000
0000
2002
0000
,  // measure 34
0000
0000
0000
0000
,  // measure 35
0000
0000
3003
0000
,  // measure 36
0000
0000
0000
0000
,  // measure 37
0000
0000
1000
0000
,  // measure 38
0100
0000
0010
0000
,  // measure 39
0100
0000
1000
0000
,  // measure 40
0010
0000
0100
0000
,  // measure 41
0010
0000
1000
0000
,  // measure 42
0001
0000
0100
0000
,  // measure 43
0010
0000
2000
0000
,  // measure 44
3000
1000
1000
0000
,  // measure 45
0100
0000
0010
0000
,  // measure 46
0100
0000
1000
0000
,  // measure 47
0001
0000
0010
0010
,  // measure 48
0010
0000
0001
0000
,  // measure 49
0000
0100
0000
0000
,  // measure 50
0010
0000
1000
0000
,  // measure 51
0000
0100
0000
0000
,  // measure 52
0010
0000
0001
0000
,  // measure 53
0000
0010
0000
0000
,  // measure 54
0001
0000
1000
0000
,  // measure 55
0100
0000
0010
0000
,  // measure 56
0001
0000
1000
0000
,  // measure 57
0000
0000
0000
0000
,  // measure 58
0001
0000
0001
0000
,  // measure 59
0000
0000
0100
0000
,  // measure 60
0000
0000
0010
0010
,  // measure 61
0000
0000
0010
0010
,  // measure 62
0000
0020
0000
0000
,  // measure 63
0030
0000
1000
0000
,  // measure 64
1000
0000
0001
0000
,  // measure 65
0000
0010
0000
0000
,  // measure 66
0100
0000
1000
0000
,  // measure 67
0001
0000
1000
0000
,  // measure 68
0001
0000
0100
0000
,  // measure 69
0000
0100
0000
0000
,  // measure 70
0010
0000
0020
0000
,  // measure 71
0030
0000
1000
0000
,  // measure 72
0010
0000
0100
0000
,  // measure 73
0001
0000
0010
0000
,  // measure 74
0000
0010
0000
0000
,  // measure 75
0100
0000
0100
0000
,  // measure 76
1000
0000
0001
0000
,  // measure 77
0001
0000
1000
0000
,  // measure 78
1000
0000
0001
0000
,  // measure 79
0001
0000
1000
0000
,  // measure 80
0010
0000
0100
0000
,  // measure 81
0010
0000
1000
0000
,  // measure 82
0100
0000
0010
0000
,  // measure 83
0001
0000
0100
0000
,  // measure 84
0010
0000
1000
0000
,  // measure 85
0001
0000
1001
0000
,  // measure 86
1000
0000
0010
0000
,  // measure 87
0100
0000
0001
0000
,  // measure 88
0001
0000
1000
0000
,  // measure 89
0001
0000
0010
0000
,  // measure 90
0100
0000
0010
0000
,  // measure 91
0001
0000
1000
0000
,  // measure 92
0001
0000
0010
0000
,  // measure 93
0100
0000
1000
0000
,  // measure 94
0010
0000
0100
0000
,  // measure 95
0001
0000
0001
0000
,  // measure 96
0010
0010
0000
0000
,  // measure 97
0010
0010
0000
0020
,  // measure 98
0000
0000
0030
0000
,  // measure 99
0100
0000
0100
0000
,  // measure 100
1000
1000
1000
0000
,  // measure 101
0010
0000
0100
0000
,  // measure 102
0001
0001
0001
0000
,  // measure 103
0100
0000
0010
0000
,  // measure 104
1000
1000
1000
0000
,  // measure 105
0100
0000
0010
0000
,  // measure 106
0001
0001
0001
0000
,  // measure 107
0010
0000
0100
0000
,  // measure 108
1000
0000
0110
0000
,  // measure 109
0001
0000
0100
0000
,  // measure 110
0010
0000
1000
0000
,  // measure 111
0100
0000
0010
0000
,  // measure 112
0001
0001
0001
0000
,  // measure 113
1000
1000
1000
0000
,  // measure 114
0001
0001
0001
0000
,  // measure 115
1000
1000
1000
0000
,  // measure 116
0100
0000
0010
0000
,  // measure 117
0100
0000
0010
0000
,  // measure 118
0001
0000
0100
0000
,  // measure 119
0010
0000
0000
0110
;
