#VERSION:0.83;
#TITLE:SUPER HOT EDM MEGA MIX 2020;
#SUBTITLE:;
#ARTIST:心のノート;
#TITLETRANSLIT:;
#SUBTITLETRANSLIT:;
#ARTISTTRANSLIT:;
#GENRE:;
#ORIGIN:;
#CREDIT:;
#BANNER:SUPER HOT EDM MEGA MIX 2020 banner.png;
#BACKGROUND:SUPER HOT EDM MEGA MIX 2020 bg.png;
#PREVIEWVID:;
#JACKET:SUPER HOT EDM MEGA MIX 2020 jk.png;
#CDIMAGE:;
#DISCIMAGE:;
#LYRICSPATH:;
#CDTITLE:;
#MUSIC:SUPER HOT EDM MEGA MIX 2020.ogg;
#OFFSET:-0.001000;
#SAMPLESTART:18.750999;
#SAMPLELENGTH:15.000000;
#SELECTABLE:YES;
#BPMS:0.000=128.000;
#STOPS:226.000=0.469;
#DELAYS:;
#WARPS:;
#TIMESIGNATURES:0.000=4=4;
#TICKCOUNTS:0.000=4;
#COMBOS:0.000=1;
#SPEEDS:0.000=1.000=0.000=0;
#SCROLLS:0.000=1.000;
#FAKES:;
#LABELS:0.000=Song Start;
#BGCHANGES:;
#KEYSOUNDS:;
#ATTACKS:
;

//---------------dance-single - XO FS- DS JA XMOD BU- JU-----------------
#NOTEDATA:;
#CHARTNAME:;
#STEPSTYPE:dance-single;
#DESCRIPTION:XO FS- DS JA XMOD BU- JU-;
#CHARTSTYLE:;
#DIFFICULTY:Hard;
#METER:15;
#RADARVALUES:0.617139,0.836801,0.069552,0.448226,0.598923,559.000000,550.000000,9.000000,58.000000,3.000000,0.000000,0.000000,0.000000,0.000000,0.617139,0.836801,0.069552,0.448226,0.598923,559.000000,550.000000,9.000000,58.000000,3.000000,0.000000,0.000000,0.000000,0.000000;
#CREDIT:Karl with a K as djkhaled;
#NOTES:
// measure 0
0000
0000
0000
0000
,  // measure 1
0000
0000
0000
0000
,  // measure 2
0000
0000
0000
0000
,  // measure 3
0000
0000
0000
0000
,  // measure 4
0000
0000
0000
0000
,  // measure 5
0000
0000
0000
0000
,  // measure 6
1000
0100
1000
0100
0010
0100
0010
0100
,  // measure 7
0001
0100
0001
0100
0010
0100
0010
0100
,  // measure 8
1000
0000
0001
0000
1000
0000
0001
0000
0100
0000
0010
0000
0100
0000
0010
0000
1000
0000
0010
0100
0010
0000
1000
0000
0001
0000
0100
0000
0010
0000
1000
0000
,  // measure 9
0100
0010
0100
0010
0100
0100
0010
0010
0001
0000
0100
1000
0100
0001
1000
0000
,  // measure 10
1010
0000
0001
0010
0000
0000
1010
0000
0001
0010
0000
0000
0200
0000
0301
0100
,  // measure 11
0010
0001
1000
0000
0010
0000
0100
0000
1000
0000
0100
0000
0010
0000
0010
0000
,  // measure 12
1001
0000
0000
0011
0000
0000
0011
0000
0010
0100
0010
0100
2000
0000
3010
0000
,  // measure 13
0210
0000
0000
0000
0301
0000
0100
0000
0001
0000
1000
1000
0100
1000
0001
0000
,  // measure 14
0011
0000
1000
0010
0000
0000
0011
0000
1000
0010
0000
0000
0200
0000
1300
0100
,  // measure 15
0010
0000
0010
0000
1000
0001
0010
0100
0002
0000
0000
0000
0103
0000
1000
0000
,  // measure 16
1000
0100
0100
1000
0100
0100
0010
0001
,  // measure 17
0100
0020
0000
0000
1030
0200
0000
0000
2300
0000
3010
0200
0000
0301
0020
0000
,  // measure 18
0130
0000
0000
0000
0000
0000
0100
0000
0000
0000
0000
0000
0010
0000
0000
0001
0000
0000
0010
0000
0000
0001
0000
0000
1000
0000
0000
0000
1000
0000
0000
0000
1000
0000
0000
0000
0001
0000
0000
0000
0000
0000
0001
0000
0000
0100
0000
0000
,  // measure 19
0000
0000
0000
0000
0000
0000
0100
0000
0000
0000
0000
0000
0010
0000
0000
1000
0000
0000
0010
0000
0000
1000
0000
0000
0001
0000
0000
0000
0001
0000
0000
0000
0001
0000
0000
0000
0010
0000
0000
0000
0000
0000
0010
0000
0000
0000
0000
0000
,  // measure 20
0100
0000
0000
0000
0000
0000
0100
0000
0000
0000
0000
0000
1000
0000
0000
0010
0000
0000
1000
0000
0000
0010
0000
0000
0100
0000
0000
0000
0100
0000
0000
0000
0100
0000
0000
0000
0001
0000
0000
0000
0000
0000
0001
0000
0000
1000
0000
0000
,  // measure 21
0000
0000
0100
0000
0010
0001
0010
0001
0200
0000
0310
2000
3100
1000
0001
0000
,  // measure 22
0100
0000
0000
0000
0000
0000
0100
0000
0000
0000
0000
0000
0010
0000
0000
1000
0000
0000
0010
0000
0000
1000
0000
0000
0001
0000
0000
0000
0001
0000
0000
0000
0001
0000
0000
0000
1000
0000
0000
0000
0000
0000
1000
0000
0000
0100
0000
0000
,  // measure 23
0000
0000
0000
0000
0000
0000
0100
0000
0000
0000
0000
0000
0010
0000
0000
0001
0000
0000
0010
0000
0000
0001
0000
0000
1000
0000
0000
0000
1000
0000
0000
0000
1000
0000
0000
0000
0010
0000
0000
0000
0000
0000
0010
0000
0000
0000
0000
0000
,  // measure 24
0100
0000
0000
0000
0000
0000
0100
0000
0000
0000
0000
0000
0001
0000
0000
0010
0000
0000
0001
0000
0000
0010
0000
0000
0100
0000
0000
0000
0100
0000
0000
0000
0100
0000
0000
0000
1000
0000
0000
0000
0000
0000
1000
0000
0000
0001
0000
0000
,  // measure 25
0000
0000
0010
0000
0001
1000
0000
0000
0200
0000
0310
0002
0103
0001
1000
0000
,  // measure 26
0001
0000
0100
0000
0001
1000
0000
0000
0100
0000
0100
0010
0000
0010
0100
0000
,  // measure 27
1000
0000
0100
0000
1000
0001
0100
0000
0001
0000
1000
0010
0000
0010
0100
0000
,  // measure 28
0001
0000
0010
0000
0001
1000
0000
0000
0010
0000
0010
0100
0000
0100
0010
0000
,  // measure 29
1000
0000
0010
0000
1000
0001
0010
0000
0020
0000
0130
2000
3010
1000
0100
0000
,  // measure 30
1000
0000
0100
0000
1000
0001
0000
0000
0100
0000
0100
0010
0000
0010
0100
0000
,  // measure 31
0001
0000
0100
0000
0001
1000
0100
0000
1000
0000
0001
0010
0000
0010
0100
0000
,  // measure 32
0010
0001
0100
0010
0010
1000
0100
0010
,  // measure 33
0002
0000
2003
0000
3002
0000
2003
0000
3001
0000
0001
0000
2000
3000
0001
0000
,  // measure 34
1000
0000
0100
0010
0001
0000
0010
0000
0001
0000
0100
0010
1000
0000
0010
0000
,  // measure 35
1000
0000
0010
0100
0001
0000
0100
0000
0001
0000
0010
0000
0100
0000
1000
0000
,  // measure 36
0001
0000
0100
0010
0001
0000
0010
0000
1000
0000
0100
0010
1000
0000
0010
0000
,  // measure 37
0001
0000
0100
0010
0001
0000
0010
0000
1000
0000
0000
0001
0000
0000
0001
0000
,  // measure 38
1000
0000
0001
0000
0001
0010
0000
0000
0200
0000
0000
0000
0310
0000
0000
0010
,  // measure 39
0001
1000
0001
0000
1000
0010
0000
0000
0200
0000
0000
0000
0310
0000
0000
0010
,  // measure 40
1000
0000
0000
0000
0100
0000
0000
0000
1000
0000
0100
0000
0000
00M0
0000
0000
0200
0000
0000
0000
0300
0000
0000
0000
0010
0000
0000
0000
0000
0000
0010
0000
,  // measure 41
1000
0001
1000
0000
0001
0100
0000
0000
0010
0000
0010
0000
1000
0000
1000
0000
,  // measure 42
0001
0000
1000
0000
1000
0020
1000
0000
0230
0000
0001
0000
0310
0000
0000
0010
,  // measure 43
1000
0001
1000
0000
0001
0020
0001
0000
0230
0000
1000
0000
0310
0000
0000
0010
,  // measure 44
0001
0000
0010
0000
0001
0000
0000
0000
0001
0000
0100
0000
0000
00M0
0000
0000
0200
0000
0000
0000
0310
0000
0100
0000
0010
0000
0001
0000
0010
0000
0000
0000
,  // measure 45
0010
0001
1000
0000
1000
0100
0000
0100
1000
0000
0000
0000
0001
0000
0100
0000
,  // measure 46
0020
1000
0100
0032
,  // measure 47
0023
0001
0100
2030
,  // measure 48
3200
0001
0010
2300
,  // measure 49
3200
0000
0000
0000
1000
0000
0000
0000
0010
0000
0000
0000
0302
0100
0000
0103
,  // measure 50
1000
0000
0010
0000
0100
0001
0100
0000
0001
0000
0010
0000
0100
0000
1000
0100
,  // measure 51
1000
0000
0100
0000
0010
0001
0010
0000
0001
0000
0100
0000
0010
0000
0100
0010
,  // measure 52
1000
0000
0010
0000
0100
0001
0100
0000
0001
0000
0010
0000
0100
0000
0010
0100
,  // measure 53
0001
0000
0100
0000
0010
0001
0010
0000
0100
0000
0100
0000
0100
0000
0100
0020
,  // measure 54
1000
1000
0100
0032
,  // measure 55
0203
1000
0010
0302
,  // measure 56
0013
0000
0010
0000
0010
0000
0010
0M00
0020
0000
0030
0000
1000
0000
1000
0000
,  // measure 57
0001
0000
0001
0000
1000
0000
0001
0000
1200
0000
0000
0000
0320
0000
0031
1000
,  // measure 58
0020
0000
1030
0001
0010
0001
1000
0010
0000
0000
0100
0020
0000
0000
1030
0001
,  // measure 59
0020
0000
0130
1000
0001
0100
0001
0100
0010
0000
1000
0000
0020
0000
1030
0001
,  // measure 60
0020
0000
0031
1000
0010
1000
0001
0010
0000
0000
0100
0020
0000
0000
0031
1000
,  // measure 61
0020
0000
0130
0001
1000
0100
1000
0100
0010
0000
0020
0000
0032
0000
0103
0010
,  // measure 62
0002
0000
0013
0100
0001
1000
0100
0010
0000
0000
0001
2000
0000
0000
3100
0010
,  // measure 63
2000
0000
3010
0100
1000
0001
0100
0010
0100
0000
0100
0000
0010
0000
0010
0000
,  // measure 64
0010
0010
2000
0001
3002
0013
0010
0100
,  // measure 65
0100
0000
0100
0000
1000
0000
0000
0000
0001
0100
0010
0000
0000
0000
0000
0000
;

//---------------dance-single - ----------------
#NOTEDATA:;
#CHARTNAME:;
#STEPSTYPE:dance-single;
#DESCRIPTION:;
#CHARTSTYLE:;
#DIFFICULTY:Medium;
#METER:11;
#RADARVALUES:0.428354,0.456437,0.092736,0.139105,0.100464,388.000000,376.000000,12.000000,18.000000,0.000000,0.000000,0.000000,0.000000,0.000000,0.428354,0.456437,0.092736,0.139105,0.100464,388.000000,376.000000,12.000000,18.000000,0.000000,0.000000,0.000000,0.000000,0.000000;
#CREDIT:Karl with a K as djkhaled;
#NOTES:
// measure 0
0000
0000
0000
0000
,  // measure 1
0000
0000
0000
0000
,  // measure 2
0000
0000
0000
0000
,  // measure 3
0000
0000
0000
0000
,  // measure 4
0000
0000
0000
0000
,  // measure 5
0000
0000
0000
0000
,  // measure 6
1000
0000
1000
0000
0001
0000
0001
0100
,  // measure 7
0020
0100
2030
0001
,  // measure 8
3100
0010
0100
0010
0001
1000
0100
1000
,  // measure 9
0001
0001
1000
1000
0010
0000
0100
0010
,  // measure 10
1001
0000
0000
0100
0000
0000
1001
0000
0000
0100
0000
0000
0010
0000
0100
0000
,  // measure 11
1001
0000
0001
0100
0010
0100
0001
0001
,  // measure 12
1000
0000
0000
1000
0000
0000
1000
0000
0010
0000
1000
0000
0100
0000
0010
0000
,  // measure 13
0002
0000
1003
0100
1000
2000
3001
0100
,  // measure 14
1001
0000
0000
0100
0000
0000
1001
0000
0000
0100
0000
0000
0010
0000
0100
0000
,  // measure 15
1001
1000
0100
0010
0100
1000
0001
0001
,  // measure 16
1000
0100
1000
0000
0001
0100
0001
0100
,  // measure 17
0010
0000
0000
0000
0010
0000
0000
0000
0100
0000
0000
0100
0000
0000
0010
0000
,  // measure 18
1000
0000
0000
0000
0000
0000
0000
0000
0000
0000
0000
0000
0010
0000
0000
0000
0000
0000
0010
0000
0000
0000
0000
0000
1000
0000
0000
0000
0001
0000
0000
0000
1000
0000
0000
0000
0001
0000
0000
0000
0000
0000
0000
0000
0000
0100
0000
0000
,  // measure 19
0000
0000
0000
0001
0000
0000
0010
0000
0000
0010
0000
0000
0001
0000
1000
0000
0001
0000
1000
0000
0000
1000
0000
0000
,  // measure 20
0001
0000
0000
0000
0000
0000
0000
0000
0000
0000
0000
0000
0010
0000
0000
0000
0000
0000
0010
0000
0000
0000
0000
0000
0001
0000
0000
0000
1000
0000
0000
0000
0001
0000
0000
0000
1000
0000
0000
0000
0000
0000
0000
0000
0000
0100
0000
0000
,  // measure 21
0000
1000
0010
0010
1000
0000
0110
0000
,  // measure 22
0001
0000
0000
0000
0000
0000
0000
0000
0000
0000
0000
0000
0100
0000
0000
0000
0000
0000
0100
0000
0000
0000
0000
0000
0001
0000
0000
0000
1000
0000
0000
0000
0001
0000
0000
0000
1000
0000
0000
0000
0000
0000
0000
0000
0000
0010
0000
0000
,  // measure 23
0000
0000
0000
1000
0000
0000
0100
0000
0000
0100
0000
0000
1000
0000
0001
0000
1000
0000
0001
0000
0000
0001
0000
0000
,  // measure 24
1000
0000
0000
0000
0000
0000
0000
0000
0000
0000
0000
0000
0100
0000
0000
0000
0000
0000
0100
0000
0000
0000
0000
0000
1000
0000
0000
0000
0001
0000
0000
0000
1000
0000
0000
0000
0001
0000
0000
0000
0000
0000
0000
0000
0000
0010
0000
0000
,  // measure 25
0000
0000
0001
0000
0000
0100
0000
0000
0001
0000
0000
0000
0110
0000
0000
0000
,  // measure 26
1000
0100
1000
0000
0001
0100
0001
0100
,  // measure 27
0010
0100
0010
0100
0000
1000
0100
0010
,  // measure 28
1000
0010
1000
0000
0001
0010
0001
0010
,  // measure 29
0100
0010
0100
0010
1000
0010
0001
0100
,  // measure 30
0001
0100
0001
0000
1000
0100
1000
0100
,  // measure 31
0010
0100
0010
0100
0000
0001
0100
0010
,  // measure 32
0001
0001
0100
0000
0010
0010
1000
0000
,  // measure 33
0020
0000
0032
0000
0013
0010
0100
0010
,  // measure 34
1000
0100
0010
0000
0001
0100
0010
0000
,  // measure 35
1000
0100
0010
0001
0000
1000
0010
0010
,  // measure 36
1000
0010
0100
0000
0001
0010
0100
0000
,  // measure 37
1000
0010
0100
0001
0000
0000
1001
0000
,  // measure 38
1000
0010
0100
0000
0002
0000
1003
0000
,  // measure 39
0001
0010
0100
0000
1000
1000
0001
0000
,  // measure 40
1000
0001
1000
0000
0110
0000
0000
0000
,  // measure 41
1000
1000
0000
0002
0000
0000
1003
0000
,  // measure 42
0001
0010
0100
0000
2000
0000
3001
0000
,  // measure 43
1000
0010
0100
0001
1000
0001
1000
0000
,  // measure 44
0001
1000
0001
0000
0110
0000
0000
0000
,  // measure 45
1000
0001
1000
2000
0000
0000
3001
0000
,  // measure 46
1000
1000
0000
0002
0000
0000
1003
0000
,  // measure 47
1000
0001
1000
2000
0000
0000
3001
0000
,  // measure 48
0001
0001
0000
2000
0000
0000
3001
0000
,  // measure 49
0001
1000
0001
0002
0000
0000
1003
0000
,  // measure 50
0001
0100
0010
0010
0100
0001
1000
0001
,  // measure 51
1000
0100
0010
0010
0001
1000
0001
1000
,  // measure 52
0001
0010
0100
0100
0010
0001
1000
0001
,  // measure 53
1000
0010
0100
0100
0001
0001
0001
0000
,  // measure 54
1000
1000
0000
0002
0000
0000
1003
0000
,  // measure 55
1000
0001
1000
2000
0000
0000
3001
0001
,  // measure 56
0010
0100
0010
0100
0220
0330
0001
0001
,  // measure 57
1000
0001
1000
1000
0001
0000
0010
0010
,  // measure 58
0001
0000
0001
0000
0010
0000
0001
0000
1000
0000
0000
0010
0000
0000
0010
0000
,  // measure 59
1000
1000
0010
1000
0001
0000
0010
0010
,  // measure 60
0001
0000
0001
0000
0100
0000
0010
0000
1000
0000
0000
0010
0000
0000
0010
0000
,  // measure 61
1000
1000
0100
0010
0100
0010
0010
1000
,  // measure 62
0010
0000
0100
0000
1000
0000
0010
0000
0100
0000
0000
0010
0000
0000
0001
0000
,  // measure 63
0010
0100
0001
0010
0100
0000
0010
0000
,  // measure 64
0010
0100
0100
1000
,  // measure 65
1000
0000
0001
0000
0100
0100
0000
0000
;

//---------------dance-single - ----------------
#NOTEDATA:;
#CHARTNAME:;
#STEPSTYPE:dance-single;
#DESCRIPTION:;
#CHARTSTYLE:;
#DIFFICULTY:Easy;
#METER:7;
#RADARVALUES:0.219697,0.253093,0.069552,0.007728,0.000000,199.000000,190.000000,9.000000,1.000000,0.000000,0.000000,0.000000,0.000000,0.000000,0.219697,0.253093,0.069552,0.007728,0.000000,199.000000,190.000000,9.000000,1.000000,0.000000,0.000000,0.000000,0.000000,0.000000;
#CREDIT:Karl with a K as djkhaled;
#NOTES:
// measure 0
0000
0000
0000
0000
,  // measure 1
0000
0000
0000
0000
,  // measure 2
0000
0000
0000
0000
,  // measure 3
0000
0000
0000
0000
,  // measure 4
0000
0000
0000
0000
,  // measure 5
0000
0000
0000
0000
,  // measure 6
1000
0000
1000
0000
,  // measure 7
0001
0000
0001
0000
,  // measure 8
0100
0010
1000
0100
,  // measure 9
0010
0010
0010
0001
,  // measure 10
1001
0000
0000
1001
0000
0000
0000
0000
,  // measure 11
1000
0010
0010
0010
,  // measure 12
1000
0001
0010
0100
,  // measure 13
0010
0010
0001
1000
,  // measure 14
1001
0000
0000
1001
0000
0000
0000
0000
,  // measure 15
0001
0010
0010
0010
,  // measure 16
0001
0000
1000
0000
,  // measure 17
0010
0010
0100
0100
,  // measure 18
0001
0010
0100
0100
,  // measure 19
1000
0010
0100
0010
,  // measure 20
1000
0010
0100
0100
,  // measure 21
0001
0010
0100
0110
,  // measure 22
1000
0010
0100
0100
,  // measure 23
0001
0010
0100
0010
,  // measure 24
0001
0010
0100
0100
,  // measure 25
1000
0001
1000
1001
,  // measure 26
0001
0100
0001
0000
,  // measure 27
1000
0100
0010
0001
,  // measure 28
1000
0100
1000
0000
,  // measure 29
0001
0100
0010
0010
,  // measure 30
1000
0010
1000
0000
,  // measure 31
0001
0010
0100
1000
,  // measure 32
0001
0001
0001
0000
,  // measure 33
2000
0000
3001
0000
,  // measure 34
1000
0010
1000
0010
,  // measure 35
1000
0001
0010
0001
,  // measure 36
0010
0010
0100
0100
,  // measure 37
1000
0010
0100
0000
,  // measure 38
0001
0000
0001
0000
,  // measure 39
1000
0000
1000
0000
,  // measure 40
0001
0000
1001
0000
,  // measure 41
1000
0000
0000
0001
0000
0000
0000
0000
,  // measure 42
1000
0000
1000
0000
,  // measure 43
0001
0000
0001
0001
,  // measure 44
1000
0000
1001
0000
,  // measure 45
0001
0001
1000
0000
,  // measure 46
1000
0000
0000
0001
0000
0000
0000
0000
,  // measure 47
0001
0001
1000
0000
,  // measure 48
0001
0000
0000
1000
0000
0000
0000
0000
,  // measure 49
1000
1000
0001
0000
,  // measure 50
0001
0010
0001
0010
,  // measure 51
0001
1000
0010
1000
,  // measure 52
0010
0100
0010
0100
,  // measure 53
0001
0010
0100
0100
,  // measure 54
1000
0000
0000
0001
0000
0000
0000
0000
,  // measure 55
0001
0001
1000
0000
,  // measure 56
0010
0000
0110
1000
,  // measure 57
0001
0001
1000
0010
,  // measure 58
1000
0100
0000
0010
,  // measure 59
0001
0100
0000
0010
,  // measure 60
1000
0100
0000
0010
,  // measure 61
0001
0100
0010
0100
,  // measure 62
0001
0010
0000
0100
,  // measure 63
1000
0010
0000
0010
,  // measure 64
0000
1000
0000
1000
,  // measure 65
0000
0100
0100
0000
;

//---------------dance-single - XO DS- JA- XMOD JU Mines- Spins-----------------
#NOTEDATA:;
#CHARTNAME:;
#STEPSTYPE:dance-single;
#DESCRIPTION:XO DS- JA- XMOD JU Mines- Spins-;
#CHARTSTYLE:;
#DIFFICULTY:Challenge;
#METER:13;
#RADARVALUES:0.431666,0.557867,0.185473,0.170017,0.142969,391.000000,367.000000,24.000000,22.000000,12.000000,0.000000,0.000000,0.000000,0.000000,0.431666,0.557867,0.185473,0.170017,0.142969,391.000000,367.000000,24.000000,22.000000,12.000000,0.000000,0.000000,0.000000,0.000000;
#CREDIT:Karl with a K as djkhaled;
#NOTES:
// measure 0
0000
0000
0000
0000
,  // measure 1
0000
0000
0000
0000
,  // measure 2
0001
0000
1000
0001
0010
0100
0010
0100
,  // measure 3
0220
0000
0330
1000
0200
0000
0000
0000
,  // measure 4
0300
0000
1000
0010
0001
0010
1000
0000
,  // measure 5
0001
0010
0100
0000
2002
0000
0000
0000
,  // measure 6
3003
0000
0000
1000
0010
0100
0010
0100
,  // measure 7
0202
0000
0303
1000
0020
0000
0000
0000
,  // measure 8
0030
0000
1000
0100
0010
0001
0100
0010
,  // measure 9
1000
0001
1000
0001
1000
0001
1000
0001
1000
0000
0100
0000
0010
0000
0001
0000
,  // measure 10
1000
0000
0020
0001
0000
0000
1030
0000
0010
0001
0000
0000
0010
0000
0100
0010
,  // measure 11
1000
1000
0100
0100
0010
0010
0001
0000
,  // measure 12
0100
0000
0000
0100
0000
0000
0100
0000
0001
1000
0001
0000
1000
0000
0000
0000
,  // measure 13
0200
0000
0310
0000
0001
0001
1000
0000
,  // measure 14
0001
0000
0020
1000
0000
0000
0031
0000
0010
1000
0000
0000
0010
0000
0100
0010
,  // measure 15
0001
0001
0100
0100
0010
0010
1000
0000
,  // measure 16
0200
0000
1300
0000
0010
1000
0001
0000
,  // measure 17
0010
0001
1000
0000
0100
0010
0001
0000
,  // measure 18
1000
0000
0000
0000
0000
0000
0001
0000
0000
0000
0000
0000
0100
0000
0000
0000
0000
0000
0100
0000
0000
0000
0000
0000
0010
0000
0000
0000
1000
0000
0000
0000
0100
0000
0000
0000
0010
0000
0000
0000
0000
0000
0010
0000
0000
0100
0000
0000
,  // measure 19
0000
0000
0000
1000
0000
0000
0100
0000
0000
0100
0000
0000
0010
0000
0001
0000
0100
0000
0001
0000
0000
0001
0000
0000
,  // measure 20
0000
0000
0000
0000
0000
0000
1000
0000
0000
0000
0000
0000
0100
0000
0000
0000
0000
0000
0100
0000
0000
0000
0000
0000
0010
0000
0000
0000
0001
0000
0000
0000
0100
0000
0000
0000
0010
0000
0000
0000
0000
0000
0010
0000
0000
1000
0000
0000
,  // measure 21
0000
0000
0100
0000
1000
0000
1000
0000
0010
0000
1000
0001
0000
1000
0100
0000
,  // measure 22
1000
0000
0000
0000
0000
0000
0001
0000
0000
0000
0000
0000
0010
0000
0000
0000
0000
0000
0010
0000
0000
0000
0000
0000
0100
0000
0000
0000
1000
0000
0000
0000
0010
0000
0000
0000
0100
0000
0000
0000
0000
0000
0100
0000
0000
0010
0000
0000
,  // measure 23
0000
0000
0000
1000
0000
0000
0010
0000
0000
0010
0000
0000
0100
0000
0001
0000
0010
0000
0001
0000
0000
0001
0000
0000
,  // measure 24
0000
0000
0000
0000
0000
0000
1000
0000
0000
0000
0000
0000
0010
0000
0000
0000
0000
0000
0010
0000
0000
0000
0000
0000
0100
0000
0000
0000
0001
0000
0000
0000
0010
0000
0000
0000
0100
0000
0000
0000
0000
0000
1000
0000
0000
0010
0000
0000
,  // measure 25
0000
0000
0100
0000
0000
0001
0000
0000
0010
0000
0100
1000
0000
1000
0010
0000
,  // measure 26
0200
0000
0301
0000
0010
0001
1000
0000
,  // measure 27
0010
1000
0001
0000
0100
0010
1000
0000
,  // measure 28
0200
0000
0310
0000
0100
1000
0001
0000
,  // measure 29
0100
0000
0001
0000
0010
0000
0000
0000
0001
0000
0000
0010
0000
0000
1000
0000
,  // measure 30
0020
0100
0130
0000
1000
0010
1000
0001
,  // measure 31
1000
0000
0001
0100
0010
0000
0100
0000
,  // measure 32
0001
0000
0000
0000
,  // measure 33
0000
0000
0000
0000
,  // measure 34
1000
0010
0000
0001
0010
0001
0000
1000
,  // measure 35
0010
1000
0010
0100
0000
0010
1000
0010
,  // measure 36
0001
0010
0000
1000
0010
1000
0000
0001
,  // measure 37
0010
0001
0010
0200
0000
0000
0301
0000
,  // measure 38
0000
1000
0010
1000
0200
0000
0310
0000
,  // measure 39
0000
0001
0100
0001
0020
0000
0130
0000
,  // measure 40
0000
0010
MMMM
0001
,  // measure 41
1000
0001
0000
0200
0000
0000
0301
0000
,  // measure 42
0000
0001
0100
0001
2000
0000
3010
0000
,  // measure 43
0000
1000
0100
1000
0002
0000
0013
0000
,  // measure 44
0000
1000
MMMM
0001
,  // measure 45
1000
0010
0001
0020
0000
0000
0130
0000
,  // measure 46
1010
1001
1100
0100
,  // measure 47
0011
1001
0101
0100
,  // measure 48
0101
1001
0011
0010
,  // measure 49
1100
1001
1010
0010
,  // measure 50
0100
0001
0000
0100
1000
0100
0000
0100
,  // measure 51
0001
0100
0001
0010
0001
1000
0001
1000
,  // measure 52
0100
0001
0000
0100
1000
0100
1001
0000
,  // measure 53
0001
0001
1000
0010
1000
1000
1000
0000
,  // measure 54
1010
1001
1100
0100
,  // measure 55
0011
1001
0101
0100
,  // measure 56
1001
0110
MMMM
0000
,  // measure 57
0000
0000
0000
0000
1000
0000
0100
0100
,  // measure 58
1000
0000
1000
0000
0100
0000
1000
0000
0001
0000
0000
0100
0000
0000
0100
0000
,  // measure 59
0001
0001
0100
0001
1000
0000
0100
0100
,  // measure 60
1000
0000
1000
0000
0010
0000
0100
0000
0001
0000
0000
0100
0000
0000
0100
0000
,  // measure 61
0001
0001
0010
0100
0010
0100
0100
0001
,  // measure 62
0100
0000
0010
0000
0001
0000
0100
0000
0010
0000
0000
0100
0000
0000
1000
0000
,  // measure 63
0100
0010
1000
0100
0010
0000
0100
0000
,  // measure 64
0100
0010
0010
0001
,  // measure 65
0001
0000
1000
0000
0010
0010
0000
0000
;

//---------------dance-single - ----------------
#NOTEDATA:;
#CHARTNAME:;
#STEPSTYPE:dance-single;
#DESCRIPTION:;
#CHARTSTYLE:;
#DIFFICULTY:Beginner;
#METER:3;
#RADARVALUES:0.130273,0.176489,0.000000,0.038640,0.000000,118.000000,118.000000,0.000000,5.000000,0.000000,0.000000,0.000000,0.000000,0.000000,0.130273,0.176489,0.000000,0.038640,0.000000,118.000000,118.000000,0.000000,5.000000,0.000000,0.000000,0.000000,0.000000,0.000000;
#CREDIT:Karl with a K;
#NOTES:
0000
0000
0000
0000
,
0000
0000
0000
0000
,
0000
0000
0000
0000
,
0000
0000
0000
0000
,
0000
0000
0000
0000
,
0000
0000
0000
0000
,
1000
0000
0000
0000
,
0001
0000
0000
0000
,
0100
0000
0100
0000
,
0020
0000
0030
0000
,
1000
0000
0000
1000
0000
0000
0000
0000
,
0100
0000
0010
0000
,
0001
0000
0001
0000
,
1000
0000
1000
0000
,
0001
0000
0000
0001
0000
0000
0000
0000
,
0100
0000
0010
0000
,
1000
0000
0001
0000
,
1000
0000
0001
0000
,
0100
0000
0010
0000
,
0100
0000
0010
0000
,
0100
0000
0010
0000
,
1000
0000
0000
0100
,
0100
0000
0010
0000
,
0100
0000
0010
0000
,
0100
0000
0010
0000
,
0000
0000
0000
0001
,
0001
0000
0100
0000
,
0010
0000
1000
0000
,
1000
0000
0100
0000
,
0010
0000
0001
0000
,
0001
0000
0010
0000
,
0100
0000
1000
0000
,
0010
0000
0100
0000
,
0002
0000
0003
0000
,
1000
0000
1000
0000
,
0001
0000
0001
0000
,
1000
0000
1000
0000
,
0001
0000
0000
0000
,
1000
0000
0100
0000
,
0010
0000
0100
0000
,
1000
0000
0010
0000
,
0100
0000
0100
0000
,
0001
0000
0100
0000
,
0010
0000
0100
0000
,
0001
0000
0010
0000
,
0100
0000
0100
0000
,
1000
1000
1000
0000
,
0001
0001
0001
0000
,
1000
1000
1000
0000
,
0001
0001
0001
0000
,
0010
0000
0001
0000
,
0100
0000
0010
0000
,
0010
0000
1000
0000
,
0100
0000
0010
0000
,
0100
0100
0100
0000
,
0010
0010
0010
0000
,
0002
0000
0003
0000
,
0000
0000
0001
1000
,
0000
0100
0000
0010
,
0000
0001
0000
0001
,
0000
0100
0000
0010
,
0000
1000
0000
1000
,
0100
1000
0000
0001
,
0100
0001
0000
0200
,
0000
0300
0000
0200
,
0000
0300
0000
0000
;
