#VERSION:0.83;
#TITLE:STAR☆BURST;
#SUBTITLE:;
#ARTIST:Synthion;
#TITLETRANSLIT:;
#SUBTITLETRANSLIT:;
#ARTISTTRANSLIT:;
#GENRE:;
#ORIGIN:Muse Dash;
#CREDIT:;
#BANNER:STAR BURST banner.png;
#BACKGROUND:STAR BURST bg.png;
#PREVIEWVID:;
#JACKET:STAR BURST jk.png;
#CDIMAGE:;
#DISCIMAGE:;
#LYRICSPATH:;
#CDTITLE:;
#MUSIC:STAR BURST.ogg;
#OFFSET:-0.016000;
#SAMPLESTART:94.689888;
#SAMPLELENGTH:13.521133;
#SELECTABLE:YES;
#BPMS:0.000=142.000;
#STOPS:;
#DELAYS:;
#WARPS:;
#TIMESIGNATURES:0.000=4=4;
#TICKCOUNTS:0.000=4;
#COMBOS:0.000=1;
#SPEEDS:0.000=1.000=0.000=0,
30.000=0.500=2.000=0,
48.000=1.000=12.000=0,
63.000=0.250=0.000=0,
63.167=1.000=0.800=0,
127.000=1.500=0.000=0,
127.167=0.500=0.800=0,
155.750=1.000=0.000=0,
156.000=0.500=1.000=0,
159.000=1.000=1.000=0,
188.000=0.500=3.000=0,
208.000=1.000=12.000=0,
223.000=0.500=0.000=0,
223.167=1.000=0.800=0,
240.000=0.500=0.500=0,
240.500=1.000=0.500=0,
255.000=0.250=0.000=0,
255.167=1.000=0.800=0,
287.000=2.000=0.000=0,
287.125=0.500=0.375=0,
300.000=1.000=0.000=0,
300.125=0.500=0.875=0,
301.000=1.000=0.000=0,
301.125=0.500=0.875=0,
302.000=1.000=0.000=0,
302.125=0.500=0.875=0,
303.000=1.000=0.000=0,
303.125=0.500=0.875=0;
#SCROLLS:0.000=1.000,
60.000=0.000,
60.500=2.000,
61.000=0.000,
61.500=2.000,
62.000=0.000,
62.500=2.000,
63.000=1.000,
64.000=0.000,
66.000=1.000,
92.000=0.500,
92.333=1.500,
92.667=1.000,
93.000=0.500,
93.333=1.500,
93.667=1.000,
94.000=0.500,
94.333=1.500,
94.667=1.000,
103.000=0.500,
103.500=1.500,
104.000=1.000,
108.000=0.500,
108.500=1.500,
109.000=0.500,
109.500=1.500,
110.000=0.500,
110.500=1.500,
111.000=1.000,
252.000=0.000,
252.500=2.000,
253.000=0.000,
253.500=2.000,
254.000=0.000,
254.500=2.000,
255.000=1.000;
#FAKES:;
#LABELS:0.000=Song Start;
#BGCHANGES:;
#KEYSOUNDS:;
#ATTACKS:
;

//---------------dance-single - XO DS- FS JA- XMOD FL-BU+ RH- STR[3/3*/3/2*] JU----------------
#NOTEDATA:;
#CHARTNAME:;
#STEPSTYPE:dance-single;
#DESCRIPTION:XO DS- FS JA- XMOD FL-BU+ RH- STR[3/3*/3/2*] JU;
#CHARTSTYLE:;
#DIFFICULTY:Challenge;
#METER:18;
#RADARVALUES:0.898072,1.168224,0.255549,0.598715,1.551548,861.000000,826.000000,35.000000,82.000000,24.000000,0.000000,0.000000,0.000000,0.000000,0.898072,1.168224,0.255549,0.598715,1.551548,861.000000,826.000000,35.000000,82.000000,24.000000,0.000000,0.000000,0.000000,0.000000;
#CREDIT:Karl with a K;
#OFFSET:-0.016000;
#BPMS:0.000000=142.000000
;
#STOPS:;
#DELAYS:;
#WARPS:;
#TIMESIGNATURES:0.000000=4=4
;
#TICKCOUNTS:0.000000=4
;
#COMBOS:0.000000=1
;
#SPEEDS:0.000000=1.000000=0.000000=0
,30.000000=0.500000=2.000000=0
,48.000000=1.000000=12.000000=0
,63.000000=0.250000=0.000000=0
,63.166668=1.000000=0.800000=0
,127.000000=1.500000=0.000000=0
,127.166664=1.000000=0.800000=0
,188.000000=0.500000=3.000000=0
,208.000000=1.000000=12.000000=0
,223.000000=0.500000=0.000000=0
,223.166672=1.000000=0.800000=0
,240.000000=0.500000=0.500000=0
,240.500000=1.000000=0.500000=0
,255.000000=0.250000=0.000000=0
,255.166672=1.000000=0.800000=0
,287.000000=2.000000=0.000000=0
,287.125000=0.500000=0.375000=0
,300.000000=1.000000=0.000000=0
,300.125000=0.500000=0.875000=0
,301.000000=1.000000=0.000000=0
,301.125000=0.500000=0.875000=0
,302.000000=1.000000=0.000000=0
,302.125000=0.500000=0.875000=0
,303.000000=1.000000=0.000000=0
,303.125000=0.500000=0.875000=0
;
#SCROLLS:0.000000=1.000000
,60.000000=0.000000
,60.500000=2.000000
,61.000000=0.000000
,61.500000=2.000000
,62.000000=0.000000
,62.500000=2.000000
,63.000000=1.000000
,64.000000=0.000000
,66.000000=1.000000
,92.000000=0.500000
,92.333336=1.500000
,92.666664=1.000000
,93.000000=0.500000
,93.333336=1.500000
,93.666664=1.000000
,94.000000=0.500000
,94.333336=1.500000
,94.666664=1.000000
,103.000000=0.500000
,103.500000=1.500000
,104.000000=1.000000
,108.000000=0.500000
,108.500000=1.500000
,109.000000=0.500000
,109.500000=1.500000
,110.000000=0.500000
,110.500000=1.500000
,111.000000=1.000000
,252.000000=0.000000
,252.500000=2.000000
,253.000000=0.000000
,253.500000=2.000000
,254.000000=0.000000
,254.500000=2.000000
,255.000000=1.000000
;
#FAKES:;
#LABELS:0.000000=Song Start
;
#NOTES:
// measure 0
0000
0000
0000
0000
,  // measure 1
0000
0000
0000
0000
,  // measure 2
0000
0000
0000
0000
,  // measure 3
0000
0000
0000
0000
,  // measure 4
1000
0000
0000
0000
0000
0000
1000
0100
1000
0000
0100
0000
0010
0000
0001
0000
0000
0000
0000
0000
0000
0000
0001
0100
0001
0000
0100
0000
0020
0000
0000
0000
,  // measure 5
1030
0000
0010
0000
0100
0001
0000
2000
0000
3001
0010
0100
1000
0100
0010
0001
,  // measure 6
1000
0000
0000
0000
0000
0000
1000
0010
1000
0000
0010
0000
0100
0000
0001
0000
0000
0000
0000
0000
0000
0000
0001
0010
0001
0000
0010
0000
0100
0000
0002
0000
,  // measure 7
0000
1000
0203
2300
,  // measure 8
3001
0000
0000
0100
0000
0000
0001
0000
0010
0100
0000
0000
1000
0000
0000
0100
,  // measure 9
0000
0000
0100
0000
0000
1000
0000
0000
0010
0000
0000
0100
0000
0000
0001
0000
,  // measure 10
1000
0000
0000
0100
0000
0000
1000
0000
0010
0100
0000
0000
0001
0000
0000
0100
,  // measure 11
0000
0000
0000
0001
0000
0000
0000
0000
0000
0010
0001
0010
0001
0000
0000
0100
0000
0000
0010
1000
0010
1000
0000
0000
,  // measure 12
0001
0010
0100
1000
0001
0010
0100
1000
0001
0100
0010
1000
0001
0100
0010
1000
,  // measure 13
0001
0010
0100
0010
0001
0010
0100
1000
0001
0100
0010
0100
0001
0100
0010
1000
,  // measure 14
0001
0010
0001
0000
1000
0000
0001
0000
1000
0010
1000
0000
0001
0000
1000
0000
0001
0100
0001
0000
1000
0000
0001
0000
1000
0100
1000
0000
0001
0000
2000
0000
,  // measure 15
0MMM
00MM
300M
0110
,  // measure 16
1001
0000
0000
0000
0000
0000
0000
0000
0000
0000
0000
0000
0000
0000
0000
0000
0000
1000
0100
0000
0010
0100
0000
0002
,  // measure 17
0000
0000
0000
0103
0000
0000
0010
0000
0001
0000
0000
0200
0000
0000
0310
1000
0000
0000
0010
1000
0001
0010
0001
1000
,  // measure 18
0100
0000
0000
0010
0000
0000
0001
0000
0100
0010
0000
1000
0000
0000
1000
0001
0000
1000
0010
0000
0100
0010
0000
0002
,  // measure 19
0000
0000
0000
2003
0000
0000
3200
0000
0000
0302
0000
0023
0000
0000
0130
0010
0000
0000
0100
1000
0001
0100
0001
1000
,  // measure 20
0010
0000
0010
0000
0010
0000
1000
0000
0100
0010
0000
0001
0000
0000
0001
1000
0000
0001
0010
0100
0010
0100
0010
0002
,  // measure 21
0000
0000
0000
1003
0000
0000
0100
0000
1000
0000
0000
0020
0000
0000
0130
0001
0000
0000
1002
0000
0000
0000
0000
0000
,  // measure 22
0013
0000
0001
0000
1000
0000
0010
0000
1000
0000
0001
0000
1000
0000
0100
0010
0001
0010
0100
1000
0001
0100
0010
1000
,  // measure 23
0100
0000
0000
0000
0100
0000
1000
0000
0000
0000
1000
0000
0001
0000
0000
0000
0001
0000
0100
0000
0010
1000
0001
0100
,  // measure 24
0020
0000
0000
0000
0000
0000
0000
0000
0000
0000
0000
0000
0000
0000
0000
0000
0000
0000
0000
0000
0000
0000
0000
0000
0000
0000
0000
0000
0000
0000
0000
0000
0000
0000
0000
0000
1030
0000
0000
0000
0000
0000
0001
0000
0000
0000
0000
0000
1000
0000
0000
0000
0000
0000
0000
0000
0000
0000
0000
0000
0000
0000
0000
0000
0100
0000
0000
0000
0000
0000
0000
0000
M000
0000
0000
0000
0000
0000
0000
0000
0100
0000
0000
0000
0000
0000
0000
0000
0000
0000
0000
0000
0000
0000
0000
0000
0001
0000
0000
0000
0000
0000
0000
0000
0000
0000
0000
0000
0000
0000
0000
0000
0100
0000
0000
0000
0000
0000
0000
0000
000M
0000
0000
0000
0000
0000
0000
0000
0100
0000
0000
0000
0000
0000
0000
0000
0000
0000
0000
0000
0000
0000
0000
0000
1000
0000
0000
0000
0000
0000
0000
0000
0000
0000
0000
0000
0000
0000
0000
0000
0100
0000
0000
0000
0000
0000
0000
0000
M000
0000
0000
0000
0000
0000
0000
0000
0100
0000
0000
0000
0000
0000
0000
0000
0000
0000
0000
0000
0000
0000
0000
0000
,  // measure 25
0001
0000
0000
0000
0000
0000
1000
0000
0000
0000
0000
0000
0001
0000
0000
0000
0000
0000
0000
0000
0000
0000
0000
0000
0000
0000
0000
0000
0000
0000
0000
0000
0000
0000
0000
0000
1000
0000
0000
0000
0000
0000
0001
0000
0000
0000
0000
0000
1000
0000
0000
0000
0000
0000
0000
0000
0000
0000
0000
0000
0000
0000
0000
0000
0010
0000
0000
0000
0000
0000
0000
0000
M000
0000
0000
0000
0000
0000
0000
0000
0010
0000
0000
0000
0000
0000
0000
0000
0000
0000
0000
0000
0000
0000
0000
0000
0001
0000
0000
0000
0000
0000
0000
0000
0000
0000
0000
0000
0000
0000
0000
0000
0010
0000
0000
0000
0000
0000
0000
0000
0100
0000
0000
0000
0000
0000
0000
0000
0010
0000
0000
0000
0000
0000
0000
0000
0000
0000
0000
0000
0000
0000
0000
0000
0001
0000
0000
0000
0000
0000
0000
0000
0000
0000
0000
0000
0000
0000
0000
0000
0000
0000
0000
0000
0000
0000
0000
0000
0000
0000
0000
0000
0000
0000
0000
0000
0000
0000
0000
0000
0000
0000
0000
0000
0000
0000
0000
0000
0000
0000
0000
0000
,  // measure 26
1100
0000
0000
0000
0000
0000
0000
0000
0000
0000
0000
0000
0000
0000
0000
0000
0000
0000
0000
0000
0000
0000
0000
0000
0000
0000
0000
0000
0000
0000
0000
0000
0000
0000
0000
0000
0001
0000
0000
0000
0000
0000
1000
0000
0000
0000
0000
0000
0001
0000
0000
0000
0000
0000
0000
0000
0000
0000
0000
0000
0000
0000
0000
0000
0010
0000
0000
0000
0000
0000
0000
0000
000M
0000
0000
0000
0000
0000
0000
0000
0010
0000
0000
0000
0000
0000
0000
0000
0000
0000
0000
0000
0000
0000
0000
0000
1000
0000
0000
0000
0000
0000
0000
0000
0000
0000
0000
0000
0000
0000
0000
0000
0010
0000
0000
0000
0000
0000
0000
0000
M000
0000
0000
0000
0000
0000
0000
0000
0010
0000
0000
0000
0000
0000
0000
0000
0000
0000
0000
0000
0000
0000
0000
0000
0001
0000
0000
0000
0000
0000
0000
0000
0000
0000
0000
0000
0000
0000
0000
0000
0010
0000
0000
0000
0000
0000
0000
0000
000M
0000
0000
0000
0000
0000
0000
0000
0010
0000
0000
0000
0000
0000
0000
0000
0000
0000
0000
0000
0000
0000
0000
0000
,  // measure 27
1000
0000
0000
0000
0000
0000
1100
0000
0000
0000
0000
0000
0011
0000
0000
0000
0000
0000
0001
0100
0010
1000
0001
0010
,  // measure 28
0001
0000
0000
0000
0000
0000
1000
0000
0001
0000
0100
000M
0100
0000
1000
0000
0001
0000
0100
00M0
0100
0000
1000
0000
0010
0000
0100
0000
1000
0000
0100
0000
,  // measure 29
0010
1000
0010
0000
0000
0000
0100
0000
0001
0000
0010
000M
0010
0000
1000
0000
0001
0000
0010
0M00
0010
0000
1000
0000
0100
0000
0010
0000
1000
0000
0010
0000
,  // measure 30
0001
0100
0001
0100
0010
1000
0010
1000
0100
1000
0100
1000
0001
0010
0001
0010
,  // measure 31
0001
0000
0100
0000
0010
1000
0100
0010
0001
0000
1001
0000
0220
0000
0330
0000
,  // measure 32
0001
0000
0000
0100
0001
0100
0010
1000
0000
0000
0000
0100
1000
0100
0020
0000
,  // measure 33
0031
0000
0010
0000
0100
1000
0000
0002
0000
1003
0010
0100
0001
0100
0010
1000
,  // measure 34
0100
0000
0000
0010
0001
0010
0100
1000
0000
0000
0000
0010
1000
0010
0200
0000
,  // measure 35
0301
0000
0000
0000
0100
0000
0000
0000
0010
0000
1000
0000
0000
0000
0002
0000
0000
0000
0000
0000
0000
0000
0013
0001
0020
0000
0000
0000
0000
0000
0030
0000
,  // measure 36
1100
0000
0000
0001
1000
0010
0100
0001
0000
0000
0000
0010
0001
0010
0100
1000
,  // measure 37
0100
0000
0010
0000
0001
1000
0000
0002
0000
1003
0100
0010
0001
0010
0100
1000
,  // measure 38
0010
0000
0000
0000
0000
0000
0000
0000
0000
0100
0000
0000
0001
0000
0000
0100
0000
0000
0010
0000
1000
0000
0001
0000
0010
0000
0100
0000
1000
0000
0001
0000
0100
0000
0010
0000
1000
0000
0000
0100
0000
0000
0000
0000
0000
0002
0000
0000
,  // measure 39
0000
0000
0000
0000
0000
0000
0000
0000
0000
0000
0000
0000
1000
0000
0000
0000
0000
0000
0000
0000
0000
0103
0000
0000
0010
0000
0100
0000
0010
0000
0100
0000
0000
1000
0000
0000
0001
0000
0100
0000
0010
0000
1000
0000
0010
0000
0100
0000
,  // measure 40
0002
0000
0000
0000
0000
0000
0100
0000
0000
0000
0000
0000
2003
0000
0000
3020
0000
0000
0130
0000
0001
0010
0000
2000
,  // measure 41
0000
0000
0000
3010
0000
0000
0100
1000
0000
0200
0000
0000
0010
0000
0000
1300
0100
0010
0001
0000
1000
0001
0000
0010
,  // measure 42
0100
0000
0000
0010
0001
1000
0002
0000
0000
1003
0010
1000
0002
0000
0000
0013
0001
1000
0020
0000
0031
0000
0000
0020
,  // measure 43
0100
0000
0000
1030
0020
0000
2030
0000
0000
3002
0000
0000
0203
0000
0000
0320
0000
0000
2030
0000
3100
0020
0000
0031
,  // measure 44
2000
0000
0000
3001
0010
0100
0010
0000
0100
1000
0000
0020
0000
0000
0000
0130
0001
1000
0001
0000
0010
0100
0000
1000
,  // measure 45
0010
0000
0000
0000
0000
0000
0200
0000
0000
0000
0000
0000
0000
0000
0000
0000
0000
0000
0000
0000
0000
0000
0000
0000
0320
0000
0000
0000
0000
0000
0000
0000
0000
0000
0000
0000
0000
0000
0000
0000
0000
0000
0000
0000
0000
0000
0000
0000
2030
0000
0000
0000
0000
0000
0000
0000
0000
0000
0000
0000
0000
0000
0000
0000
0000
0000
0000
0000
0000
0000
0000
0000
3200
0000
0000
0000
0000
0000
0000
0000
0000
0000
0000
0000
0000
0000
0000
0000
0000
0000
0000
0000
0000
0000
0000
0000
0010
0000
0000
0000
0000
0000
0000
0000
0000
0000
0000
0000
0000
0000
0000
0000
0000
0000
0000
0000
0000
0000
0000
0000
1300
0000
0000
0000
0000
0000
0000
0000
0100
0000
0000
0000
0000
0000
0000
0000
0010
0000
0000
0000
0000
0000
0000
0000
0001
0000
0000
0000
0000
0000
0000
0000
1000
0000
0000
0000
0000
0000
0000
0000
0010
0000
0000
0000
0000
0000
0000
0000
0100
0000
0000
0000
0000
0000
0000
0000
0001
0000
0000
0000
0000
0000
0000
0000
1000
0000
0000
0000
0000
0000
0000
0000
,  // measure 46
0001
0100
0010
1000
0001
1000
0001
0010
0100
1000
0001
1000
0100
0010
0001
1000
0100
0010
0001
1000
0001
0100
0010
1000
,  // measure 47
0000
0000
0000
0000
,  // measure 48
0202
0000
0000
0000
0300
0000
0000
0020
0000
0000
0000
0000
0033
0000
0000
0000
,  // measure 49
2200
0000
0000
0000
3300
0000
0000
2020
0000
0000
3030
0000
0002
0000
0003
0000
,  // measure 50
2200
0000
0000
0000
3300
0000
0000
2020
0000
0000
0000
0000
3030
0000
0000
0000
,  // measure 51
0202
0000
0000
0000
0303
0000
0000
0001
0000
0000
0001
0000
0000
0001
0000
0000
,  // measure 52
1000
0010
0100
0001
1000
0010
0100
0001
1000
0100
0010
0001
1000
0100
0010
0001
,  // measure 53
1000
0010
0100
0010
1000
0010
0100
0001
1000
0100
0010
0100
1000
0100
0010
0001
,  // measure 54
1000
0000
0000
0000
0000
0000
0010
0000
0000
0000
0000
0000
1000
0000
0000
0000
0000
0000
0000
0000
0000
0000
0000
0000
0001
0000
0000
0000
0000
0000
0000
0000
0000
0000
0000
0000
1000
0000
0000
0000
0000
0000
0000
0000
0000
0000
0000
0000
0001
0000
0000
0000
0000
0000
0010
0000
0000
0000
0000
0000
0001
0000
0000
0000
0000
0000
0000
0000
0000
0000
0000
0000
1000
0000
0000
0000
0000
0000
0000
0000
0000
0000
0000
0000
0001
0000
0000
0000
0000
0000
0000
0000
0000
0000
0000
0000
1000
0000
0000
0000
0000
0000
0100
0000
0000
0000
0000
0000
1000
0000
0000
0000
0000
0000
0000
0000
0000
0000
0000
0000
0001
0000
0000
0000
0000
0000
0000
0000
0000
0000
0000
0000
1000
0000
0000
0000
0000
0000
0000
0000
0000
0000
0000
0000
0001
0000
0000
0000
0000
0000
0000
0000
0000
0000
0000
0000
0100
0000
0000
0000
0000
0000
0000
0000
0000
0000
0000
0000
0001
0000
0000
0000
0000
0000
0000
0000
1000
0000
0000
0000
0000
0000
0000
0000
0001
0000
0000
0000
0000
0000
0000
0000
,  // measure 55
1000
0000
0000
0000
0010
0000
1000
0000
0010
0000
0100
0000
0001
0100
0010
0000
0000
0000
1000
0000
0100
0000
0000
0000
0220
0000
0000
0000
0330
0000
0000
0000
,  // measure 56
1001
0000
0001
0000
1000
0010
0100
0001
0000
0001
0010
0000
0001
0010
0100
0000
,  // measure 57
1000
0000
0010
0000
0100
0010
0000
2000
0000
3001
0010
0001
0010
0100
1000
0001
,  // measure 58
1000
0000
0001
0000
1000
0100
0010
0001
0000
0001
0100
0000
0001
0100
0010
0002
,  // measure 59
0000
0000
0000
0013
0000
0000
0100
0000
0000
0001
0000
0000
1000
0000
0000
0100
0000
0000
0010
0000
0000
1000
0000
0000
0000
0000
0000
0010
0000
0000
0100
0000
0000
1000
0000
0000
0001
0000
0100
0000
0010
0000
1000
0000
0010
0000
0100
0000
,  // measure 60
0002
0000
0003
0000
0001
0100
0010
1000
0000
1000
0100
0000
1000
0100
0010
0000
,  // measure 61
0001
0000
0100
0000
0010
0100
0000
0002
0000
1003
0100
1000
0100
0010
0001
1000
,  // measure 62
0001
0000
1000
0000
0001
0010
0100
1000
0000
1000
0010
0000
1000
0010
0100
0002
,  // measure 63
MMM0
MM00
M003
0110
,  // measure 64
1001
0000
1001
0000
1000
0100
0010
0001
0000
0000
1010
0000
0001
0100
0010
0000
,  // measure 65
1010
0000
0101
0000
0001
0010
0000
1100
0000
1000
0100
0010
0001
0100
0010
1000
,  // measure 66
0001
0000
1001
0000
0001
0100
0010
1000
0000
0000
0011
0000
1000
0001
0010
1000
,  // measure 67
0000
0010
0001
1000
0010
0001
0010
1000
0100
0001
0100
1000
0010
0100
0001
1000
,  // measure 68
0001
0000
0000
0000
1001
0000
0000
0000
0001
0000
0010
0000
0100
0000
1000
0000
0000
0000
0000
0000
0101
0000
0000
0000
1000
0000
0010
0000
0100
0001
0100
0000
,  // measure 69
0001
0000
0000
0000
1001
0000
0000
0000
1000
0100
1000
0000
0000
0000
0011
0000
0000
0000
0001
0000
0010
0000
0100
1000
0100
0000
0010
0000
0001
0000
0100
0000
,  // measure 70
0001
1000
0001
0000
1000
0001
1000
0000
0001
0000
0010
0000
0100
0000
1000
0100
1000
0000
0001
0000
0100
0000
0010
0000
1000
0000
0010
1000
0010
0000
0100
0000
,  // measure 71
0001
0010
0001
0000
0000
0000
1000
0010
1000
0000
0000
0000
0001
0100
0001
0000
0000
0000
1000
0100
1000
0000
0000
0000
0220
0000
0000
0000
0330
0000
0000
0000
,  // measure 72
0001
0000
0000
0000
0000
0000
0000
1000
0000
0000
0000
0000
0000
0000
0000
0000
,  // measure 73
0010
0000
0100
0000
0001
1000
0000
0200
0000
1300
0100
0010
0001
0010
0100
1000
,  // measure 74
0001
0000
0000
0000
0000
0000
0000
1000
0000
0000
0000
0000
0000
0000
0000
0000
,  // measure 75
0022
0033
2200
3300
2020
3030
0202
0303
,  // measure 76
1000
0000
0000
0000
0010
0000
0000
00M1
0000
0000
0000
0000
0010
0000
0000
0000
,  // measure 77
0010
0000
0100
0000
1000
0001
0000
0200
0000
0301
0100
0010
1000
0010
0100
0001
,  // measure 78
1000
0000
0000
0000
0000
0000
0001
0010
0001
0000
0010
0000
0100
0000
1000
0000
0000
0000
0000
0000
0000
0000
0001
0100
0001
0000
0100
0000
0010
0000
2000
0000
,  // measure 79
0000
0000
0000
0000
,  // measure 80
3010
0000
0000
0000
;

//---------------dance-single - XO DS- JA BU- STR[3*|3*] JU----------------
#NOTEDATA:;
#CHARTNAME:;
#STEPSTYPE:dance-single;
#DESCRIPTION:XO DS- JA BU- STR[3*|3*] JU;
#CHARTSTYLE:;
#DIFFICULTY:Hard;
#METER:16;
#RADARVALUES:0.697805,0.905374,0.299357,0.438084,0.905374,669.000000,628.000000,41.000000,60.000000,0.000000,0.000000,0.000000,0.000000,0.000000,0.697805,0.905374,0.299357,0.438084,0.905374,669.000000,628.000000,41.000000,60.000000,0.000000,0.000000,0.000000,0.000000,0.000000;
#CREDIT:Karl with a K;
#OFFSET:-0.016000;
#BPMS:0.000000=142.000000
;
#STOPS:;
#DELAYS:;
#WARPS:;
#TIMESIGNATURES:0.000000=4=4
;
#TICKCOUNTS:0.000000=4
;
#COMBOS:0.000000=1
;
#SPEEDS:0.000000=1.000000=0.000000=0
;
#SCROLLS:0.000000=1.000000
;
#FAKES:;
#LABELS:0.000000=Song Start
;
#NOTES:
// measure 0
0000
0000
0000
0000
,  // measure 1
0000
0000
0000
0000
,  // measure 2
0000
0000
0000
0000
,  // measure 3
0000
0000
0000
0000
,  // measure 4
1000
0000
0000
0001
0100
0010
1000
0001
0000
0000
0000
1000
0100
0010
0002
0000
,  // measure 5
0013
0000
0001
0000
1000
0001
0000
0200
0000
0310
1000
0001
0010
0001
1000
0010
,  // measure 6
1000
0000
0000
1000
0100
0010
0001
1000
0000
0000
0000
0001
0100
0010
1000
0002
,  // measure 7
0000
0010
1000
0100
,  // measure 8
1003
0000
0000
0100
0000
0000
0010
0000
0000
0100
0000
0000
1000
0000
0000
0001
,  // measure 9
0000
0000
0100
0000
0000
0010
0000
0000
0100
0000
0000
0001
0000
0000
1000
0000
,  // measure 10
0001
0000
0000
0010
0000
0000
0100
0000
0000
0010
0000
0000
0001
0000
0000
1000
,  // measure 11
0000
0000
0010
0000
0000
0100
0000
0000
0110
0000
0000
0010
1000
0000
0100
0000
,  // measure 12
1000
0100
1000
0100
0010
0001
0010
0000
0001
0010
0001
0010
0100
1000
0100
0000
,  // measure 13
1000
0010
1000
0010
0100
0001
0100
0000
0001
0100
0001
0100
0010
1000
0010
0000
,  // measure 14
1000
0100
0010
0001
1000
0010
0100
0001
1000
0100
0010
0001
1000
0010
0100
0001
,  // measure 15
1000
0001
1000
1001
,  // measure 16
0110
0000
0000
0000
0000
0000
0000
0000
0000
0000
0000
0000
0000
0000
0000
0000
0000
0000
0000
0000
0000
0000
0000
2000
,  // measure 17
0000
0000
0000
3100
0000
0000
0010
0000
0001
0000
0000
2000
0000
0000
0000
3001
0000
0000
1000
0010
0100
0001
0000
0000
,  // measure 18
0010
0000
0000
0100
0000
0000
1000
0000
0100
0010
0000
0001
0000
0000
0000
1000
0000
0000
0001
0000
0100
0010
0000
2000
,  // measure 19
0000
0000
0000
3010
0000
0000
0100
0000
0000
0001
0000
2000
0000
0000
0000
3001
0000
0000
1000
0100
0010
0001
0000
0000
,  // measure 20
0100
0000
0010
0000
1000
0000
0001
0000
0010
0100
0000
1000
0000
0000
0000
0001
0000
0000
1000
0000
0010
0100
0000
0002
,  // measure 21
0000
0000
0000
0103
0000
0000
0010
0000
1000
0000
0000
0001
0000
0000
0001
1000
0000
0000
0110
0000
0000
0000
0000
0000
,  // measure 22
0002
0023
0230
1300
,  // measure 23
1100
0011
1010
0101
,  // measure 24
1001
0000
1000
0100
0010
0100
1000
0001
1000
0010
0100
0010
,  // measure 25
1000
0000
0001
0100
0010
0100
0001
1000
0000
0011
0000
0000
,  // measure 26
1010
0000
1000
0010
0100
0010
1000
0001
1000
0100
0010
0100
,  // measure 27
1000
0011
1001
0110
,  // measure 28
1001
0000
0000
0001
0100
0010
0100
0000
0010
0000
0000
1010
0000
0000
1000
0000
,  // measure 29
1001
0000
0000
1000
0100
0010
0100
0000
0010
0000
0000
0011
0000
0000
0001
0000
,  // measure 30
1000
0100
1000
0000
0001
0100
0001
0000
1000
0010
1000
0000
0001
0010
0001
0000
,  // measure 31
1000
0000
1000
0000
0001
0100
0010
0000
1000
0000
0001
0000
0110
0000
0000
0000
,  // measure 32
1000
0000
0000
0001
0100
0010
0000
1000
0000
0000
0000
0001
0010
0100
2000
0000
,  // measure 33
3010
0000
1000
0000
0001
1000
0000
0200
0000
0310
0001
0000
0010
0001
1000
0010
,  // measure 34
1000
0000
0000
1000
0100
0010
0000
0001
0000
0000
0000
0001
0100
0010
1000
0000
,  // measure 35
0001
0000
0100
0000
0010
1000
0000
0002
0000
0000
0000
0000
1003
0000
0000
0000
,  // measure 36
1001
0000
0000
1000
0010
0100
0000
0001
0000
0000
0000
1000
0100
0010
0002
0000
,  // measure 37
0103
0000
0001
0000
1000
0001
0000
0020
0000
0130
1000
0000
0100
1000
0001
0100
,  // measure 38
0001
0000
0000
0001
0010
0100
0000
1000
0000
0000
0000
1000
0010
0100
0001
2000
,  // measure 39
0000
0000
0010
0000
0001
0000
3100
0010
,  // measure 40
0002
0000
0000
0000
0000
0000
1000
0000
0000
0000
0000
0000
0103
0000
0000
0010
0000
0000
1000
0000
0100
0010
0000
0002
,  // measure 41
0000
0103
0010
2000
0000
3100
0010
0100
,  // measure 42
1000
0000
0000
1000
0000
0000
0001
0000
0000
0001
0000
0000
0100
0000
0000
0100
0000
0000
0010
0000
0100
0000
0000
0020
,  // measure 43
0000
0032
0023
2030
3002
0023
0230
2300
,  // measure 44
3001
0000
0000
0001
0000
0100
0010
0000
1000
0010
0000
2000
0000
0000
3100
0010
0000
0000
0001
0000
0010
0100
0000
0000
,  // measure 45
0020
2030
3020
0032
1000
0023
0230
2300
,  // measure 46
3002
0203
0320
2030
3200
0320
0032
2003
,  // measure 47
3001
0000
0000
0000
,  // measure 48
2002
0000
0000
3003
,  // measure 49
2200
0000
0000
0000
3300
0000
0000
0022
0000
0000
0000
0000
0033
0000
0000
0000
,  // measure 50
2002
0000
0000
0000
3003
0000
0000
0220
0000
0000
0000
0000
0330
0000
0000
0000
,  // measure 51
0202
0303
0000
0000
,  // measure 52
0001
0100
0001
0100
0010
1000
0010
0000
1000
0010
1000
0010
0100
0001
0100
0000
,  // measure 53
0001
0010
0001
0010
0100
1000
0100
0000
1000
0100
1000
0100
0010
0001
0010
0000
,  // measure 54
0001
0100
0010
1000
0001
0010
0100
1000
0001
0100
0010
1000
0001
0010
0100
1000
,  // measure 55
0010
0000
0100
0000
1000
0000
0100
0001
0000
0010
0100
0000
0110
0000
0000
0000
,  // measure 56
1001
0000
0001
0000
1000
0100
0010
0001
0000
0001
1000
0000
0001
0100
0010
0000
,  // measure 57
1000
0000
0100
0000
0010
0100
0000
1000
0000
0001
0100
0000
0010
1000
0010
1000
,  // measure 58
0001
0000
1000
0000
0001
0100
0010
1000
0000
1000
0001
0000
1000
0100
0010
0002
,  // measure 59
0000
0103
0010
1000
0010
0100
0001
1000
0000
1000
0100
0000
0010
0001
0010
0001
,  // measure 60
2000
0000
3000
0000
0001
0010
0100
1000
0000
1000
0001
0000
1000
0010
0100
0000
,  // measure 61
0001
0000
0010
0000
0100
0010
0000
0001
0000
1000
0010
0000
0100
0001
0100
0001
,  // measure 62
1000
0000
0001
0000
1000
0010
0100
0001
0000
0001
1000
0000
0001
0010
0100
1000
,  // measure 63
0001
1000
0001
0110
,  // measure 64
1001
0000
1000
0000
0001
0001
0010
0100
0000
0000
0110
0000
1000
1000
0010
0000
,  // measure 65
0110
0000
0001
0000
0010
0100
0000
1000
0000
0001
1000
0100
1000
0001
0100
0010
,  // measure 66
1000
0000
0001
0000
1000
1000
0010
0100
0000
0000
0110
0000
0001
0001
0010
2000
,  // measure 67
0000
3010
0001
0000
1000
0010
0100
0000
0001
0100
0010
0000
0001
0010
1000
0000
,  // measure 68
1001
0000
0001
0000
1000
1000
0100
0010
0000
0000
0110
0000
0001
0001
0100
0000
,  // measure 69
0110
0000
1000
0000
0100
0010
0000
0001
0000
1000
0001
0010
0001
1000
0010
0100
,  // measure 70
0001
0000
0001
0000
1000
1000
0010
0100
0000
0100
0010
0100
0001
0010
1000
0010
,  // measure 71
0001
0001
0000
1000
1000
0000
0001
0001
0000
1000
1000
0000
0110
0000
0000
0000
,  // measure 72
1000
0000
0000
0000
0000
0000
0000
1000
0000
0000
0000
0000
0000
0000
0000
0000
,  // measure 73
0001
0000
0100
0000
0010
1000
0000
0001
0000
0000
0000
0000
0000
0000
0000
0000
,  // measure 74
1000
0000
0000
0000
0000
0000
0000
1000
0000
0000
0000
0000
0000
0000
0000
0000
,  // measure 75
0011
1010
1001
1100
,  // measure 76
0001
0000
0000
0000
0000
0000
0000
0001
0000
0000
0000
0000
0000
0000
0000
0000
,  // measure 77
1000
0000
0100
0000
0010
0001
0000
1000
0000
0100
0010
0000
0001
1000
0010
0100
,  // measure 78
0001
0000
0000
0000
1000
0100
0010
0001
0000
0000
0000
0000
1000
0010
0100
0002
,  // measure 79
0000
0000
0000
0000
,  // measure 80
0003
0000
0000
0000
;

//---------------dance-single - XO- JA- JU----------------
#NOTEDATA:;
#CHARTNAME:;
#STEPSTYPE:dance-single;
#DESCRIPTION:XO- JA- JU;
#CHARTSTYLE:;
#DIFFICULTY:Medium;
#METER:13;
#RADARVALUES:0.464161,0.554906,0.233645,0.175234,0.259200,445.000000,413.000000,32.000000,24.000000,0.000000,0.000000,0.000000,0.000000,0.000000,0.464161,0.554906,0.233645,0.175234,0.259200,445.000000,413.000000,32.000000,24.000000,0.000000,0.000000,0.000000,0.000000,0.000000;
#CREDIT:Karl with a K;
#OFFSET:-0.016000;
#BPMS:0.000000=142.000000
;
#STOPS:;
#DELAYS:;
#WARPS:;
#TIMESIGNATURES:0.000000=4=4
;
#TICKCOUNTS:0.000000=4
;
#COMBOS:0.000000=1
;
#SPEEDS:0.000000=1.000000=0.000000=0
;
#SCROLLS:0.000000=1.000000
;
#FAKES:;
#LABELS:0.000000=Song Start
;
#NOTES:
// measure 0
0000
0000
0000
0000
,  // measure 1
0000
0000
0000
0000
,  // measure 2
0000
0000
0000
0000
,  // measure 3
0000
0000
0000
0000
,  // measure 4
1000
0000
0000
0000
0100
0000
0000
0010
0000
0000
0000
0000
0001
0000
0000
0000
,  // measure 5
1000
0000
0000
0000
0001
1000
0000
0100
0000
0000
0000
0000
0010
0000
0000
0000
,  // measure 6
0001
0000
0000
0000
0100
0000
0000
0010
0000
0000
0000
0000
1000
0000
0000
2002
,  // measure 7
0000
0000
0000
3003
,  // measure 8
1000
0000
0000
0100
0000
0000
1000
0000
0000
0100
0000
0000
1000
0000
0000
0001
,  // measure 9
0000
0000
0100
0000
0000
0001
0000
0000
0100
0000
0000
0001
0000
0000
1000
0000
,  // measure 10
0001
0000
0000
0010
0000
0000
0001
0000
0000
0010
0000
0000
0001
0000
0000
1000
,  // measure 11
0000
0000
0010
0000
0000
1000
0000
0000
0010
0000
0000
1000
0000
0000
0001
0000
,  // measure 12
1000
0100
0010
0001
1000
0010
0100
0001
,  // measure 13
1000
0100
0010
0100
1000
0010
0100
0010
,  // measure 14
1000
0100
0010
0001
0100
0010
1000
0100
,  // measure 15
0010
0010
0010
0110
,  // measure 16
1001
0000
0000
0000
,  // measure 17
0001
0000
0000
0100
0000
0000
0010
0000
1000
0000
0000
0200
0000
0000
0000
0000
0000
0000
0310
0000
0000
0000
0000
0000
,  // measure 18
0001
0000
0000
0000
0000
0000
1000
0000
0000
0100
0000
0000
0010
0000
0000
0000
0000
0000
0001
0000
0000
1000
0000
0010
,  // measure 19
0000
0000
0000
0010
0000
0000
1000
0000
0000
0100
0000
0010
0000
0000
0000
0001
0000
0000
0100
0000
0000
0001
0000
0000
,  // measure 20
1000
0000
0000
0000
0000
0000
0001
0000
0000
0100
0000
0000
0010
0000
0000
0000
0000
0000
1000
0000
0000
0001
0000
0010
,  // measure 21
0000
0000
0000
0010
0000
0000
0001
0000
0100
0000
0000
0010
0000
0000
0000
1000
0000
0000
1001
0000
0000
0000
0000
0000
,  // measure 22
0220
0000
0000
0330
,  // measure 23
1001
1000
0110
0011
,  // measure 24
1001
0000
1000
0100
0000
0100
0010
0000
0010
0001
0000
0001
,  // measure 25
1000
0000
0000
1010
0000
0010
0100
0000
0100
0001
0000
0000
,  // measure 26
1001
0000
0001
0010
0000
0010
0100
0000
0100
1000
0000
1000
,  // measure 27
0001
1001
0110
1010
,  // measure 28
1001
0000
0000
1000
0100
0000
0010
0000
0001
0000
0000
0100
0000
0000
0001
0000
,  // measure 29
1000
0000
0000
0001
0100
0000
0010
0000
1000
0000
0000
0100
0000
0000
1000
0000
,  // measure 30
0001
0001
0010
0010
0100
0100
1000
1000
,  // measure 31
0010
0100
0010
0100
0010
0100
0010
0000
,  // measure 32
1000
0000
0000
0000
0010
0000
0000
0100
0000
0000
0000
0000
0001
0000
0000
0000
,  // measure 33
1000
0000
0000
0000
0001
1000
0000
0010
0000
0000
0000
0000
0100
0000
0000
0000
,  // measure 34
0001
0000
0000
0000
0010
0000
0000
0100
0000
0000
0000
0000
1000
0000
0000
0000
,  // measure 35
0001
0000
0000
0000
1000
0001
0000
0010
0000
0000
0000
0000
0100
0000
0000
0000
,  // measure 36
1000
0000
0000
0000
0010
0000
0000
0100
0000
0000
0000
0000
0001
0000
0000
0000
,  // measure 37
1000
0000
0000
0000
0001
1000
0000
0010
0000
0000
0000
0000
0100
0000
0000
0000
,  // measure 38
0001
0000
0000
0000
0010
0000
0000
0100
0000
0000
0000
0000
1000
0000
0000
0110
,  // measure 39
0000
0000
0000
0000
0000
0000
1000
0100
,  // measure 40
2000
0000
0001
0000
3001
0010
0001
0100
,  // measure 41
0010
0100
0010
2000
0000
3100
0010
0001
,  // measure 42
0100
0000
0000
0000
0000
0000
0001
0000
0000
0000
0000
0000
0010
0000
0000
0000
0000
0000
0100
0000
0010
0000
0000
0002
,  // measure 43
0000
0013
0100
1000
0001
0100
0001
0100
,  // measure 44
0001
0000
0000
1000
0000
0000
0100
0000
0000
0010
0000
0002
0000
0000
0000
1003
0000
0000
0010
0000
0000
0100
0000
0000
,  // measure 45
1000
0100
0010
2000
0000
3100
0010
0001
,  // measure 46
1000
0010
0100
0001
0010
0100
1000
0000
,  // measure 47
1001
0000
0000
0000
,  // measure 48
2002
0000
0000
3003
,  // measure 49
0202
0000
0000
0000
0303
0000
0000
2020
0000
0000
0000
0000
3030
0000
0000
0000
,  // measure 50
2002
0000
0000
0000
3003
0000
0000
2002
0000
0000
0000
0000
3003
0000
0000
0000
,  // measure 51
2200
3300
0000
0000
,  // measure 52
0001
0100
0010
1000
0001
0010
0100
1000
,  // measure 53
0001
0100
0010
0100
0001
0010
0100
0010
,  // measure 54
0001
0100
0010
1000
0100
0010
0001
0100
,  // measure 55
0010
0010
1000
0001
0010
0100
0110
0000
,  // measure 56
1001
0000
1000
0100
0010
0000
0001
0100
,  // measure 57
0010
0100
0001
1000
0001
0100
0010
1000
,  // measure 58
0001
0000
0000
0000
0001
0000
0100
0000
0010
0000
0000
0000
1000
0000
0100
0020
,  // measure 59
0000
0000
1030
0000
0010
0000
0100
1000
0000
0000
0001
0000
0110
0000
0000
0000
,  // measure 60
1001
0000
0001
0010
0100
0000
1000
0010
,  // measure 61
0100
0010
1000
0001
1000
0010
0100
0001
,  // measure 62
1000
0000
1000
0010
0100
0000
0001
0010
,  // measure 63
0100
0001
0100
0110
,  // measure 64
1000
0000
1000
0000
0100
0000
0010
0001
0000
0000
0001
0000
0100
0000
0010
0000
,  // measure 65
1000
0000
0100
0000
0010
0100
0000
1000
0000
0000
0001
0000
0001
0000
1000
0000
,  // measure 66
0001
0000
0001
0000
0100
0000
0010
1000
0000
0000
1000
0000
0100
0000
0010
0001
,  // measure 67
0000
0100
0010
0100
0001
1000
1000
0001
,  // measure 68
1000
0000
1000
0000
1000
0000
0100
0010
0000
0000
0001
0000
0001
0000
0001
0000
,  // measure 69
0100
0000
0010
0000
1000
0100
0000
1000
0000
0000
0001
0000
0001
0000
1000
0000
,  // measure 70
0001
0001
0100
0100
0010
0010
1000
1000
,  // measure 71
0100
0000
0000
0110
0000
0000
0110
0000
0000
0110
0000
0000
1001
0000
0000
0000
,  // measure 72
1000
0000
0000
0000
0000
0000
0000
1000
0000
0000
0000
0000
0000
0000
0000
0000
,  // measure 73
0001
0000
0000
0000
0100
0000
0000
0010
0000
0000
0000
0000
1000
0000
0000
0000
,  // measure 74
0001
0000
0000
0000
0000
0000
0000
0001
0000
0000
0000
0000
0000
0000
0000
0000
,  // measure 75
1000
0100
0010
0001
,  // measure 76
1000
0000
0000
0000
0000
0000
0000
0001
0000
0000
0000
0000
0000
0000
0000
0000
,  // measure 77
1000
0000
0000
0000
0010
0000
0000
0100
0000
0000
0000
0000
0001
0000
0000
0000
,  // measure 78
0001
0000
0000
0000
1000
0000
0000
0100
0000
0000
0000
0000
0010
0000
0000
0002
,  // measure 79
0000
0000
0000
0000
,  // measure 80
0003
0000
0000
0000
;

//---------------dance-single - ----------------
#NOTEDATA:;
#CHARTNAME:;
#STEPSTYPE:dance-single;
#DESCRIPTION:;
#CHARTSTYLE:;
#DIFFICULTY:Easy;
#METER:7;
#RADARVALUES:0.261807,0.350467,0.124124,0.080315,0.000000,251.000000,234.000000,17.000000,11.000000,0.000000,0.000000,0.000000,0.000000,0.000000,0.261807,0.350467,0.124124,0.080315,0.000000,251.000000,234.000000,17.000000,11.000000,0.000000,0.000000,0.000000,0.000000,0.000000;
#CREDIT:Karl with a K;
#OFFSET:-0.016000;
#BPMS:0.000000=142.000000
;
#STOPS:;
#DELAYS:;
#WARPS:;
#TIMESIGNATURES:0.000000=4=4
;
#TICKCOUNTS:0.000000=4
;
#COMBOS:0.000000=1
;
#SPEEDS:0.000000=1.000000=0.000000=0
;
#SCROLLS:0.000000=1.000000
;
#FAKES:;
#LABELS:0.000000=Song Start
;
#NOTES:
// measure 0
0000
0000
0000
0000
,  // measure 1
0000
0000
0000
0000
,  // measure 2
0000
0000
0000
0000
,  // measure 3
0000
0000
0000
0000
,  // measure 4
1000
0000
1000
0000
,  // measure 5
0001
0100
0010
1000
,  // measure 6
0001
0000
0001
0000
,  // measure 7
1001
0000
0000
0000
,  // measure 8
2000
0000
0000
0000
,  // measure 9
3200
0000
0000
0000
,  // measure 10
0320
0000
0000
0000
,  // measure 11
0032
0000
0000
0000
,  // measure 12
1003
1000
0100
0100
,  // measure 13
0010
0010
0001
0001
,  // measure 14
0100
0010
1000
0010
,  // measure 15
1000
0100
0010
0110
,  // measure 16
1001
0000
0000
0000
,  // measure 17
1000
0100
0010
0001
,  // measure 18
1000
0001
1000
0001
,  // measure 19
0100
0010
0100
0010
,  // measure 20
1000
1000
0001
0001
,  // measure 21
1000
0010
0100
0001
,  // measure 22
2000
0000
0000
0000
,  // measure 23
3100
0010
0001
1000
,  // measure 24
1001
1000
1000
1000
,  // measure 25
0001
0001
0001
0001
,  // measure 26
0100
0100
0100
0100
,  // measure 27
0010
0100
0001
1000
,  // measure 28
1001
1000
0100
0010
,  // measure 29
0001
0100
0010
1000
,  // measure 30
0002
2003
3002
2003
,  // measure 31
3001
0000
0000
0110
,  // measure 32
1000
0000
0100
0000
,  // measure 33
0010
0000
0001
0000
,  // measure 34
1000
0000
0010
0000
,  // measure 35
0100
0000
0001
0000
,  // measure 36
0001
0000
0100
0000
,  // measure 37
0010
0000
1000
0000
,  // measure 38
0001
0000
0010
0000
,  // measure 39
0100
0000
0000
1000
,  // measure 40
0001
0100
0001
0100
,  // measure 41
0010
1000
0100
0010
,  // measure 42
0001
0010
0100
1000
,  // measure 43
0010
0010
0100
0100
,  // measure 44
0001
0001
1000
0100
,  // measure 45
0010
0010
0100
0100
,  // measure 46
1000
0010
0100
0001
,  // measure 47
1000
0000
0000
0000
,  // measure 48
1001
0000
0000
0000
,  // measure 49
0110
0000
0110
0000
,  // measure 50
1001
0000
1001
0000
,  // measure 51
0110
0000
0000
0000
,  // measure 52
0001
0001
0100
0100
,  // measure 53
0010
0010
1000
1000
,  // measure 54
0100
0010
0001
0100
,  // measure 55
0001
0010
0100
0110
,  // measure 56
1001
1000
0100
0010
,  // measure 57
0001
0010
0100
0010
,  // measure 58
0001
0001
0100
0010
,  // measure 59
1000
0010
0100
0010
,  // measure 60
0000
1000
0010
0100
,  // measure 61
0001
0100
0010
0100
,  // measure 62
0001
0010
0100
1000
,  // measure 63
0100
0100
0100
0110
,  // measure 64
1000
0100
1000
0000
0001
0000
0001
0000
,  // measure 65
1000
0100
1000
0000
0010
0000
1000
0000
,  // measure 66
0001
0100
0001
0000
1000
0000
1000
0000
,  // measure 67
0001
0100
0001
0000
0010
0000
0010
0000
,  // measure 68
0001
0010
0001
0000
1000
0000
1000
0000
,  // measure 69
0001
0010
0001
0000
1000
0000
0010
0000
,  // measure 70
1000
0010
1000
0000
0010
0100
0010
0000
,  // measure 71
1000
0000
0000
0100
0000
0000
1001
0000
,  // measure 72
0000
0000
0000
0000
,  // measure 73
0000
0000
0000
0000
,  // measure 74
0000
0000
0000
0000
,  // measure 75
0001
0100
0010
1000
,  // measure 76
0001
0000
1000
0000
,  // measure 77
0001
0010
0100
0000
,  // measure 78
1000
0000
0001
0000
,  // measure 79
2002
0000
0000
0000
,  // measure 80
3003
0000
0000
0000
;

//---------------dance-single - ----------------
#NOTEDATA:;
#CHARTNAME:;
#STEPSTYPE:dance-single;
#DESCRIPTION:;
#CHARTSTYLE:;
#DIFFICULTY:Beginner;
#METER:3;
#RADARVALUES:0.157502,0.230724,0.080315,0.000000,0.000000,151.000000,140.000000,11.000000,0.000000,0.000000,0.000000,0.000000,0.000000,0.000000,0.157502,0.230724,0.080315,0.000000,0.000000,151.000000,140.000000,11.000000,0.000000,0.000000,0.000000,0.000000,0.000000,0.000000;
#CREDIT:Karl with a K;
#OFFSET:-0.025000;
#BPMS:0.000000=142.000000
;
#STOPS:;
#DELAYS:;
#WARPS:;
#TIMESIGNATURES:0.000000=4=4
;
#TICKCOUNTS:0.000000=4
;
#COMBOS:0.000000=1
;
#SPEEDS:0.000000=1.000000=0.000000=0
;
#SCROLLS:0.000000=1.000000
;
#FAKES:;
#LABELS:0.000000=Song Start
;
#NOTES:
// measure 0
0000
0000
0000
0000
,  // measure 1
0000
0000
0000
0000
,  // measure 2
0000
0000
0000
0000
,  // measure 3
0000
0000
0000
0000
,  // measure 4
1000
0000
1000
0000
,  // measure 5
1000
0000
0000
0000
,  // measure 6
0001
0000
0001
0000
,  // measure 7
0001
0000
0000
0000
,  // measure 8
1001
0000
0000
0000
,  // measure 9
0000
0000
0000
0000
,  // measure 10
0000
0000
0000
0000
,  // measure 11
0000
0000
0000
0000
,  // measure 12
0001
0000
0001
0000
,  // measure 13
1000
0000
1000
0000
,  // measure 14
0100
0000
0100
0000
,  // measure 15
0010
0000
0000
0110
,  // measure 16
0110
0000
0000
0000
,  // measure 17
1000
0000
0001
0000
,  // measure 18
1000
0000
0100
0000
,  // measure 19
0010
0000
0001
0000
,  // measure 20
1000
0000
0010
0000
,  // measure 21
0100
0000
0001
0000
,  // measure 22
1000
0000
0000
0000
,  // measure 23
0001
0001
0001
0000
,  // measure 24
1000
0000
1000
0000
,  // measure 25
0001
0000
0001
0000
,  // measure 26
0010
0000
0010
0000
,  // measure 27
0100
0000
0100
0000
,  // measure 28
1001
0000
1000
1000
,  // measure 29
1000
0000
0001
0001
,  // measure 30
0001
0001
0001
0001
,  // measure 31
0000
0000
0000
1000
,  // measure 32
1000
0000
0000
0000
,  // measure 33
0000
0000
0000
0000
,  // measure 34
0000
0000
0000
0000
,  // measure 35
0000
0000
0000
0000
,  // measure 36
0001
0000
0000
0000
,  // measure 37
0000
0000
0000
0000
,  // measure 38
0000
0000
0000
0000
,  // measure 39
1001
0000
0000
0000
,  // measure 40
1000
0000
0010
0000
,  // measure 41
0100
0000
0001
0000
,  // measure 42
1000
0000
0100
0000
,  // measure 43
0010
0000
0001
0000
,  // measure 44
1000
0000
1000
0000
,  // measure 45
0010
0000
0100
0000
,  // measure 46
0001
0000
0001
0000
,  // measure 47
1000
0000
0000
0000
,  // measure 48
1001
0000
0000
0000
,  // measure 49
0110
0000
0000
0000
,  // measure 50
1001
0000
0000
0000
,  // measure 51
0110
0000
0000
0000
,  // measure 52
1000
0000
0100
0000
,  // measure 53
0010
0000
0001
0000
,  // measure 54
0100
0000
0010
0000
,  // measure 55
1000
0000
0000
0000
,  // measure 56
1000
1000
1000
0000
,  // measure 57
0100
0100
0100
0000
,  // measure 58
0010
0010
0010
0000
,  // measure 59
0001
0001
0001
0000
,  // measure 60
1000
1000
1000
0000
,  // measure 61
0010
0010
0010
0000
,  // measure 62
0100
0100
0100
0000
,  // measure 63
0001
0001
0001
0000
,  // measure 64
1000
1000
1000
1000
,  // measure 65
1000
1000
1000
0000
,  // measure 66
0001
0001
0001
0001
,  // measure 67
0001
0001
0001
0000
,  // measure 68
0100
0100
0100
0100
,  // measure 69
0100
0100
0100
0000
,  // measure 70
0010
0010
0010
0010
,  // measure 71
0010
0000
0000
0110
,  // measure 72
0000
0000
0000
0000
,  // measure 73
0000
0000
0000
0000
,  // measure 74
0000
0000
0000
0000
,  // measure 75
1000
1000
1000
1000
,  // measure 76
1000
0000
0001
0000
,  // measure 77
0001
0000
0001
0000
,  // measure 78
1000
0000
0001
0000
,  // measure 79
1001
0000
0000
0000
;

//---------------dance-double - XO DS- FS JA- XMOD FL-BU+ RH- STR[3/3*/3/2*] JU----------------
#NOTEDATA:;
#CHARTNAME:;
#STEPSTYPE:dance-double;
#DESCRIPTION:XO DS- FS JA- XMOD FL-BU+ RH- STR[3/3*/3/2*] JU;
#CHARTSTYLE:;
#DIFFICULTY:Challenge;
#METER:18;
#RADARVALUES:0.898072,1.168224,0.255549,0.591413,1.551548,861.000000,826.000000,35.000000,81.000000,24.000000,0.000000,0.000000,0.000000,0.000000,0.898072,1.168224,0.255549,0.591413,1.551548,861.000000,826.000000,35.000000,81.000000,24.000000,0.000000,0.000000,0.000000,0.000000;
#CREDIT:;
#OFFSET:-0.016000;
#BPMS:0.000000=142.000000
;
#STOPS:;
#DELAYS:;
#WARPS:;
#TIMESIGNATURES:0.000000=4=4
;
#TICKCOUNTS:0.000000=4
;
#COMBOS:0.000000=1
;
#SPEEDS:0.000000=1.000000=0.000000=0
,30.000000=0.500000=2.000000=0
,48.000000=1.000000=12.000000=0
,63.000000=0.250000=0.000000=0
,63.166668=1.000000=0.800000=0
,127.000000=1.500000=0.000000=0
,127.166664=1.000000=0.800000=0
,188.000000=0.500000=3.000000=0
,208.000000=1.000000=12.000000=0
,223.000000=0.500000=0.000000=0
,223.166672=1.000000=0.800000=0
,240.000000=0.500000=0.500000=0
,240.500000=1.000000=0.500000=0
,255.000000=0.250000=0.000000=0
,255.166672=1.000000=0.800000=0
,287.000000=2.000000=0.000000=0
,287.125000=0.500000=0.375000=0
,300.000000=1.000000=0.000000=0
,300.125000=0.500000=0.875000=0
,301.000000=1.000000=0.000000=0
,301.125000=0.500000=0.875000=0
,302.000000=1.000000=0.000000=0
,302.125000=0.500000=0.875000=0
,303.000000=1.000000=0.000000=0
,303.125000=0.500000=0.875000=0
;
#SCROLLS:0.000000=1.000000
,60.000000=0.000000
,60.500000=2.000000
,61.000000=0.000000
,61.500000=2.000000
,62.000000=0.000000
,62.500000=2.000000
,63.000000=1.000000
,64.000000=0.000000
,66.000000=1.000000
,92.000000=0.500000
,92.333336=1.500000
,92.666664=1.000000
,93.000000=0.500000
,93.333336=1.500000
,93.666664=1.000000
,94.000000=0.500000
,94.333336=1.500000
,94.666664=1.000000
,103.000000=0.500000
,103.500000=1.500000
,104.000000=1.000000
,108.000000=0.500000
,108.500000=1.500000
,109.000000=0.500000
,109.500000=1.500000
,110.000000=0.500000
,110.500000=1.500000
,111.000000=1.000000
,252.000000=0.000000
,252.500000=2.000000
,253.000000=0.000000
,253.500000=2.000000
,254.000000=0.000000
,254.500000=2.000000
,255.000000=1.000000
;
#FAKES:;
#LABELS:0.000000=Song Start
;
#NOTES:
00000000
00000000
00000000
00000000
,
00000000
00000000
00000000
00000000
,
00000000
00000000
00000000
00000000
,
00000000
00000000
00000000
00000000
,
10000000
00000000
00000000
00000000
00000000
00000000
00010000
01000000
00010000
00000000
01000000
00000000
00100000
00000000
10000000
00000000
00000000
00000000
00000000
00000000
00000000
00000000
01000000
00100000
01000000
00000000
00100000
00000000
00002000
00000000
00000000
00000000
,
00013000
00000000
00000100
00000000
00000010
00000001
00000000
00000200
00000000
00000301
00000100
00000010
00001000
00000100
00000010
00000001
,
00001000
00000000
00000000
00000000
00000000
00000000
00000001
00000010
00000001
00000000
00000010
00000000
00000100
00000000
00010000
00000000
00000000
00000000
00000000
00000000
00000000
00000000
00001000
00010000
00001000
00000000
01000000
00000000
00100000
00000000
20000000
00000000
,
00000000
00100000
30020000
01000000
,
10030000
00000000
00000000
01000000
00000000
00000000
00010000
00000000
00100000
01000000
00000000
00000000
10000000
00000000
00000000
01000000
,
00000000
00000000
01000000
00000000
00000000
10000000
00000000
00000000
00100000
00000000
00000000
01000000
00000000
00000000
00010000
00000000
,
10000000
00000000
00000000
01000000
00000000
00000000
10000000
00000000
00100000
01000000
00000000
00000000
00010000
00000000
00000000
01000000
,
00000000
00000000
00000000
00010000
00000000
00000000
00000000
00000000
00000000
00100000
00010000
00100000
00010000
00000000
00000000
01000000
00000000
00000000
00100000
10000000
00100000
10000000
00000000
00000000
,
00010000
00100000
01000000
10000000
00010000
00100000
01000000
10000000
00010000
01000000
00100000
10000000
00010000
01000000
00100000
10000000
,
00010000
00100000
01000000
00100000
00010000
00100000
01000000
10000000
00010000
01000000
00100000
01000000
00010000
01000000
00100000
10000000
,
00010000
00100000
00010000
00000000
10000000
00000000
00010000
00000000
10000000
00100000
10000000
00000000
00010000
00000000
10000000
00000000
00010000
01000000
00010000
00000000
10000000
00000000
00010000
00000000
10000000
01000000
10000000
00000000
00010000
00000000
20000000
00000000
,
0MMM0000
00MM0000
300M0000
01100000
,
10010000
00000000
00000000
00000000
00000000
00000000
00000000
00000000
00000000
00000000
00000000
00000000
00000000
00000000
00000000
00000000
00000000
10000000
01000000
00000000
00100000
01000000
00000000
00020000
,
00000000
00000000
00000000
01030000
00000000
00000000
00100000
00000000
00010000
00000000
00000000
02000000
00000000
00000000
03100000
10000000
00000000
00000000
00100000
10000000
00010000
00100000
00010000
10000000
,
01000000
00000000
00000000
00100000
00000000
00000000
00010000
00000000
01000000
00100000
00000000
10000000
00000000
00000000
10000000
00010000
00000000
10000000
00100000
00000000
01000000
00100000
00000000
00020000
,
00000000
00000000
00000000
20030000
00000000
00000000
32000000
00000000
00000000
03020000
00000000
00230000
00000000
00000000
01300000
00100000
00000000
00000000
01000000
10000000
00010000
01000000
00010000
10000000
,
00100000
00000000
00100000
00000000
00100000
00000000
10000000
00000000
01000000
00100000
00000000
00010000
00000000
00000000
00010000
10000000
00000000
00010000
00100000
01000000
00100000
01000000
00100000
00020000
,
00000000
00000000
00000000
10030000
00000000
00000000
01000000
00000000
10000000
00000000
00000000
00200000
00000000
00000000
01300000
00010000
00000000
00000000
10020000
00000000
00000000
00000000
00000000
00000000
,
00130000
00000000
00010000
00000000
10000000
00000000
00100000
00000000
10000000
00000000
00010000
00000000
10000000
00000000
01000000
00100000
00010000
00100000
01000000
10000000
00010000
01000000
00100000
10000000
,
01000000
00000000
00000000
00000000
01000000
00000000
10000000
00000000
00000000
00000000
10000000
00000000
00010000
00000000
00000000
00000000
00010000
00000000
01000000
00000000
00100000
10000000
00010000
01000000
,
00200000
00000000
00000000
00000000
00000000
00000000
00000000
00000000
00000000
00000000
00000000
00000000
00000000
00000000
00000000
00000000
00000000
00000000
00000000
00000000
00000000
00000000
00000000
00000000
00000000
00000000
00000000
00000000
00000000
00000000
00000000
00000000
00000000
00000000
00000000
00000000
10300000
00000000
00000000
00000000
00000000
00000000
00010000
00000000
00000000
00000000
00000000
00000000
10000000
00000000
00000000
00000000
00000000
00000000
00000000
00000000
00000000
00000000
00000000
00000000
00000000
00000000
00000000
00000000
01000000
00000000
00000000
00000000
00000000
00000000
00000000
00000000
M0000000
00000000
00000000
00000000
00000000
00000000
00000000
00000000
01000000
00000000
00000000
00000000
00000000
00000000
00000000
00000000
00000000
00000000
00000000
00000000
00000000
00000000
00000000
00000000
00010000
00000000
00000000
00000000
00000000
00000000
00000000
00000000
00000000
00000000
00000000
00000000
00000000
00000000
00000000
00000000
01000000
00000000
00000000
00000000
00000000
00000000
00000000
00000000
000M0000
00000000
00000000
00000000
00000000
00000000
00000000
00000000
01000000
00000000
00000000
00000000
00000000
00000000
00000000
00000000
00000000
00000000
00000000
00000000
00000000
00000000
00000000
00000000
10000000
00000000
00000000
00000000
00000000
00000000
00000000
00000000
00000000
00000000
00000000
00000000
00000000
00000000
00000000
00000000
01000000
00000000
00000000
00000000
00000000
00000000
00000000
00000000
M0000000
00000000
00000000
00000000
00000000
00000000
00000000
00000000
01000000
00000000
00000000
00000000
00000000
00000000
00000000
00000000
00000000
00000000
00000000
00000000
00000000
00000000
00000000
00000000
,
00010000
00000000
00000000
00000000
00000000
00000000
10000000
00000000
00000000
00000000
00000000
00000000
00010000
00000000
00000000
00000000
00000000
00000000
00000000
00000000
00000000
00000000
00000000
00000000
00000000
00000000
00000000
00000000
00000000
00000000
00000000
00000000
00000000
00000000
00000000
00000000
10000000
00000000
00000000
00000000
00000000
00000000
00010000
00000000
00000000
00000000
00000000
00000000
10000000
00000000
00000000
00000000
00000000
00000000
00000000
00000000
00000000
00000000
00000000
00000000
00000000
00000000
00000000
00000000
00100000
00000000
00000000
00000000
00000000
00000000
00000000
00000000
M0000000
00000000
00000000
00000000
00000000
00000000
00000000
00000000
00100000
00000000
00000000
00000000
00000000
00000000
00000000
00000000
00000000
00000000
00000000
00000000
00000000
00000000
00000000
00000000
00010000
00000000
00000000
00000000
00000000
00000000
00000000
00000000
00000000
00000000
00000000
00000000
00000000
00000000
00000000
00000000
00100000
00000000
00000000
00000000
00000000
00000000
00000000
00000000
01000000
00000000
00000000
00000000
00000000
00000000
00000000
00000000
00100000
00000000
00000000
00000000
00000000
00000000
00000000
00000000
00000000
00000000
00000000
00000000
00000000
00000000
00000000
00000000
00010000
00000000
00000000
00000000
00000000
00000000
00000000
00000000
00000000
00000000
00000000
00000000
00000000
00000000
00000000
00000000
00000000
00000000
00000000
00000000
00000000
00000000
00000000
00000000
00000000
00000000
00000000
00000000
00000000
00000000
00000000
00000000
00000000
00000000
00000000
00000000
00000000
00000000
00000000
00000000
00000000
00000000
00000000
00000000
00000000
00000000
00000000
00000000
,
11000000
00000000
00000000
00000000
00000000
00000000
00000000
00000000
00000000
00000000
00000000
00000000
00000000
00000000
00000000
00000000
00000000
00000000
00000000
00000000
00000000
00000000
00000000
00000000
00000000
00000000
00000000
00000000
00000000
00000000
00000000
00000000
00000000
00000000
00000000
00000000
00010000
00000000
00000000
00000000
00000000
00000000
10000000
00000000
00000000
00000000
00000000
00000000
00010000
00000000
00000000
00000000
00000000
00000000
00000000
00000000
00000000
00000000
00000000
00000000
00000000
00000000
00000000
00000000
00100000
00000000
00000000
00000000
00000000
00000000
00000000
00000000
000M0000
00000000
00000000
00000000
00000000
00000000
00000000
00000000
00100000
00000000
00000000
00000000
00000000
00000000
00000000
00000000
00000000
00000000
00000000
00000000
00000000
00000000
00000000
00000000
10000000
00000000
00000000
00000000
00000000
00000000
00000000
00000000
00000000
00000000
00000000
00000000
00000000
00000000
00000000
00000000
00100000
00000000
00000000
00000000
00000000
00000000
00000000
00000000
M0000000
00000000
00000000
00000000
00000000
00000000
00000000
00000000
00100000
00000000
00000000
00000000
00000000
00000000
00000000
00000000
00000000
00000000
00000000
00000000
00000000
00000000
00000000
00000000
00010000
00000000
00000000
00000000
00000000
00000000
00000000
00000000
00000000
00000000
00000000
00000000
00000000
00000000
00000000
00000000
00100000
00000000
00000000
00000000
00000000
00000000
00000000
00000000
000M0000
00000000
00000000
00000000
00000000
00000000
00000000
00000000
00100000
00000000
00000000
00000000
00000000
00000000
00000000
00000000
00000000
00000000
00000000
00000000
00000000
00000000
00000000
00000000
,
10000000
00000000
00000000
00000000
00000000
00000000
11000000
00000000
00000000
00000000
00000000
00000000
00110000
00000000
00000000
00000000
00000000
00000000
00010000
01000000
00100000
10000000
00010000
00100000
,
00010000
00000000
00000000
00000000
00000000
00000000
10000000
00000000
00010000
00000000
01000000
000M0000
01000000
00000000
10000000
00000000
00010000
00000000
01000000
00M00000
01000000
00000000
10000000
00000000
00100000
00000000
01000000
00000000
10000000
00000000
01000000
00000000
,
00100000
10000000
00100000
00000000
00000000
00000000
01000000
00000000
00010000
00000000
00100000
000M0000
00100000
00000000
10000000
00000000
00010000
00000000
00100000
0M000000
00100000
00000000
10000000
00000000
01000000
00000000
00100000
00000000
10000000
00000000
00100000
00000000
,
00010000
01000000
00010000
01000000
00100000
10000000
00100000
10000000
01000000
10000000
01000000
10000000
00010000
00100000
00010000
00100000
,
00010000
00000000
01000000
00000000
00100000
10000000
01000000
00100000
00010000
00000000
10010000
00000000
02200000
00000000
03300000
00000000
,
00010000
00000000
00000000
01000000
00010000
01000000
00100000
10000000
00000000
00000000
00000000
01000000
10000000
01000000
00200000
00000000
,
00310000
00000000
00100000
00000000
01000000
10000000
00000000
00020000
00000000
10030000
00100000
01000000
00010000
01000000
00100000
10000000
,
01000000
00000000
00000000
00100000
00010000
00100000
01000000
10000000
00000000
00000000
00000000
00100000
10000000
00100000
02000000
00000000
,
03010000
00000000
00000000
00000000
01000000
00000000
00000000
00000000
00100000
00000000
10000000
00000000
00000000
00000000
00020000
00000000
00000000
00000000
00000000
00000000
00000000
00000000
00130000
00010000
00200000
00000000
00000000
00000000
00000000
00000000
00300000
00000000
,
11000000
00000000
00000000
00010000
10000000
00100000
01000000
00010000
00000000
00000000
00000000
00100000
00010000
00100000
01000000
10000000
,
01000000
00000000
00100000
00000000
00010000
10000000
00000000
00020000
00000000
10030000
01000000
00100000
00010000
00100000
01000000
10000000
,
00100000
00000000
00000000
00000000
00000000
00000000
00000000
00000000
00000000
01000000
00000000
00000000
00010000
00000000
00000000
01000000
00000000
00000000
00100000
00000000
10000000
00000000
00010000
00000000
00100000
00000000
01000000
00000000
10000000
00000000
00010000
00000000
01000000
00000000
00100000
00000000
10000000
00000000
00000000
01000000
00000000
00000000
00000000
00000000
00000000
00020000
00000000
00000000
,
00000000
00000000
00000000
00000000
00000000
00000000
00000000
00000000
00000000
00000000
00000000
00000000
10000000
00000000
00000000
00000000
00000000
00000000
00000000
00000000
00000000
01030000
00000000
00000000
00100000
00000000
01000000
00000000
00100000
00000000
01000000
00000000
00000000
10000000
00000000
00000000
00010000
00000000
01000000
00000000
00100000
00000000
10000000
00000000
00100000
00000000
01000000
00000000
,
00020000
00000000
00000000
00000000
00000000
00000000
01000000
00000000
00000000
00000000
00000000
00000000
20030000
00000000
00000000
30200000
00000000
00000000
01300000
00000000
00010000
00100000
00000000
20000000
,
00000000
00000000
00000000
30100000
00000000
00000000
01000000
10000000
00000000
02000000
00000000
00000000
00100000
00000000
00000000
13000000
01000000
00100000
00010000
00000000
10000000
00010000
00000000
00100000
,
01000000
00000000
00000000
00100000
00010000
10000000
00020000
00000000
00000000
10030000
00100000
10000000
00020000
00000000
00000000
00130000
00010000
10000000
00200000
00000000
00310000
00000000
00000000
00200000
,
01000000
00000000
00000000
10300000
00200000
00000000
20300000
00000000
00000000
30020000
00000000
00000000
02030000
00000000
00000000
03200000
00000000
00000000
20300000
00000000
31000000
00200000
00000000
00310000
,
20000000
00000000
00000000
30010000
00100000
01000000
00100000
00000000
01000000
10000000
00000000
00200000
00000000
00000000
00000000
01300000
00010000
10000000
00010000
00000000
00100000
01000000
00000000
10000000
,
00100000
00000000
00000000
00000000
00000000
00000000
02000000
00000000
00000000
00000000
00000000
00000000
00000000
00000000
00000000
00000000
00000000
00000000
00000000
00000000
00000000
00000000
00000000
00000000
03200000
00000000
00000000
00000000
00000000
00000000
00000000
00000000
00000000
00000000
00000000
00000000
00000000
00000000
00000000
00000000
00000000
00000000
00000000
00000000
00000000
00000000
00000000
00000000
20300000
00000000
00000000
00000000
00000000
00000000
00000000
00000000
00000000
00000000
00000000
00000000
00000000
00000000
00000000
00000000
00000000
00000000
00000000
00000000
00000000
00000000
00000000
00000000
32000000
00000000
00000000
00000000
00000000
00000000
00000000
00000000
00000000
00000000
00000000
00000000
00000000
00000000
00000000
00000000
00000000
00000000
00000000
00000000
00000000
00000000
00000000
00000000
00100000
00000000
00000000
00000000
00000000
00000000
00000000
00000000
00000000
00000000
00000000
00000000
00000000
00000000
00000000
00000000
00000000
00000000
00000000
00000000
00000000
00000000
00000000
00000000
13000000
00000000
00000000
00000000
00000000
00000000
00000000
00000000
01000000
00000000
00000000
00000000
00000000
00000000
00000000
00000000
00100000
00000000
00000000
00000000
00000000
00000000
00000000
00000000
00010000
00000000
00000000
00000000
00000000
00000000
00000000
00000000
10000000
00000000
00000000
00000000
00000000
00000000
00000000
00000000
00100000
00000000
00000000
00000000
00000000
00000000
00000000
00000000
01000000
00000000
00000000
00000000
00000000
00000000
00000000
00000000
00010000
00000000
00000000
00000000
00000000
00000000
00000000
00000000
10000000
00000000
00000000
00000000
00000000
00000000
00000000
00000000
,
00010000
01000000
00100000
10000000
00010000
10000000
00010000
00100000
01000000
10000000
00010000
10000000
01000000
00100000
00010000
10000000
01000000
00100000
00010000
10000000
00010000
01000000
00100000
10000000
,
00000000
00000000
00000000
00000000
,
02020000
00000000
00000000
00000000
03000000
00000000
00000000
00200000
00000000
00000000
00000000
00000000
00330000
00000000
00000000
00000000
,
22000000
00000000
00000000
00000000
33000000
00000000
00000000
20200000
00000000
00000000
30300000
00000000
00020000
00000000
00030000
00000000
,
22000000
00000000
00000000
00000000
33000000
00000000
00000000
20200000
00000000
00000000
00000000
00000000
30300000
00000000
00000000
00000000
,
02020000
00000000
00000000
00000000
03030000
00000000
00000000
00010000
00000000
00000000
00010000
00000000
00000000
00010000
00000000
00000000
,
10000000
00100000
01000000
00010000
10000000
00100000
01000000
00010000
10000000
01000000
00100000
00010000
10000000
01000000
00100000
00010000
,
10000000
00100000
01000000
00100000
10000000
00100000
01000000
00010000
10000000
01000000
00100000
01000000
10000000
01000000
00100000
00010000
,
10000000
00000000
00000000
00000000
00000000
00000000
00100000
00000000
00000000
00000000
00000000
00000000
10000000
00000000
00000000
00000000
00000000
00000000
00000000
00000000
00000000
00000000
00000000
00000000
00010000
00000000
00000000
00000000
00000000
00000000
00000000
00000000
00000000
00000000
00000000
00000000
10000000
00000000
00000000
00000000
00000000
00000000
00000000
00000000
00000000
00000000
00000000
00000000
00010000
00000000
00000000
00000000
00000000
00000000
00100000
00000000
00000000
00000000
00000000
00000000
00010000
00000000
00000000
00000000
00000000
00000000
00000000
00000000
00000000
00000000
00000000
00000000
10000000
00000000
00000000
00000000
00000000
00000000
00000000
00000000
00000000
00000000
00000000
00000000
00010000
00000000
00000000
00000000
00000000
00000000
00000000
00000000
00000000
00000000
00000000
00000000
10000000
00000000
00000000
00000000
00000000
00000000
01000000
00000000
00000000
00000000
00000000
00000000
10000000
00000000
00000000
00000000
00000000
00000000
00000000
00000000
00000000
00000000
00000000
00000000
00010000
00000000
00000000
00000000
00000000
00000000
00000000
00000000
00000000
00000000
00000000
00000000
10000000
00000000
00000000
00000000
00000000
00000000
00000000
00000000
00000000
00000000
00000000
00000000
00010000
00000000
00000000
00000000
00000000
00000000
00000000
00000000
00000000
00000000
00000000
00000000
01000000
00000000
00000000
00000000
00000000
00000000
00000000
00000000
00000000
00000000
00000000
00000000
00010000
00000000
00000000
00000000
00000000
00000000
00000000
00000000
10000000
00000000
00000000
00000000
00000000
00000000
00000000
00000000
00010000
00000000
00000000
00000000
00000000
00000000
00000000
00000000
,
10000000
00000000
00000000
00000000
00100000
00000000
10000000
00000000
00100000
00000000
01000000
00000000
00010000
01000000
00100000
00000000
00000000
00000000
10000000
00000000
01000000
00000000
00000000
00000000
02200000
00000000
00000000
00000000
03300000
00000000
00000000
00000000
,
10010000
00000000
00010000
00000000
10000000
00100000
01000000
00010000
00000000
00010000
00100000
00000000
00010000
00100000
01000000
00000000
,
10000000
00000000
00100000
00000000
01000000
00100000
00000000
20000000
00000000
30010000
00100000
00010000
00100000
01000000
10000000
00010000
,
10000000
00000000
00010000
00000000
10000000
01000000
00100000
00010000
00000000
00010000
01000000
00000000
00010000
01000000
00100000
00020000
,
00000000
00000000
00000000
00130000
00000000
00000000
01000000
00000000
00000000
00010000
00000000
00000000
10000000
00000000
00000000
01000000
00000000
00000000
00100000
00000000
00000000
10000000
00000000
00000000
00000000
00000000
00000000
00100000
00000000
00000000
01000000
00000000
00000000
10000000
00000000
00000000
00010000
00000000
01000000
00000000
00100000
00000000
10000000
00000000
00100000
00000000
01000000
00000000
,
00020000
00000000
00030000
00000000
00010000
01000000
00100000
10000000
00000000
10000000
01000000
00000000
10000000
01000000
00100000
00000000
,
00010000
00000000
01000000
00000000
00100000
01000000
00000000
00020000
00000000
10030000
01000000
10000000
01000000
00100000
00010000
10000000
,
00010000
00000000
10000000
00000000
00010000
00100000
01000000
10000000
00000000
10000000
00100000
00000000
10000000
00100000
01000000
00020000
,
MMM00000
MM000000
M0030000
01100000
,
10010000
00000000
10010000
00000000
10000000
01000000
00100000
00010000
00000000
00000000
10100000
00000000
00010000
01000000
00100000
00000000
,
10100000
00000000
01010000
00000000
00010000
00100000
00000000
11000000
00000000
10000000
01000000
00100000
00010000
01000000
00100000
10000000
,
00010000
00000000
10010000
00000000
00010000
01000000
00100000
10000000
00000000
00000000
00110000
00000000
10000000
00010000
00100000
10000000
,
00000000
00100000
00010000
10000000
00100000
00010000
00100000
10000000
01000000
00010000
01000000
10000000
00100000
01000000
00010000
10000000
,
00010000
00000000
00000000
00000000
10010000
00000000
00000000
00000000
00010000
00000000
00100000
00000000
01000000
00000000
10000000
00000000
00000000
00000000
00000000
00000000
01010000
00000000
00000000
00000000
10000000
00000000
00100000
00000000
01000000
00010000
01000000
00000000
,
00010000
00000000
00000000
00000000
10010000
00000000
00000000
00000000
10000000
01000000
10000000
00000000
00000000
00000000
00110000
00000000
00000000
00000000
00010000
00000000
00100000
00000000
01000000
10000000
01000000
00000000
00100000
00000000
00010000
00000000
01000000
00000000
,
00010000
10000000
00010000
00000000
10000000
00010000
10000000
00000000
00010000
00000000
00100000
00000000
01000000
00000000
10000000
01000000
10000000
00000000
00010000
00000000
01000000
00000000
00100000
00000000
10000000
00000000
00100000
10000000
00100000
00000000
01000000
00000000
,
00010000
00100000
00010000
00000000
00000000
00000000
10000000
00100000
10000000
00000000
00000000
00000000
00010000
01000000
00010000
00000000
00000000
00000000
10000000
01000000
10000000
00000000
00000000
00000000
02200000
00000000
00000000
00000000
03300000
00000000
00000000
00000000
,
00010000
00000000
00000000
00000000
00000000
00000000
00000000
10000000
00000000
00000000
00000000
00000000
00000000
00000000
00000000
00000000
,
00100000
00000000
01000000
00000000
00010000
10000000
00000000
02000000
00000000
13000000
01000000
00100000
00010000
00100000
01000000
10000000
,
00010000
00000000
00000000
00000000
00000000
00000000
00000000
10000000
00000000
00000000
00000000
00000000
00000000
00000000
00000000
00000000
,
00220000
00330000
22000000
33000000
20200000
30300000
02020000
03030000
,
10000000
00000000
00000000
00000000
00100000
00000000
00000000
00M10000
00000000
00000000
00000000
00000000
00100000
00000000
00000000
00000000
,
00100000
00000000
01000000
00000000
10000000
00010000
00000000
02000000
00000000
03010000
01000000
00100000
10000000
00100000
01000000
00010000
,
10000000
00000000
00000000
00000000
00000000
00000000
00010000
00100000
00010000
00000000
00100000
00000000
01000000
00000000
10000000
00000000
00000000
00000000
00000000
00000000
00000000
00000000
00010000
01000000
00010000
00000000
01000000
00000000
00100000
00000000
20000000
00000000
,
00000000
00000000
00000000
00000000
,
30100000
00000000
00000000
00000000
;
