#VERSION:0.83;
#TITLE:恋愛=精度×認識力;
#SUBTITLE:;
#ARTIST:立秋 vs. BEMANI Sound Team "L.E.D.-G" feat.ちょこ&ななひら;
#TITLETRANSLIT:Renai=seido x ninshikiryoku;
#SUBTITLETRANSLIT:;
#ARTISTTRANSLIT:Rissyuu vs. L.E.D.-G feat. Choko & Nanahira;
#GENRE:HARDCORE×ソフラン×変拍子×萌え;
#ORIGIN:beatmania IIDX 30 RESIDENT / SOUND VOLTEX EXCEED GEAR;
#CREDIT:K47R;
#BANNER:Renai=seido x ninshikiryoku.png;
#BACKGROUND:Renai=seido x ninshikiryoku-bg.png;
#PREVIEWVID:;
#JACKET:Renai=seido x ninshikiryoku-jacket.png;
#CDIMAGE:;
#DISCIMAGE:;
#LYRICSPATH:;
#CDTITLE:;
#MUSIC:Renai=seido x ninshikiryoku.ogg;
#OFFSET:0.124000;
#SAMPLESTART:51.027000;
#SAMPLELENGTH:15.000000;
#SELECTABLE:YES;
#DISPLAYBPM:3.000000:177.000000;
#BPMS:0.000=177.000,
152.500=13.000,
153.000=177.000,
155.000=13.000,
155.500=177.000,
158.000=13.000,
158.500=177.000,
161.500=13.000,
162.000=177.000,
205.500=3.000,
205.625=30.000,
205.896=45.000,
206.146=75.000,
206.396=100.000,
206.646=135.000,
206.917=175.000,
207.167=210.000,
207.417=240.000,
207.667=265.000,
207.917=300.000,
208.167=333.000,
216.000=177.000,
219.000=182.000,
222.000=187.000,
225.000=192.000,
228.000=197.000,
231.000=202.000,
234.000=207.000,
237.000=212.000,
240.000=217.000,
243.000=222.000,
246.000=227.000,
249.000=232.000,
252.000=237.000,
255.000=242.000,
258.000=247.000,
261.000=155.000,
261.500=145.000,
262.000=130.000,
262.500=17.000,
262.750=150.000,
263.000=177.000;
#STOPS:;
#DELAYS:;
#WARPS:;
#TIMESIGNATURES:0.000=3=4,
9.000=7=4,
16.000=3=4,
19.000=7=4,
26.000=3=4,
29.000=7=4,
36.000=2=4,
38.000=7=4,
45.000=3=4,
48.000=4=4,
60.000=3=4,
63.000=4=4,
79.000=7=4,
86.000=3=4,
92.000=5=4,
97.000=2=4,
105.000=1=4,
107.000=4=4,
151.000=2=4,
155.000=1=4,
155.500=2=4,
216.000=3=4,
261.000=6=4,
263.000=4=4,
299.000=3=4,
302.000=7=4,
309.000=3=4,
312.000=7=4,
319.000=3=4,
322.000=7=4,
329.000=2=4,
331.000=5=4,
336.000=3=4;
#TICKCOUNTS:0.000=4;
#COMBOS:0.000=1;
#SPEEDS:0.000=1.000=0.000=0;
#SCROLLS:0.000=1.000;
#FAKES:;
#LABELS:0.000=Song Start;
#BGCHANGES:;
#KEYSOUNDS:;
#ATTACKS:
;

//---------------dance-single - ----------------
#NOTEDATA:;
#CHARTNAME:;
#STEPSTYPE:dance-single;
#DESCRIPTION:;
#CHARTSTYLE:;
#DIFFICULTY:Beginner;
#METER:5;
#RADARVALUES:0.167796,0.268248,0.039682,0.000000,0.007936,148.000000,143.000000,5.000000,0.000000,0.000000,0.000000,0.000000,0.000000,0.000000,0.167796,0.268248,0.039682,0.000000,0.007936,148.000000,143.000000,5.000000,0.000000,0.000000,0.000000,0.000000,0.000000,0.000000;
#CREDIT:K7R (t7r-Karl with a K);
#DISPLAYBPM:3.000000:177.000000;
#NOTES:
// measure 0
0000
0000
0000
0000
,  // measure 1
0000
0000
0000
0000
,  // measure 2
0000
0000
0000
0000
,  // measure 3
0000
0000
0000
0000
,  // measure 4
0000
0000
0000
0000
0000
0000
0000
1000
,  // measure 5
0000
0000
0000
0010
0000
0000
0000
0100
,  // measure 6
0000
0000
0000
0001
0000
0001
0000
0000
,  // measure 7
0000
1000
0000
1000
,  // measure 8
0000
0001
0000
0001
,  // measure 9
0001
0000
0010
0000
,  // measure 10
0100
0000
1000
0000
,  // measure 11
0001
0000
0000
0000
,  // measure 12
0000
0100
0000
0100
,  // measure 13
0000
0100
0000
0010
,  // measure 14
0000
0010
0000
1000
,  // measure 15
0000
1000
0000
0001
,  // measure 16
0000
0000
0000
0001
0000
0000
0000
1000
,  // measure 17
0000
0000
0000
0100
0000
0000
0000
0010
,  // measure 18
0000
0000
0000
0010
0000
0000
0000
0100
,  // measure 19
0000
0000
0000
0000
0000
1000
0000
0000
,  // measure 20
0000
1000
0000
0001
,  // measure 21
0000
0000
0000
1000
0000
0000
0000
0000
,  // measure 22
0010
0000
0010
0000
,  // measure 23
0000
0000
0100
0000
,  // measure 24
0100
0000
0000
0001
,  // measure 25
0000
0001
0000
0000
0000
0000
0000
1000
,  // measure 26
0000
0000
0000
0000
0000
0000
1000
0000
0000
0000
0000
0000
0000
0000
0000
0001
,  // measure 27
0000
0000
0000
0000
0000
0001
0000
0000
0000
0000
0000
0000
1000
0000
0000
0000
,  // measure 28
0000
0000
0000
0000
,  // measure 29
0000
0000
0000
0100
,  // measure 30
0000
0000
0000
0000
,  // measure 31
0000
0000
0000
0010
,  // measure 32
0000
0000
0000
0010
,  // measure 33
0000
0000
0000
0001
,  // measure 34
0000
1000
0000
0010
,  // measure 35
0000
0100
0000
0010
,  // measure 36
0000
0000
0000
0000
,  // measure 37
0000
0000
0000
1000
,  // measure 38
0000
1000
0001
0000
0000
0000
0001
1000
,  // measure 39
0000
0000
0000
0000
1000
0010
0000
0000
,  // measure 40
0000
0000
0000
0010
0100
0000
0000
0000
,  // measure 41
0100
0000
0100
0000
,  // measure 42
0010
0000
0010
0000
,  // measure 43
1000
0000
1000
0000
,  // measure 44
0001
0000
0001
0000
,  // measure 45
0010
0000
0010
0000
,  // measure 46
0100
0000
0100
0000
,  // measure 47
1000
0000
1000
0000
,  // measure 48
0001
0000
0001
0000
,  // measure 49
1001
0000
0000
0000
,  // measure 50
0000
0000
0000
0000
,  // measure 51
1000
0000
0000
0110
0000
0000
0000
0000
,  // measure 52
0000
0000
0000
0000
,  // measure 53
0000
0000
0000
0000
,  // measure 54
0000
0000
0000
1000
,  // measure 55
0000
0000
0010
0000
,  // measure 56
0000
0100
0000
0000
,  // measure 57
0001
0000
0000
0010
,  // measure 58
0000
0000
0100
0000
,  // measure 59
0000
1000
0000
0000
,  // measure 60
0010
0000
0000
0100
,  // measure 61
0000
0000
0001
0000
,  // measure 62
0000
0010
0000
0000
,  // measure 63
0100
0000
0000
1000
,  // measure 64
0000
0000
0010
0000
,  // measure 65
0000
0000
0100
0000
0000
0110
0010
0000
,  // measure 66
0000
0010
0000
0100
,  // measure 67
0000
0100
0000
0001
,  // measure 68
0000
0001
0000
1000
,  // measure 69
0000
1000
0000
0100
,  // measure 70
0100
0100
0000
0010
,  // measure 71
0010
0010
0000
0001
,  // measure 72
0001
0001
0000
1000
,  // measure 73
1000
1000
0000
1001
,  // measure 74
0000
0000
0000
0001
,  // measure 75
0001
0001
0001
0000
,  // measure 76
0010
0000
0100
0000
,  // measure 77
1000
0010
0000
0000
,  // measure 78
1000
0000
0010
0000
,  // measure 79
0100
0000
0001
0010
,  // measure 80
0000
0000
0000
0001
0000
0100
0000
0001
,  // measure 81
0000
0000
0000
1000
0000
0100
0000
1000
,  // measure 82
0000
0010
0000
0000
0000
1000
0000
0010
,  // measure 83
0000
1000
0000
0000
0000
0001
0000
0010
,  // measure 84
0000
0010
0110
0000
;

//---------------dance-single - ----------------
#NOTEDATA:;
#CHARTNAME:;
#STEPSTYPE:dance-single;
#DESCRIPTION:;
#CHARTSTYLE:;
#DIFFICULTY:Easy;
#METER:11;
#RADARVALUES:0.409287,0.469433,0.095236,0.095236,0.130949,361.000000,349.000000,12.000000,12.000000,0.000000,0.000000,0.000000,0.000000,0.000000,0.409287,0.469433,0.095236,0.095236,0.130949,361.000000,349.000000,12.000000,12.000000,0.000000,0.000000,0.000000,0.000000,0.000000;
#CREDIT:K47R (Karl with a K-t7r-forcednature);
#DISPLAYBPM:3.000000:177.000000;
#NOTES:
0000
0000
0000
0000
,
0000
0000
0000
0000
,
0000
0000
0000
0000
,
0000
0000
0000
0000
,
0000
0000
0000
0000
0000
0000
0000
1000
,
0000
0100
0000
0010
0000
0100
0000
1000
,
0000
0000
0001
0000
0000
0000
1000
0000
0000
0000
0010
0000
0000
0100
0000
0000
,
0010
0100
0001
0000
0100
0000
0010
0000
,
0100
0001
1000
0001
,
0010
0000
0000
0100
0000
0000
0010
0000
0100
0000
0000
0000
1000
0000
0000
0000
,
0001
0001
0100
0100
,
0100
0000
0000
0000
0010
0000
0000
0010
0000
0000
0010
0000
0000
0000
0001
0000
,
0000
0010
1000
0100
,
1000
0100
0010
0100
,
0001
0100
0001
0100
,
1000
0000
0000
0000
0010
0000
0000
0000
0100
0000
0000
0001
0000
0000
0000
0000
,
0001
0010
0000
0001
0000
0100
0000
0001
,
0000
0100
0000
0010
0000
0100
0000
1000
,
0000
1000
0000
0100
0000
0100
0000
0001
,
0000
0001
0000
0000
0001
0000
0000
0001
0000
0000
1000
0000
0000
0000
0000
0000
,
0010
1000
0100
0010
,
0100
0000
1000
0010
0000
0000
0010
0000
,
0100
0000
0100
0000
0001
0000
1000
0001
,
0000
0010
0001
0100
,
0001
0010
0000
0000
0001
0000
0100
0100
,
0010
1000
0000
0000
0100
0100
0010
0001
,
0000
0000
0100
0000
0010
0000
1000
0000
0000
0000
0001
0000
0001
0000
0000
0100
,
0000
0000
0010
0000
0000
0100
0000
0000
0001
0000
0001
0000
0010
0000
0000
0000
,
0000
0100
0000
0000
1000
0000
0010
0000
,
0000
0100
0000
0000
0001
0000
1000
0000
,
0000
0100
0000
0000
0010
0000
0001
0000
,
0000
1000
0000
0000
0001
0000
0100
0000
,
0000
0010
0000
0000
1000
0000
0100
0000
,
0000
0010
0000
0000
0001
0000
1000
0000
,
0010
0000
0100
0000
0001
0000
1000
0100
,
1000
0100
0010
0001
1000
0001
0200
0000
,
0000
0000
0320
0000
0000
0000
1030
0001
,
0100
0001
1000
0001
0010
0001
1000
0000
,
0000
0110
0001
0000
0000
0000
0110
1000
,
0000
0000
0000
0000
0110
0001
0000
0000
,
0000
0000
0000
0000
0000
0000
1001
0000
1000
0000
0000
0100
0000
0000
0010
0000
,
0001
0000
0000
0100
0000
0000
0001
0000
1000
0000
0000
0100
0000
0000
1000
0000
,
0001
0000
0000
0010
0000
0000
0001
0000
1000
0000
0000
0010
0000
0000
1000
0000
,
0001
0000
0000
0100
0000
0000
0010
0000
1000
0000
0000
0100
0000
0000
0010
0000
,
0001
0000
0000
1000
0000
0000
0010
0000
0010
0000
0000
0100
0000
0000
0001
0000
,
0000
1000
1000
0000
0001
0100
0001
0000
,
1000
0000
0001
0000
0010
0001
0010
0000
,
0001
0000
0000
0100
0000
0000
0010
0000
2000
0000
0000
0000
3100
0000
0000
0000
,
1000
0000
0000
0010
0000
0000
0100
0000
0001
0000
0000
1000
0000
0000
0100
0000
,
0020
0000
0000
0000
,
0031
0000
0000
0001
0000
0000
1000
0000
0000
1001
0000
0000
0001
0000
0010
0000
,
0001
1000
0000
0110
0000
0000
0000
0000
,
0000
0000
0000
0000
,
0000
0000
0000
0000
,
1000
0100
0100
0010
,
0001
0001
0100
0010
,
0010
1000
0001
0001
,
0010
0100
0100
1000
,
0001
0001
0100
0010
,
0010
1000
0001
0001
,
0010
0100
1000
0010
,
0100
0001
1000
0100
,
0010
0001
0100
0010
,
1000
0001
0010
0200
,
0000
0300
1000
0001
,
0100
0000
0000
0000
0010
0000
0000
0010
0000
0000
1001
0000
1000
0000
0000
0100
,
0000
0000
1000
0000
0001
0000
0000
0100
0000
0000
0001
0000
1000
0000
0000
0010
,
0000
0000
1000
0000
0001
0000
0000
0010
0000
0000
0001
0000
0100
0000
0000
0010
,
0000
0000
1000
0000
0100
0000
0000
0010
0000
0000
0001
0000
1000
0000
0000
0001
,
0000
0000
0100
0000
0010
0000
0000
0010
0000
0000
0010
0000
0000
0000
1000
0000
,
0100
1000
0000
0100
0001
0100
0000
1000
,
0010
1000
0000
0010
0000
0010
0100
0000
,
0001
0010
0001
0010
0001
0000
1000
0010
,
0001
0000
0001
0010
0100
0000
2002
0000
,
0000
0000
3003
1100
,
0101
0110
1000
0010
,
0100
0001
1000
0000
0001
0010
0100
0000
,
1000
0010
0002
0000
0000
0003
0000
0000
,
0010
0000
1000
0000
0100
0010
0001
0000
,
0022
0000
0033
0000
0001
0100
2000
0000
,
0000
3000
0000
0100
0001
0010
0000
0100
,
1000
0010
0000
1000
0001
0100
0000
0001
,
0010
2000
0000
0000
3000
0010
0100
0010
,
0000
0001
1000
0001
1000
0010
0000
0100
,
0000
0100
0000
0000
0010
0000
0000
1000
0001
0000
0000
0000
0000
0000
0000
0000
;

//---------------dance-single - XO DS JA- XMOD RH- TS JU-----------------
#NOTEDATA:;
#CHARTNAME:;
#STEPSTYPE:dance-single;
#DESCRIPTION:XO DS JA- XMOD RH- TS JU-;
#CHARTSTYLE:;
#DIFFICULTY:Medium;
#METER:13;
#RADARVALUES:0.582753,0.670619,0.182535,0.246026,0.226185,514.000000,491.000000,23.000000,31.000000,0.000000,0.000000,0.000000,0.000000,0.000000,0.582753,0.670619,0.182535,0.246026,0.226185,514.000000,491.000000,23.000000,31.000000,0.000000,0.000000,0.000000,0.000000,0.000000;
#CREDIT:K47R (forcednature-t7r-Karl with a K);
#DISPLAYBPM:3.000000:177.000000;
#NOTES:
0000
0000
0000
0000
,
0000
0000
0000
0000
,
0000
0000
0000
0000
,
0000
0000
0000
0000
,
0000
0000
0000
0000
0000
0000
0000
1000
,
0100
1000
0000
0001
0100
0001
0000
1000
,
0010
0100
0010
0001
0000
0220
0000
0000
,
0330
0000
0100
0001
1000
0000
0100
1000
,
0001
0000
0010
0100
1000
0001
0100
0000
,
2002
0000
3003
0000
1000
0010
1000
0010
,
0100
0001
0100
0001
0010
0100
0010
0100
,
1000
0000
0000
0000
0001
0000
0000
1000
0000
0000
1001
0000
0000
0010
0100
0000
,
0000
0000
1001
0000
0001
0010
0100
0010
,
0001
0000
1000
0010
0100
0010
1000
0000
,
0002
0100
1003
0000
0002
0100
1003
0000
,
0001
0100
0010
1000
0001
0000
1001
0000
,
1000
0010
0000
0100
0001
0010
0001
0100
,
0000
0010
1000
0100
1000
0010
0000
2000
,
0100
3001
0000
2000
0100
3001
0000
1000
,
0000
1010
0000
0000
0001
0000
0000
0011
0000
0000
1001
0000
0000
0000
0000
0000
,
1000
0010
0100
0001
0010
0000
0001
0010
,
0100
1000
0010
0210
0000
0000
1000
0000
,
0010
0000
0301
0000
0100
0010
1000
1001
,
0000
0000
0001
0010
0100
1000
0010
0100
,
0001
1001
0000
1000
0100
0001
0100
1000
,
0010
1010
0000
0001
0100
0001
0010
0011
,
0000
0000
0100
0000
0010
0000
1001
0000
0000
0000
0001
0000
0100
0000
0000
0100
,
0000
0000
0010
0000
0000
0010
0000
0000
1000
0000
0001
0000
1000
0000
0000
1000
,
0000
0000
0100
0000
0010
0000
0000
0010
0000
0000
0001
0000
1000
0000
0000
0010
,
0000
0000
0001
0000
0000
0010
0000
0010
0100
0000
0001
0000
1000
0000
0000
0100
,
0000
0000
1000
0000
0001
0000
0000
0100
0000
0000
0001
0000
0010
0000
0000
1000
,
0000
0000
0010
0000
0000
0001
0000
0001
1000
0000
0001
0000
0100
0000
0000
0101
,
0000
0000
0001
0000
1000
0000
0000
1100
0000
0000
0100
0000
1000
0000
0000
1010
,
0000
0000
0010
0000
0100
0000
0000
0100
0001
0000
1000
0000
0100
0000
0000
1000
,
0100
0000
0010
0000
0001
0000
0000
0100
0010
0000
1000
0000
0001
0000
0001
0000
,
0010
0010
0100
1000
0001
0100
0010
0000
,
0010
0000
1000
0000
1000
0000
0001
0010
,
0001
0000
1000
0010
0100
0001
1000
1000
,
0001
0200
0301
0001
1000
0100
0020
0031
,
0001
1000
0010
0100
0002
1003
1000
0100
,
0010
0000
0001
0000
1000
0000
2001
0000
3001
0000
0000
0100
0000
0000
0010
0000
,
1000
0000
0000
0100
1000
0000
0001
0000
1000
0000
0000
0001
0100
0000
0001
0000
,
0010
0000
0000
0001
1000
0000
0001
0000
0100
0000
0000
0010
1000
0000
0001
0000
,
1000
0000
0000
0010
0100
0000
0010
0000
1000
0000
0000
0001
0010
0000
0100
0000
,
0010
0000
0000
0001
1000
0000
0100
0000
0001
0000
0000
0100
0000
0000
1000
0000
,
0000
0010
0010
0100
0001
0010
0100
1000
,
0010
0010
0100
0001
1000
0100
0010
0001
,
0100
0000
0000
1000
0100
0000
0010
0000
0200
0000
0000
0000
0001
0000
0000
0000
,
0310
0000
0000
0100
0001
0000
0010
0000
0100
0000
0000
1000
0010
0000
0100
0000
,
0002
0000
0000
0000
,
1003
0000
0000
1100
0000
0000
0001
0000
0000
0011
0000
0000
0001
0000
1000
0000
,
0010
0100
0001
2000
0000
0000
0000
0000
,
0000
0000
0000
0000
,
0000
0000
0000
0000
,
3001
0100
0100
0010
,
1000
1000
0100
0010
,
0010
0001
1000
1000
,
0100
0001
0001
0100
,
1000
1000
0010
0100
,
0100
1000
0100
0001
,
1000
0100
0010
1000
,
0010
0100
1000
0010
,
0100
1000
0100
0001
,
0010
0001
0100
0020
,
0000
1030
1000
0100
,
0010
0000
0000
0000
0110
0000
0000
1001
0000
0000
0220
0330
0001
0000
0000
0100
,
0001
0000
1000
0000
0001
0000
0000
1000
0100
0000
1000
0000
0010
0000
0000
1000
,
0001
0000
1000
0000
0100
0000
0000
0010
0001
0000
1000
0000
0001
0000
0000
0010
,
0100
0000
0010
0000
0001
0000
0000
1000
0010
0000
0100
0000
0010
0000
0000
1000
,
0001
0000
0100
0000
1000
0000
0000
0100
0000
0000
0001
0000
0000
0000
0010
0100
,
0010
0100
1000
0010
0100
0001
0010
0100
,
1000
0100
1000
0000
0001
0100
0000
0100
0010
0000
0010
0000
0100
0000
0001
0000
,
0010
0000
0010
0000
0100
0000
1000
0000
0010
0000
0010
0000
0100
0001
0000
1000
,
0100
0000
0100
0000
0010
0001
0000
0001
0010
0000
0001
0000
2000
0000
0000
0000
,
0000
0000
0000
0000
0000
0000
0000
0000
0000
0000
0000
0000
3001
0000
0000
0100
,
0001
0000
1000
0000
0100
1000
0000
0000
0001
0000
0100
0000
0002
0000
0100
0000
,
1003
0100
2000
0100
3001
0010
0100
0020
,
1000
0130
0010
0100
1000
0020
0100
0031
,
0010
1000
0002
1000
0103
0001
2000
0001
,
3010
0100
0001
1000
0200
0010
1300
0010
,
0200
0001
0320
1000
0130
0001
0010
0100
,
1000
0100
1000
0010
0100
0010
0100
0002
,
1000
0103
0001
0020
0100
1030
0010
0001
,
0010
0100
1000
0100
1000
0010
0100
1000
,
0000
0001
0000
0000
0010
0000
0000
1000
0001
0000
0000
0000
0000
0000
0000
0000
;

//---------------dance-single - XO DS- JA XMOD RH- TS JU----------------
#NOTEDATA:;
#CHARTNAME:;
#STEPSTYPE:dance-single;
#DESCRIPTION:XO DS- JA XMOD RH- TS JU;
#CHARTSTYLE:;
#DIFFICULTY:Hard;
#METER:16;
#RADARVALUES:0.733543,0.905336,0.357134,0.293644,0.623001,647.000000,602.000000,45.000000,37.000000,0.000000,0.000000,0.000000,0.000000,0.000000,0.733543,0.905336,0.357134,0.293644,0.623001,647.000000,602.000000,45.000000,37.000000,0.000000,0.000000,0.000000,0.000000,0.000000;
#CREDIT:K47R (t7r-Karl with a K-forcednature);
#DISPLAYBPM:3.000000:177.000000;
#NOTES:
0000
0000
0000
0000
,
0000
0000
0000
0000
,
0000
0000
0000
0000
,
0000
0000
0000
0000
,
0000
0000
0000
0000
0000
0000
0000
1000
,
1000
0001
0100
0001
0010
0100
1000
0010
,
0100
0000
0100
0000
0001
0000
1000
0000
0100
0000
0020
0000
0000
1000
0000
0000
,
0130
1000
0001
0100
0010
0100
1000
0100
,
0010
0100
0001
1000
0100
0001
0100
0010
,
0200
0000
0000
0001
0000
0000
0310
0000
0001
0000
0001
0000
0010
0000
0100
0000
,
1000
0000
1000
0000
0010
0000
0100
0000
0001
0000
1000
0100
1000
0000
0001
0000
,
0100
0010
0100
0010
1000
0000
0000
1001
0000
0000
0011
0000
0000
0001
2000
0000
,
0000
0000
3001
0010
0100
0010
0001
0100
,
0010
0000
1000
0000
0100
0000
0010
0000
0200
0000
0000
1300
0010
0000
1000
0000
,
0001
0100
2000
0000
3001
0010
2000
0000
,
3001
0000
0010
0000
1000
0000
0010
0000
0001
0100
0010
2000
0000
0000
0000
0000
,
3001
1000
0010
0100
0010
1000
0100
0010
,
0001
0000
0100
0000
0010
0000
0200
0000
0000
0301
0010
0000
0001
0000
1000
0000
,
0100
0002
0000
1003
0010
0002
0000
1003
,
0000
1010
0000
0000
0110
0000
0000
0101
0000
0000
2001
0000
0000
0000
3001
0000
,
0010
0100
0001
0100
0010
0100
1000
0010
,
0100
0010
0001
0020
0000
0001
0001
0000
,
0100
0100
0130
0000
0001
1000
0010
0210
,
0000
0000
0301
0000
0010
0000
0001
0000
1000
0000
0010
0000
1000
0100
0010
0000
,
0100
2100
0000
3001
0100
0100
0010
0100
,
0001
1000
0020
0000
0000
0000
0130
0000
0100
0000
0001
0000
1000
0100
0020
0000
,
0000
0000
0130
1000
0100
1000
0002
0000
0000
0000
0103
0010
0100
0000
0000
0110
,
0000
0000
0101
0000
0000
1001
0000
0000
1000
0000
0100
0000
1000
0000
0000
0010
,
0100
0000
0010
0000
1000
0000
0000
0010
0100
0000
0010
0000
1000
0000
0000
1010
,
0000
0000
1010
0000
0000
1000
0000
1000
0001
0000
1000
0001
0010
0000
0000
0001
,
1000
0000
0001
0000
0010
0000
0000
0001
1000
0000
0001
0000
0010
0000
0000
0011
,
0000
0000
0011
0000
0000
0001
0000
0001
1000
0000
0001
0100
0010
0000
0000
0100
,
0010
0000
0100
0000
0001
0000
0000
0100
0010
0000
0100
0000
0001
0000
0000
0101
,
0000
0000
0101
0000
0000
0001
0000
0001
1000
0000
0001
1000
0100
0000
0000
1000
,
0001
0000
1000
0000
0100
0000
0000
1000
0001
0000
1000
0000
0100
0000
0000
1100
,
0000
0000
1100
0000
0000
1000
0000
1000
0001
0000
1000
0100
0010
0000
0000
0000
,
0100
0000
0100
0000
0100
0000
0100
0010
,
0001
0000
1000
0000
0010
0000
0100
0000
0101
0000
1000
0000
0001
0010
0000
0010
,
0100
0000
0020
0000
0031
1000
0000
1000
0001
0000
0100
0000
0020
0000
1030
0100
,
0000
0100
0010
0000
0001
0000
0100
0000
2000
0000
3100
0010
0000
0010
1000
0000
,
0100
0000
0010
0000
0100
0000
0002
0000
0103
0000
0000
1000
0000
0000
0001
0000
,
1000
0100
0000
0100
1000
0000
0010
0000
0100
0001
0000
0001
0100
0000
0001
0000
,
0010
0001
0000
0001
0100
0000
0010
0000
0001
0010
0000
0010
0100
0000
0001
0000
,
0010
0001
0000
0001
1000
0000
0100
0000
1000
0001
0000
0001
0100
0000
0010
0000
,
1000
0100
0000
0100
1000
0000
0001
0000
0010
0000
0000
1000
0000
0000
0010
0000
,
0001
0100
0000
0100
0001
0000
0010
0000
0100
1000
0000
1000
0100
0000
1000
0000
,
0010
0100
0000
0100
0010
0000
0001
0000
1000
0100
0000
0100
0010
0000
1000
0000
,
0010
0000
0000
1000
0100
0010
0001
0010
0001
1000
0010
0000
0100
0001
1000
0100
,
0010
0000
0010
0001
0100
0010
1000
0000
0100
1000
0100
0010
0000
0001
1000
0000
,
2002
0000
0000
0003
,
3001
0000
0000
0100
0000
0000
0001
0000
0000
0100
0000
0000
0010
1000
0100
0000
,
1000
0100
0000
0010
0001
0000
0220
0000
0000
0000
0000
0000
0000
0000
0000
0000
,
0000
0000
0000
0000
,
0000
0000
0000
0330
,
1000
0100
0010
0001
,
0100
0010
1000
0100
,
0010
1000
0010
0100
,
1000
0010
0100
0001
,
0100
0010
0100
0010
,
1000
1100
0110
0011
,
0001
0000
0100
1000
0100
0000
0001
0000
,
0010
1000
0010
0000
0001
0000
1000
0010
,
0001
0000
1000
0000
0100
0001
1000
0000
,
1200
0010
0301
0220
,
0000
0330
0021
0100
,
1030
0000
0000
0000
0010
0000
0000
0110
0000
0000
2002
3003
1000
0010
0000
0010
,
0100
0000
0001
0000
0010
0100
0000
0100
1000
0000
0001
0000
0100
0010
0000
1000
,
0010
0000
0100
0000
0001
0010
0000
0100
0010
0000
0001
0000
1000
0010
0000
0100
,
0001
0000
0010
0000
0100
1000
0000
0001
0100
0000
0010
0000
1000
0001
0000
0010
,
0001
0000
0100
0000
0110
0000
0000
1001
0000
0000
0110
0000
0000
0000
1000
0100
,
0010
0000
0001
0010
0001
0100
0000
0100
0010
0000
1000
0000
0001
1000
0000
1000
,
0100
0000
0100
0010
0001
0010
0001
0000
1000
0100
1000
0000
1001
0000
1000
0010
,
0000
0100
0010
0100
0000
0001
0100
0001
1000
0100
1000
0000
0001
0010
0100
0000
,
1000
0010
0100
0000
0001
1000
0100
0010
0000
0001
0100
0000
2002
0000
0000
0000
,
0000
0000
3000
0000
0000
0000
1003
0100
1000
0100
1000
0001
0010
0000
0000
0000
,
0110
0000
0000
0000
1001
0000
0000
0000
1000
0010
0100
0000
0010
0000
1000
0001
,
0010
0000
0010
0001
0100
0000
0010
0000
1000
0000
0100
0010
0001
0000
0100
0000
,
0010
1000
0001
0000
0021
0000
0000
0100
0000
0000
0100
0000
1030
0000
0000
0000
,
0010
0001
1000
0000
0001
0000
0100
0010
1000
0000
1000
0001
0010
0000
0100
0000
,
1200
0000
0000
0010
0000
0000
0301
0000
0100
1000
0001
0000
1002
0000
0000
0010
,
0000
0000
0013
0000
0001
0000
0100
0010
1000
0000
0001
0000
1000
0100
0010
0000
,
0010
0001
0100
0000
0010
0000
1000
0001
0010
0000
0100
0000
1000
0001
0100
0010
,
1000
0000
1200
0000
0000
0000
0001
0000
0301
0000
0100
0000
1100
0000
1000
0100
,
0010
0000
0001
1000
0010
0100
0001
0000
0001
0010
0100
0000
1000
0001
0100
0000
,
0000
1010
0000
0000
0011
0000
0000
0100
1001
0000
0000
0000
0000
0000
0000
0000
;

//---------------dance-single - XO FS+ DS- JA XMOD RH TS JU HS-----------------
#NOTEDATA:;
#CHARTNAME:;
#STEPSTYPE:dance-single;
#DESCRIPTION:XO FS+ DS- JA XMOD RH TS JU HS-;
#CHARTSTYLE:;
#DIFFICULTY:Challenge;
#METER:18;
#RADARVALUES:0.936486,1.072990,0.706332,0.349198,0.980135,826.000000,737.000000,89.000000,44.000000,0.000000,0.000000,0.000000,0.000000,0.000000,0.936486,1.072990,0.706332,0.349198,0.980135,826.000000,737.000000,89.000000,44.000000,0.000000,0.000000,0.000000,0.000000,0.000000;
#CREDIT:K47R (Karl with a K-forcednature-t7r);
#DISPLAYBPM:3.000000:177.000000;
#NOTES:
0000
0000
0000
0000
,
0000
0000
0000
0000
,
0000
0000
0000
0000
,
0000
0000
0000
0000
,
0000
0000
0000
0000
0000
0000
0000
1000
,
0100
0010
0001
0010
0100
1000
0001
1000
,
0010
0100
0010
0000
0100
0000
1000
0000
0100
0000
0110
0000
0000
1010
0000
0000
,
0021
0000
0130
0000
1000
0000
0010
0100
0010
0000
1000
0000
0001
0000
0010
0100
,
0010
0000
0001
0000
1000
0000
0100
0010
0100
0000
0010
0000
1000
0000
0010
0000
,
0120
0000
0000
0032
0000
0000
1003
0000
0001
0000
1100
0000
0100
0000
0100
0000
,
0010
0000
0010
0000
0001
0000
0001
0000
0100
0000
0100
0010
0001
0000
0010
0000
,
1000
0001
1000
0100
1000
0000
0000
1001
0000
0000
1100
0000
0000
0100
0020
0000
,
0000
0130
1000
0100
0010
0001
0100
0001
,
1000
0000
0010
0000
0100
0000
0001
0000
1000
0000
0100
1000
0100
0010
0100
0000
,
0020
0001
0032
0000
1000
1000
2003
0000
,
3001
0000
0100
0000
0010
0000
0100
0000
0001
0100
0010
0002
0000
0000
0000
0000
,
0013
1000
0010
0100
0001
0010
0001
1000
,
0100
0000
0010
0000
0001
0000
1000
0000
0010
1000
0010
0100
0010
0000
0200
0000
,
0001
0302
0000
1000
1000
2003
0000
3001
,
0000
1010
0000
0000
0011
0000
0000
0110
0000
0000
1002
0000
0000
0000
0013
0000
,
0001
0010
0100
1000
0010
1000
0001
0100
,
0010
0000
1000
0000
0001
0010
0002
0000
0000
0000
1000
0000
2003
0000
0000
0000
,
0001
0001
3002
0000
1003
0010
0001
2000
,
0000
0000
3100
0001
0100
0010
1000
0100
,
0010
2000
0000
3001
0100
1000
0010
0100
,
0010
0100
2000
0000
0000
0000
3001
0000
0010
0000
1000
0000
0100
0010
2000
0000
,
0000
0000
0000
0000
3010
0000
0100
0000
1000
0000
0100
0000
0020
0000
0000
0000
0000
0000
0130
0000
0010
0100
0010
0100
0010
0000
0000
0000
0000
0000
0011
0000
,
0000
0000
1010
0000
0000
0101
0000
0000
1100
0000
1000
0000
0011
0000
0000
1010
,
0000
0000
0101
0000
1100
0000
0000
0110
0000
0000
1001
0000
0101
0000
0000
0110
,
0000
0000
1010
0000
0000
1100
0000
0100
0010
0000
0010
0001
1000
0010
0000
0110
,
0000
0000
0101
0000
0011
0000
0000
0110
0000
0000
1100
0000
1001
0000
0000
1010
,
0000
0000
0000
0000
0101
0000
0000
0000
0000
0000
0110
0000
0000
0000
0010
0000
1000
0000
0000
0000
0001
1000
0001
1000
0001
0000
0010
0000
0000
0000
0100
0000
,
1000
0010
0100
0000
0001
1000
0000
0010
0100
1000
0100
0001
1000
0010
0000
1000
,
0100
0000
0010
0001
0010
0100
1000
0001
1000
0000
0010
0100
0001
0010
0000
0100
,
0001
0000
0100
1000
0001
1000
0000
0010
0001
0000
0010
1000
0001
0000
0011
0000
,
1000
0000
1010
0000
0001
0010
0100
1000
0010
0000
1000
0001
0020
0000
0000
0000
,
1000
0000
0001
0000
1000
0000
0031
0011
,
0010
0000
0110
0000
0100
0000
1100
0000
0010
0000
1001
0000
0001
0100
0000
1000
,
0100
0000
0000
0000
0000
0000
0000
0000
0220
0000
0000
0000
0000
0000
0000
0330
0010
0000
0000
0000
1000
0000
0000
0000
0000
0000
0000
0000
0001
0000
0000
0000
0010
0000
0000
0000
0000
0000
0000
0000
0110
0000
0000
0000
0000
0000
0000
0000
2002
0000
0000
0000
0000
0000
0000
3003
1000
0000
0000
0000
0100
0000
0000
0000
,
0000
0000
0000
0000
0010
0000
0000
0000
0001
0000
0000
0000
0000
0000
0000
0000
0101
0000
0000
0000
0000
0000
0000
0000
0001
0000
0000
0000
0020
0000
0000
0000
2000
0000
0000
0000
0000
0000
0000
3030
0010
0000
0000
0000
0001
0000
0000
0000
0000
0000
0000
0000
0100
0000
0000
0000
0010
0000
0000
0000
0000
0000
0000
0000
,
1000
0000
0000
0000
0100
0000
0000
0000
1000
0000
0000
0000
0001
0000
0000
0000
0100
0000
0000
0000
0010
0000
0000
0000
2002
0000
0000
0000
0000
0000
0000
3003
1100
0000
0000
0000
0000
0000
0000
0000
0000
0000
0000
0000
0101
0000
0000
0000
0000
0000
0000
0000
0000
0000
0000
0000
1001
0000
0000
0000
0000
0000
0000
0000
,
1000
0010
0000
0100
0001
1000
0001
0000
0010
0100
0000
1000
0100
0010
0001
0000
,
0100
0001
0000
1000
0010
1000
0001
0000
0010
0100
0000
1000
0100
0010
0001
0000
,
1000
0010
0000
0100
0001
0100
0010
0000
1000
0100
0000
0001
0100
0010
0100
0000
,
0010
0001
0000
1000
0010
1000
0001
0000
0101
0000
0000
1100
0000
0000
1010
0000
,
0000
0000
0010
0100
1000
0000
1000
0100
0001
0000
0001
0010
1000
0000
1000
0010
,
0100
0000
1000
0010
0100
0000
0100
0001
0010
0001
0010
0000
0100
1000
0010
1000
,
0001
0000
0001
0100
0010
1000
0001
0010
0000
0010
0100
1000
0001
1000
0010
0100
,
0001
0010
0001
0000
1000
0010
1000
0000
0100
0001
0100
1000
0000
0001
0100
1000
,
0200
0000
0000
0000
0000
0000
0000
0000
1300
0100
0010
0100
0001
1000
0100
0010
,
0001
0000
0000
1100
0000
0000
0101
0000
0000
1010
0000
0010
0001
0010
1000
0000
,
0100
0001
0000
0100
1000
0000
2002
0000
0000
0000
0000
0000
0000
0000
0000
0000
,
0000
0000
0000
0000
,
0000
0000
0000
3003
,
0110
0000
0000
0000
0001
0100
0010
2000
,
0000
3100
1000
0001
0200
0000
0320
0000
,
0031
0010
2000
0000
3200
0000
0320
0030
,
1010
0000
0011
0000
0001
0100
0020
0000
,
1000
0001
0130
0101
,
0110
0010
1010
1001
,
1000
0100
1100
1000
1001
0000
0001
0100
,
0101
0001
1001
0000
1000
0010
1010
1000
,
1001
0000
0001
0010
0011
0001
1001
0000
,
0001
0010
0110
0100
1100
0000
1000
0010
,
0110
0100
0101
0000
0001
1000
1010
0010
,
0110
0000
0000
0000
0000
0000
0000
0000
1010
0000
0000
0000
0000
0000
0110
0000
0000
0000
0000
0000
2001
0000
3001
1000
0001
0000
0000
0000
0100
0000
0010
0000
,
1000
0100
0010
0001
1000
0000
0010
1000
0001
0010
0100
1000
0010
0000
1000
0100
,
0010
0001
1000
0010
0100
0000
0010
1000
0001
0010
0001
1000
0010
0000
0100
0001
,
1000
0100
1000
0001
0010
0000
0100
0010
0001
1000
0010
0100
0001
0000
1000
0100
,
0010
0001
0100
0010
1000
0000
0000
0110
0000
0000
1001
0000
0001
0000
1000
0100
,
0100
0000
0110
0000
0001
0100
0010
1000
0001
0010
0100
1000
0010
0100
0001
1000
,
0100
0010
0001
0100
0100
0100
0100
0000
0100
0100
0100
0100
1000
0100
0010
0001
,
0100
0100
0100
0100
1000
0100
0100
0000
0100
0100
0100
0100
0001
0100
0100
0000
,
0100
0100
1000
0000
0100
0100
0001
0100
0000
0100
1000
0001
0020
0000
0000
0000
,
0000
0000
0000
0000
0031
0100
0010
1000
0100
0010
0001
1000
0010
0000
1000
0100
,
0010
0000
0001
0100
0010
1000
0000
1000
0001
0000
0010
0001
1000
0001
0010
0001
,
0100
0010
1000
0100
0010
0001
1000
0010
0100
0001
0010
0100
1000
0010
0100
0001
,
1000
0100
1000
0001
0020
0000
0001
1000
0000
0000
1000
0001
0030
0000
0001
1000
,
0010
1000
0100
1000
0001
0100
0001
1000
0010
0100
0001
0010
0100
1000
0001
1000
,
0100
0010
0001
0100
0010
1000
0001
1000
0010
0100
0001
1000
0200
0000
1000
0001
,
0000
0000
0001
1000
0300
0000
1000
0100
0010
0001
0100
0010
1000
0001
0010
0100
,
1000
0010
0100
0001
1000
0100
0010
0001
0100
0010
1000
0001
0010
0001
1000
0010
,
0100
0001
0020
0000
0001
0100
0000
0000
1000
0100
0030
0000
0011
0000
1001
0000
,
0001
0100
1000
0100
0001
0000
1001
0000
1000
0100
0001
0100
1000
0010
0010
0000
,
0000
1001
0000
0000
0101
0000
0000
1100
1001
0000
0000
0000
0000
0000
0000
0000
;

//---------------dance-double - ----------------
#NOTEDATA:;
#CHARTNAME:;
#STEPSTYPE:dance-double;
#DESCRIPTION:;
#CHARTSTYLE:;
#DIFFICULTY:Easy;
#METER:11;
#RADARVALUES:0.397950,0.469433,0.111108,0.142854,0.111108,351.000000,337.000000,14.000000,18.000000,0.000000,0.000000,0.000000,0.000000,0.000000,0.397950,0.469433,0.111108,0.142854,0.111108,351.000000,337.000000,14.000000,18.000000,0.000000,0.000000,0.000000,0.000000,0.000000;
#CREDIT:K47R (Karl with a K-t7r-forcednature);
#DISPLAYBPM:3.000000:177.000000;
#NOTES:
00000000
00000000
00000000
00000000
,
00000000
00000000
00000000
00000000
,
00000000
00000000
00000000
00000000
,
00000000
00000000
00000000
00000000
,
00000000
00000000
00000000
00000000
00000000
00000000
00000000
00000001
,
00000000
00000100
00000000
00000010
00000000
00001000
00000000
00000100
,
00000000
00010000
00000000
00001000
01000000
00200000
00000000
00000000
,
00300000
10000000
01000000
00100000
,
00010000
00000000
01000000
00000000
00001000
00000000
00010000
00000100
,
00000020
00000000
00000031
00000001
,
00001000
00000010
00010000
00000000
00000100
00001000
00000001
00000000
,
00000100
00000000
00000010
00000000
00010000
00000000
00000000
00001000
00000000
00000000
00100000
00000000
00000000
00010000
10000000
00000000
,
00000000
10000000
01000000
00100000
,
00010000
01000000
00001000
00010000
,
00020000
00030010
00000020
00000130
,
00000001
00000000
00000000
00000000
00000010
00000000
00000000
00000000
00000100
00000000
00000000
00001000
00000000
00000000
00000000
00000000
,
00000000
00000001
00000000
00000100
00000000
00000010
00000000
00001000
,
00000000
00000100
00000000
00010000
00000000
00001000
00000000
00002000
,
00000000
00103000
00000000
00200000
00000000
01300000
00000000
10000000
,
00000000
00000000
10000000
00000000
00000000
10000000
00000000
00000000
,
10000000
00100000
01000000
00010000
,
00100000
00000000
00001000
00020000
00000000
00000000
00030100
00000000
,
00000200
00000000
00000310
00000000
00000001
00000000
00000100
00000001
,
00000000
00000001
00000010
00000100
,
00001000
00000010
00000000
00000000
00010000
00000000
00001000
00000000
,
00001000
00100000
00000000
00000000
01000000
00000000
10000000
00100000
,
00000000
00010000
00001000
00010000
00000000
00000000
00011000
00000000
,
00000000
00110000
00000000
00000000
10010000
00000000
10000000
00000000
,
00000000
01000000
00000000
00000000
00100000
00000000
00001000
00000000
,
00000000
00010000
00000000
00000000
00001000
00000000
00010000
00000000
,
00000000
00000010
00000000
00000000
00000100
00000000
00000001
00000000
,
00000000
00000100
00000000
00000000
00000010
00000000
00001000
00000000
,
00000000
00000001
00000000
00000000
00000010
00000000
00000100
00000000
,
00000000
00001000
00000000
00000000
00000001
00000000
00000100
00000000
,
00001000
00000000
00010000
00000000
01000000
00000000
10000000
00100000
,
10000000
00100000
01000000
00010000
10000000
00000000
01000000
00000000
,
01000000
00010000
00010000
00001000
,
00000100
00000000
00000010
00000000
00001000
00000001
00001000
00000000
,
00000000
00000110
00010000
00000000
00000000
00000000
00011000
01000000
,
00000000
00000000
00000000
00000000
10010000
00000010
00000000
00000000
,
00000000
00000000
00000000
00000000
00000000
00000000
00001001
00000000
00000001
00000000
00000000
00000100
00000000
00000000
00000010
00000000
,
00001000
00000000
00000000
00000001
00000000
00000000
00000010
00000000
00000001
00000000
00000000
00001000
00000000
00000000
00000100
00000000
,
00010000
00000000
00000000
00001000
00000000
00000000
01000000
00000000
00010000
00000000
00000000
10000000
00000000
00000000
00010000
00000000
,
00100000
00000000
00000000
00010000
00000000
00000000
10000000
00000000
00100000
00000000
00000000
10000000
00000000
00000000
01000000
00000000
,
00100000
00000000
00000000
00010000
00000000
00000000
00001000
00000000
00000010
00000000
00000000
00000100
00000000
00000000
00000001
00000000
,
00000000
00001000
00001000
00000000
00000001
00000100
00000001
00000000
,
00000010
00000000
00000001
00000000
00001000
00000100
00010000
00000000
,
00001000
00000000
00000000
00010000
00000000
00000000
01000000
00000000
00200000
00000000
00000000
00000000
00310000
00000000
00000000
00000000
,
10000000
00000000
00000000
00100000
00000000
00000000
00010000
00000000
00001000
00000000
00000000
00000010
00000000
00000000
00000001
00000000
,
00002000
00000000
00000000
00000000
,
00003001
00000000
00000000
00000010
00000000
00000000
00000100
00000000
00000000
00001000
00000000
00000000
00010000
00000000
00010000
00000000
,
00000000
00000000
00000000
01100000
00000000
00000000
00000000
00000000
,
00000000
00000000
00000000
00000000
,
00000000
00000000
00000000
00000000
,
10000000
01000000
01000000
00100000
,
00010000
00010000
00001000
00000010
,
00000010
00000100
00000001
00000001
,
00000010
00000100
00000100
00010000
,
00000010
00000010
00010000
00001000
,
00001000
01000000
00010000
00010000
,
00100000
01000000
10000000
01000000
,
00100000
00001000
00010000
00000100
,
00000010
00000001
00000010
00000100
,
00001000
00000001
00000100
00000020
,
00000000
00000030
00000100
00001000
,
00010000
00000000
00000000
00000000
01000000
00000000
00000000
01000000
00000000
00000000
01100000
00000000
10000000
00000000
00000000
00100000
,
00000000
00000000
10000000
00000000
00100000
00000000
00000000
01000000
00000000
00000000
00100000
00000000
01000000
00000000
00000000
00001000
,
00000000
00000000
01000000
00000000
00001000
00000000
00000000
00010000
00000000
00000000
00001000
00000000
00010000
00000000
00000000
00000100
,
00000000
00000000
00001000
00000000
00000100
00000000
00000000
00000010
00000000
00000000
00000001
00000000
00001000
00000000
00000000
00000001
,
00000000
00000000
00000100
00000000
00000010
00000000
00000000
00000010
00000000
00000000
00000010
00000000
00000000
00000000
00001000
00000000
,
00000100
00001000
00000000
00000100
00010000
00001000
00000000
01000000
,
00010000
01000000
00000000
00100000
00000000
00100000
10000000
00000000
,
01000000
00100000
01000000
00100000
00010000
00000000
01000000
00001000
,
00010000
00000000
00000100
00010000
00001000
00000000
00022000
00000000
,
00000000
00000000
00033000
00010010
,
00101000
00011000
00010000
00100000
,
01000000
00010000
10000000
00000000
01000000
00010000
00001000
00000000
,
00010000
00001000
00000020
00000000
00000000
00000030
00000000
00000000
,
00000100
00000000
00001000
00000000
00000001
00000100
00001000
00000000
,
00022000
00000000
00033000
00000000
00010000
00100000
20000000
00000000
,
00000000
30000000
00000000
10000000
01000000
00100000
00000000
00010000
,
00100000
00001000
00000000
01000000
00010000
10000000
00000000
01000000
,
00010000
00002000
00000000
00000000
00003000
00010000
00000010
00010000
,
00000000
00001000
00100000
00001000
00100000
00010000
00000000
01000000
,
00000000
01000000
00000000
00000000
00100000
00000000
00000000
10000000
00010000
00000000
00000000
00000000
00000000
00000000
00000000
00000000
;

//---------------dance-double - ----------------
#NOTEDATA:;
#CHARTNAME:;
#STEPSTYPE:dance-double;
#DESCRIPTION:;
#CHARTSTYLE:;
#DIFFICULTY:Medium;
#METER:13;
#RADARVALUES:0.556676,0.637088,0.150790,0.198408,0.206344,491.000000,472.000000,19.000000,25.000000,0.000000,0.000000,0.000000,0.000000,0.000000,0.556676,0.637088,0.150790,0.198408,0.206344,491.000000,472.000000,19.000000,25.000000,0.000000,0.000000,0.000000,0.000000,0.000000;
#CREDIT:K47R (forcednature-t7r-Karl with a K);
#DISPLAYBPM:3.000000:177.000000;
#NOTES:
00000000
00000000
00000000
00000000
,
00000000
00000000
00000000
00000000
,
00000000
00000000
00000000
00000000
,
00000000
00000000
00000000
00000000
,
00000000
00000000
00000000
00000000
00000000
00000000
00000000
00001000
,
00100000
00001000
00000000
00010000
00000010
00010000
00000000
00001000
,
00000010
00000100
00000010
00000001
00000000
00002002
00000000
00000000
,
00003003
00000000
00000001
00000100
00001000
00000000
00010000
00100000
,
10000000
00000000
00010000
00100000
01000000
10000000
00100000
00000000
,
20020000
00000000
30030000
00000000
10000000
01000000
10000000
01000000
,
00010000
00001000
00010000
00001000
00000100
00000001
00000100
00000001
,
00000010
00000000
00000000
00000000
00000100
00000000
00000000
00010000
00000000
00000000
00001000
00000000
00000000
00100000
01000000
00000000
,
00000000
00000000
10000000
00000000
00100000
01000000
00010000
01000000
,
00001000
00000000
00010000
00000100
00001000
00000100
00000010
00000000
,
00000001
00000100
00002000
00000000
00013000
01000000
20000000
00000000
,
30100000
10000000
00010000
10000000
01000000
00000000
01100000
00000000
,
00000000
00100000
00000000
00010000
00100000
00010000
01000000
00001000
,
00000000
00010000
00000010
00010000
00000100
00001000
00000000
00000001
,
00000010
00002000
00000000
00013000
00100000
20000000
00000000
31000000
,
00000000
00010000
00000000
00000000
00001000
00000000
00000000
00000010
00000000
00000000
00000011
00000000
00000000
00000000
00000000
00000000
,
00000001
00000100
00001000
00010000
00001000
00000000
00010000
00001000
,
00010000
00100000
10000000
02000000
00000000
00000000
00010000
00000000
,
00100000
00000000
13000000
00000000
01000000
00010000
00001000
00011000
,
00000000
00000000
00010000
00001000
00000010
00000100
00000010
00000001
,
00001000
00001001
00000000
00001000
00000100
00010000
00001000
01000000
,
00010000
01010000
00000000
00001000
00010000
00000100
00001000
00001100
,
00000000
00000000
00010000
00000000
00001000
00000000
00011000
00000000
00000000
00000000
01000000
00000000
00010000
00000000
00000000
00010000
,
00000000
00000000
00100000
00000000
00000000
00100000
00000000
00000000
01000000
00000000
10000000
00000000
01000000
00000000
00000000
00010000
,
00000000
00000000
00001000
00000000
00000100
00000000
00000000
00001000
00000000
00000000
00010000
00000000
00100000
00000000
00000000
00010000
,
00000000
00000000
00001000
00000000
00000000
00000010
00000000
00000010
00000100
00000000
00001000
00000000
00000001
00000000
00000000
00000100
,
00000000
00000000
00001000
00000000
00010000
00000000
00000000
01000000
00000000
00000000
10000000
00000000
00100000
00000000
00000000
01000000
,
00000000
00000000
00100000
00000000
00000000
00010000
00000000
00010000
00001000
00000000
00010000
00000000
00000100
00000000
00000000
00001100
,
00000000
00000000
00001000
00000000
00000001
00000000
00000000
00000101
00000000
00000000
00000100
00000000
00000010
00000000
00000000
00001010
,
00000000
00000000
00001000
00000000
00000100
00000000
00000000
00010000
00000000
00000000
00001000
00000000
00010000
00000000
00000000
01000000
,
10000000
00000000
00100000
00000000
01000000
00000000
00000000
00010000
00100000
00000000
00001000
00000000
00010000
00000000
00001000
00000000
,
00010000
00000000
00001000
00000100
00000010
00000000
00001000
00000000
,
00001000
00000100
00000100
00010000
,
00010000
00000000
00001000
01000000
00010000
00000000
10000000
00000000
,
00100000
00020000
00031000
00000000
00000010
00000100
00000020
00000031
,
00000100
00001000
00010000
01000000
20000000
30100000
00010000
00001000
,
00010000
00000000
00000010
00000000
00001000
00000000
00000002
00000000
00000103
00000000
00000000
00000001
00000000
00000000
00001000
00000000
,
00000001
00000000
00000000
00000010
00000100
00000000
00001000
00000000
00000001
00000000
00000000
00001000
00000100
00000000
00010000
00000000
,
00001000
00000000
00000000
01000000
00010000
00000000
10000000
00000000
00100000
00000000
00000000
10000000
01000000
00000000
00100000
00000000
,
00010000
00000000
00000000
10000000
00100000
00000000
01000000
00000000
00010000
00000000
00000000
00001000
00000010
00000000
00000100
00000000
,
00000001
00000000
00000000
00001000
00000100
00000000
00000010
00000000
00000001
00000000
00000000
00000100
00000000
00000000
00001000
00000000
,
00010000
00000100
00001000
00000000
00000010
00000100
00000001
00000010
,
00000100
00010000
00001000
00000000
01000000
00010000
00100000
01000000
,
10000000
00000000
00000000
00100000
00010000
00000000
00001000
00000000
02000000
00000000
00000000
00000000
03010000
00000000
00000000
00000000
,
00100000
00000000
00001000
00000000
00010000
00000000
00001000
00000000
00000010
00000000
00000000
00000100
00001000
00000000
00000001
00000000
,
00000200
00000000
00000000
00000000
,
00000301
00000000
00000000
00000011
00000000
00000000
00000010
00000000
00000000
00000110
00000000
00000000
00000100
00000000
00010000
00000000
,
00001000
00010000
01000000
20000000
00000000
00000000
00000000
00000000
,
00000000
00000000
00000000
00000000
,
00000000
00000000
00000000
00000000
,
30100000
01000000
01000000
00010000
,
00100000
00100000
00001000
00010000
,
00010000
00001000
00000010
00000010
,
00000001
00000100
00000100
00001000
,
00010000
01000000
00100000
00010000
,
01000000
00100000
00010000
00100000
,
10000000
00100000
01000000
00001000
,
00010000
00000100
00001000
00000100
,
00000001
00000100
00001000
00000010
,
00000001
00000010
00010000
00002000
,
00000000
01003000
00100000
10000000
,
01000000
00000000
00000000
00000000
00100000
00000000
00000000
00011000
00000000
00000000
00002020
00003030
00000001
00000000
00000000
00000100
,
00000010
00000000
00001000
00000000
00000001
00000000
00000000
00001000
00000010
00000000
00010000
00000000
00001000
00000000
00000000
00100000
,
00010000
00000000
10000000
00000000
01000000
00000000
00000000
10000000
00100000
00000000
01000000
00000000
00010000
00000000
00000000
10000000
,
01000000
00000000
00100000
00000000
00010000
00000000
00000000
00001000
00000100
00000000
00000010
00000000
00000001
00000000
00000000
00001000
,
00000010
00000000
00000100
00000000
00000001
00000000
00000000
00000010
00000000
00000000
00001000
00000000
00000000
00000000
00010000
00001000
,
00010000
00000100
00000010
00000001
00000100
00000010
00010000
00010000
,
00001000
00000000
00001000
00000000
00001000
00100000
00000000
00010000
01000000
00000000
00100000
00000000
10000000
00000000
01000000
00000000
,
00010000
00001000
00000100
00000010
00000100
00000001
00000010
00001000
,
00010000
00000000
00001000
00000000
00000100
00000010
00000000
00000010
00001000
00000000
00000001
00000000
00000020
00000000
00000000
00000000
,
00000000
00000000
00000000
00000031
,
00000101
00000000
00000011
00000000
00000001
00000010
00000100
00001000
,
00000010
00010000
00010000
00001000
00100000
00010000
01000000
00100000
,
10000000
01000000
00020000
00000000
02030000
00000000
13000000
00010000
,
10000000
00100000
01000000
00010000
00100000
00001000
00001000
00010000
,
00000010
00001000
00000100
00000010
00000001
00000100
00002000
00000000
,
00023000
00000000
00031000
00010000
00000100
00010000
00001000
01000000
,
00001000
00100000
01000000
00010000
01000000
00100000
01000000
10000000
,
00010000
00000000
10020000
00000000
00000000
01000000
00000000
00000000
10030000
00000000
01000000
00000000
10000000
00000000
01000000
00000000
,
00010000
00001000
00000010
00000001
00000100
00001000
00010000
00100000
,
00000000
10000000
00000000
00000000
01000000
00000000
00000000
00010000
00001000
00000000
00000000
00000000
00000000
00000000
00000000
00000000
;

//---------------dance-double - ----------------
#NOTEDATA:;
#CHARTNAME:;
#STEPSTYPE:dance-double;
#DESCRIPTION:;
#CHARTSTYLE:;
#DIFFICULTY:Hard;
#METER:16;
#RADARVALUES:0.718804,0.905336,0.277771,0.277771,0.571415,634.000000,599.000000,35.000000,35.000000,0.000000,0.000000,0.000000,0.000000,0.000000,0.718804,0.905336,0.277771,0.277771,0.571415,634.000000,599.000000,35.000000,35.000000,0.000000,0.000000,0.000000,0.000000,0.000000;
#CREDIT:K47R (t7r-Karl with a K-forcednature);
#DISPLAYBPM:3.000000:177.000000;
#NOTES:
00000000
00000000
00000000
00000000
,
00000000
00000000
00000000
00000000
,
00000000
00000000
00000000
00000000
,
00000000
00000000
00000000
00000000
,
00000000
00000000
00000000
00000000
00000000
00000000
00000000
10000000
,
10000000
00010000
00100000
01000000
10000000
00100000
01000000
00010000
,
10000000
00000000
01000000
00000000
00010000
00000000
00001000
00000000
01000000
00000000
00020000
00000000
00000000
00001000
00000000
00000000
,
00130000
00001000
00010000
00001000
00000100
00000010
00000100
00000001
,
00001000
00000100
00000010
00000001
00000010
00001000
00010000
00000100
,
00002000
00000000
00000000
00010000
00000000
00000000
00003010
00000000
00001000
00000000
00001000
00000000
00000100
00000000
00000010
00000000
,
00000001
00000000
00000001
00000000
00000100
00000000
00001000
00000000
00010000
00000000
00000100
00001000
00000100
00000000
00010000
00000000
,
00001000
01000000
00001000
01000000
00010000
00000000
00000000
10010000
00000000
00000000
10100000
00000000
00000000
10000000
00020000
00000000
,
00000000
00000000
10030000
00100000
01000000
00100000
10000000
01000000
,
00100000
00000000
00010000
00000000
00001000
00000000
00000100
00000000
00002000
00000000
00000000
00003010
00000100
00000000
00000001
00000000
,
00000010
00001000
00020000
00000000
00031000
00000100
00000020
00000000
,
00001030
00000000
00000100
00000000
00010000
00000000
00001000
00000000
00010000
00000000
01000000
10000000
00020000
00000000
00000000
00000000
,
00000000
10030000
00100000
01000000
00100000
10000000
01000000
00100000
,
00010000
00000000
00001000
00000000
00000100
00000000
00002000
00000000
00000000
00003010
00000100
00000000
00000001
00000000
00000010
00000000
,
00001000
00020000
00000000
00031000
00000100
00000020
00000000
00001030
,
00000000
00000001
00000000
00000000
00001000
00000000
00000000
00010000
00000000
00000000
02000000
00000000
00000000
00000000
03100000
00000000
,
10000000
00010000
00100000
00001000
00010000
00000010
00001000
00000001
,
00000010
00000001
00001000
00000002
00000000
00000100
00000100
00000000
,
00001000
00001000
00001003
00000000
00000001
00000100
00001000
00021000
,
00000000
00000000
00031000
00000000
00010000
00000000
01000000
00000000
00100000
00000000
00010000
00000000
10000000
00100000
01000000
00000000
,
00100000
20100000
00000000
31000000
00100000
00010000
00001000
00000010
,
00000100
00000010
00002000
00000000
00000000
00000000
00003001
00000000
00000010
00000000
00000100
00000000
00001000
00000100
00020000
00000000
,
00000000
00000000
00031000
01000000
00001000
01000000
00020000
00000000
00000000
00000000
10030000
00010000
10000000
00000000
00000000
00010000
,
00000000
00000000
00001000
00000000
00000000
00000100
00000000
00000000
00001000
00000000
00000001
00000000
00000100
00000000
00000000
00000001
,
00000010
00000000
00000100
00000000
00000010
00000000
00000000
00000001
00000100
00000000
00001000
00000000
00010000
00000000
00000000
00011000
,
00000000
00000000
00011000
00000000
00000000
00010000
00000000
00010000
01000000
00000000
10000000
00000000
00100000
00000000
00000000
01000000
,
00100000
00000000
10000000
00000000
01000000
00000000
00000000
00010000
00001000
00000000
00010000
00000000
00001000
00000000
00000000
00011000
,
00000000
00000000
00011000
00000000
00000000
00001000
00000000
00001000
00000100
00000000
00000001
00001000
00000001
00000010
00000000
00000001
,
00000100
00000000
00000010
00000000
00000100
00000001
00000000
00000010
00000100
00000000
00010000
00001000
00010000
00000000
00000000
00011000
,
00000000
00000000
00011000
00000000
00001000
00000000
00000000
00010000
01000000
00000000
10000000
00000000
01000000
00100000
00000000
00100000
,
01000000
00000000
10000000
00000000
00100000
00010000
00000000
00010000
00001000
00000000
01000000
00000000
00001000
00000000
00010000
00000000
,
00001000
00010000
00001000
00000010
00000001
00000100
00000010
00000000
,
00001000
00000000
00000100
00000000
00001000
00000000
00000001
00000100
,
00000010
00000000
00010000
00000000
00001000
00000000
00100000
00000000
01100000
00000000
00000000
00000000
10000000
01000000
00000000
01000000
,
00100000
00000000
00002000
00000000
00013000
00000010
00000000
00000010
00000100
00000000
00000001
00000000
00000020
00000000
00000130
00010000
,
00000000
00010000
00001000
00000000
00010000
00000000
00100000
00000000
02000000
00000000
03010000
10000000
00000000
10000000
01000000
00000000
,
00100000
00000000
00001000
00000000
00010000
00000000
00000200
00000000
00000310
00000000
00000000
00000001
00000000
00000000
00000100
00000000
,
00000010
00000000
00000000
00001000
00000100
00000000
00000010
00000000
00000001
00000000
00000000
00000100
00000010
00000000
00010000
00000000
,
00001000
00000000
00000000
00100000
00010000
00000000
01000000
00000000
00100000
00000000
00000000
10000000
00010000
00000000
00100000
00000000
,
00001000
00000000
00000000
00010000
00000010
00000000
00001000
00000000
00000100
00000000
00000000
00000010
00000001
00000000
00000010
00000000
,
00000100
00000000
00000000
00010000
00001000
00000000
01000000
00000000
00100000
00000000
00000000
01100000
00000000
00000000
10010000
00000000
,
00000000
00000000
00010000
00100000
00001000
00000000
00010000
00000000
00000010
00000000
00001000
00000000
00000100
00000000
00000010
00000000
,
00000001
00000000
00000100
00000000
00001000
00000000
00010000
00001000
01000000
00001000
01000000
00000000
00010000
10000000
01000000
00000000
,
01100000
00000000
01000000
00000000
00100000
00001000
00100000
00001000
00000000
00010000
00000010
00000000
00001000
00000010
00000100
00000000
,
00000001
00000010
00000100
00000000
00000010
00000100
00010000
00000000
00001000
00100000
00010000
00100000
00000000
01000000
10000000
00000000
,
20020000
00000000
00000000
00000000
00000000
00000000
30000000
00000000
00000000
00000000
10030000
00100000
10000000
00100000
10000000
00010000
,
01000000
00000000
00000000
00110000
00000000
00000000
00011000
00000000
00000000
00001010
00000000
00000000
00000010
00001000
00000001
00000000
,
00000010
00001000
00000000
00001000
00010000
00000000
00022000
00000000
00000000
00000000
00000000
00000000
00000000
00000000
00000000
00000000
,
00000000
00000000
00000000
00000000
,
00000000
00000000
00000000
00033000
,
10000000
00100000
01000000
00001000
,
01000000
00010000
00100000
00001000
,
00010000
01000000
00010000
00001000
,
00010000
00000100
00000010
00000001
,
00000100
00001000
00010000
01000000
,
00100000
01100000
00101000
00011000
,
00010000
00000000
00000010
00001000
00000100
00000000
00010000
00000000
,
00000100
00001000
00000010
00000000
00000100
00000000
00001000
00010000
,
00100000
00000000
10000000
00000000
01000000
00010000
00001000
00000000
,
00000020
00001000
00000100
00000002
,
00000000
00000033
00000001
00000100
,
00001000
00000000
00000000
00000000
00010000
00000000
00000000
00011000
00000000
00000000
02002000
03003000
01000000
00010000
00000000
00010000
,
00100000
00000000
01000000
00000000
10000000
00100000
00000000
00100000
01000000
00000000
00001000
00000000
00010000
00000100
00000000
00001000
,
00000100
00000000
00000010
00000000
00000001
00001000
00000000
00000010
00001000
00000000
00000100
00000000
00010000
00001000
00000000
01000000
,
00001000
00000000
00010000
00000000
00100000
01000000
00000000
00100000
10000000
00000000
01000000
00000000
00100000
00010000
00000000
00100000
,
00001000
00000000
00010000
00000000
00000010
00000000
00000000
00000110
00000000
00000000
00001001
00000000
00000000
00000000
00001000
00000100
,
00010000
00000000
00001000
01000000
00010000
01000000
00000000
01000000
00100000
00000000
10000000
00000000
00010000
00100000
00000000
00100000
,
00001000
00000000
00001000
00010000
00000010
00010000
00000010
00000000
00001000
00000001
00000100
00000000
00000110
00000000
00000010
00001000
,
00000000
00000100
00010000
00000100
00000000
00010000
00001000
01000000
00010000
01000000
00100000
00000000
10000000
01000000
00100000
00000000
,
01000000
00100000
00001000
00000000
00010000
00000100
00001000
00000100
00000000
00000010
00000001
00000000
00002002
00000000
00000000
00000000
,
00000000
00000000
00000003
00000000
00000000
00000000
00003001
00000100
00000001
00000100
00000001
00001000
00000010
00000000
00000000
00000000
,
00001100
00000000
00000000
00000000
00011000
00000000
00000000
00000000
01000000
00010000
10000000
00000000
01000000
00000000
00100000
00001000
,
00010000
00000000
00010000
00000010
00001000
00000000
00000100
00000000
00010000
00000000
00001000
01000000
00010000
00000000
00100000
00000000
,
01000000
10000000
00010000
00000000
01020000
00000000
00000000
10000000
00000000
00000000
10000000
00000000
00130000
00000000
00000000
00000000
,
00010000
00100000
00001000
00000000
00010000
00000000
00000010
00001000
00000100
00000000
00000100
00000010
00000001
00000000
00001000
00000000
,
00000020
00000000
00000000
00000100
00000000
00000000
00001030
00000000
00000010
00010000
00001000
00000000
00201000
00000000
00000000
00010000
,
00000000
00000000
01300000
00000000
00100000
00000000
00010000
10000000
00100000
00000000
01000000
00000000
00001000
00010000
00000100
00000000
,
00000100
00001000
00000001
00000000
00000100
00000000
00000010
00010000
00001000
00000000
01000000
00000000
00010000
10000000
00010000
00100000
,
01000000
00000000
12000000
00000000
00000000
00000000
00010000
00000000
03010000
00000000
01000000
00000000
00100000
00000000
00001000
00010000
,
00000010
00000000
00001000
00000100
00000010
00000001
00000100
00000000
00000100
00000010
00010000
00000000
00001000
00100000
00010000
00000000
,
00000000
01001000
00000000
00000000
00010100
00000000
00000000
00001000
00001000
00000000
00000000
00000000
00000000
00000000
00000000
00000000
;

//---------------dance-double - ----------------
#NOTEDATA:;
#CHARTNAME:;
#STEPSTYPE:dance-double;
#DESCRIPTION:;
#CHARTSTYLE:;
#DIFFICULTY:Challenge;
#METER:18;
#RADARVALUES:0.882065,1.039459,0.539670,0.357134,0.872995,778.000000,710.000000,68.000000,45.000000,0.000000,0.000000,0.000000,0.000000,0.000000,0.882065,1.039459,0.539670,0.357134,0.872995,778.000000,710.000000,68.000000,45.000000,0.000000,0.000000,0.000000,0.000000,0.000000;
#CREDIT:K47R (Karl with a K-forcednature-t7r);
#DISPLAYBPM:3.000000:177.000000;
#NOTES:
00000000
00000000
00000000
00000000
,
00000000
00000000
00000000
00000000
,
00000000
00000000
00000000
00000000
,
00000000
00000000
00000000
00000000
,
00000000
00000000
00000000
00000000
00000000
00000000
00000000
10000000
,
00100000
01000000
00001000
00010000
00000100
00000010
00000001
00000100
,
00001000
00000000
00010000
00000000
00001000
00000000
00100000
00000000
00010000
00000000
00110000
00000000
00000000
11000000
00000000
00000000
,
10200000
01300000
00010000
00100000
00100000
00001000
00010000
00000010
,
00000010
00001000
00000100
00000010
00000010
00001000
00010000
00001000
,
01002000
00000000
00000000
00023000
00000000
00000000
00130000
00000000
10000000
00000000
10000000
00000000
00100000
00000000
00100000
00000000
,
01000000
00000000
01000000
00000000
00010000
00000000
00010000
00000000
00100000
00000000
00100000
00001000
00010000
00000000
00000100
00000000
,
00000010
00000100
00000010
00000100
00000010
00000000
00000000
00000110
00000000
00000000
00001001
00000000
00000000
00001000
00000020
00000000
,
00000000
00010030
00001000
01000000
00100000
10000000
01000000
00100000
,
00010000
00000000
00100000
00000000
00001000
00000000
00010000
00000000
00000010
00000000
00000100
00000001
00000100
00000000
00000001
00000000
,
00000020
00000100
00000230
00000000
00010300
00010000
00020000
00000000
,
00031000
00000000
01000000
00000000
00100000
00000000
10000000
00000000
01000000
00000000
00010000
00002000
00000000
00000000
00000000
00000000
,
00013000
00000100
00000010
00000001
00000100
00000010
00001000
00000010
,
00010000
00000000
00001000
00000000
00100000
00000000
01000000
00000000
10000000
01000000
10000000
00000000
00100000
00000000
02000000
00000000
,
00010000
03020000
00000000
10030000
10000000
20000000
00000000
30010000
,
00000000
00101000
00000000
00000000
00011000
00000000
00000000
00010010
00000000
00000000
00001020
00000000
00000000
00000000
00010030
00000000
,
00001000
00100000
01000000
10000000
00100000
01000000
00010000
01000000
,
00001000
00010000
00000100
00000020
00000000
00000001
00000032
00000000
,
00001003
00001000
00002000
00000000
00003010
00010000
00001000
02000000
,
00000000
03001000
00010000
00000100
00000010
00000001
00000100
00000010
,
00001000
00020000
00000000
01030000
00100000
10000000
01000000
00100000
,
00010000
00000000
00002000
00000000
00000000
00000000
00003100
00000000
00000010
00000000
00000001
00000000
00000100
00001000
00020000
00000000
,
00000000
00000000
00031000
00010000
00001000
00000000
00000020
00000000
00000000
00000000
00000130
00010000
00001000
00000000
00000000
00100000
,
00000000
00000000
00101000
00000000
00000000
01001000
00000000
00000000
10010000
00000000
10000000
00000000
10100000
00000000
00000000
01010000
,
00000000
00000000
01001000
00000000
00101000
00000000
00000000
00011000
00000000
00000000
00010010
00000000
00010100
00000000
00000000
00001100
,
00000000
00000000
00000110
00000000
00000000
00000011
00000000
00000001
00001000
00000000
00001000
00000001
00000010
00000001
00000000
00001100
,
00000000
00000000
00010100
00000000
00010010
00000000
00000000
00011000
00000000
00000000
00101000
00000000
01001000
00000000
00000000
01010000
,
00000000
00000000
01100000
00000000
00000000
10010000
00000000
00010000
01000000
00000000
00001000
00010000
00001000
00010000
00000000
00000100
,
00001000
00000100
00000010
00000000
00000001
00001000
00000000
00000001
00000100
00000010
00000100
00001000
00010000
00001000
00000000
01000000
,
00010000
00000000
00100000
00010000
00100000
01000000
10000000
00100000
10000000
00000000
01000000
00010000
00001000
00010000
00000000
00000100
,
00001000
00000000
00000001
00001000
00000010
00001000
00000000
00000100
00010000
00000000
00001000
01000000
00010000
00000000
00010000
00000000
,
10000000
00000000
10000000
00000000
01000000
00100000
00010000
00100000
00001000
00000000
00010000
00000010
00002000
00000000
00000000
00000000
,
00000001
00000000
00000100
00000000
00000001
00000000
00003010
00001000
,
00010000
00000000
01000000
00000000
00100000
00000000
10000000
00000000
01000000
00000000
00010000
00000000
00001000
00000010
00000000
00000001
,
00000010
00000000
00000000
00000000
00000000
00000000
00000000
00000000
00000220
00000000
00000000
00000000
00000000
00000000
00000000
00000330
00000100
00000000
00000000
00000000
00010000
00000000
00000000
00000000
00000000
00000000
00000000
00000000
00001000
00000000
00000000
00000000
01000000
00000000
00000000
00000000
00000000
00000000
00000000
00000000
01100000
00000000
00000000
00000000
00000000
00000000
00000000
00000000
20020000
00000000
00000000
00000000
00000000
00000000
00000000
30030000
00010000
00000000
00000000
00000000
01000000
00000000
00000000
00000000
,
00000000
00000000
00000000
00000000
00001000
00000000
00000000
00000000
00010000
00000000
00000000
00000000
00000000
00000000
00000000
00000000
00010100
00000000
00000000
00000000
00000000
00000000
00000000
00000000
00010000
00000000
00000000
00000000
00002000
00000000
00000000
00000000
00000020
00000000
00000000
00000000
00000000
00000000
00000000
00003030
00000010
00000000
00000000
00000000
00000001
00000000
00000000
00000000
00000000
00000000
00000000
00000000
00000100
00000000
00000000
00000000
00000010
00000000
00000000
00000000
00000000
00000000
00000000
00000000
,
00010000
00000000
00000000
00000000
00001000
00000000
00000000
00000000
00100000
00000000
00000000
00000000
00001000
00000000
00000000
00000000
00010000
00000000
00000000
00000000
00100000
00000000
00000000
00000000
02200000
00000000
00000000
00000000
00000000
00000000
00000000
03300000
01001000
00000000
00000000
00000000
00000000
00000000
00000000
00000000
00000000
00000000
00000000
00000000
00011000
00000000
00000000
00000000
00000000
00000000
00000000
00000000
00000000
00000000
00000000
00000000
00010100
00000000
00000000
00000000
00000000
00000000
00000000
00000000
,
00000100
00001000
00000000
00000010
00010000
00001000
00010000
00000000
00001000
00100000
00000000
00010000
00100000
01000000
10000000
00000000
,
00010000
01000000
00000000
00001000
00010000
00000010
00001000
00000000
00000100
00000010
00000000
00000001
00001000
00000010
00001000
00000000
,
00000100
00010000
00000000
00001000
00000100
00001000
00010000
00000000
00001000
01000000
00000000
00001000
00010000
01000000
00010000
00000000
,
00001000
00100000
00000000
00001000
00010000
00100000
00010000
00000000
00001000
00000000
00000000
00000010
00000000
00000000
00000011
00000000
,
00000000
00000000
00000001
00000100
00001000
00000000
00001000
00000100
00000010
00000000
00000010
00010000
00001000
00000000
00001000
00100000
,
01000000
00000000
00100000
00001000
01000000
00000000
01000000
00100000
10000000
01000000
10000000
00000000
01000000
00010000
00001000
00010000
,
00000100
00000000
00000100
00001000
00000010
00001000
00000001
00000010
00000000
00000010
00000100
00010000
00001000
00100000
01000000
00100000
,
00010000
01000000
00100000
00000000
10000000
01000000
10000000
00000000
01000000
00010000
00001000
00010000
00000000
00001000
00000010
00000001
,
00000020
00000000
00000000
00000000
00000000
00000000
00000000
00000000
00000130
00010000
00001000
00010000
00100000
01000000
00100000
10000000
,
01000000
00000000
00000000
01100000
00000000
00000000
00101000
00000000
00000000
00010010
00000000
00000010
00001000
00000010
00000100
00000000
,
00000100
00001000
00000000
00010000
01000000
00000000
20020000
00000000
00000000
00000000
00000000
00000000
00000000
00000000
00000000
00000000
,
00000000
00000000
00000000
00000000
,
00000000
00000000
00000000
30030000
,
01100000
00000000
00000000
00000000
10000000
01000000
00010000
02000000
,
00000000
03100000
00001000
00010000
00000020
00000000
00002030
00000000
,
00003100
00000010
00000002
00000000
00000203
00000000
00002300
00003000
,
00011000
00000000
01001000
00000000
01000000
00010000
00200000
00000000
,
10000000
00010000
00302000
01000000
,
00013000
00010100
01001000
00011000
,
00001000
01000000
00010000
00100000
00110000
00000000
00010000
10000000
,
00100000
01000000
01010000
00000000
00010000
00100000
01000000
10000000
,
10100000
00000000
00100000
01000000
00001000
00010000
00011000
00000000
,
00001000
00000100
00000001
00000010
00000011
00000000
00000001
00000010
,
00001000
00010000
00011000
00000000
00001000
00010000
00100000
10000000
,
10100000
00000000
00000000
00000000
00000000
00000000
00000000
00000000
10010000
00000000
00000000
00000000
00000000
00000000
00011000
00000000
00000000
00000000
00000000
00000000
00002001
00000000
00003001
00001000
00000001
00000000
00000000
00000000
00000100
00000000
00000010
00000000
,
00001000
00000100
00000010
00000001
00001000
00000000
00000001
00000010
00000100
00001000
00000001
00000100
00000010
00000000
00001000
00000100
,
00010000
00001000
01000000
00010000
10000000
00000000
00100000
01000000
00010000
10000000
01000000
00100000
00010000
00000000
10000000
00100000
,
01000000
00010000
10000000
01000000
00100000
00000000
00010000
00100000
00001000
00010000
00000010
00001000
00000001
00000000
00000010
00000100
,
00001000
00000001
00000100
00000010
00001000
00000000
00000000
00000110
00000000
00000000
00001001
00000000
00000001
00000000
00001000
00000100
,
00000100
00000000
00000110
00000000
00000001
00000100
00000010
00001000
00000100
00010000
00001000
01000000
00010000
00000000
10000000
01000000
,
00100000
00010000
00100000
00001000
00010000
00000100
00000100
00000000
00000100
00000100
00000100
00000100
00000001
00000000
00000010
00000000
,
00001000
00010000
00001000
01000000
00010000
01000000
01000000
00000000
01000000
01000000
01000000
01000000
10000000
01000000
01000000
00000000
,
01000000
01000000
00010000
00000000
00001000
00000100
00000100
00000000
00000100
00000100
00000001
00001000
00000200
00000000
00000000
00000000
,
00000000
00000000
00000000
00000000
00010300
00001000
00010000
00001000
00010000
00001000
00010000
00001000
01000000
00000000
00000000
00000100
,
00000000
00000000
01000000
00000000
00001000
00010000
00000000
00010000
01000000
00000000
10000000
00100000
01000000
00010000
10000000
01000000
,
00100000
00010000
10000000
00000000
00100000
01000000
00010000
10000000
01000000
00100000
00001000
00010000
00000100
00000000
00001000
00000000
,
00000010
00000100
00000001
00001000
00000020
00000000
00001000
00000001
00000000
00000000
00000001
00001000
00000030
00000000
00001000
00000001
,
00000100
00000000
00000001
00000010
00000100
00001000
00000001
00000100
00000010
00001000
00000001
00000000
00000010
00000100
00001000
00000001
,
00000100
00000010
00010000
00001000
01000000
00000000
00010000
00000000
00100000
01000000
10000000
00010000
00200000
00000000
00010000
10000000
,
00000000
00000000
10000000
00010000
00300000
00000000
00010000
10000000
00010000
00100000
01000000
10000000
00100000
01000000
00010000
10000000
,
01000000
00100000
00001000
00010000
00000100
00001000
00000010
00000100
00000001
00001000
00000100
00000010
00000100
00010000
00001000
00000000
,
01000000
00001000
00020000
00000000
00000100
01000000
00000000
00000000
01000000
00000100
00030000
00000000
00011000
00000000
00010100
00000000
,
00010000
00001000
00000100
00000001
00001000
00000100
00010000
00000000
00001000
00010000
01000000
10000000
00010000
00100000
00100000
00000000
,
00000000
10010000
00000000
00000000
01100000
00000000
00000000
10000000
00001000
00000000
00000000
00000000
00000000
00000000
00000000
00000000
;
