#VERSION:0.83;
#TITLE:Reason of being;
#SUBTITLE:;
#ARTIST:sak;
#TITLETRANSLIT:;
#SUBTITLETRANSLIT:;
#ARTISTTRANSLIT:;
#GENRE:;
#ORIGIN:;
#CREDIT:;
#BANNER:Reason of being banner.png;
#BACKGROUND:Reason of being bg.png;
#PREVIEWVID:;
#JACKET:Reason of being jk.png;
#CDIMAGE:;
#DISCIMAGE:;
#LYRICSPATH:;
#CDTITLE:;
#MUSIC:Reason of being.ogg;
#OFFSET:-0.025000;
#SAMPLESTART:75.814468;
#SAMPLELENGTH:15.789474;
#SELECTABLE:YES;
#BPMS:0.000=95.000,
22.000=190.000,
70.000=95.000,
82.000=190.000,
154.000=95.000,
181.000=190.000,
301.000=95.000,
310.500=80.000,
311.500=70.000,
312.000=60.000,
312.500=35.000;
#STOPS:;
#DELAYS:;
#WARPS:;
#TIMESIGNATURES:0.000=4=4;
#TICKCOUNTS:0.000=4;
#COMBOS:0.000=1;
#SPEEDS:0.000=1.000=0.000=0;
#SCROLLS:0.000=1.000;
#FAKES:;
#LABELS:0.000=Song Start;
#BGCHANGES:;
#KEYSOUNDS:;
#ATTACKS:
;

//---------------dance-single - ----------------
#NOTEDATA:;
#CHARTNAME:;
#STEPSTYPE:dance-single;
#DESCRIPTION:;
#CHARTSTYLE:;
#DIFFICULTY:Hard;
#METER:14;
#RADARVALUES:0.572571,0.646539,0.109380,0.414082,0.125006,513.000000,499.000000,14.000000,53.000000,0.000000,0.000000,0.000000,0.000000,0.000000,0.572571,0.646539,0.109380,0.414082,0.125006,513.000000,499.000000,14.000000,53.000000,0.000000,0.000000,0.000000,0.000000,0.000000;
#CREDIT:Karl with a K;
#NOTES:
// measure 0
0000
0000
0000
0000
,  // measure 1
0000
0000
0000
0000
,  // measure 2
0000
0000
0000
0000
,  // measure 3
0000
0000
0000
0000
,  // measure 4
0000
0000
0000
0000
,  // measure 5
0000
0000
0000
0000
1000
0100
0010
0001
,  // measure 6
0100
0010
1000
0010
1000
0100
0010
0000
,  // measure 7
0001
0100
0010
1000
0100
0010
0001
0010
,  // measure 8
1000
0010
0001
0000
1000
0010
0100
0001
,  // measure 9
0010
0100
1000
0100
1000
0010
0100
0000
,  // measure 10
0001
0010
0100
1000
0010
0100
0001
0100
,  // measure 11
1000
0100
0001
1000
0010
1000
0100
0010
,  // measure 12
0001
0100
0001
0010
0100
1000
0001
0000
,  // measure 13
0010
0001
0100
0010
1000
0100
1000
0010
,  // measure 14
0001
0010
1000
0000
0100
1000
0010
0100
,  // measure 15
0001
0010
0001
0100
0010
1000
0001
0000
,  // measure 16
0100
0001
0010
0100
1000
0010
1000
0100
,  // measure 17
0001
0000
1000
0000
0020
0000
0000
0000
0032
0000
0000
0103
0000
0010
2000
0000
,  // measure 18
3200
0000
0320
0000
0031
0000
0001
0010
0001
1000
0200
0000
0300
0000
0100
0000
,  // measure 19
2000
0000
0000
3100
0000
0010
0002
0000
0203
0000
0320
0000
0130
0000
0000
0001
,  // measure 20
0000
0010
0200
0000
1300
0010
0100
0010
1000
0000
0010
0000
1000
0000
0010
0000
,  // measure 21
0000
0100
0001
0010
0001
0010
0200
0000
,  // measure 22
1300
0000
1000
0100
1000
0001
0010
0001
,  // measure 23
0100
0010
0100
0000
0002
0000
0023
0000
,  // measure 24
0230
0000
1300
0010
1000
0010
0200
0000
,  // measure 25
0310
0000
0010
1000
0010
0000
0200
0000
,  // measure 26
0301
0010
0001
0001
1000
0000
1001
0000
,  // measure 27
0001
0010
0010
0001
1000
1000
1000
0010
,  // measure 28
0010
0100
0001
0010
0001
0100
0001
0010
,  // measure 29
0010
0010
0001
0000
1000
0001
1001
0000
,  // measure 30
0001
0100
0100
0001
1000
1000
1000
0100
,  // measure 31
0100
0010
0001
0100
0001
0010
0001
0100
,  // measure 32
0100
0010
0010
1000
2200
3300
0100
1000
,  // measure 33
0010
0010
0100
0010
0001
0010
0100
0001
,  // measure 34
0100
0001
0010
0001
0100
0001
0010
0100
,  // measure 35
0001
0100
0010
0001
0100
0010
0010
0100
,  // measure 36
0100
0010
1000
0100
0001
0100
1000
0001
,  // measure 37
0010
0100
0100
0010
0010
0100
1000
0010
,  // measure 38
0010
0001
0001
0010
2000
0000
3000
1000
,  // measure 39
0010
0000
0100
0000
0002
0000
0000
0000
0013
0000
0200
0000
0300
0000
0100
1000
,  // measure 40
0002
0000
0103
0100
0001
0100
0020
0000
,  // measure 41
0000
0000
1030
0000
0100
0000
0100
0010
0002
0000
0000
1003
0001
0000
0200
0000
,  // measure 42
1300
0000
0100
0001
2000
0000
0000
3001
1000
0000
0200
0000
0301
0000
0100
1000
,  // measure 43
0010
0000
1000
0100
0020
0000
2030
0000
3020
0000
0031
0001
0200
0000
0000
0000
,  // measure 44
0000
1000
0000
0000
0010
0010
0010
0302
,  // measure 45
1003
0100
0010
0100
0002
0000
0000
0000
0103
0000
0000
0000
1000
0000
0100
0000
,  // measure 46
0010
0001
0100
0001
0010
0001
0100
0010
,  // measure 47
0001
0010
0100
0001
1000
0100
0010
0001
,  // measure 48
1000
0010
0002
0000
0013
0000
1000
0010
,  // measure 49
0100
0001
0010
0100
0001
0100
0010
0100
,  // measure 50
1000
0100
0010
0001
1000
0010
0010
1000
,  // measure 51
0020
0000
0032
0000
0013
1000
0001
0100
,  // measure 52
0010
1000
0100
1000
0010
1000
0100
0010
,  // measure 53
1000
0010
0100
1000
0001
0100
0010
1000
,  // measure 54
0001
0010
2000
0000
3010
0000
0001
0010
,  // measure 55
0100
1000
0010
1000
0100
1000
1100
0000
,  // measure 56
0000
0101
0000
0000
1010
0010
1000
1100
,  // measure 57
0100
0000
0010
0000
0001
0000
0000
0001
0000
0000
0001
0000
0010
0000
0001
0000
,  // measure 58
1000
0000
0000
1000
0000
0000
1000
0000
0010
0000
0000
0000
1000
0000
0000
1000
,  // measure 59
0000
0000
0100
0000
1000
0000
0000
0000
0001
0000
0000
0001
0000
0000
0100
0000
,  // measure 60
0001
0000
0000
0000
1000
0000
0000
0100
0000
0000
1000
0000
0010
0000
0100
0000
,  // measure 61
0001
0000
0000
0100
0000
0000
0001
0000
0010
0000
0000
0000
0001
0000
0000
0010
,  // measure 62
0000
0000
0100
0000
1000
0000
0000
0000
0010
0000
0000
0100
0000
0000
0001
0000
,  // measure 63
0010
0000
0000
0000
0001
0000
0000
0010
0000
0000
0100
0000
0110
0000
0000
0000
,  // measure 64
0010
0000
0000
0001
0000
0000
0100
0000
0110
0000
0000
0000
0010
0000
0000
1000
,  // measure 65
0000
0000
0001
0000
1001
0000
0000
0000
0001
0000
0000
0010
0000
0000
0100
0000
,  // measure 66
1000
0100
1100
0000
0100
0000
1000
0000
,  // measure 67
1010
0000
0010
0010
0100
0000
0101
0000
,  // measure 68
0001
0000
0010
0000
0011
0001
0010
0010
,  // measure 69
0100
0100
1000
0100
0010
0100
1000
0001
,  // measure 70
1000
0010
0100
0010
1000
0001
0100
0001
,  // measure 71
0020
0230
0320
0032
,  // measure 72
0203
0000
0301
0100
0010
0100
0001
1000
,  // measure 73
0001
0010
0100
0010
0001
1000
0100
1000
,  // measure 74
0020
0230
0320
2030
,  // measure 75
3200
2300
0000
0000
,  // measure 76
3020
0001
0100
2030
0010
0001
3200
0000
,  // measure 77
0000
0000
0000
0000
0301
1000
0010
0001
,  // measure 78
0100
0000
0001
0000
2000
0000
0000
0000
0000
0000
0000
0000
0000
3000
0000
0000
;

//---------------dance-single - ----------------
#NOTEDATA:;
#CHARTNAME:;
#STEPSTYPE:dance-single;
#DESCRIPTION:;
#CHARTSTYLE:;
#DIFFICULTY:Medium;
#METER:11;
#RADARVALUES:0.393992,0.492601,0.132819,0.171883,0.011719,353.000000,336.000000,17.000000,22.000000,0.000000,0.000000,0.000000,0.000000,0.000000,0.393992,0.492601,0.132819,0.171883,0.011719,353.000000,336.000000,17.000000,22.000000,0.000000,0.000000,0.000000,0.000000,0.000000;
#CREDIT:Karl with a K;
#NOTES:
// measure 0
0000
0000
0000
0000
,  // measure 1
0000
0000
0000
0000
,  // measure 2
0000
0000
0000
0000
,  // measure 3
0000
0000
0000
0000
,  // measure 4
0000
0000
0000
0000
,  // measure 5
0000
0000
0000
0000
1000
0100
0000
1000
,  // measure 6
0100
1000
0010
0100
,  // measure 7
0001
0100
0000
0001
0100
0000
0001
0000
,  // measure 8
0010
0000
0100
0000
1000
0100
0000
0100
,  // measure 9
1000
0100
0010
0001
,  // measure 10
0100
0001
0000
0001
0100
0000
0010
0000
,  // measure 11
0010
0000
0010
0000
1000
0010
0000
0100
,  // measure 12
0010
0000
0100
0000
0001
0100
0001
0000
,  // measure 13
0001
0010
0000
0100
0010
0000
0100
0000
,  // measure 14
1000
0100
1000
0000
0001
0100
0000
0010
,  // measure 15
1000
0000
0100
0000
1000
0001
1000
0000
,  // measure 16
0001
0010
0000
0100
1000
0000
0010
0000
,  // measure 17
1000
0000
0001
0000
1000
0000
0001
0000
2000
0000
0000
3100
0000
0000
0020
0000
,  // measure 18
0000
0031
0100
0010
1000
0100
0000
1000
,  // measure 19
0002
0000
0000
0103
0000
0000
0020
0000
0000
0000
1030
0000
1000
0000
0000
0100
,  // measure 20
0000
0010
0000
0001
2000
0000
0000
3100
,  // measure 21
0000
0010
0002
0000
0203
0000
0301
0000
,  // measure 22
1000
0000
1000
0010
1000
0000
0002
0000
,  // measure 23
0003
1000
0001
0100
,  // measure 24
0010
2000
3020
0130
,  // measure 25
0001
0010
0100
2000
,  // measure 26
3000
0100
0010
0000
0011
0000
0001
0000
,  // measure 27
0001
1000
0001
0000
0100
0000
0010
0000
,  // measure 28
1000
0000
1000
0001
1000
0000
0100
0000
,  // measure 29
0010
0010
0001
0010
,  // measure 30
0010
0100
0010
0000
0001
0000
0001
0000
,  // measure 31
1000
0000
0010
0000
0010
0100
0010
0000
,  // measure 32
1000
0000
0010
1000
0200
0000
0310
0000
,  // measure 33
0100
1000
0100
0000
0010
0000
0001
0000
,  // measure 34
0100
0000
0001
0100
0001
0100
0001
0000
,  // measure 35
1000
0000
0001
0000
1000
0010
1000
0010
,  // measure 36
1000
0010
1000
0000
0100
0000
1000
0000
,  // measure 37
0001
0010
0001
0010
0001
0010
0001
0000
,  // measure 38
0110
0000
1001
0000
0001
0000
0000
0001
,  // measure 39
0000
0010
0100
0000
0000
1000
0000
0000
,  // measure 40
0010
0000
0000
0100
0000
0001
0010
0000
,  // measure 41
0000
0001
0001
0000
1000
0000
1000
0100
,  // measure 42
0000
1000
0010
0000
0010
1000
0000
1000
,  // measure 43
0001
0000
0010
0001
0000
0100
0002
0000
,  // measure 44
0000
0000
0000
0000
1000
0000
0000
2003
,  // measure 45
0000
0000
3010
0000
1000
0000
0001
0010
,  // measure 46
0001
0100
0010
1000
,  // measure 47
0010
0000
0100
0000
0010
0000
1000
0001
,  // measure 48
1000
0001
0010
0000
0001
0000
1000
0010
,  // measure 49
1000
0100
0010
1000
,  // measure 50
0010
0100
0010
0001
,  // measure 51
0010
0000
0100
0000
1000
0000
0001
0100
,  // measure 52
0001
0010
0100
1000
,  // measure 53
0100
0000
0010
0000
0100
0000
1000
0001
,  // measure 54
1000
0001
0100
0000
0001
0000
1000
0100
,  // measure 55
1000
0010
0100
1000
,  // measure 56
0000
0100
0000
0000
0001
0000
0010
0200
,  // measure 57
0000
1300
0100
1100
,  // measure 58
0001
0100
0101
0001
,  // measure 59
1000
1001
1000
0100
,  // measure 60
0110
1000
0010
1010
,  // measure 61
0001
0010
0011
0001
,  // measure 62
0100
0110
0010
1000
,  // measure 63
1001
0000
1000
0000
0100
0010
0100
0000
,  // measure 64
1000
0000
0010
0100
0010
0000
1000
0000
,  // measure 65
0010
0000
0100
0000
0001
0000
0010
0100
,  // measure 66
0010
0000
0011
0000
0100
0010
1000
0000
,  // measure 67
1010
0000
1000
0010
0100
0000
0101
0000
,  // measure 68
0001
0010
0100
0000
1100
0000
0110
0000
,  // measure 69
1001
2000
0100
3001
,  // measure 70
0002
0100
1003
1000
,  // measure 71
0010
0100
0001
0010
,  // measure 72
0100
2000
0010
3001
,  // measure 73
0002
0010
1003
0100
,  // measure 74
1000
0000
0010
0000
0100
0000
0001
0100
,  // measure 75
0001
2000
0000
0000
,  // measure 76
3100
0010
0001
0010
0000
0000
0002
0000
,  // measure 77
0000
0000
0000
0000
0103
0010
1000
0010
,  // measure 78
0000
0000
0100
0000
0002
0000
0000
0000
0000
0000
0000
0000
0000
0003
0000
0000
;

//---------------dance-single - ----------------
#NOTEDATA:;
#CHARTNAME:;
#STEPSTYPE:dance-single;
#DESCRIPTION:;
#CHARTSTYLE:;
#DIFFICULTY:Easy;
#METER:8;
#RADARVALUES:0.275683,0.338663,0.023439,0.070316,0.000000,247.000000,244.000000,3.000000,9.000000,0.000000,0.000000,0.000000,0.000000,0.000000,0.275683,0.338663,0.023439,0.070316,0.000000,247.000000,244.000000,3.000000,9.000000,0.000000,0.000000,0.000000,0.000000,0.000000;
#CREDIT:Karl with a K;
#NOTES:
// measure 0
0000
0000
0000
0000
,  // measure 1
0000
0000
0000
0000
,  // measure 2
0000
0000
0000
0000
,  // measure 3
0000
0000
0000
0000
,  // measure 4
0000
0000
0000
0000
,  // measure 5
0000
0000
0000
0000
1000
0000
0000
0100
,  // measure 6
0000
1000
0000
1000
,  // measure 7
0001
0000
0000
0100
0000
0000
0001
0000
,  // measure 8
0010
0000
0001
0000
1000
0000
0000
0010
,  // measure 9
0000
1000
0000
1000
,  // measure 10
0001
0000
0000
0010
0000
0000
0001
0000
,  // measure 11
0100
0000
0010
0000
1000
0000
0000
0100
,  // measure 12
0000
0010
0001
0010
,  // measure 13
0001
0000
0000
0100
0000
0000
0010
0000
,  // measure 14
1000
0000
0100
0000
0010
0000
0000
0001
,  // measure 15
0000
0100
0010
1000
,  // measure 16
0100
0000
0000
0010
0000
0000
0001
0000
,  // measure 17
0001
0000
0001
0000
0001
0000
0000
0100
,  // measure 18
0000
0000
0010
0000
0000
1000
0000
0000
,  // measure 19
1000
0000
0000
0100
0000
0000
0010
0000
,  // measure 20
0000
0010
0000
0000
0001
0000
0000
0100
,  // measure 21
0000
0010
1000
0001
,  // measure 22
0001
0000
0000
1000
0000
0000
0100
0000
,  // measure 23
0000
0100
1000
0000
,  // measure 24
1000
0001
0000
0001
,  // measure 25
1000
0000
0010
0100
,  // measure 26
0001
0010
0001
0000
,  // measure 27
1000
1000
0100
0100
,  // measure 28
1000
0000
0001
0001
,  // measure 29
0100
0100
0001
0010
,  // measure 30
0010
0001
1000
1000
,  // measure 31
1000
0010
0010
1000
,  // measure 32
0001
0001
0110
1001
,  // measure 33
1000
0100
0010
0001
,  // measure 34
1000
0001
0100
0010
,  // measure 35
1000
0001
1000
1000
,  // measure 36
1000
0100
0100
0100
,  // measure 37
0010
0010
0010
0001
,  // measure 38
0100
0000
0010
0000
0110
0000
0000
0010
,  // measure 39
0000
0000
1000
0000
0000
1000
0000
0000
,  // measure 40
0100
0000
0000
0100
0000
0000
0010
0000
,  // measure 41
0000
0010
0000
0000
0001
0000
0000
0100
,  // measure 42
0000
0000
0010
0000
0000
1000
0000
0000
,  // measure 43
0100
0000
0000
0010
0000
0001
0002
0000
,  // measure 44
0000
0000
0000
0000
0000
0000
0000
0003
,  // measure 45
0000
1000
0100
0010
,  // measure 46
0001
0100
0010
1000
,  // measure 47
0010
0001
0010
1000
,  // measure 48
0001
0001
0100
0010
,  // measure 49
1000
0100
0010
0001
,  // measure 50
0010
1000
0010
0001
,  // measure 51
1000
1000
0010
0100
,  // measure 52
0001
0010
0100
1000
,  // measure 53
0100
0001
0100
1000
,  // measure 54
0001
0001
0010
0100
,  // measure 55
1000
0010
0100
0001
,  // measure 56
0000
0100
0000
0000
1000
0000
0000
0100
,  // measure 57
0000
0001
1000
1000
,  // measure 58
0010
1000
1000
0100
,  // measure 59
1000
1000
0010
1000
,  // measure 60
0001
1000
0001
0001
,  // measure 61
0010
0001
0001
0100
,  // measure 62
0001
0001
0010
0001
,  // measure 63
0001
1000
0100
0100
,  // measure 64
0001
0100
0100
1000
,  // measure 65
0100
0100
0010
0100
,  // measure 66
1000
0001
0100
0100
,  // measure 67
1000
0100
0100
0001
,  // measure 68
0010
0010
1000
0010
,  // measure 69
0001
2000
0000
3100
,  // measure 70
0200
0000
0310
0010
,  // measure 71
0001
0100
0010
0000
,  // measure 72
0100
0002
0000
0103
,  // measure 73
0200
0000
0310
0010
,  // measure 74
1000
0100
0010
0000
,  // measure 75
0100
2000
0000
0000
,  // measure 76
3200
0000
0000
0320
,  // measure 77
0000
0000
0000
0000
0031
0000
0000
0100
,  // measure 78
0000
0000
0000
0000
0002
0000
0000
0000
0000
0000
0000
0000
0000
0003
0000
0000
;

//---------------dance-single - ----------------
#NOTEDATA:;
#CHARTNAME:;
#STEPSTYPE:dance-single;
#DESCRIPTION:;
#CHARTSTYLE:;
#DIFFICULTY:Beginner;
#METER:3;
#RADARVALUES:0.136167,0.213975,0.101567,0.000000,0.000000,122.000000,109.000000,13.000000,0.000000,0.000000,0.000000,0.000000,0.000000,0.000000,0.136167,0.213975,0.101567,0.000000,0.000000,122.000000,109.000000,13.000000,0.000000,0.000000,0.000000,0.000000,0.000000,0.000000;
#CREDIT:Karl with a K;
#NOTES:
// measure 0
0000
0000
0000
0000
,  // measure 1
0000
0000
0000
0000
,  // measure 2
0000
0000
0000
0000
,  // measure 3
0000
0000
0000
0000
,  // measure 4
0000
0000
0000
0000
,  // measure 5
0000
0000
1000
0000
,  // measure 6
0000
1000
0000
0000
,  // measure 7
1000
0000
0000
1000
,  // measure 8
0000
0000
1000
0000
,  // measure 9
0000
1000
0000
0000
,  // measure 10
1000
0000
0000
1000
,  // measure 11
1000
0000
0001
0000
,  // measure 12
0000
0001
0000
0000
,  // measure 13
0001
0000
0000
0001
,  // measure 14
0000
0000
0001
0000
,  // measure 15
0000
0001
0000
0000
,  // measure 16
0001
0000
0000
0001
,  // measure 17
0001
0000
1001
0000
,  // measure 18
0000
0000
0000
0000
,  // measure 19
0000
0000
0000
0000
,  // measure 20
0000
0000
1000
0000
,  // measure 21
0000
0100
0000
0000
,  // measure 22
1000
0000
0000
1000
,  // measure 23
0000
0000
0001
0000
,  // measure 24
0000
0100
0000
0000
,  // measure 25
0001
0000
0000
0001
,  // measure 26
0000
1000
1000
0000
,  // measure 27
0000
0001
0001
0000
,  // measure 28
1000
1000
0000
0001
,  // measure 29
0001
0000
0010
0010
,  // measure 30
0000
0100
0100
0000
,  // measure 31
0010
0010
0000
0100
,  // measure 32
0100
0000
1000
1000
,  // measure 33
0000
0001
0001
0000
,  // measure 34
1000
1000
0000
0001
,  // measure 35
0001
0000
0100
0100
,  // measure 36
0000
0010
0010
0000
,  // measure 37
0100
0100
0000
0010
,  // measure 38
0010
0010
0010
0000
,  // measure 39
0000
0000
0000
0000
,  // measure 40
0000
0000
0000
0000
,  // measure 41
0000
0000
1000
0000
,  // measure 42
0000
0001
0000
0000
,  // measure 43
0001
0000
0000
1000
,  // measure 44
0000
0000
0000
0000
,  // measure 45
0000
1000
0000
0000
,  // measure 46
0100
0100
0000
1000
,  // measure 47
0000
0000
1000
0000
,  // measure 48
0000
0001
0000
0000
,  // measure 49
0010
0010
0000
0001
,  // measure 50
0000
0000
0001
0000
,  // measure 51
0000
0001
0000
0000
,  // measure 52
0100
0100
0000
0001
,  // measure 53
0000
0000
0001
0000
,  // measure 54
0000
1000
0000
0000
,  // measure 55
0010
0000
0000
0110
,  // measure 56
0000
0000
0110
0000
,  // measure 57
0000
1001
0000
0000
,  // measure 58
1000
0000
0000
0110
,  // measure 59
0000
0000
0100
0000
,  // measure 60
0000
0110
0000
0000
,  // measure 61
0010
0000
0000
1001
,  // measure 62
0000
0000
0001
0000
,  // measure 63
0000
1001
0000
0000
,  // measure 64
0001
0000
0000
0110
,  // measure 65
0000
0000
0100
0000
,  // measure 66
0000
0110
0000
0000
,  // measure 67
0010
0000
0000
1001
,  // measure 68
0000
0000
0110
0000
,  // measure 69
0000
1001
0000
0000
,  // measure 70
0000
0000
0000
1000
,  // measure 71
0000
0000
1000
0000
,  // measure 72
0000
1000
0000
0000
,  // measure 73
0000
0000
0000
0001
,  // measure 74
0000
0000
0001
0000
,  // measure 75
0000
0001
0000
0000
,  // measure 76
0000
0000
0000
1000
,  // measure 77
0000
0000
0000
0000
,  // measure 78
0000
1000
0000
0000
;

//---------------dance-single - ----------------
#NOTEDATA:;
#CHARTNAME:;
#STEPSTYPE:dance-single;
#DESCRIPTION:;
#CHARTSTYLE:;
#DIFFICULTY:Challenge;
#METER:18;
#RADARVALUES:0.860531,1.077565,0.000000,0.367205,0.929731,771.000000,771.000000,0.000000,47.000000,0.000000,0.000000,0.000000,0.000000,0.000000,0.860531,1.077565,0.000000,0.367205,0.929731,771.000000,771.000000,0.000000,47.000000,0.000000,0.000000,0.000000,0.000000,0.000000;
#CREDIT:Karl with a K;
#NOTES:
// measure 0
0000
0000
0000
0000
,  // measure 1
0000
0000
0000
0000
,  // measure 2
0000
0000
0000
0000
,  // measure 3
0000
0000
0000
0000
,  // measure 4
0000
0000
0000
0000
,  // measure 5
0000
0000
0000
0000
0000
0000
0000
0000
2000
0000
0100
0000
3001
0000
1000
0100
,  // measure 6
1000
0000
0001
0000
1000
0000
0010
0000
1000
0000
0001
0000
0100
0001
0100
0001
,  // measure 7
2000
0000
0010
0000
3001
0000
1000
0010
1000
0000
0001
0000
0010
0000
0100
0000
,  // measure 8
0001
0000
0100
0010
0001
0000
0000
0000
0002
0000
0100
0000
1003
0000
0001
0100
,  // measure 9
0001
0000
1000
0000
0001
0000
0010
0000
0001
0000
1000
0000
0100
1000
0100
1000
,  // measure 10
0002
0000
0010
0000
1003
0000
0001
0010
0001
0000
1000
0000
0010
0100
0010
0100
,  // measure 11
0001
0100
0001
0100
0010
1000
0001
0010
0002
0000
0010
0000
1003
0000
0001
0010
,  // measure 12
0001
1000
0001
0100
0001
1000
0010
1000
,  // measure 13
0002
0000
0100
0000
1003
0000
0001
0100
0001
0000
1000
0000
0100
0000
0010
0000
,  // measure 14
1000
0000
0010
0100
1000
0000
0010
0000
2000
0000
0010
0000
3001
0000
1000
0010
,  // measure 15
1000
0001
1000
0100
1000
0001
0010
0001
,  // measure 16
2000
0000
0100
0000
3001
0000
1000
0100
1000
0000
0001
0000
0100
0010
0100
0010
,  // measure 17
1000
0010
1000
0010
0100
0001
1000
0100
0020
0000
0000
0031
0000
0010
0002
0000
,  // measure 18
0203
0000
0302
0000
0103
0000
0100
0010
1000
0100
2000
0000
0000
0000
0001
0000
,  // measure 19
3020
0000
0000
1030
0000
0010
2000
0000
3200
0000
2300
0000
3010
0000
0000
0100
,  // measure 20
0000
0000
1000
0000
0002
0000
0000
0000
0013
0100
0010
0100
0010
1000
0010
1000
0001
0000
0000
0000
1000
0000
0001
0000
0000
0000
0001
0000
0100
0000
0010
0000
,  // measure 21
0100
0000
0010
0000
1000
0000
0001
1000
0001
1000
0100
0000
0010
0100
0010
0100
,  // measure 22
1000
0000
0001
0100
0001
0100
0010
0000
1000
0000
0100
0000
0001
0000
0100
0010
,  // measure 23
0000
0100
0010
0000
0100
1000
0100
1000
0001
0000
0100
0001
1000
0100
1000
0001
,  // measure 24
1000
0000
0000
0000
1000
0000
0100
1000
0001
0100
0001
1000
0001
0000
0000
0000
,  // measure 25
0001
0000
0100
0010
0000
0100
0001
1000
0010
0000
0000
0000
1000
0000
0100
0010
,  // measure 26
0000
0100
1000
0001
0010
0100
0010
0100
1000
0000
0010
0000
0001
0000
0010
0000
,  // measure 27
1000
0000
1000
0001
1000
0000
0100
0000
0010
0001
0010
0100
0001
0100
0010
0001
,  // measure 28
1000
0000
0010
0000
0100
0000
0010
0000
0010
0000
0010
0000
0100
0000
0001
1000
,  // measure 29
0010
1000
0001
1000
0010
0000
1000
0000
0001
0000
0010
0000
1000
0000
0010
0000
,  // measure 30
0001
0000
0001
1000
0001
0000
0100
0000
0010
1000
0010
0100
1000
0100
0010
1000
,  // measure 31
0001
0000
0010
0001
0100
0000
0010
1000
0100
0000
0100
0010
0100
0000
1000
0001
,  // measure 32
0010
0000
0001
1000
0010
0000
0010
0100
2000
0000
0000
0000
3100
0000
0001
0000
,  // measure 33
1000
0000
1000
0001
1000
0000
0010
0000
0100
0001
0100
0010
0001
0010
0100
0001
,  // measure 34
1000
0000
0100
0000
0010
0000
1000
0000
1000
0000
1000
0000
0010
0000
0001
1000
,  // measure 35
0100
1000
0001
1000
0100
0000
1000
0000
0001
0100
0001
0000
0100
1000
0100
0000
,  // measure 36
0001
1000
0001
1000
0001
0000
0010
0000
0100
1000
0100
0010
1000
0010
0100
1000
,  // measure 37
0001
0100
0001
0000
0100
0010
0100
0000
1000
0100
1000
0000
0100
0010
1000
0001
,  // measure 38
0010
0001
0000
0001
0100
0010
0001
0010
2000
0000
0100
0000
3001
0000
1000
0000
,  // measure 39
0100
0000
0010
0000
0002
0000
0100
0000
1003
0000
0002
0000
0000
0000
0103
0010
,  // measure 40
2000
0010
3001
1000
0010
0100
0002
0010
,  // measure 41
1003
0000
0000
0000
0000
0000
0000
0000
0000
0000
0000
0000
0000
0000
0000
0000
0000
0000
0000
0000
0000
0000
0000
0000
0001
0000
0000
0000
0000
0000
0000
0000
0000
0000
0000
0000
0000
0000
0000
0000
0000
0000
0000
0000
0000
0000
0000
0000
0001
0000
0000
0000
0000
0000
0000
0000
1000
0000
0000
0000
0000
0000
0000
0000
0001
0000
0000
0000
0000
0000
0000
0000
1000
0000
0000
0000
0000
0000
0000
0000
0000
0000
0000
0000
0100
0000
0000
0000
0000
0000
0000
0000
0000
0000
0000
0000
0010
0000
0000
0000
0000
0000
0000
0000
0000
0000
0000
0000
0000
0000
0000
0000
0000
0000
0000
0000
0000
0000
0000
0000
0001
0000
0000
0000
0000
0000
0000
0000
0000
0000
0000
0000
0100
0000
0000
0000
0000
0000
0000
0000
0000
0000
0000
0000
0010
0000
0000
0000
0000
0000
0000
0000
0000
0000
0000
0000
0100
0000
0000
0000
0000
0000
0010
0000
0000
0000
0000
0000
0100
0000
0000
0000
0000
0000
0000
0000
0000
0000
0000
0000
0000
0000
0000
0000
0000
0000
0000
0000
0000
0000
0000
0000
,  // measure 42
0100
0000
0000
0000
0001
0100
0001
0100
0010
0000
0000
0000
1000
0000
0100
0000
0010
0000
0100
0010
0100
0000
0000
0000
0100
0000
0000
0000
1000
0100
1000
0100
,  // measure 43
0010
0000
0000
0000
0001
0000
1000
0000
0010
0100
0010
0100
0001
0000
0000
0000
1000
0000
0000
0000
0100
0010
0001
0100
0020
0000
0000
0000
0000
0000
0000
0000
,  // measure 44
0000
0000
0000
0000
2030
0000
0000
0000
0000
0000
0000
0000
0000
0000
0000
0000
3100
0010
0100
0010
0001
1000
0010
0100
0001
1000
0001
0100
0020
0000
0000
0000
,  // measure 45
1030
0100
0010
0001
0010
0000
0001
0000
0100
0000
0010
1000
0010
0000
1000
0000
,  // measure 46
0001
0010
0100
0010
0010
0100
1000
0010
,  // measure 47
0001
0000
1000
0001
1000
0000
0100
0000
0001
0000
1000
0000
0001
0100
0001
0000
,  // measure 48
0100
0000
0010
1000
0010
0000
1000
0000
0100
0000
0010
0001
0010
0000
0001
0000
,  // measure 49
1000
0010
0100
0010
0010
0100
0001
0010
,  // measure 50
1000
0000
0001
1000
0001
0000
0100
0000
1000
0000
0001
0100
0010
1000
0001
0000
,  // measure 51
1000
0000
1000
0000
0100
0000
1000
0000
0010
0000
0100
0001
0100
0000
0001
0000
,  // measure 52
1000
0100
0010
0100
0100
0010
0001
0100
,  // measure 53
1000
0000
0001
1000
0001
0000
0010
0000
1000
0000
0001
0000
1000
0010
1000
0000
,  // measure 54
0010
0000
0100
0001
0100
0000
0001
0000
0010
0000
0100
1000
0100
0000
1000
0000
,  // measure 55
0001
0000
0100
0000
0010
0000
0100
0000
0100
0001
2000
0000
3010
1000
0100
0010
,  // measure 56
0001
0100
0010
1000
0100
0010
0001
0100
0001
0000
1000
0100
0010
0001
1000
0001
,  // measure 57
0010
0001
1000
0010
1000
0000
0100
1000
0000
0010
0100
0000
0001
0000
1000
0000
,  // measure 58
0001
0000
0100
0001
0000
0010
0100
0000
1000
0000
0001
0000
1000
0000
0010
0100
,  // measure 59
0000
0010
0001
0010
1000
0000
0000
0000
0001
0000
0010
0100
0000
0010
1000
0010
,  // measure 60
0001
0000
0000
0001
1000
0000
0100
0010
0000
0100
0001
0100
1000
0000
0000
0000
,  // measure 61
0001
0000
0100
0010
0000
0100
1000
0100
0001
0000
0010
0001
0010
0000
0001
0100
,  // measure 62
0010
0000
1000
0100
0010
0000
0000
0000
0100
0000
1000
0010
0100
0000
0001
0010
,  // measure 63
0100
0000
0010
0100
0010
0000
0001
0100
0010
0000
0100
1000
0100
0000
0000
0000
,  // measure 64
0010
0000
1000
0100
0010
0000
0100
0001
0100
0000
0000
0010
0100
0000
1000
0010
,  // measure 65
0100
0000
0010
0001
0010
0000
0000
0000
0100
0000
0001
0010
0100
0010
1000
0010
,  // measure 66
0100
0010
0001
0100
2000
0000
0000
0000
3100
0010
0100
0010
1000
0000
0100
0000
,  // measure 67
0002
0000
0000
0000
0103
0010
0100
0010
0001
0000
0000
0000
2000
0000
0000
0000
,  // measure 68
3010
0100
0010
0100
1000
0000
0100
0000
0002
0000
0000
0000
0013
0100
0010
0100
,  // measure 69
1000
0010
0100
0001
0010
0000
0001
0000
1000
0000
0010
1000
0001
0000
0010
0000
,  // measure 70
0100
1000
0100
1000
0001
0100
0001
1000
0100
1000
0001
0100
0001
0000
0010
0000
,  // measure 71
0100
0000
0010
1000
0010
0000
0100
0000
0001
0000
0100
0000
0010
0001
1000
0000
,  // measure 72
0010
0000
1000
0000
0100
0000
1000
0000
0001
0000
0010
0001
1000
0000
0010
0000
,  // measure 73
0100
0001
0100
0001
1000
0100
1000
0001
0100
0001
1000
0100
1000
0000
0010
0000
,  // measure 74
0100
0000
0010
0001
0010
0000
0100
0000
1000
0100
1000
0100
0010
1000
0001
0010
,  // measure 75
0100
1000
0001
0100
0002
0000
0000
0000
0000
0000
0000
0000
0000
0000
0000
0000
,  // measure 76
0023
2030
3002
0203
2300
3020
2030
0000
,  // measure 77
0000
0000
0000
0000
3020
0032
2003
3200
,  // measure 78
0302
0000
0023
0000
2030
0000
0000
0000
0000
0000
0000
0000
0000
3000
0000
0000
;
