#VERSION:0.83;
#TITLE:RICEBALL ROLLING;
#SUBTITLE:;
#ARTIST:SARUKANI;
#TITLETRANSLIT:;
#SUBTITLETRANSLIT:;
#ARTISTTRANSLIT:;
#GENRE:;
#ORIGIN:;
#CREDIT:;
#BANNER:RICEBALL ROLLING banner.png;
#BACKGROUND:RICEBALL ROLLING bg.png;
#PREVIEWVID:;
#JACKET:RICEBALL ROLLING jk.png;
#CDIMAGE:;
#DISCIMAGE:;
#LYRICSPATH:;
#CDTITLE:;
#MUSIC:RICEBALL ROLLING.ogg;
#OFFSET:-0.025000;
#SAMPLESTART:62.499981;
#SAMPLELENGTH:15.918369;
#SELECTABLE:YES;
#BPMS:0.000=98.000;
#STOPS:129.250=0.153,
129.750=0.153,
130.250=0.153,
130.750=0.153,
132.250=0.153,
132.750=0.153,
133.250=0.153,
133.750=0.153,
135.250=0.153,
135.750=0.153,
136.250=0.153,
136.750=0.153,
138.250=0.153,
138.750=0.153,
139.250=0.153,
139.750=0.153;
#DELAYS:;
#WARPS:;
#TIMESIGNATURES:0.000=4=4;
#TICKCOUNTS:0.000=4;
#COMBOS:0.000=1;
#SPEEDS:0.000=1.000=0.000=0,
36.000=0.750=0.500=0,
39.500=1.000=0.500=0,
72.000=0.500=4.000=0,
88.000=1.000=14.000=0,
102.000=0.500=2.000=0,
104.000=0.250=0.000=0,
105.000=1.000=2.000=0,
109.000=0.250=1.000=0,
110.500=0.500=0.000=0,
111.000=1.500=0.000=0,
111.125=1.000=0.875=0,
140.000=0.500=4.000=0,
156.000=1.000=14.000=0,
170.000=0.500=1.000=0,
171.000=1.000=1.000=0,
179.000=2.000=0.250=0,
179.250=1.000=0.750=0,
197.000=2.000=0.500=0,
197.500=1.000=0.500=0,
198.000=2.000=0.500=0,
198.500=1.000=0.500=0,
199.000=2.000=0.500=0,
199.500=1.000=0.500=0,
201.000=2.000=0.500=0,
201.500=1.000=0.500=0,
202.000=2.000=0.500=0,
202.500=1.000=0.500=0,
203.000=2.000=0.500=0,
203.500=1.000=0.500=0,
205.000=2.000=0.500=0,
205.500=1.000=0.500=0,
206.000=2.000=0.500=0,
206.500=1.000=0.500=0,
207.000=2.000=0.500=0,
207.500=1.000=0.500=0,
209.000=2.000=0.500=0,
209.500=1.000=0.500=0,
210.000=2.000=0.500=0,
210.500=1.000=0.500=0,
211.000=2.000=0.500=0,
211.500=1.000=0.500=0;
#SCROLLS:0.000=1.000,
36.500=0.000,
37.500=-1.000,
37.625=1.000,
37.750=-1.000,
38.000=1.000,
38.250=-1.000,
38.500=1.000,
38.750=-1.000,
39.000=1.000,
39.250=-1.000,
39.500=1.000,
104.000=0.000,
107.000=1.000,
108.000=0.000,
110.000=1.000,
172.000=2.000,
172.062=0.000,
172.125=2.000,
172.188=0.000,
172.250=2.000,
172.312=0.000,
172.375=2.000,
172.438=0.000,
172.500=2.000,
172.562=0.000,
172.625=2.000,
172.688=0.000,
172.750=2.000,
172.812=0.000,
172.875=2.000,
172.938=0.000,
173.000=2.000,
173.062=0.000,
173.125=2.000,
173.188=0.000,
173.250=2.000,
173.312=0.000,
173.375=2.000,
173.438=0.000,
173.500=2.000,
173.562=0.000,
173.625=2.000,
173.688=0.000,
173.750=2.000,
173.812=0.000,
173.875=2.000,
173.938=0.000,
174.000=2.000,
174.062=0.000,
174.125=2.000,
174.188=0.000,
174.250=2.000,
174.312=0.000,
174.375=2.000,
174.438=0.000,
174.500=2.000,
174.562=0.000,
174.625=2.000,
174.688=0.000,
174.750=2.000,
174.812=0.000,
174.875=2.000,
174.938=0.000,
175.000=2.000,
175.062=0.000,
175.125=2.000,
175.188=0.000,
175.250=2.000,
175.312=0.000,
175.375=2.000,
175.438=0.000,
175.500=2.000,
175.562=0.000,
175.625=2.000,
175.688=0.000,
175.750=2.000,
175.812=0.000,
175.875=2.000,
175.938=0.000,
176.000=2.000,
176.062=0.000,
176.125=2.000,
176.188=0.000,
176.250=2.000,
176.312=0.000,
176.375=2.000,
176.438=0.000,
176.500=2.000,
176.562=0.000,
176.625=2.000,
176.688=0.000,
176.750=2.000,
176.812=0.000,
176.875=2.000,
176.938=0.000,
177.000=2.000,
177.062=0.000,
177.125=2.000,
177.188=0.000,
177.250=2.000,
177.312=0.000,
177.375=2.000,
177.438=0.000,
177.500=2.000,
177.562=0.000,
177.625=2.000,
177.688=0.000,
177.750=2.000,
177.812=0.000,
177.875=2.000,
177.938=0.000,
178.000=2.000,
178.062=0.000,
178.125=2.000,
178.188=0.000,
178.250=2.000,
178.312=0.000,
178.375=2.000,
178.438=0.000,
178.500=2.000,
178.562=0.000,
178.625=2.000,
178.688=0.000,
178.750=2.000,
178.812=0.000,
178.875=2.000,
178.938=0.000,
179.000=1.000,
181.000=2.000,
181.062=0.000,
181.125=2.000,
181.188=0.000,
181.250=2.000,
181.312=0.000,
181.375=2.000,
181.438=0.000,
181.500=2.000,
181.562=0.000,
181.625=2.000,
181.688=0.000,
181.750=2.000,
181.812=0.000,
181.875=2.000,
181.938=0.000,
182.000=2.000,
182.062=0.000,
182.125=2.000,
182.188=0.000,
182.250=2.000,
182.312=0.000,
182.375=2.000,
182.438=0.000,
182.500=2.000,
182.562=0.000,
182.625=2.000,
182.688=0.000,
182.750=2.000,
182.812=0.000,
182.875=2.000,
182.938=0.000,
183.000=2.000,
183.062=0.000,
183.125=2.000,
183.188=0.000,
183.250=2.000,
183.312=0.000,
183.375=2.000,
183.438=0.000,
183.500=2.000,
183.562=0.000,
183.625=2.000,
183.688=0.000,
183.750=2.000,
183.812=0.000,
183.875=2.000,
183.938=0.000,
184.000=1.000,
185.000=2.000,
185.062=0.000,
185.125=2.000,
185.188=0.000,
185.250=2.000,
185.312=0.000,
185.375=2.000,
185.438=0.000,
185.500=2.000,
185.562=0.000,
185.625=2.000,
185.688=0.000,
185.750=2.000,
185.812=0.000,
185.875=2.000,
185.938=0.000,
186.000=2.000,
186.062=0.000,
186.125=2.000,
186.188=0.000,
186.250=2.000,
186.312=0.000,
186.375=2.000,
186.438=0.000,
186.500=2.000,
186.562=0.000,
186.625=2.000,
186.688=0.000,
186.750=2.000,
186.812=0.000,
186.875=2.000,
186.938=0.000,
187.000=2.000,
187.062=0.000,
187.125=2.000,
187.188=0.000,
187.250=2.000,
187.312=0.000,
187.375=2.000,
187.438=0.000,
187.500=2.000,
187.562=0.000,
187.625=2.000,
187.688=0.000,
187.750=2.000,
187.812=0.000,
187.875=2.000,
187.938=0.000,
188.000=1.000,
189.000=2.000,
189.062=0.000,
189.125=2.000,
189.188=0.000,
189.250=2.000,
189.312=0.000,
189.375=2.000,
189.438=0.000,
189.500=2.000,
189.562=0.000,
189.625=2.000,
189.688=0.000,
189.750=2.000,
189.812=0.000,
189.875=2.000,
189.938=0.000,
190.000=2.000,
190.062=0.000,
190.125=2.000,
190.188=0.000,
190.250=2.000,
190.312=0.000,
190.375=2.000,
190.438=0.000,
190.500=2.000,
190.562=0.000,
190.625=2.000,
190.688=0.000,
190.750=2.000,
190.812=0.000,
190.875=2.000,
190.938=0.000,
191.000=2.000,
191.062=0.000,
191.125=2.000,
191.188=0.000,
191.250=2.000,
191.312=0.000,
191.375=2.000,
191.438=0.000,
191.500=2.000,
191.562=0.000,
191.625=2.000,
191.688=0.000,
191.750=2.000,
191.812=0.000,
191.875=2.000,
191.938=0.000,
192.000=1.000,
193.000=2.000,
193.062=0.000,
193.125=2.000,
193.188=0.000,
193.250=2.000,
193.312=0.000,
193.375=2.000,
193.438=0.000,
193.500=2.000,
193.562=0.000,
193.625=2.000,
193.688=0.000,
193.750=2.000,
193.812=0.000,
193.875=2.000,
193.938=0.000,
194.000=2.000,
194.062=0.000,
194.125=2.000,
194.188=0.000,
194.250=2.000,
194.312=0.000,
194.375=2.000,
194.438=0.000,
194.500=2.000,
194.562=0.000,
194.625=2.000,
194.688=0.000,
194.750=2.000,
194.812=0.000,
194.875=2.000,
194.938=0.000,
195.000=2.000,
195.062=0.000,
195.125=2.000,
195.188=0.000,
195.250=2.000,
195.312=0.000,
195.375=2.000,
195.438=0.000,
195.500=2.000,
195.562=0.000,
195.625=2.000,
195.688=0.000,
195.750=2.000,
195.812=0.000,
195.875=2.000,
195.938=0.000,
196.000=1.000,
197.000=2.000,
197.062=0.000,
197.125=2.000,
197.188=0.000,
197.250=2.000,
197.312=0.000,
197.375=2.000,
197.438=0.000,
197.500=2.000,
197.562=0.000,
197.625=2.000,
197.688=0.000,
197.750=2.000,
197.812=0.000,
197.875=2.000,
197.938=0.000,
198.000=2.000,
198.062=0.000,
198.125=2.000,
198.188=0.000,
198.250=2.000,
198.312=0.000,
198.375=2.000,
198.438=0.000,
198.500=2.000,
198.562=0.000,
198.625=2.000,
198.688=0.000,
198.750=2.000,
198.812=0.000,
198.875=2.000,
198.938=0.000,
199.000=2.000,
199.062=0.000,
199.125=2.000,
199.188=0.000,
199.250=2.000,
199.312=0.000,
199.375=2.000,
199.438=0.000,
199.500=2.000,
199.562=0.000,
199.625=2.000,
199.688=0.000,
199.750=2.000,
199.812=0.000,
199.875=2.000,
199.938=0.000,
200.000=1.000,
201.000=2.000,
201.062=0.000,
201.125=2.000,
201.188=0.000,
201.250=2.000,
201.312=0.000,
201.375=2.000,
201.438=0.000,
201.500=2.000,
201.562=0.000,
201.625=2.000,
201.688=0.000,
201.750=2.000,
201.812=0.000,
201.875=2.000,
201.938=0.000,
202.000=2.000,
202.062=0.000,
202.125=2.000,
202.188=0.000,
202.250=2.000,
202.312=0.000,
202.375=2.000,
202.438=0.000,
202.500=2.000,
202.562=0.000,
202.625=2.000,
202.688=0.000,
202.750=2.000,
202.812=0.000,
202.875=2.000,
202.938=0.000,
203.000=2.000,
203.062=0.000,
203.125=2.000,
203.188=0.000,
203.250=2.000,
203.312=0.000,
203.375=2.000,
203.438=0.000,
203.500=2.000,
203.562=0.000,
203.625=2.000,
203.688=0.000,
203.750=2.000,
203.812=0.000,
203.875=2.000,
203.938=0.000,
204.000=1.000,
205.000=2.000,
205.062=0.000,
205.125=2.000,
205.188=0.000,
205.250=2.000,
205.312=0.000,
205.375=2.000,
205.438=0.000,
205.500=2.000,
205.562=0.000,
205.625=2.000,
205.688=0.000,
205.750=2.000,
205.812=0.000,
205.875=2.000,
205.938=0.000,
206.000=2.000,
206.062=0.000,
206.125=2.000,
206.188=0.000,
206.250=2.000,
206.312=0.000,
206.375=2.000,
206.438=0.000,
206.500=2.000,
206.562=0.000,
206.625=2.000,
206.688=0.000,
206.750=2.000,
206.812=0.000,
206.875=2.000,
206.938=0.000,
207.000=2.000,
207.062=0.000,
207.125=2.000,
207.188=0.000,
207.250=2.000,
207.312=0.000,
207.375=2.000,
207.438=0.000,
207.500=2.000,
207.562=0.000,
207.625=2.000,
207.688=0.000,
207.750=2.000,
207.812=0.000,
207.875=2.000,
207.938=0.000,
208.000=1.000,
209.000=2.000,
209.062=0.000,
209.125=2.000,
209.188=0.000,
209.250=2.000,
209.312=0.000,
209.375=2.000,
209.438=0.000,
209.500=2.000,
209.562=0.000,
209.625=2.000,
209.688=0.000,
209.750=2.000,
209.812=0.000,
209.875=2.000,
209.938=0.000,
210.000=2.000,
210.062=0.000,
210.125=2.000,
210.188=0.000,
210.250=2.000,
210.312=0.000,
210.375=2.000,
210.438=0.000,
210.500=2.000,
210.562=0.000,
210.625=2.000,
210.688=0.000,
210.750=2.000,
210.812=0.000,
210.875=2.000,
210.938=0.000,
211.000=2.000,
211.062=0.000,
211.125=2.000,
211.188=0.000,
211.250=2.000,
211.312=0.000,
211.375=2.000,
211.438=0.000,
211.500=2.000,
211.562=0.000,
211.625=2.000,
211.688=0.000,
211.750=2.000,
211.812=0.000,
211.875=2.000,
211.938=0.000,
212.000=1.000,
213.000=0.000,
213.250=2.000,
213.500=0.000,
213.750=2.000,
214.000=0.000,
214.250=2.000,
214.500=0.000,
214.750=2.000,
215.000=0.000,
215.250=2.000,
215.500=0.000,
215.750=2.000,
216.000=1.000,
217.000=0.000,
217.250=2.000,
217.500=0.000,
217.750=2.000,
218.000=0.000,
218.250=2.000,
218.500=0.000,
218.750=2.000,
219.000=0.000,
219.250=2.000,
219.500=0.000,
219.750=2.000,
220.000=1.000,
221.000=0.000,
221.250=2.000,
221.500=0.000,
221.750=2.000,
222.000=0.000,
222.250=2.000,
222.500=0.000,
222.750=2.000,
223.000=0.000,
223.250=2.000,
223.500=0.000,
223.750=2.000,
224.000=1.000,
225.000=0.000,
225.250=2.000,
225.500=0.000,
225.750=2.000,
226.000=0.000,
226.250=2.000,
226.500=0.000,
226.750=2.000,
227.000=0.000,
227.250=2.000,
227.500=0.000,
227.750=2.000,
228.000=1.000;
#FAKES:;
#LABELS:0.000=Song Start;
#BGCHANGES:;
#KEYSOUNDS:;
#ATTACKS:
;

//---------------dance-single - XO+ DS- JA- XMOD RH- JU Mines----------------
#NOTEDATA:;
#CHARTNAME:;
#STEPSTYPE:dance-single;
#DESCRIPTION:XO+ DS- JA- XMOD RH- JU Mines;
#CHARTSTYLE:;
#DIFFICULTY:Challenge;
#METER:16;
#RADARVALUES:0.556772,0.882896,0.427924,0.217254,0.539843,592.000000,527.000000,65.000000,33.000000,61.000000,0.000000,52.000000,0.000000,0.000000,0.556772,0.882896,0.427924,0.217254,0.539843,592.000000,527.000000,65.000000,33.000000,61.000000,0.000000,52.000000,0.000000,0.000000;
#CREDIT:Karl with a K;
#NOTES:
0000
0000
0000
0000
,
0000
0000
0000
0000
,
0000
0000
0000
0000
,
1000
0000
0000
0000
0000
0000
0000
0000
0000
0000
0000
0000
0000
0000
0000
0100
0000
0000
0000
0000
0200
0000
0000
0000
,
1300
0000
0000
0000
000M
00M0
000M
00M0
,
0001
0000
0000
0100
0000
0000
0110
0000
0000
0000
0000
0001
0000
0000
0000
0101
0000
0000
0M10
0000
0200
0000
0000
0000
,
1300
0100
0110
0000
1000
00M0
0001
0M00
,
1000
0000
0000
0100
0000
0000
0110
0000
0000
0000
0000
1000
0000
0000
0000
1100
0000
0000
0M10
0000
0200
0000
0000
0000
,
0301
0100
0110
0000
0001
00M0
1000
0M00
,
0001
0000
0000
0000
,
1001
0000
0000
1000
0000
0100
0010
0000
0000
0100
0000
0000
1000
0000
0001
0100
0000
0000
0010
0000
0000
1000
0000
0000
,
0001
0000
0000
1000
0000
0010
0100
0000
0000
0010
0000
1000
0000
0000
0000
0100
0000
0001
0000
0000
0100
1000
0000
0000
,
1001
0000
0000
0001
0000
0100
0010
0000
0000
0100
0000
0000
0001
0000
1000
0001
0000
1000
0100
0000
0010
0000
0000
0001
,
1000
0000
0001
0010
0000
0100
0000
0010
0000
0100
0000
1000
0000
0000
0000
0010
0000
0001
0000
0000
0010
1000
0000
0000
,
0001
0000
0000
0010
0000
0010
0001
0000
0000
1000
0010
1000
0010
0000
0100
0010
0000
0100
0010
0000
0000
1000
0000
0100
,
1000
0000
0100
1000
0000
0100
0010
0000
0001
0100
0000
0001
0000
0000
0000
0100
0000
1000
0000
0000
0100
0001
0000
0000
,
0200
0000
0000
0320
0000
0000
1030
0000
0000
0100
0000
1000
0200
0000
0320
0000
0000
0032
0000
0000
0000
1003
0000
1000
,
0010
0000
0100
0010
0000
0100
0010
0000
0000
1000
0000
0100
0010
0000
0000
1000
0010
0100
0010
0000
0010
0001
0000
0000
,
1100
0100
0010
0100
1000
0100
0010
0010
,
0001
0100
0010
0100
0001
0100
0010
0010
,
1000
0010
0100
0010
1000
0010
0100
0100
,
0001
0010
0100
0010
0001
0010
0100
0100
,
1000
1001
0001
0101
0100
0110
0010
1010
,
1000
1001
0001
0011
0010
0110
0100
1100
,
1000
1010
0001
0011
1000
1100
0001
0101
,
1010
1100
0011
0101
0200
0001
0320
1000
,
0130
0000
0000
0000
,
0010
0000
0000
0000
0000
1000
2002
3003
,
1100
0000
0000
1000
0000
0000
0M10
1000
0100
0010
0001
0100
0010
1000
0100
0010
0001
0100
0010
1000
0100
0010
0000
0000
,
0011
0000
0000
0001
0000
0000
01M0
0001
0010
0100
1000
0010
0100
0001
0010
0100
1000
0010
0100
0001
0010
0100
0000
0000
,
01M1
0000
0000
1000
0000
0000
0001
0010
1000
0001
0100
1000
0001
0010
1000
0001
0100
1000
0010
0100
0010
0100
0000
0000
,
1M10
0000
0000
1000
0000
0000
0001
0100
1000
0001
0010
1000
0001
0100
1000
0001
0010
1000
0100
0010
0100
0010
0000
0000
,
01M1
0000
0000
0000
0000
0000
0000
0000
0000
0000
0000
0000
0000
0000
0000
0000
0000
0000
0000
0000
0000
0000
0000
0000
0000
0000
0000
0000
0000
0000
0000
0000
0000
0000
0000
0000
0000
0000
0000
0000
0000
0000
0000
0000
0000
0000
0000
0000
0M10
0000
0000
0000
0000
0000
0001
0000
0000
0000
0000
0000
0200
0000
0000
0000
0000
0000
0000
0000
0000
0000
0000
0000
0310
0000
0000
0000
0000
0000
1000
0000
0000
0000
0000
0000
0200
0000
0000
0000
0000
0000
0000
0000
0000
0000
0000
0000
0310
0000
0000
0000
0000
0000
0001
0000
0000
0000
0000
0000
0200
0000
0000
0000
0000
0000
0000
0000
0000
0000
0000
0000
0310
0000
0000
0000
0000
0000
1000
0000
0000
0000
0000
0000
0200
0300
0000
0000
0000
0000
0000
0000
0000
0000
0000
0000
1M10
0000
0000
0000
0000
0000
0000
0000
0000
0000
0000
0000
0000
0000
0000
0000
0000
0000
0000
0000
0000
0000
0000
0000
1000
0000
0000
0000
0000
0000
0000
0000
0000
0000
0000
0000
0000
0000
0000
0000
0000
0000
0000
0000
0000
0000
0000
0000
,
01M0
0000
0000
0000
0000
0000
1000
0000
0000
0000
0000
0000
0020
0000
0000
0000
0000
0000
0000
0000
0000
0000
0000
0000
0130
0000
0000
0000
0000
0000
0001
0000
0000
0000
0000
0000
0020
0000
0000
0000
0000
0000
0000
0000
0000
0000
0000
0000
0130
0000
0000
0000
0000
0000
1000
0000
0000
0000
0000
0000
0020
0000
0000
0000
0000
0000
0000
0000
0000
0000
0000
0000
0130
0000
0000
0000
0000
0000
0001
0000
0000
0000
0000
0000
0020
0030
0000
0000
0000
0000
0000
0000
0000
0000
0000
0000
11M0
0000
0000
0000
0000
0000
0000
0000
0000
0000
0000
0000
0000
0000
0000
0000
0000
0000
0000
0000
0000
0000
0000
0000
0001
0000
0000
0000
0000
0000
0000
0000
0000
0000
0000
0000
0000
0000
0000
0000
0000
0000
0000
0000
0000
0000
0000
0000
1000
0000
0000
0000
0000
0000
0010
0000
0000
0000
0000
0000
0002
0000
0000
0000
0000
0000
0000
0000
0000
0000
0000
0000
1003
0000
0000
0000
0000
0000
0100
0000
0000
0000
0000
0000
0002
0000
0000
0000
0000
0000
0000
0000
0000
0000
0000
0000
,
1003
0000
0000
0000
0000
0000
0010
0000
0000
0000
0000
0000
0002
0000
0000
0000
0000
0000
0000
0000
0000
0000
0000
0000
1003
0000
0000
0000
0000
0000
0100
0000
0000
0000
0000
0000
0002
0003
0000
0000
0000
0000
0000
0000
0000
0000
0000
0000
0M11
0000
0000
0000
0000
0000
0000
0000
0000
0000
0000
0000
0000
0000
0000
0000
0000
0000
0000
0000
0000
0000
0000
0000
0001
0000
0000
0000
0000
0000
0000
0000
0000
0000
0000
0000
0000
0000
0000
0000
0000
0000
0000
0000
0000
0000
0000
0000
1000
0000
0000
0000
0000
0000
0100
0000
0000
0000
0000
0000
0002
0000
0000
0000
0000
0000
0000
0000
0000
0000
0000
0000
1003
0000
0000
0000
0000
0000
0010
0000
0000
0000
0000
0000
0002
0000
0000
0000
0000
0000
0000
0000
0000
0000
0000
0000
1003
0000
0000
0000
0000
0000
0100
0000
0000
0000
0000
0000
0002
0000
0000
0000
0000
0000
0000
0000
0000
0000
0000
0000
1003
0000
0000
0000
0000
0000
0010
0000
0000
0000
0000
0000
0002
0003
0000
0000
0000
0000
0000
0000
0000
0000
0000
0000
,
0001
0010
0100
0010
1000
0010
0100
0100
,
1000
0010
0100
0010
0001
0010
0100
0100
,
0001
0100
0010
0100
1000
0100
0010
0010
,
1000
0100
0010
0100
0001
0100
0010
0010
,
0001
1001
1000
1010
0010
0110
0100
0101
,
0001
1001
1000
1100
0100
0110
0010
0011
,
0001
0101
1000
1100
0001
0011
1000
1010
,
0011
0000
0000
0101
0000
0000
1010
0000
0000
1100
0000
0000
0200
0000
0000
1000
0000
0000
0320
0000
0034
0100
0000
0000
,
4003
3400
0304
4003
3004
0403
4300
3400
,
4300
0000
3040
0000
0034
0000
4003
0000
3004
0003
0044
0033
0220
0000
0330
0000
,
0010
1000
0100
0010
0001
0100
0040
0000
0000
0034
0000
0000
4003
0000
0000
3400
0000
0000
0304
0000
0000
4003
0000
0000
,
3100
0000
1000
0000
0010
0000
0100
0000
0001
0000
0010
0000
0400
0000
0000
0000
0000
0000
0304
0000
0000
0000
0000
0000
4003
0000
0000
0000
0000
0000
3040
0000
0000
0000
0000
0000
0034
0000
0000
0000
0000
0000
0043
0000
0000
0030
0000
0000
,
0010
0001
0100
0010
1000
0100
0040
0000
0000
4030
0000
0000
3004
0000
0000
0403
0000
0000
4300
0000
0000
3004
0000
0000
,
0103
0000
0001
0000
0010
0000
0100
0000
1000
0000
0010
0000
0400
0000
0000
0000
0000
0000
4300
0000
0000
0000
0000
0000
3004
0000
0000
0000
0000
0000
0043
0000
0000
0000
0000
0000
4030
0000
0000
0000
0000
0000
3040
0000
0000
0030
0000
0000
,
1000
0001
0010
1000
0001
0100
0004
0000
0000
0000
0000
0000
0403
0000
0000
0000
0000
0000
4300
0000
0000
0000
0000
0000
,
3001
1000
0100
0001
1000
0010
4000
0000
0000
0000
0000
0000
3040
0000
0000
0000
0000
0000
0034
0000
0000
0003
0000
0000
,
0001
1000
0010
1000
0001
0100
4000
0000
0000
0000
0000
0000
3400
0000
0000
0000
0000
0000
0304
0000
0000
0000
0000
0000
,
1003
0001
0100
1000
0001
0010
0004
0000
0000
0000
0000
0000
0043
0000
0000
0000
0000
0000
4030
0000
0000
0010
0000
0000
,
3002
0103
1001
0110
MMMM
1100
MMMM
0101
,
0100
0001
0010
0100
1000
0010
0100
0000
0000
1001
0000
0000
MMMM
0000
0000
1010
0000
0000
MMMM
0000
0000
0011
0000
0000
,
0010
0001
0100
0010
1000
0100
0010
0000
0000
0110
0000
0000
MMMM
0000
0000
0101
0000
0000
MMMM
0000
0000
1100
0000
0000
,
0100
1000
0010
0100
0001
0010
0100
0000
0000
1001
0000
0000
MMMM
0000
0000
0011
0000
0000
MMMM
0000
0000
1010
0000
0000
,
0001
0000
0000
0000
0000
0000
0000
0000
0000
0000
0000
0000
0000
0000
0000
0100
0000
0000
0000
0000
0100
0000
0000
0000
,
0001
0000
0000
0000
M000
00M0
000M
0M00
,
1000
0000
0000
0000
0000
0000
0000
0000
0000
0000
0000
0000
0000
0000
0000
0100
0000
0000
0000
0000
0100
0000
0000
0000
,
1000
0000
0000
0000
0000
0000
0000
0000
0000
0000
0000
0000
000M
0000
0000
00M0
0000
0000
M000
0000
0000
0M01
0000
000M
;

//---------------dance-single - ----------------
#NOTEDATA:;
#CHARTNAME:;
#STEPSTYPE:dance-single;
#DESCRIPTION:;
#CHARTSTYLE:;
#DIFFICULTY:Hard;
#METER:11;
#RADARVALUES:0.293434,0.400768,0.125086,0.302839,0.065835,312.000000,293.000000,19.000000,46.000000,0.000000,0.000000,0.000000,0.000000,0.000000,0.293434,0.400768,0.125086,0.302839,0.065835,312.000000,293.000000,19.000000,46.000000,0.000000,0.000000,0.000000,0.000000,0.000000;
#CREDIT:Karl with a K;
#NOTES:
0000
0000
0000
0000
,
0000
0000
0000
0000
,
0000
0000
0000
0000
,
0000
0000
0000
0000
,
0000
0000
0000
0000
,
1000
0000
0000
0100
0000
0000
0010
0000
0000
0000
0000
0000
0001
0000
0000
0100
0000
0000
0000
0000
0100
0000
0000
0000
,
0001
0000
0010
0000
1000
0010
0001
0000
,
0001
0000
0000
0100
0000
0000
0010
0000
0000
0000
0000
0000
1000
0000
0000
0100
0000
0000
0000
0000
0100
0000
0000
0000
,
1000
0000
0010
0000
0001
0010
1000
0000
,
0100
0000
0000
0000
,
1000
0000
1000
0000
0001
0100
0010
0000
,
1000
0000
0001
0000
0010
0100
0010
0000
,
0001
0000
0001
0000
1000
0100
0010
0000
,
0001
0000
1000
0000
0010
0100
0010
0000
,
1000
0000
1010
0000
1000
0100
0010
0000
,
0001
0000
0010
0000
0001
0100
0010
0000
,
1000
1000
1000
0000
0001
0001
0001
0000
,
1000
0100
0010
0001
1000
0010
1000
0000
,
0001
0001
0000
1000
0000
0100
0000
0010
,
0001
0001
0000
0100
0000
0010
0000
1000
,
0001
0001
0000
0010
0000
0100
0000
1000
,
0001
0001
0000
1000
0000
0010
0000
0100
,
0001
0001
0010
0010
0100
0100
1000
1000
,
0010
0010
0100
0100
0001
0001
1000
1000
,
0010
1000
0100
0010
0001
0100
0010
1000
,
0100
0100
0010
0010
0000
0000
0000
0000
,
0100
0000
0000
0000
,
0010
0000
0000
1001
,
0101
0000
0000
0100
0001
1000
0100
1000
0001
1000
0000
0000
,
0011
0000
0000
0010
0001
1000
0010
1000
0001
1000
0000
0000
,
1100
0000
0000
1000
0100
0010
0001
0100
0010
1000
0000
0000
,
1010
0000
0000
0001
0100
0010
1000
0100
0010
0001
0000
0000
,
1001
0000
1000
0100
0001
0100
1000
0000
,
0001
0010
1000
0010
0001
0000
0001
0100
,
1000
0100
0001
0000
1000
0010
0001
0010
,
1000
1000
0000
0001
0000
0100
0000
0010
,
1000
1000
0000
0100
0000
0010
0000
0001
,
1000
1000
0000
0010
0000
0100
0000
0001
,
1000
1000
0000
0001
0000
0010
0000
0100
,
1000
1000
0010
0010
0100
0100
0001
0001
,
0010
0010
0100
0100
1000
1000
0001
0001
,
0010
0001
0100
0010
1000
0100
0010
0001
,
0100
0100
0010
0010
0000
0000
0000
0000
,
2000
3200
0302
0203
,
2300
3020
0032
0023
,
0230
0320
0032
2003
,
3100
0001
0020
0000
2030
0000
3020
0000
,
0230
0320
2030
3002
,
0103
1000
0020
0000
0032
0000
0023
0000
,
1030
0000
0000
0001
0000
0000
0202
0000
0000
0000
0303
0000
2200
0000
0000
0000
3300
0000
0202
0000
0000
0000
0303
0000
,
0001
0000
0000
0022
0000
0033
2020
0000
3030
0022
0000
0033
,
0001
0000
0000
1000
0000
0000
2200
0000
0000
0000
3300
0000
0202
0000
0000
0000
0303
0000
2200
0000
0000
0000
3300
0000
,
1000
0000
0000
2020
0000
3030
0022
0000
0033
2020
0000
3030
,
1000
0000
0001
0010
0000
0001
0000
0010
,
0001
0001
1000
0010
0000
1000
0000
0010
,
1000
1000
0001
0010
0000
0001
0000
0010
,
0001
0001
1000
0010
0000
1000
0000
0010
,
1000
0000
0000
0000
0000
0000
0000
0000
0000
0000
0000
0000
0000
0000
0000
0100
0000
0000
0000
0000
0100
0000
0000
0000
,
1000
0000
0000
0000
,
0001
0000
0000
0000
0000
0000
0000
0000
0000
0000
0000
0000
0000
0000
0000
0100
0000
0000
0000
0000
0100
0000
0000
0000
,
0001
0000
0000
0000
0000
0000
0000
1000
;

//---------------dance-single - ----------------
#NOTEDATA:;
#CHARTNAME:;
#STEPSTYPE:dance-single;
#DESCRIPTION:;
#CHARTSTYLE:;
#DIFFICULTY:Medium;
#METER:7;
#RADARVALUES:0.207849,0.296255,0.098752,0.092168,0.006583,221.000000,206.000000,15.000000,14.000000,0.000000,0.000000,0.000000,0.000000,0.000000,0.207849,0.296255,0.098752,0.092168,0.006583,221.000000,206.000000,15.000000,14.000000,0.000000,0.000000,0.000000,0.000000,0.000000;
#CREDIT:Karl with a K;
#NOTES:
// measure 0
0000
0000
0000
0000
,  // measure 1
0000
0000
0000
0000
,  // measure 2
0000
0000
0000
0000
,  // measure 3
0000
0000
0000
0000
,  // measure 4
0000
0000
0000
0000
,  // measure 5
1000
0000
0000
0000
0000
0000
0010
0000
0000
0000
0000
0000
0000
0000
0000
0100
0000
0000
0000
0000
0100
0000
0000
0000
,  // measure 6
0001
0000
0010
0000
,  // measure 7
0001
0000
0000
0000
0000
0000
0010
0000
0000
0000
0000
0000
0000
0000
0000
0100
0000
0000
0000
0000
0100
0000
0000
0000
,  // measure 8
1000
0000
0010
0000
,  // measure 9
0100
0000
0000
0000
,  // measure 10
0001
0010
0100
0010
,  // measure 11
0001
0100
1000
0100
,  // measure 12
0001
0100
0010
0100
,  // measure 13
0001
0010
1000
0010
,  // measure 14
0001
1001
1000
0010
,  // measure 15
1000
0100
0001
0100
,  // measure 16
1000
0001
1000
0000
0001
0000
0001
0000
,  // measure 17
1000
0010
0001
0010
,  // measure 18
1000
1000
1000
1000
,  // measure 19
0100
0100
0100
0100
,  // measure 20
0010
0010
0010
0010
,  // measure 21
0001
0001
0001
0001
,  // measure 22
1000
0010
0100
0001
,  // measure 23
0010
0100
1000
0001
,  // measure 24
1000
1001
0001
1001
,  // measure 25
1000
0100
0010
0001
0000
0000
0000
0000
,  // measure 26
0100
0000
0000
0000
,  // measure 27
0010
0000
0000
0110
,  // measure 28
0100
0010
1000
0100
,  // measure 29
0010
0000
0100
0000
1000
0000
0010
1000
,  // measure 30
0100
0010
0001
0100
,  // measure 31
0010
0100
0001
0010
,  // measure 32
0100
0000
0010
0010
1000
0100
0010
0000
,  // measure 33
0100
1000
0010
1000
0100
0000
0010
0010
,  // measure 34
0001
0100
0010
0000
0100
0100
0001
0010
,  // measure 35
0001
0001
0001
0001
,  // measure 36
0100
0100
0100
0100
,  // measure 37
0010
0010
0010
0010
,  // measure 38
1000
1000
1000
1000
,  // measure 39
0001
0010
1000
0010
,  // measure 40
0001
0100
1000
0100
,  // measure 41
0001
1001
1000
1001
,  // measure 42
0001
0100
0010
1000
0000
0000
0000
0000
,  // measure 43
0200
0000
0000
0300
,  // measure 44
0020
0000
0030
0110
,  // measure 45
0001
0102
0100
0103
,  // measure 46
0001
0000
0012
0000
0010
0000
0013
0001
,  // measure 47
1000
2100
0100
3100
,  // measure 48
1000
0000
2010
0000
0010
0000
3010
1000
,  // measure 49
0001
0201
0001
0301
,  // measure 50
0001
0021
0001
0031
,  // measure 51
1000
1200
1000
1300
,  // measure 52
1000
1020
1000
2030
,  // measure 53
3000
0100
0010
0001
,  // measure 54
0200
0310
1000
0100
,  // measure 55
2000
3010
0100
0001
,  // measure 56
0020
0130
1000
0010
,  // measure 57
1000
0000
0000
0000
,  // measure 58
0001
0000
0000
0000
,  // measure 59
0010
0000
0000
0000
,  // measure 60
0100
0000
0000
0000
;

//---------------dance-single - ----------------
#NOTEDATA:;
#CHARTNAME:;
#STEPSTYPE:dance-single;
#DESCRIPTION:;
#CHARTSTYLE:;
#DIFFICULTY:Easy;
#METER:4;
#RADARVALUES:0.113800,0.197504,0.098752,0.171170,0.000000,121.000000,106.000000,15.000000,26.000000,0.000000,0.000000,0.000000,0.000000,0.000000,0.113800,0.197504,0.098752,0.171170,0.000000,121.000000,106.000000,15.000000,26.000000,0.000000,0.000000,0.000000,0.000000,0.000000;
#CREDIT:Karl with a K;
#NOTES:
// measure 0
0000
0000
0000
0000
,  // measure 1
0000
0000
0000
0000
,  // measure 2
0000
0000
0000
0000
,  // measure 3
0000
0000
0000
0000
,  // measure 4
0000
0000
0000
0000
,  // measure 5
1000
0000
0000
0000
,  // measure 6
0100
0000
0000
0000
,  // measure 7
0010
0000
0000
0000
,  // measure 8
0001
0000
0000
0000
,  // measure 9
0100
0000
0000
0000
,  // measure 10
0001
0000
0100
0000
,  // measure 11
0001
0000
1000
0010
,  // measure 12
1000
0000
0001
0000
,  // measure 13
1000
0000
0001
0010
,  // measure 14
0001
0000
0100
0000
,  // measure 15
0010
0000
0000
1000
,  // measure 16
0100
0010
0001
0010
,  // measure 17
0001
0001
0100
0100
,  // measure 18
0002
0000
0000
0003
,  // measure 19
0200
0000
0000
0300
,  // measure 20
0020
0000
0000
0030
,  // measure 21
2000
0000
0000
3000
,  // measure 22
1000
0100
1000
0100
,  // measure 23
0010
0001
0010
0001
,  // measure 24
0100
0010
1000
0001
,  // measure 25
2002
0000
3003
0000
,  // measure 26
0100
0000
0000
0000
,  // measure 27
0010
0000
0000
0000
,  // measure 28
1001
0200
0000
0300
,  // measure 29
1001
0020
0000
0030
,  // measure 30
1001
0200
0000
0300
,  // measure 31
1001
0020
0000
0030
,  // measure 32
1100
0000
0000
0011
,  // measure 33
0000
0000
0101
0000
,  // measure 34
0000
1010
0000
0000
,  // measure 35
2000
0000
0000
3000
,  // measure 36
0200
0000
0000
0300
,  // measure 37
0020
0000
0000
0030
,  // measure 38
0002
0000
0000
0003
,  // measure 39
0001
0100
0001
0100
,  // measure 40
0010
1000
0010
1000
,  // measure 41
0100
0010
0001
1000
,  // measure 42
2002
0000
3003
0000
,  // measure 43
0200
0000
0000
0300
,  // measure 44
0020
0000
0030
0110
,  // measure 45
1000
0200
0000
0300
,  // measure 46
1000
0020
0000
0030
,  // measure 47
0100
0200
0000
0300
,  // measure 48
0001
0020
0000
0030
,  // measure 49
0100
0210
0000
0300
,  // measure 50
0010
0120
0000
0030
,  // measure 51
0100
0210
0000
0300
,  // measure 52
0010
0120
0000
0030
,  // measure 53
0000
1000
0000
1000
,  // measure 54
0000
0001
0000
0001
,  // measure 55
0000
0100
0000
0100
,  // measure 56
0000
0010
0000
0010
,  // measure 57
1000
0000
0000
0000
,  // measure 58
1000
0000
0000
0000
,  // measure 59
0001
0000
0000
0000
,  // measure 60
0001
0000
0000
0000
;

//---------------dance-single - ----------------
#NOTEDATA:;
#CHARTNAME:;
#STEPSTYPE:dance-single;
#DESCRIPTION:;
#CHARTSTYLE:;
#DIFFICULTY:Beginner;
#METER:2;
#RADARVALUES:0.058311,0.116527,0.000000,0.026334,0.000000,62.000000,62.000000,0.000000,4.000000,0.000000,0.000000,0.000000,0.000000,0.000000,0.058311,0.116527,0.000000,0.026334,0.000000,62.000000,62.000000,0.000000,4.000000,0.000000,0.000000,0.000000,0.000000,0.000000;
#CREDIT:Karl with a K;
#NOTES:
// measure 0
0000
0000
0000
0000
,  // measure 1
0000
0000
0000
0000
,  // measure 2
0000
0000
0000
0000
,  // measure 3
0000
0000
0000
0000
,  // measure 4
0000
0000
0000
0000
,  // measure 5
1000
0000
0000
0000
,  // measure 6
1000
0000
0000
0000
,  // measure 7
0001
0000
0000
0000
,  // measure 8
0001
0000
0000
0000
,  // measure 9
0000
0000
0000
0000
,  // measure 10
0000
0000
1000
0000
,  // measure 11
1000
0000
0000
0000
,  // measure 12
0001
0000
0001
0000
,  // measure 13
0001
0000
0000
0000
,  // measure 14
0010
0000
0010
0000
,  // measure 15
0010
0000
0000
0000
,  // measure 16
0100
0000
0100
0000
,  // measure 17
0100
0000
0000
0000
,  // measure 18
1000
0000
0000
0000
,  // measure 19
0000
0000
0000
0000
,  // measure 20
0000
0000
0000
0000
,  // measure 21
0000
0000
0000
0000
,  // measure 22
1000
0000
0010
0000
,  // measure 23
0100
0000
0001
0000
,  // measure 24
1000
0000
0001
0000
,  // measure 25
1000
1000
1000
0000
,  // measure 26
0100
0000
0000
0000
,  // measure 27
0000
0000
0000
0000
,  // measure 28
0100
0000
0000
0000
,  // measure 29
0010
0000
0000
0000
,  // measure 30
0100
0000
0000
0000
,  // measure 31
0010
0000
0000
0000
,  // measure 32
0100
0000
0000
0000
,  // measure 33
0010
0000
0000
0000
,  // measure 34
0100
0000
0000
0000
,  // measure 35
0001
0000
0000
0000
,  // measure 36
0000
0000
0000
0000
,  // measure 37
0000
0000
0000
0000
,  // measure 38
0000
0000
0000
0000
,  // measure 39
0001
0000
0010
0000
,  // measure 40
0100
0000
1000
0000
,  // measure 41
0001
0000
1000
0000
,  // measure 42
0001
0001
0001
0000
,  // measure 43
0100
0000
0000
0000
,  // measure 44
0000
0000
0000
0000
,  // measure 45
0100
0100
0000
0000
,  // measure 46
0010
0010
0000
0000
,  // measure 47
0100
0100
0000
0000
,  // measure 48
0010
0010
0000
0000
,  // measure 49
0000
0200
0000
0300
,  // measure 50
0000
0020
0000
0030
,  // measure 51
0000
0200
0000
0300
,  // measure 52
0000
0020
0000
0030
,  // measure 53
1000
0000
0000
0000
,  // measure 54
0001
0000
0000
0000
,  // measure 55
1000
0000
0000
0000
,  // measure 56
0001
0000
0000
0000
,  // measure 57
1000
0000
0000
0000
,  // measure 58
0000
0000
0000
0000
,  // measure 59
0001
0000
0000
0000
;
