#VERSION:0.83;
#TITLE:Qwerty(K-Special);
#SUBTITLE:;
#ARTIST:BEMANI Sound Team "Yvya";
#TITLETRANSLIT:;
#SUBTITLETRANSLIT:;
#ARTISTTRANSLIT:;
#GENRE:;
#ORIGIN:DanceDanceRevolution A3;
#CREDIT:;
#BANNER:Qwerty.png;
#BACKGROUND:Qwerty-bg.png;
#PREVIEWVID:;
#JACKET:Qwerty-jacket.png;
#CDIMAGE:;
#DISCIMAGE:;
#LYRICSPATH:;
#CDTITLE:;
#MUSIC:Qwerty.ogg;
#OFFSET:0.000000;
#SAMPLESTART:73.500999;
#SAMPLELENGTH:15.000000;
#SELECTABLE:YES;
#BPMS:0.000=160.000,
52.000=80.000,
60.000=160.000,
188.000=80.000,
204.000=160.000,
270.000=80.000;
#STOPS:236.000=0.750;
#DELAYS:;
#WARPS:;
#TIMESIGNATURES:0.000=4=4;
#TICKCOUNTS:0.000=4;
#COMBOS:0.000=1;
#SPEEDS:0.000=1.000=0.000=0;
#SCROLLS:0.000=1.000;
#FAKES:;
#LABELS:0.000=Song Start;
#BGCHANGES:;
#KEYSOUNDS:;
#ATTACKS:
;

//---------------dance-single - XO+ FS- DS+ XMOD BU+ STR[14*@160] JU----------------
#NOTEDATA:;
#CHARTNAME:;
#STEPSTYPE:dance-single;
#DESCRIPTION:XO+ FS- DS+ XMOD BU+ STR[14*@160] JU;
#CHARTSTYLE:;
#DIFFICULTY:Challenge;
#METER:19;
#RADARVALUES:0.967801,1.128294,0.558301,0.841618,1.324923,813.000000,746.000000,67.000000,101.000000,0.000000,0.000000,0.000000,0.000000,0.000000,0.967801,1.128294,0.558301,0.841618,1.324923,813.000000,746.000000,67.000000,101.000000,0.000000,0.000000,0.000000,0.000000,0.000000;
#CREDIT:Karl with a K;
#NOTES:
// measure 0
0000
0000
0000
0000
,  // measure 1
0000
0000
0000
0000
,  // measure 2
0000
0000
0000
0000
,  // measure 3
0000
0000
0000
0000
,  // measure 4
0000
0000
0000
0000
,  // measure 5
1100
0000
0001
0000
0101
0000
1000
0000
1100
0000
0001
0100
0000
0100
0010
0000
,  // measure 6
1000
0100
0010
0000
0001
1000
0010
0000
0110
0000
0000
0101
0000
0000
1001
0000
,  // measure 7
1010
0000
0001
0000
0011
0000
1000
0000
1010
0000
0001
0010
0000
0010
0100
0000
,  // measure 8
1000
0010
0100
0000
0001
1000
0100
0000
0110
0000
0010
0001
0000
0010
0100
1000
,  // measure 9
0001
0000
1000
0000
0010
1000
0001
0000
0011
0000
1000
0010
0000
0010
0100
0000
,  // measure 10
0001
0010
0100
0000
0001
0100
0010
0000
1001
0000
0001
1000
0000
1000
0001
0000
,  // measure 11
0101
0000
1000
0000
0100
1000
0001
0000
0101
0000
1000
0100
0000
0100
0010
0000
,  // measure 12
0001
0100
0010
0000
0001
0010
1000
0100
0010
0000
0000
0110
0000
0000
1100
0000
,  // measure 13
2001
0100
0001
0100
0001
0010
0001
0010
,  // measure 14
3002
0000
0000
0000
0100
0000
0000
0000
1000
0000
0000
0000
0100
0000
0000
0000
1000
0000
0000
0000
0010
0000
0000
0000
2003
0000
3001
0010
0100
0010
0100
1000
,  // measure 15
0010
0100
0010
0000
0001
0010
0000
0100
0010
0000
0001
0010
0000
0100
0010
0000
,  // measure 16
0000
0000
0001
0000
0010
1000
0000
0100
0002
0000
0000
2003
0000
0000
3001
0000
,  // measure 17
0100
0010
0100
0000
0010
1000
0000
0010
0100
0000
0010
1000
0000
0010
0100
0000
,  // measure 18
0000
0000
0001
0000
0100
0010
0000
0001
0100
0000
0000
0100
0000
0000
0100
0000
,  // measure 19
0100
0010
0100
0000
1000
0100
0000
0010
0100
0000
1000
0100
0010
0100
0001
0000
,  // measure 20
0000
0000
1000
0000
0100
0010
0000
0100
0001
0100
0000
0100
0010
0000
0001
0010
,  // measure 21
0100
0010
0100
0000
0010
1000
0000
0010
0100
0000
0010
1000
0010
0100
0010
0000
,  // measure 22
0001
0000
0100
0000
1000
0100
0010
1000
0100
0010
0001
0010
0100
0010
0001
0000
,  // measure 23
0100
0010
1000
0100
0010
0001
0100
0001
0010
0100
1000
0010
0100
0001
0010
0001
,  // measure 24
0100
0001
0010
0001
0100
0001
0010
0001
0100
1000
0100
0010
1000
0100
0001
0000
,  // measure 25
0100
0010
0001
0100
0010
1000
0100
1000
0010
0100
0001
0010
0100
1000
0010
1000
,  // measure 26
0001
0000
0000
1000
0000
0000
0010
0000
0000
1000
0000
0000
0100
0000
0000
0001
0000
0000
0100
0000
0000
1000
0000
0000
0100
0000
0010
0000
0001
0000
1000
0000
0000
0010
0000
0000
0100
0000
0001
0000
1000
0000
0100
0000
0010
0000
0001
0000
,  // measure 27
0200
0300
0000
0000
0200
0300
0000
0000
0200
0300
0000
0000
0200
0300
0000
0000
0200
0300
0000
0000
0200
0300
0000
0000
1000
0000
0000
0000
0000
0000
0001
0000
0000
0100
0000
0000
0010
0000
0000
1000
0000
0000
0100
0000
0000
1000
0000
0000
,  // measure 28
0010
1000
0100
1000
0010
1000
0100
1000
0010
0001
1000
0100
0001
0010
1000
0001
,  // measure 29
0100
0010
0001
0010
0100
1000
0010
1000
0100
0010
0001
0100
0010
1000
0100
1000
,  // measure 30
0001
0000
0000
1000
0000
0000
0100
0000
0000
1000
0000
0000
0010
0000
0000
0001
0000
0000
0010
0000
0000
1000
0000
0000
0010
0000
0100
0000
0001
0000
1000
0000
0000
0100
0000
0000
0010
0000
0001
0000
1000
0000
0010
0000
0100
0000
0001
0000
,  // measure 31
0010
0001
0100
1000
0100
0001
0010
0001
0100
0001
0010
1000
0010
0001
1000
0100
,  // measure 32
0001
0100
1000
0100
0001
0100
1000
0100
0001
1000
0010
0100
1000
0010
0100
0000
,  // measure 33
0010
1000
0100
0001
0100
1000
0010
1000
0100
1000
0010
0001
0010
1000
0001
0100
,  // measure 34
0010
0100
1000
0100
0001
0010
0100
1000
0010
0100
0010
0100
0001
0010
0100
0000
,  // measure 35
1000
0000
0001
0000
1000
0000
0001
0000
1000
0000
0001
0000
1000
0000
0001
0000
1000
0000
0001
0000
1000
0000
0001
0000
0010
0000
0000
0001
0000
0000
0100
0000
0000
1000
0000
0000
0100
0000
0000
0001
0000
0000
1000
0000
0000
0010
0000
0000
,  // measure 36
0001
0010
1000
0010
0001
0010
1000
0010
0001
1000
0100
0010
1000
0001
0100
0000
,  // measure 37
1000
0001
0010
1000
0100
0000
0001
1000
0010
0001
0010
0000
1000
0001
0100
1000
,  // measure 38
0010
0000
0000
0000
0000
0000
0001
0000
0000
1000
0000
0000
0100
0000
0000
0001
0000
0000
0010
0000
0000
0000
0000
0000
1000
0000
0010
0000
0100
0000
1000
0000
0000
0000
0000
0000
0010
0000
0001
0000
0010
0000
0100
0000
0000
0000
0000
0000
,  // measure 39
2002
0000
3003
0000
2002
0000
3003
0000
1000
0001
2002
0000
3003
2002
0000
3003
,  // measure 40
2002
3003
0001
1000
2002
0000
3003
2200
0000
3300
0022
0000
0033
2020
0000
3030
,  // measure 41
0220
0000
0330
0000
0220
0000
0330
0000
1000
0100
0220
0000
0330
0220
0000
0330
,  // measure 42
0220
0030
0301
0100
1000
0100
1000
0100
0010
0100
0010
0001
0010
0001
0100
0001
,  // measure 43
0201
0000
0301
1000
2200
0000
3300
0000
1000
0010
0001
0010
1000
0001
0010
1000
,  // measure 44
0020
0030
0001
0010
0022
0000
0033
2020
0000
3030
0220
0000
0330
0201
0000
0000
,  // measure 45
2300
0000
3100
0001
0010
0000
2000
0000
3000
2010
0000
3000
0010
0100
0002
0000
,  // measure 46
0003
0000
0000
0102
0000
0000
0000
0000
0000
0003
0000
0000
0100
0000
0000
0000
0010
0000
0000
0000
0001
0000
0000
0000
0100
0000
0000
0000
0010
0000
0000
0000
0001
0000
0000
0000
0010
0000
0000
0000
0001
0000
0000
0000
0010
0000
0000
0000
,  // measure 47
0012
0000
0000
0000
0000
0000
0000
0000
0000
0013
0000
0000
1000
0000
0000
0100
0000
0000
0010
0000
0000
2000
0000
0000
0000
0000
0000
3020
0000
0000
0000
0000
0000
0130
0010
0100
0020
0000
0000
0130
0000
0000
0010
0000
0000
0001
0000
0000
,  // measure 48
0100
0000
0000
0020
0000
0000
0000
0000
0000
1030
0000
0000
0001
0000
0000
0100
0000
0000
0120
0000
0000
0031
0000
0000
0010
0000
0000
0100
0000
0000
0010
0000
0000
1000
0100
1000
0100
0000
0000
0010
0000
0000
0110
0000
0000
0100
0000
0000
,  // measure 49
0210
0000
0000
0302
0000
0000
0103
0000
0010
0000
0100
0000
1000
0000
0020
0000
0000
0000
0130
0000
0001
0000
0100
0000
0010
0000
0100
0010
1000
0001
0010
0100
,  // measure 50
0020
0000
0000
0032
0000
0000
0203
0000
0310
0000
0200
0000
0301
0000
2002
0000
3003
0000
1000
0010
0100
0001
1000
0100
0010
0000
0100
0000
1000
0000
0100
0000
,  // measure 51
0002
0000
0000
0203
1000
0000
0320
0000
0032
0000
0000
0203
0010
0000
0302
0000
,  // measure 52
0100
2003
0100
3002
0010
2003
0010
3002
,  // measure 53
2003
3020
0100
2030
3200
0320
0032
0023
,  // measure 54
0100
0032
1000
0203
0010
0302
0203
0320
,  // measure 55
2030
3100
1100
1000
1001
0001
0101
0100
,  // measure 56
0110
0000
0100
0010
1000
0000
0100
0000
1100
0000
1000
0100
0010
0001
0100
0010
,  // measure 57
2000
0100
0001
3002
0100
2003
3010
0022
,  // measure 58
0033
0000
0001
0010
0001
1000
0010
0100
0001
0100
0001
0010
0100
1000
0100
1000
,  // measure 59
0200
0000
0000
0310
0001
0010
0001
0000
0000
0000
0000
0000
0011
0000
0000
1000
0000
0000
1010
0000
0000
0001
0000
0000
,  // measure 60
0011
0000
1000
0010
0000
0010
0001
0000
0010
0100
0001
0000
1000
0001
0100
0000
,  // measure 61
0110
0000
0000
1010
0000
0000
1001
0000
0101
0000
1000
0000
1100
0000
0001
0000
,  // measure 62
0101
0000
1000
0100
0000
0100
0001
0000
0100
0010
0001
0000
1000
0001
0010
0000
,  // measure 63
0110
0000
0100
1000
0000
0100
0010
0001
1000
0000
0001
0000
0100
0001
1000
0000
,  // measure 64
1100
0000
0001
0100
0000
0100
1000
0000
0001
0010
1000
0000
0001
0010
0100
0000
,  // measure 65
1001
0000
1000
0001
0000
0001
1000
0000
1010
0000
0001
0000
0010
0001
1000
0000
,  // measure 66
1010
0000
0001
0010
0000
0010
1000
0000
0001
0100
1000
0000
0001
0100
1000
0100
,  // measure 67
0001
0000
0000
1001
0000
0000
0110
0000
2002
0000
0000
0000
0000
0000
0000
0000
,  // measure 68
0000
0000
0000
0000
0000
0000
0000
0000
0000
0000
0000
0000
3003
0000
0000
0000
0000
0000
1000
0000
0000
0100
0000
0000
0001
0000
0000
0100
0000
0000
1000
0000
,  // measure 69
0000
0000
0001
0000
0000
0100
0000
0000
1000
0000
0000
0001
0000
0000
0010
0000
0000
0000
0000
0000
0000
0000
0000
0000
0000
0000
0000
0000
0000
0000
0000
0000
;
