#VERSION:0.83;
#TITLE:Peanut Butter;
#SUBTITLE:;
#ARTIST:RuPaul feat. Big Freedia;
#TITLETRANSLIT:;
#SUBTITLETRANSLIT:;
#ARTISTTRANSLIT:;
#GENRE:;
#ORIGIN:;
#CREDIT:;
#BANNER:Peanut Butter banner.png;
#BACKGROUND:Peanut Butter bg.png;
#PREVIEWVID:;
#JACKET:Peanut Butter jk.png;
#CDIMAGE:;
#DISCIMAGE:;
#LYRICSPATH:;
#CDTITLE:;
#MUSIC:Peanut Butter.ogg;
#OFFSET:-0.025000;
#SAMPLESTART:52.126163;
#SAMPLELENGTH:18.113209;
#SELECTABLE:YES;
#BPMS:0.000=106.000,
82.000=53.000,
83.000=106.000,
147.000=53.000,
155.000=106.000;
#STOPS:76.000=1.698,
77.000=1.698,
78.000=0.566,
79.000=0.566,
171.000=1.698,
172.000=1.698,
173.000=0.566,
174.000=0.566,
179.000=1.132;
#DELAYS:;
#WARPS:;
#TIMESIGNATURES:0.000=4=4;
#TICKCOUNTS:0.000=4;
#COMBOS:0.000=1;
#SPEEDS:0.000=1.000=0.000=0;
#SCROLLS:0.000=1.000;
#FAKES:;
#LABELS:0.000=Song Start;
#BGCHANGES:;
#KEYSOUNDS:;
#ATTACKS:
;

//---------------dance-single - XO- DS- JA+ XMOD BU- JU- Mines- NSFW-----------------
#NOTEDATA:;
#CHARTNAME:;
#STEPSTYPE:dance-single;
#DESCRIPTION:XO- DS- JA+ XMOD BU- JU- Mines- NSFW-;
#CHARTSTYLE:;
#DIFFICULTY:Challenge;
#METER:14;
#RADARVALUES:0.637443,0.698350,0.196957,0.230916,0.835371,657.000000,628.000000,29.000000,34.000000,5.000000,0.000000,0.000000,0.000000,0.000000,0.637443,0.698350,0.196957,0.230916,0.835371,657.000000,628.000000,29.000000,34.000000,5.000000,0.000000,0.000000,0.000000,0.000000;
#CREDIT:Karl with a K;
#NOTES:
// measure 0
0000
0000
0000
0000
,  // measure 1
0000
0000
0000
0000
,  // measure 2
0000
0000
0000
0000
,  // measure 3
0000
0000
0000
0000
,  // measure 4
0000
0000
0000
0000
,  // measure 5
1000
0100
1000
0100
1000
0100
1000
0100
1000
0100
1000
0100
1000
1000
1000
1000
,  // measure 6
0010
0010
1000
1000
0001
0001
0100
0100
0010
0010
1000
1000
0100
0000
0010
0000
,  // measure 7
0021
0000
0100
0000
0130
0000
0000
0000
1000
0010
1000
0000
0010
0100
0000
0001
,  // measure 8
0010
0000
0010
0100
0010
0000
0010
0000
0010
0001
0100
0000
0001
0100
0000
0001
,  // measure 9
0010
0000
0001
0100
0001
0000
1000
0000
1000
0100
0010
0000
0010
0000
0010
0100
,  // measure 10
0001
0000
0100
0010
0001
0000
0100
1000
0000
0100
0001
0000
0001
0000
0001
0000
,  // measure 11
1020
0000
0100
0000
0130
0000
0000
0000
0001
0000
0001
0000
0010
0200
1000
0000
,  // measure 12
0310
0000
0010
0100
0010
0000
0010
0001
1000
0000
1000
0000
1000
0020
0100
0000
,  // measure 13
1030
0000
1000
0100
1000
0000
0001
0000
0001
0100
0010
0000
0020
0000
0100
0000
,  // measure 14
2030
0100
3002
0100
2003
0100
0010
0100
,  // measure 15
3001
0000
0001
0000
0001
0020
1000
0000
0031
0000
0100
0000
0100
0010
0000
0000
,  // measure 16
1000
0000
1000
0000
1000
0020
0001
0000
1030
0000
0100
0000
0010
0100
0000
0000
,  // measure 17
1000
0000
1000
0000
1000
0200
0001
0000
1300
0000
0010
0000
0010
0100
0000
0000
,  // measure 18
0001
0010
0001
0010
0000
0000
0100
1000
0100
1000
0000
0000
1000
0000
0010
0000
0100
0000
0001
0000
0010
0000
0100
0000
,  // measure 19
0220
0330
0000
0000
0000
0000
0000
0000
0000
0000
0000
0000
0000
0000
0000
0000
0000
0000
0000
0000
0000
0000
0000
0000
0110
0000
0000
0000
0000
0000
0000
0000
0000
0000
0000
0000
0000
0000
0000
0000
0000
0000
0000
0000
0000
0000
0000
0000
2002
3003
0000
0000
0000
0000
0000
0000
0000
0000
0000
0000
1000
0000
0000
0000
0000
0000
0000
0000
0000
0000
0000
0000
1000
0000
0000
0000
0000
0000
0000
0000
0000
0000
0000
0000
0000
0000
0000
0000
0000
0000
0000
0000
0000
0000
0000
0000
0002
0003
0000
0000
0000
0000
0000
0000
0000
0000
0000
0000
0000
0000
0000
0000
0000
0000
0000
0000
0000
0000
0000
0000
0000
0000
0000
0000
0000
0000
0000
0000
0000
0000
0000
0000
0000
0000
0000
0000
0000
0000
0000
0000
0000
0000
0000
0000
2002
3003
0000
0000
0000
0000
0000
0000
0000
0000
0000
0000
0000
0000
0000
0000
0000
0000
0000
0000
0000
0000
0000
0000
0000
0000
0000
0000
0000
0000
0000
0000
0000
0000
0000
0000
0000
0000
0000
0000
0000
0000
0000
0000
0000
0000
0000
0000
,  // measure 20
1010
0000
0000
0011
0000
0000
1100
0000
2010
0000
0000
0000
3100
0010
0100
0100
,  // measure 21
0010
0001
0010
0001
0010
0001
0100
0001
1000
1000
1000
1000
1000
0010
0100
0100
,  // measure 22
0010
1000
0010
1000
0010
1000
0100
1000
0001
0010
0100
1000
0010
0100
0010
0010
,  // measure 23
0100
0001
0100
0001
0100
0001
0010
0001
1000
1000
1000
1000
0100
0010
0010
0100
,  // measure 24
0010
0010
0100
0010
0001
0010
0100
1000
0010
0100
0110
0000
0100
0010
0100
0100
,  // measure 25
0010
1000
0010
1000
0010
1000
0100
1000
0001
0001
0001
0001
0001
0010
0100
0100
,  // measure 26
0010
0001
0010
0001
0010
0001
0100
0001
1000
0010
0100
0001
0010
0010
0100
0010
,  // measure 27
0100
1000
0100
1000
0100
0100
0010
0001
1000
1000
1000
1000
0010
0010
1000
1000
,  // measure 28
0100
0100
0010
0010
0001
0001
0100
0100
0010
0100
0110
0000
1000
0000
1000
0100
,  // measure 29
1000
0000
0001
0000
1000
0000
0100
0000
1000
0100
0010
0000
0010
0000
0010
0001
,  // measure 30
1000
0000
0010
0000
0010
0000
0100
0000
0001
0100
0001
0000
1000
0000
1000
0100
,  // measure 31
0010
0000
0010
0000
0001
0000
0001
0000
0001
0100
0001
0000
1000
0100
0010
0100
,  // measure 32
0010
0000
0000
0000
0000
0000
0100
0000
0000
0000
0000
0000
1000
0000
0010
0000
1000
0000
0010
0000
0000
0000
0000
0000
0200
0000
0000
0000
0000
0000
0001
0000
0000
0000
0000
0000
0301
0000
0000
0000
0000
0000
0001
0000
0000
0100
0000
0000
,  // measure 33
0001
0000
0010
0000
0100
0000
0100
0000
1000
0100
1000
0000
1001
0000
0001
0100
,  // measure 34
0010
0000
0110
0000
1010
0000
1001
0000
0001
0100
0001
0000
0100
0000
0010
1000
,  // measure 35
0100
0000
0010
0000
1000
0000
0010
0000
0001
0000
0010
0000
0001
0000
1000
0001
,  // measure 36
1000
0010
0000
0010
1000
0000
1000
0000
0010
0100
0001
0000
1000
1000
0100
0010
,  // measure 37
0001
0000
0001
1000
0000
1000
0001
0000
1000
0000
1000
0000
0010
0000
0100
0000
0001
0000
0001
1000
0000
1000
0001
0000
1000
0000
1000
0000
0100
0000
0100
0000
,  // measure 38
0010
0000
0010
0001
0000
0001
0100
0000
0010
0000
0010
0000
0010
0000
0010
0000
0010
0000
0010
0000
1000
0000
1000
0000
0001
0000
0000
0000
0001
0000
0000
0000
,  // measure 39
0001
0200
1000
0000
0301
0000
0010
0000
0010
0100
0000
0000
1000
0000
1000
0000
,  // measure 40
1000
0200
0001
0000
1300
0000
0010
0000
0100
0010
0000
0000
1000
0000
1000
0000
,  // measure 41
1000
0000
0000
0020
0000
0000
0001
0000
0000
0000
0000
0000
1030
0000
0000
0000
0000
0000
0100
0000
0000
0000
0000
0000
0100
0000
0000
0010
0000
0000
0000
0000
0000
0000
0000
0000
0001
0000
0100
0000
0001
0000
0100
0000
0000
0000
0000
0000
,  // measure 42
0010
0000
0000
0000
0000
0000
0000
0000
1000
0000
0000
0000
0000
0000
0000
0000
0010
0000
0000
0000
0000
0000
0000
0000
1000
0000
0000
0000
0000
0000
0000
0000
0000
0000
0000
0000
0000
0000
0000
0000
0000
0000
0000
0000
0000
0000
0000
0000
1000
0000
0000
0000
0000
0000
0000
0000
0000
0000
0000
0000
0000
0000
0000
0000
0100
0000
0000
0000
0000
0000
0000
0000
0000
0000
0000
0000
0000
0000
0000
0000
0010
0000
0000
0000
0000
0000
0000
0000
0000
0000
0000
0000
0000
0000
0000
0000
0001
0000
0000
0000
0000
0000
0000
0000
0000
0000
0000
0000
0000
0000
0000
0000
0100
0000
0000
0000
0000
0000
0000
0000
0000
0000
0000
0000
0000
0000
0000
0000
0010
0000
0000
0000
0000
0000
0000
0000
0000
0000
0000
0000
0000
0000
0000
0000
0220
0330
0000
0000
0000
0000
0000
0000
0000
0000
0000
0000
0000
0000
0000
0000
0000
0000
0000
0000
0000
0000
0000
0000
0110
0000
0000
0000
0000
0000
0000
0000
0000
0000
0000
0000
0000
0000
0000
0000
0000
0000
0000
0000
0000
0000
0000
0000
,  // measure 43
2002
3003
0000
0000
1000
0000
0000
0000
1000
0000
0000
0000
0000
0000
0000
0000
0002
0003
0000
0000
0000
0000
0000
0000
0000
0000
0000
0000
0000
0000
0000
0000
2002
3003
0000
0000
0000
0000
0000
0000
0000
0000
0000
0000
0000
0000
0000
0000
0011
0000
0000
0000
0000
0000
0000
0000
0000
0000
0000
0000
1010
0000
0000
0000
,  // measure 44
0000
0000
0000
0000
0000
0000
0000
0000
0000
0000
0000
0000
0000
0000
0000
0000
0000
0000
0000
0000
0000
0000
0000
0000
0101
0000
0000
0000
0000
0000
0000
0000
0000
0000
0000
0000
0000
0000
0000
0000
0000
0000
0000
0000
0000
0000
0000
0000
0011
0000
0000
0000
0000
0000
0000
0000
0000
0000
0000
0000
0000
0000
0000
0000
0000
0000
0000
0000
0000
0000
0000
0000
0000
0000
0000
0000
0000
0000
0000
0000
0000
0000
0000
0000
1100
0000
0000
0000
0000
0000
0000
0000
0000
0000
0000
0000
0000
0000
0000
0000
0000
0000
0000
0000
0000
0000
0000
0000
0000
0000
0000
0000
0000
0000
0000
0000
0000
0000
0000
0000
1020
0000
0000
0000
0000
0000
0000
0000
0000
0000
0000
0000
0000
0000
0000
0000
0000
0000
0000
0000
0000
0000
0000
0000
0000
MM0M
0000
0000
0000
0000
0000
0000
0000
0000
0000
0000
0000
0000
0000
0000
0000
0000
0000
0000
0000
0000
0000
0000
0000
0000
0000
0000
0000
0000
0000
0000
0000
0000
0000
0000
0000
0000
0000
0000
0000
0000
0000
0000
0000
0030
0000
0000
,  // measure 45
1M0M
0010
0100
0100
0010
1000
0010
1000
0010
1000
0100
1000
0001
0001
0001
0001
,  // measure 46
0001
0010
0100
0100
0010
0001
0010
0001
0010
0001
0100
0001
1000
0010
0100
0001
,  // measure 47
0010
0100
0010
0010
0100
1000
0100
1000
0100
1000
0010
1000
0001
0001
0001
0001
,  // measure 48
0100
0010
0010
0100
0010
0010
0100
0010
1000
0010
0100
0001
0010
0100
0110
0000
,  // measure 49
0100
0010
0100
0100
0010
0001
0010
0001
0010
0001
0100
0001
1000
1000
1000
1000
,  // measure 50
1000
0010
0100
0100
0010
1000
0010
1000
0010
1000
0100
1000
0001
0010
0100
1000
,  // measure 51
0010
0010
0100
0010
0100
0001
0100
0001
0100
0100
0010
1000
0001
0001
0001
0001
,  // measure 52
0010
0010
0001
0001
0100
0100
0010
0010
1000
1000
0100
0100
0010
0100
0110
0000
,  // measure 53
0001
0000
1000
0100
0010
0000
0010
0000
0001
0000
0100
0000
1000
0100
0010
0000
,  // measure 54
1000
0000
0001
0100
0010
0000
1000
0000
0001
0000
0010
0000
1000
0010
0100
0000
,  // measure 55
1000
0000
0001
0100
0010
0000
0010
0000
1000
0000
0100
0000
0001
0200
0010
0000
,  // measure 56
1300
0100
0010
0001
0000
0000
0001
0100
0010
1000
0000
0000
0010
0000
0010
0000
0010
0000
0100
0000
0100
0000
0100
0000
,  // measure 57
2002
3003
0000
0000
0000
0000
0000
0000
;

//---------------dance-single - XO JA XMOD JU- Mines- NSFW-----------------
#NOTEDATA:;
#CHARTNAME:;
#STEPSTYPE:dance-single;
#DESCRIPTION:XO JA XMOD JU- Mines- NSFW-;
#CHARTSTYLE:;
#DIFFICULTY:Hard;
#METER:12;
#RADARVALUES:0.403617,0.425835,0.115458,0.020375,0.139228,416.000000,399.000000,17.000000,3.000000,5.000000,0.000000,0.000000,0.000000,0.000000,0.403617,0.425835,0.115458,0.020375,0.139228,416.000000,399.000000,17.000000,3.000000,5.000000,0.000000,0.000000,0.000000,0.000000;
#CREDIT:Karl with a K;
#NOTES:
0000
0000
0000
0000
,
0000
0000
0000
0000
,
0000
0000
0000
0000
,
0000
0000
0000
0000
,
0000
0000
0000
0000
,
0001
0000
0001
0000
0001
0000
0001
0000
0001
0000
0001
0000
0001
1000
0001
1000
,
0010
1000
0100
0100
0010
0001
0100
0000
,
0110
0010
1000
0000
1000
0010
0100
0000
,
0010
0010
0010
0000
0010
1000
0100
0000
,
0010
0000
0001
0000
0001
0000
0001
0000
0001
0000
0010
0100
0000
0000
0010
0000
,
0001
0000
0010
0000
0100
0000
0010
0001
0000
0000
0100
0000
0010
0000
1000
0000
,
1001
0001
0010
0000
0001
0010
0100
0000
,
0010
0010
0010
0000
0010
0001
0100
0000
,
1000
0100
0001
0010
1000
0001
0100
0010
,
0001
0100
0010
0200
,
0301
0100
1000
0100
0001
1000
0001
0000
,
1000
0100
0001
0100
1000
0001
1000
0000
,
0001
0010
1000
0010
0001
1000
0001
0000
,
1000
0000
0000
0010
0000
0000
0001
0000
0000
0010
0000
0000
0100
0000
0010
0000
0100
0000
0010
0000
0000
0000
0000
0000
,
0110
0000
1001
0001
1001
0000
0110
0000
,
1001
0000
0000
0001
0000
0000
0100
0000
0020
0000
0000
0000
1030
0000
1000
0000
,
0100
0000
0100
0000
1000
0000
1000
0000
0100
1000
0100
1000
0001
0000
0001
0000
,
0100
0100
0001
0001
0010
0100
1000
1000
,
0010
0000
0010
0000
1000
0000
1000
0000
0010
1000
0010
1000
0001
0000
0001
0010
,
0001
0000
0010
0000
0011
0000
0010
0000
0100
0010
0001
0000
0001
0000
0001
0000
,
0010
0000
0010
0000
0001
0000
0001
0000
0010
0001
0010
0001
1000
0000
1000
0000
,
0010
0010
1000
1000
0100
0010
0001
0001
,
0100
0000
0100
0000
0001
0000
0001
0000
0100
0001
0100
0001
1000
0000
0010
0000
,
0001
0010
1000
0100
0001
0100
1000
1000
,
0100
0000
0010
0010
0001
0000
1000
0010
,
0010
0010
0010
0100
0010
0000
1000
1000
,
0010
0000
0100
0100
0001
0000
1000
0001
,
0100
0001
1000
1000
0100
1000
0001
0001
,
0001
0010
0100
0100
1000
1000
0001
1000
,
1001
0000
0001
0000
0010
0000
0100
0000
0110
0000
0000
0000
1000
0000
1000
0100
,
0000
0010
0001
0100
0010
1000
0000
0010
,
0000
0010
0000
0000
1000
0000
0100
0000
0010
0000
0001
0000
0001
0000
0010
0000
,
1000
0010
0001
0100
1000
0100
0001
0010
,
1000
0000
0010
0000
0100
0010
0100
0010
0100
0010
0100
0000
1000
0000
0100
0000
,
0001
0100
1000
0001
1000
0000
0001
0100
,
1000
0100
0001
1000
0001
0000
1000
0010
,
0001
0010
1000
0001
1000
0000
0001
0010
,
1000
0000
0000
0010
0000
0000
0100
0000
0010
0000
0100
0000
0010
0000
0000
0000
0000
0000
0110
0000
0000
0000
0000
0000
,
1001
0000
1000
0000
1001
0000
0000
0000
0110
0000
0000
0000
1001
0000
0000
1000
,
0000
0000
0000
0000
0000
0000
0000
0000
0000
0000
0000
0000
0000
0000
0000
0000
0000
0000
0000
0000
0000
0000
0000
0000
0100
0000
0000
0000
0000
0000
0000
0000
0000
0000
0000
0000
0000
0000
0000
0000
0000
0000
0000
0000
0000
0000
0000
0000
1000
0000
0000
0000
0000
0000
0000
0000
0000
0000
0000
0000
0000
0000
0000
0000
0000
0000
0000
0000
0000
0000
0000
0000
0000
0000
0000
0000
0000
0000
0000
0000
0000
0000
0000
0000
1010
0000
0000
0000
0000
0000
0000
0000
0000
0000
0000
0000
0000
0000
0000
0000
0000
0000
0000
0000
0000
0000
0000
0000
0000
0000
0000
0000
0000
0000
0000
0000
0000
0000
0000
0000
M2M0
0000
0000
0000
0000
0000
0000
0000
0000
0000
0000
0000
0000
0000
0000
0000
0000
0000
0000
0000
0000
0000
0000
0000
0000
M0MM
0000
0000
0000
0000
0000
0000
0000
0000
0000
0000
0300
0000
0000
0000
0000
0000
0000
0000
0000
0000
0000
0000
0000
0000
0000
0000
0000
0000
0000
0000
0000
0000
0000
0000
0000
0000
0000
0000
0000
0000
0000
0000
0000
0000
0000
0000
,
0001
0000
0001
0000
0100
0000
0100
0000
0001
0000
0001
0000
0100
0001
0100
0001
,
1000
1000
0100
0100
1000
1000
0010
0100
,
0001
0000
0001
0000
0010
0000
0010
0000
0001
0000
0001
0000
0010
0001
0010
0001
,
1000
0000
1000
0010
1000
0000
0010
0000
0010
0000
0110
0000
0100
0010
1000
0000
,
1000
0000
1000
0000
0010
0000
0010
0000
1000
0000
1000
0000
0010
1000
0010
1000
,
0001
0001
0010
0010
0001
0001
0100
0010
,
1000
0000
1000
0000
0100
0000
0100
0000
1000
0000
1000
0000
0100
1000
0100
1000
,
0001
0100
1000
0100
0001
0010
1000
0010
,
0100
1000
0010
0000
0100
0001
1000
0000
,
0001
0100
0001
0000
0001
0100
0010
0000
,
0100
0100
0100
0000
0100
0001
0010
0000
,
0100
0000
0000
0100
0000
0000
0010
0000
0000
0010
0000
0000
0001
0000
1000
0000
0001
0000
1000
0000
0001
0000
1000
0000
,
0001
0000
0000
0000
;

//---------------dance-single - ----------------
#NOTEDATA:;
#CHARTNAME:;
#STEPSTYPE:dance-single;
#DESCRIPTION:;
#CHARTSTYLE:;
#DIFFICULTY:Medium;
#METER:9;
#RADARVALUES:0.298832,0.309698,0.129041,0.020375,0.016979,308.000000,289.000000,19.000000,3.000000,0.000000,0.000000,0.000000,0.000000,0.000000,0.298832,0.309698,0.129041,0.020375,0.016979,308.000000,289.000000,19.000000,3.000000,0.000000,0.000000,0.000000,0.000000,0.000000;
#CREDIT:Karl with a K;
#NOTES:
0000
0000
0000
0000
,
0000
0000
0000
0000
,
0000
0000
0000
0000
,
0000
0000
0000
0000
,
0000
0000
0000
0000
,
1000
1000
1000
0000
0001
0001
0001
0000
,
0010
0010
0100
0000
1000
0010
1000
0000
,
0001
0000
0110
0000
1000
0001
1000
0000
,
0010
0010
0100
0100
,
0001
0000
0100
0000
0010
0000
1000
0001
,
1000
0000
0001
1000
0001
0000
0010
0000
,
0001
0000
0010
0000
0100
0000
1000
0100
,
0100
0000
1000
0000
0001
0000
0001
0100
,
0100
0000
0001
0000
0010
0000
0100
0010
,
0010
0000
0010
0000
0010
2000
0000
0000
,
3001
0010
0001
0000
1000
0010
1000
0000
,
0001
0100
0001
0000
1000
0100
1000
0000
,
0010
0100
0010
0000
1000
0001
1000
0000
,
0011
1100
1010
0101
,
1001
1001
1000
0001
,
0010
0000
0100
0000
0110
0000
1000
1000
,
1000
0000
0100
0100
1000
1000
0001
0001
,
0001
0000
0100
0100
0001
0100
0001
0001
,
0001
0000
0000
0000
0100
0000
0100
0000
0001
0000
0001
0000
0010
0000
0000
0010
,
0000
0010
0000
0010
0001
0000
1000
1000
,
1000
0000
0010
0010
1000
1000
0001
0001
,
0001
0000
0010
0010
0001
0010
0001
0001
,
0001
0000
0100
0100
0001
0001
0010
0100
,
0010
0000
0100
1000
0001
0000
1000
0000
,
0100
0000
0010
0100
1000
0000
0001
0000
,
0100
0000
0010
0100
0001
0000
0010
0010
,
0010
0000
0001
0010
0100
0000
1000
1000
,
0001
0000
1000
1000
0001
0000
1000
0000
,
0010
0000
0100
0010
1000
0000
0001
0000
,
0010
0000
0100
0010
0001
0000
0100
0100
,
0000
0000
0001
0100
0010
0000
1000
0001
,
0000
1000
0000
0000
0001
0000
1000
0000
0001
0000
0000
0000
0010
0000
0000
0000
,
0100
1000
0001
0100
,
0010
0000
1000
1000
1000
1000
1000
0100
,
1000
0000
0001
0100
0001
0000
1000
0010
,
1000
0000
0001
0010
0001
0000
0100
0010
,
0100
0000
0001
1000
0001
0000
1100
0000
,
0011
0101
1010
1001
,
1001
0001
1000
0100
,
0010
0110
0220
0330
,
0001
0001
0001
0000
0100
0100
0001
0001
,
1000
1000
1000
0000
0100
0100
1000
0100
,
1000
1000
1000
0000
0100
0100
1000
1000
,
0010
0000
0000
0010
0000
0000
0010
0000
0000
0000
0010
0000
1000
0000
0000
0000
,
0001
0001
0001
0000
0010
0010
0001
0001
,
1000
1000
1000
0000
0010
0010
1000
0010
,
1000
1000
1000
0000
0100
0100
1000
1000
,
0010
0100
0010
0000
0100
0001
1000
0000
,
0001
0000
0110
0000
1000
0001
1000
0000
,
0100
0100
0010
0010
,
0001
0000
0010
0000
0100
0000
1000
0001
,
1000
0000
0000
1001
0000
0000
0010
0100
0010
0100
0000
0000
,
0110
0000
0000
0000
;

//---------------dance-single - ----------------
#NOTEDATA:;
#CHARTNAME:;
#STEPSTYPE:dance-single;
#DESCRIPTION:;
#CHARTSTYLE:;
#DIFFICULTY:Easy;
#METER:6;
#RADARVALUES:0.204719,0.251630,0.149416,0.000000,0.000000,211.000000,189.000000,22.000000,0.000000,0.000000,0.000000,0.000000,0.000000,0.000000,0.204719,0.251630,0.149416,0.000000,0.000000,211.000000,189.000000,22.000000,0.000000,0.000000,0.000000,0.000000,0.000000,0.000000;
#CREDIT:Karl with a K;
#NOTES:
0000
0000
0000
0000
,
0000
0000
0000
0000
,
0000
0000
0000
0000
,
0000
0000
0000
0000
,
0000
0000
0000
0000
,
0000
0000
0000
0000
,
0000
0000
0000
0000
,
1000
0100
1000
1000
,
0001
0100
0010
0010
,
1000
0100
0010
0100
,
1000
0100
0010
0010
,
0001
0001
0100
0100
,
0110
0010
1000
0100
,
0110
0010
0001
0100
,
0110
0110
0110
0000
,
1000
0100
1100
0000
,
0001
0100
0101
0000
,
1000
0010
1010
0000
,
0011
0110
1100
0000
,
1000
0001
1000
0001
,
0010
0000
0110
1000
,
1000
1000
1000
0001
,
0001
0001
0001
0100
,
0100
0100
0100
0010
,
0010
1000
1000
0001
,
0001
0001
0001
1000
,
1000
1000
1000
0100
,
0100
0100
0100
0010
,
0001
0100
0001
1000
,
1000
0100
0100
0010
,
0001
0100
0010
1000
,
1000
0010
0010
0100
,
0001
0010
0010
0001
,
0001
0100
0100
0010
,
1000
0100
0010
0001
,
0001
0010
0010
0100
,
1000
0010
0010
1000
,
1000
1000
1000
0001
,
0001
0000
0010
0010
0010
0000
0001
0000
,
0100
0101
0000
1000
,
0100
1100
0000
0001
,
0010
0011
0000
1010
,
0110
0101
0000
0001
,
1000
0001
1000
0010
,
0000
0110
0000
0000
,
0001
0001
0001
0001
,
1000
1000
1000
1000
,
0010
0010
0010
0010
,
0100
0100
0001
0001
,
1000
1000
1000
1000
,
0001
0001
0001
0001
,
0010
0010
0010
0010
,
0100
1000
0010
1000
,
0001
0100
0001
0001
,
1000
0100
0010
0010
,
0001
0100
0010
0100
,
0001
0100
0110
0110
,
1001
0000
0000
0000
;

//---------------dance-single - ----------------
#NOTEDATA:;
#CHARTNAME:;
#STEPSTYPE:dance-single;
#DESCRIPTION:;
#CHARTSTYLE:;
#DIFFICULTY:Beginner;
#METER:2;
#RADARVALUES:0.086351,0.154849,0.006792,0.000000,0.000000,89.000000,88.000000,1.000000,0.000000,0.000000,0.000000,0.000000,0.000000,0.000000,0.086351,0.154849,0.006792,0.000000,0.000000,89.000000,88.000000,1.000000,0.000000,0.000000,0.000000,0.000000,0.000000,0.000000;
#CREDIT:Karl with a K;
#NOTES:
0000
0000
0000
0000
,
0000
0000
0000
0000
,
0000
0000
0000
0000
,
0000
0000
0000
0000
,
0000
0000
0000
0000
,
0000
0000
0000
0000
,
0000
0000
0000
0000
,
1000
0000
0000
0000
,
1000
0000
0000
0000
,
0001
0000
0000
0000
,
0001
0000
0001
0000
,
0010
0000
0100
0000
,
0010
0000
0100
0000
,
0010
0000
0100
0000
,
0010
0000
0100
0000
,
1000
0000
0100
0000
,
0010
0000
0001
0000
,
0100
0000
0010
0000
,
1000
1000
1000
0000
,
0001
0001
0001
0001
,
0001
0000
0000
1000
,
0000
0000
1000
1000
,
0000
0000
1000
1000
,
0000
0000
0000
1000
,
0000
1000
0000
0001
,
0000
0000
0001
0001
,
0000
0000
0001
0001
,
0000
0000
0000
0010
,
0000
0001
0000
1000
,
0000
0000
0000
0100
,
0000
0000
0000
0010
,
0000
0000
0000
0001
,
0000
0000
0000
0001
,
0000
0001
0000
0100
,
0000
0100
0000
0010
,
0000
0010
0000
1000
,
0000
1000
0000
0000
,
0000
0000
0000
0000
,
0000
0000
0000
0001
,
0000
0100
0000
0010
,
0000
1000
0000
0100
,
0000
0010
0000
0001
,
0001
0001
0000
1000
,
1000
1000
1000
1000
,
0000
0000
0000
0000
,
0001
0000
0000
0001
,
0001
0000
0000
0001
,
0001
0000
0000
0000
,
0001
0000
0001
0000
,
1000
0000
0000
1000
,
1000
0000
0000
1000
,
1000
0000
0000
0000
,
0010
0000
1000
0000
,
1000
0000
0000
0000
,
0100
0000
0000
0000
,
0010
0000
0000
0000
,
0001
0001
0001
0000
,
1001
0000
0000
0000
;
