#VERSION:0.83;
#TITLE:Out of Style;
#SUBTITLE:;
#ARTIST:Limp Bizkit;
#TITLETRANSLIT:;
#SUBTITLETRANSLIT:;
#ARTISTTRANSLIT:;
#GENRE:;
#ORIGIN:;
#CREDIT:Karl with a K;
#BANNER:Out of Style banner.png;
#BACKGROUND:Out of Style bg.png;
#PREVIEWVID:;
#JACKET:Out of Style jk.png;
#CDIMAGE:;
#DISCIMAGE:;
#LYRICSPATH:;
#CDTITLE:;
#MUSIC:Out of Style.ogg;
#OFFSET:0.000000;
#SAMPLESTART:69.303795;
#SAMPLELENGTH:15.000000;
#SELECTABLE:YES;
#BPMS:0.000=19.750,
7.000=79.000,
39.000=39.500,
55.000=79.000;
#STOPS:130.000=2.278;
#DELAYS:;
#WARPS:;
#TIMESIGNATURES:0.000=4=4;
#TICKCOUNTS:0.000=4;
#COMBOS:0.000=1;
#SPEEDS:0.000=1.000=0.000=0;
#SCROLLS:0.000=0.000,
6.750=1.000;
#FAKES:;
#LABELS:0.000=Song Start;
#BGCHANGES:0.625=Out of Style.mp4=1.000=0=0=1=====,
99999=-nosongbg-=1.000=0=0=0 // don't automatically add -songbackground-
;
#KEYSOUNDS:;
#ATTACKS:
;

//---------------dance-single - XO DS JA- XMOD BU- JU----------------
#NOTEDATA:;
#CHARTNAME:;
#STEPSTYPE:dance-single;
#DESCRIPTION:XO DS JA- XMOD BU- JU;
#CHARTSTYLE:;
#DIFFICULTY:Challenge;
#METER:14;
#RADARVALUES:0.408038,0.386641,0.355292,0.842947,0.522488,410.000000,359.000000,51.000000,121.000000,0.000000,0.000000,0.000000,0.000000,0.000000,0.408038,0.386641,0.355292,0.842947,0.522488,410.000000,359.000000,51.000000,121.000000,0.000000,0.000000,0.000000,0.000000,0.000000;
#CREDIT:Karl with a K;
#NOTES:
0000
0000
0000
0000
,
0000
0000
0000
0000
0000
0000
1100
0021
,
0031
0100
0000
0020
0032
0023
0130
0000
0001
0100
0000
0001
0101
0000
1020
0000
,
1030
0000
0000
0100
0000
0000
0000
0000
0000
0020
0000
0000
2030
0000
0000
3020
0000
0000
0130
0000
0000
0000
0000
0000
0002
0000
0203
0000
0302
0000
0203
0000
0000
0000
0000
0000
1300
0000
0000
0000
0000
0000
0201
0000
0000
0000
0000
0000
,
0301
0010
0000
0200
0302
0203
0310
0000
0001
0010
0000
0001
0011
0000
1200
0000
,
1300
0000
0000
0010
0000
0000
0000
0000
0000
0200
0000
0000
2300
0000
0000
3200
0000
0000
0310
0000
0000
0000
0000
0000
0002
0000
0023
0000
0032
0000
0023
0000
0000
0000
0000
0000
1030
0000
0000
0000
0000
0000
0201
0000
0000
0000
0000
0000
,
0301
0000
0010
0000
0001
0010
0200
0000
0301
0000
0001
0000
0100
0000
0000
0000
0010
0000
0001
0000
0000
0000
0001
0000
0011
0000
0000
0000
1200
0000
0000
0000
,
1300
0000
0000
0010
0000
0000
0000
0000
0000
0100
0000
0000
0100
0000
0000
0100
0000
0000
0010
0000
0000
0000
0000
0000
0002
0000
0023
0000
0032
0000
0023
0000
0000
0000
0000
0000
1030
0000
0000
0000
0000
0000
0021
0000
0000
0000
0000
0000
,
0031
0000
0100
0000
0001
0100
0020
0000
0032
0000
2003
0000
3100
0000
0000
0000
0001
0000
0010
0000
0000
0000
0100
0000
0110
0000
0000
0000
0021
0000
0000
0000
,
0031
0000
0000
0010
0000
0000
0000
0000
0000
0200
0000
0000
0302
0000
0000
2003
0000
0000
3010
0000
0000
0000
0000
0000
0002
0000
0203
0000
0302
0000
0203
0000
0000
0000
0000
0000
0320
0000
0000
0000
0000
0000
0000
0000
0000
0000
0000
0000
,
0100
0100
2030
0100
0100
0000
3002
0000
,
1000
0000
1000
0000
0203
0000
0001
0000
0001
0000
0300
0000
0120
2000
0030
3200
,
0000
0320
0000
0000
0032
0010
0010
0000
0000
1000
1000
0000
0003
0002
0000
0203
,
0000
0320
0000
0000
2030
0001
0001
3002
0003
2020
3030
0000
0101
0000
0021
0000
,
0130
1100
0000
0100
0001
0100
1000
0000
0001
1000
0000
0100
1100
0000
1020
0000
,
0130
0000
0000
0101
0000
0000
0000
0000
0000
0100
0000
0000
1000
0000
0000
0100
0000
0000
0001
0000
0000
0000
0000
0000
0020
0000
0230
0000
0320
0000
0230
0000
0000
0000
0000
0000
1300
0000
0000
0000
0000
0000
0201
0000
0000
0000
0000
0000
,
0310
1010
0000
0010
0001
0010
1000
0000
0001
1000
0000
0010
1010
0000
1200
0000
,
0310
0000
0000
0011
0000
0000
0000
0000
0000
0010
0000
0000
1000
0000
0000
0010
0000
0000
0001
0000
0000
0000
0000
0000
0200
0000
0320
0000
0230
0000
0320
0000
0000
0000
0000
0000
0230
0000
0000
0000
0000
0000
1000
0000
0000
0300
0000
0000
,
0100
0201
0000
0010
0302
0100
2003
0000
3100
0110
0000
0010
0210
0000
0001
0300
,
0100
0000
0000
1200
0000
0000
0000
0000
0000
0010
0000
0000
2300
0000
0000
0100
0000
0000
3002
0000
0000
0000
0000
0000
0023
0000
0230
0000
0320
0000
0230
0000
0000
0000
0000
0000
0320
0000
0000
0000
0000
0000
1000
0000
0000
0000
0000
0000
,
0031
0201
0000
0010
0302
0010
2003
0000
3010
0110
0000
0100
0120
0000
0001
0000
,
1030
0000
0000
1200
0000
0000
0000
0000
0000
0010
0000
0000
2300
0000
0000
0010
0000
0000
3002
0000
0000
0000
0000
0000
0023
0000
0230
0000
0320
0000
0230
0000
0000
0000
0000
0000
0310
0000
0000
0001
0000
0000
1000
0000
0000
0010
0000
0000
,
0100
0010
1000
0001
2000
0000
3010
0000
1001
0000
1000
0000
0010
1000
0001
0010
,
0100
0010
0001
1000
0002
0000
0013
0000
1001
0000
0001
0000
0010
0001
0100
0010
,
1000
0100
0010
0001
2000
0000
3100
0000
1001
0000
1000
0000
0010
1000
0100
0010
,
0001
0000
0100
0000
0010
0000
1000
0000
0002
0000
0100
0000
0000
0000
1003
0001
1000
0000
1000
0000
0010
0000
0100
0000
0002
0000
0000
0000
0000
0000
0000
0000
,
0000
0200
0000
0000
0300
0000
0023
0000
,
0000
0200
0000
0000
0300
0000
0032
0000
,
0000
0020
0000
0000
0030
0000
0203
0000
,
0000
0020
0000
0000
0000
0330
1001
1000
,
0010
0000
0100
0000
0000
0000
0010
1000
0000
0000
1000
0000
0100
0000
0000
0000
0010
0000
0100
0000
0000
0000
0010
0000
0011
0000
0000
0000
0001
0000
0000
0000
,
0010
0000
0100
0000
0010
0000
0001
0000
1000
0001
1000
0001
0100
0000
0010
0000
0110
0000
0000
0000
0100
0000
0000
0000
1001
0000
0000
0000
0001
0000
0000
0000
,
0010
0000
0000
0000
0000
0000
0000
0000
0000
0000
0000
0000
0100
0000
0000
0000
0000
0000
0000
0000
0000
0000
0000
0000
0000
0000
0000
0000
0000
0000
0000
0000
0000
0000
0000
0000
1000
0000
0000
0000
0000
0000
0001
0000
0000
0000
0000
0000
0000
0000
0000
0000
0000
0000
0000
0000
0000
0000
0000
0000
0100
0000
0000
0000
0000
0000
0000
0000
0000
0000
0000
0000
0010
0000
0000
0000
0000
0000
0000
0000
0000
0000
0000
0000
0000
0000
0000
0000
0000
0000
0000
0000
0000
0000
0000
0000
0220
0330
0000
0000
0000
0000
0000
0000
0000
0000
0000
0000
0000
0000
0000
0000
0000
0000
0000
0000
0000
0000
0000
0000
0000
0000
0000
0000
0000
0000
0000
0000
0000
0000
0000
0000
0000
0000
0000
0000
0000
0000
0000
0000
0000
0000
0000
0000
0200
0000
0000
0000
0000
0000
0000
0000
0000
0000
0000
0000
0000
0000
0000
0000
0000
0000
0000
0000
0000
0000
0000
0000
0320
0000
0000
0000
0000
0000
0000
0000
0000
0000
0000
0000
0030
0000
0000
0000
0000
0000
0000
0000
0000
0000
0000
0000
,
0201
0000
2300
0000
3001
0010
0000
1000
0010
0100
0101
0000
0001
0011
0000
0010
,
1200
0000
0000
0000
0000
0000
0302
0000
0000
0000
0000
0000
1003
0000
0000
0010
0000
0000
0000
0000
0000
0001
0000
0000
0010
0000
0000
0100
0000
0000
1100
0000
0000
0000
0000
0000
1000
0000
0010
0000
0100
0000
0002
0000
0000
0000
0000
0000
,
0023
0000
2030
0000
3001
0100
0000
1000
0100
0010
0011
0000
0001
0101
0000
0100
,
1020
0000
0000
0000
0000
0000
0032
0000
0000
0000
0000
0000
1003
0000
0000
0100
0000
0000
0000
0000
0000
0001
0000
0000
0100
0000
0000
0010
0000
0000
1010
0000
0000
0000
0000
0000
1000
0000
0100
0000
0010
0000
0002
0000
0000
0000
0000
0000
,
0003
0000
0000
0000
;

//---------------dance-single - ----------------
#NOTEDATA:;
#CHARTNAME:;
#STEPSTYPE:dance-single;
#DESCRIPTION:;
#CHARTSTYLE:;
#DIFFICULTY:Hard;
#METER:11;
#RADARVALUES:0.309512,0.347977,0.146297,0.327426,0.372708,311.000000,290.000000,21.000000,47.000000,0.000000,0.000000,0.000000,0.000000,0.000000,0.309512,0.347977,0.146297,0.327426,0.372708,311.000000,290.000000,21.000000,47.000000,0.000000,0.000000,0.000000,0.000000,0.000000;
#CREDIT:Karl with a K;
#NOTES:
0000
0000
0000
0000
,
0000
0000
0000
0000
0000
0000
1100
0001
,
0000
0101
0000
0100
0010
0000
0100
0000
0001
0100
0000
0100
0001
0000
1000
0000
,
0000
1100
0000
0100
0010
0000
0100
0000
0002
0203
0310
0000
0011
0000
1000
0000
,
0000
1010
0000
0010
0100
0000
0010
0000
1000
0010
0000
0010
1000
0000
0001
0000
,
0000
0011
0000
0010
0100
0000
0010
0000
2000
3020
0130
0000
1100
0000
0001
0000
,
0000
0101
0001
0010
0100
1000
0010
0000
0100
0010
0000
0100
0001
0000
1000
0000
,
0000
1100
0000
1000
0010
0010
0010
0000
0002
0023
0130
0000
0001
0000
1000
0000
,
0000
1010
1000
0100
0010
0001
0100
0000
0010
0100
0000
0010
1000
0000
0001
0000
,
0000
0011
0000
0001
0100
0100
0100
0000
2000
3200
0310
0000
2000
0000
0000
0000
,
0100
3200
0010
0320
,
0001
0000
0000
0000
0032
0000
0000
0000
1000
0000
0000
0000
2003
0010
0000
0001
,
0000
0100
0000
0000
3002
0000
1000
0000
0000
1000
1000
0000
0000
0010
0000
1000
,
0000
0100
0000
0000
2003
0000
0001
0000
0000
0002
3003
0000
1100
0000
0001
0000
,
0100
0001
0000
0100
1000
0100
0001
0000
0100
0001
0000
0100
0001
0000
1000
0000
,
0100
1000
0000
0100
0001
0100
1000
0000
0020
2030
3001
0000
0011
0000
1000
0000
,
0010
1000
0000
0010
0001
0010
1000
0000
0010
1000
0000
0010
1000
0000
0001
0000
,
0010
0001
0000
0010
1000
0010
0001
0000
0200
0320
1030
0000
0200
0000
0010
0000
,
0000
1000
0000
1300
0001
1000
0100
0000
0010
0001
0000
0001
0200
0000
0010
0000
,
0000
0001
0000
0301
1000
0001
0100
0000
0020
0230
0301
0000
0020
0000
0100
0000
,
0000
0001
0000
0031
1000
0001
0010
0000
0001
0100
0000
0100
0020
0000
0100
0000
,
0000
1000
0000
1030
0001
1000
0100
0000
0020
0230
1300
0000
0001
0000
0010
0000
,
0100
1000
0200
0010
0310
0000
0001
0100
,
0010
1000
0020
0100
0130
0001
1000
0100
,
0010
0001
0020
0001
0031
0000
1000
0010
,
0100
0000
0001
0000
0200
0001
0000
0000
0301
0000
1000
0000
2002
0000
0000
0000
,
0000
0000
0000
3003
,
0000
0000
0000
2000
,
0000
3020
0000
0000
0000
0000
0230
0000
,
0000
0302
0000
0000
0000
0000
1003
1000
,
0010
0100
0000
0001
0000
0001
0100
0000
0010
1000
0000
1000
0001
0000
0001
0000
,
0010
0100
0000
1000
0001
1000
0100
0010
0110
0000
0000
0000
0001
0000
0001
0000
,
0100
0010
0000
1000
0000
1000
0100
0000
0110
0000
0000
0000
0000
0000
0000
0000
,
1200
0000
0010
0000
0301
0100
0000
1000
0010
0100
0001
0000
1000
0010
0000
0100
,
0201
0000
0010
0000
1300
0100
0000
0001
0010
0100
1000
0000
0020
0032
0023
1030
,
1020
0000
0100
0000
0031
0010
0000
1000
0100
0010
0001
0000
1000
0100
0000
0010
,
0021
0000
0100
0000
1030
0010
0000
0001
0100
0010
1000
0000
2002
0000
0000
0000
,
3003
0000
0000
0000
;

//---------------dance-single - ----------------
#NOTEDATA:;
#CHARTNAME:;
#STEPSTYPE:dance-single;
#DESCRIPTION:;
#CHARTSTYLE:;
#DIFFICULTY:Medium;
#METER:7;
#RADARVALUES:0.170182,0.206209,0.076632,0.125397,0.083598,171.000000,160.000000,11.000000,18.000000,0.000000,0.000000,0.000000,0.000000,0.000000,0.170182,0.206209,0.076632,0.125397,0.083598,171.000000,160.000000,11.000000,18.000000,0.000000,0.000000,0.000000,0.000000,0.000000;
#CREDIT:Karl with a K;
#NOTES:
0000
0000
0000
0000
,
0000
0000
0000
0000
0000
0000
1000
0010
,
0000
0100
0000
0000
0001
0000
0001
0000
0000
0100
0000
0000
0001
0000
0010
0000
,
0000
0100
0000
0000
1000
0000
1000
0000
0020
0000
0000
0000
1030
0000
0100
0000
,
0000
0010
0000
0000
0001
0000
0001
0000
0000
0010
0000
0000
0001
0000
0100
0000
,
0000
0010
0000
0000
1000
0000
1000
0000
0200
0000
0000
0000
1300
0000
0010
0000
,
0000
0100
0100
0100
0001
0000
1000
0100
,
0000
0010
0010
0010
0001
0000
0001
0100
,
0000
0010
0010
0010
0000
1000
0001
0000
,
0010
0100
0110
2000
,
0000
0000
0000
3002
,
0000
0000
0000
0203
,
0000
0000
0000
0320
,
0000
0000
0000
0000
0000
0030
0110
1000
,
0000
0100
0000
0000
0010
0000
0100
0000
0000
1000
0000
0000
1001
0000
0001
0000
,
0000
0100
0000
0000
0010
0000
0100
0000
0010
0000
0000
0000
0110
0000
0001
0000
,
0000
0100
0000
0000
0010
0000
0100
0000
0000
0001
0000
0000
1001
0000
1000
0000
,
0000
0100
0000
0000
0010
0000
0100
0000
0010
0000
0000
0000
0002
0000
1000
0000
,
0000
1000
0000
0000
1003
0000
0100
0000
0000
1000
0000
0000
2000
0000
0001
0000
,
0000
0001
0000
0000
3001
0000
0100
0000
0010
0000
0000
0000
2000
0000
0001
0000
,
0000
0001
0000
0000
3001
0000
0010
0000
0000
0001
0000
0000
0002
0000
1000
0000
,
0000
1000
0000
0000
1003
0000
0010
0000
0100
0000
0000
0000
0010
0000
0000
0000
,
1000
0100
0020
0000
0031
0000
0010
0000
,
0001
0100
0020
0000
1030
0000
0010
1000
,
0001
1000
0200
0000
0310
0000
0010
0001
,
1000
0001
0200
0000
0310
0000
2002
0000
,
0000
0000
0000
0000
,
0000
0000
0000
3003
,
0000
0000
0000
0000
,
0000
0000
0000
0000
0000
0000
1000
1000
,
0010
0000
0100
0000
0001
0000
1000
0001
,
0010
0000
0100
0000
0110
0000
1000
1000
,
0001
1000
1001
0000
,
0101
0000
1000
0000
0000
0100
0000
0000
0001
0000
0100
0000
0000
1000
0000
0000
,
1100
0000
0001
0000
0000
0100
0000
0000
1000
0000
0100
0000
0002
0000
0000
0000
,
1003
0000
0001
0000
0000
0010
0000
0000
1000
0000
0010
0000
0000
0001
0000
0000
,
0011
0000
1000
0000
0000
0010
0000
0000
0001
0000
0010
0000
2000
0000
0000
0000
,
3000
0000
0000
0000
;

//---------------dance-single - ----------------
#NOTEDATA:;
#CHARTNAME:;
#STEPSTYPE:dance-single;
#DESCRIPTION:;
#CHARTSTYLE:;
#DIFFICULTY:Easy;
#METER:5;
#RADARVALUES:0.112459,0.153611,0.006967,0.125397,0.000000,113.000000,112.000000,1.000000,18.000000,0.000000,0.000000,0.000000,0.000000,0.000000,0.112459,0.153611,0.006967,0.125397,0.000000,113.000000,112.000000,1.000000,18.000000,0.000000,0.000000,0.000000,0.000000,0.000000;
#CREDIT:Karl with a K;
#NOTES:
0000
0000
0000
0000
,
0000
0000
0000
1000
,
0100
0010
0100
1000
,
0100
0010
0010
0001
,
0100
0010
0100
0001
,
0100
0010
0010
1000
,
0100
0000
0010
0100
1000
0000
0001
0000
,
0100
0000
0010
0100
0010
0000
1000
0000
,
0010
0000
0100
0010
1000
0000
0001
0000
,
0010
0000
0100
0010
0100
0000
2000
0000
,
0000
0000
0000
0000
,
0000
0000
0000
3002
,
0000
0000
0000
0000
,
0000
0000
0000
0000
0000
0003
1000
0000
,
0100
0010
0001
0001
,
0100
0010
0010
1000
,
0010
0100
0001
0001
,
0010
0100
0010
0002
,
0100
2003
0100
3002
,
0100
2003
3010
2000
,
0100
3002
0100
2003
,
0100
3002
0013
0002
,
0000
0203
0000
0000
0000
0000
0320
0000
,
0000
2030
0000
0000
0000
0000
3002
0000
,
0000
0023
0000
0000
0000
0000
0230
0000
,
0000
2300
0000
0000
3000
0000
1001
0000
,
0000
0000
0000
0000
,
0000
0000
0000
0000
,
0000
0000
0000
0000
,
0000
0000
0000
1000
,
0010
0000
0000
0100
0100
0000
0001
0000
,
0010
0000
0000
0100
0100
0000
1000
0000
,
0100
0010
0001
0000
,
0100
0010
0000
0100
0010
0000
1000
0000
,
0100
0010
0000
0100
0010
0000
0010
0000
,
0001
1000
0000
0001
1000
0000
0100
0000
,
1000
0001
0000
1000
0001
1000
0010
0000
;

//---------------dance-single - ----------------
#NOTEDATA:;
#CHARTNAME:;
#STEPSTYPE:dance-single;
#DESCRIPTION:;
#CHARTSTYLE:;
#DIFFICULTY:Beginner;
#METER:1;
#RADARVALUES:0.032842,0.063569,0.000000,0.000000,0.000000,33.000000,33.000000,0.000000,0.000000,0.000000,0.000000,0.000000,0.000000,0.000000,0.032842,0.063569,0.000000,0.000000,0.000000,33.000000,33.000000,0.000000,0.000000,0.000000,0.000000,0.000000,0.000000,0.000000;
#CREDIT:Karl with a K;
#NOTES:
// measure 0
0000
0000
0000
0000
,  // measure 1
0000
0000
0000
1000
,  // measure 2
0000
0000
0000
1000
,  // measure 3
0000
0000
0000
0001
,  // measure 4
0000
0000
0000
0001
,  // measure 5
0000
0000
0000
1000
,  // measure 6
0000
0000
0000
1000
,  // measure 7
0000
0000
0000
0001
,  // measure 8
0000
0000
0000
0001
,  // measure 9
0000
0000
0000
1000
,  // measure 10
0000
0000
0000
0000
,  // measure 11
0000
0000
0000
0000
,  // measure 12
0000
0000
0000
0000
,  // measure 13
0000
0000
0000
0001
,  // measure 14
0000
0000
0000
0001
,  // measure 15
0000
0000
0000
1000
,  // measure 16
0000
0000
0000
1000
,  // measure 17
0000
0000
0000
0001
,  // measure 18
0000
0000
0000
0001
,  // measure 19
0000
0000
0000
1000
,  // measure 20
0000
0000
0000
1000
,  // measure 21
0000
0000
0000
0010
,  // measure 22
0000
0000
0000
0010
,  // measure 23
0000
0000
0000
0100
,  // measure 24
0000
0000
0000
0100
,  // measure 25
0000
0000
0000
0001
,  // measure 26
0000
0000
0000
0000
,  // measure 27
0000
0000
0000
0000
,  // measure 28
0000
0000
0000
0000
,  // measure 29
0000
0000
0000
1000
,  // measure 30
0000
0000
0000
0001
,  // measure 31
0000
0000
0000
1000
,  // measure 32
0000
0000
0000
0000
,  // measure 33
1000
0000
1000
0000
,  // measure 34
1000
0000
1000
0000
,  // measure 35
0001
0000
0001
0000
,  // measure 36
0001
0000
0001
0000
;
