#VERSION:0.83;
#TITLE:Noël;
#SUBTITLE:;
#ARTIST:モリモリあつし vs. uma;
#TITLETRANSLIT:;
#SUBTITLETRANSLIT:;
#ARTISTTRANSLIT:Morimori Atsushi vs. uma;
#GENRE:;
#ORIGIN:VOEZ;
#CREDIT:;
#BANNER:Noel banner.png;
#BACKGROUND:Noel bg.png;
#PREVIEWVID:;
#JACKET:Noel jk.png;
#CDIMAGE:;
#DISCIMAGE:;
#LYRICSPATH:;
#CDTITLE:;
#MUSIC:Noel.ogg;
#OFFSET:0.000000;
#SAMPLESTART:52.636364;
#SAMPLELENGTH:15.000000;
#SELECTABLE:YES;
#BPMS:0.000=220.000,
99.000=110.000,
183.000=220.000,
207.000=110.000,
237.000=220.000,
273.000=110.000,
300.000=220.000;
#STOPS:;
#DELAYS:;
#WARPS:;
#TIMESIGNATURES:0.000=3=4;
#TICKCOUNTS:0.000=4;
#COMBOS:0.000=1;
#SPEEDS:0.000=1.000=0.000=0;
#SCROLLS:0.000=1.000,
300.000=0.000,
300.500=2.000,
301.000=1.000;
#FAKES:;
#LABELS:0.000=Song Start;
#BGCHANGES:;
#KEYSOUNDS:;
#ATTACKS:
;

//---------------dance-single - XO DS+ JA XMOD FL BU+ TS- JU----------------
#NOTEDATA:;
#CHARTNAME:;
#STEPSTYPE:dance-single;
#DESCRIPTION:XO DS+ JA XMOD FL BU+ TS- JU;
#CHARTSTYLE:;
#DIFFICULTY:Challenge;
#METER:19;
#RADARVALUES:0.914724,1.293550,0.388065,0.934230,0.991721,891.000000,837.000000,54.000000,130.000000,0.000000,0.000000,0.000000,0.000000,0.000000,0.914724,1.293550,0.388065,0.934230,0.991721,891.000000,837.000000,54.000000,130.000000,0.000000,0.000000,0.000000,0.000000,0.000000;
#CREDIT:Karl with a K;
#NOTES:
0000
0000
0000
0000
,
0000
0000
0000
0000
,
0000
0000
0000
0000
,
0000
0000
0000
0000
,
0000
0000
0000
0000
,
0000
0000
0000
0000
,
0000
0000
0000
2100
,
0001
0000
3010
0100
0202
0000
0300
0000
,
1003
0000
2010
0000
0001
0000
3100
0010
,
0001
0000
0000
0010
0000
0000
0001
0000
0000
0010
0000
0000
0100
0000
1000
0000
0100
0000
1000
0000
0000
0000
0000
0000
0001
0000
0100
0000
0001
0000
0200
0000
0000
0000
0000
0000
0320
0000
0000
1000
0000
0000
0000
0000
0000
0000
0000
0000
,
0230
0000
0000
0000
0302
0000
0000
0000
0023
0000
0000
0000
0130
1000
0000
0000
,
0100
0010
0100
0010
0000
0000
1001
0000
0000
0000
0000
0000
0000
0000
0000
0000
0000
0000
0000
0000
0000
0000
0000
0000
,
1010
0000
0000
0000
1000
0100
0010
0001
1000
0010
0100
0001
2000
0000
0100
0000
,
3002
0100
2003
0010
3002
0010
2003
0010
,
3002
0100
2003
0010
3002
0010
2003
0010
,
3002
0010
0000
1000
0000
0000
0203
0000
0000
0001
0000
0000
0320
0000
0000
1030
0000
0000
0002
0000
0000
0100
0000
0000
,
2003
0100
3002
0010
2003
0010
3002
0010
,
2003
0100
3002
0010
2003
0010
3002
0010
,
2003
0000
0010
0000
0000
0000
0001
0000
0000
0000
0000
0000
3200
0000
0000
0000
0000
0000
1000
0000
0000
0000
0000
0000
0320
0000
0000
0000
0000
0000
0031
0000
0000
0100
0000
0000
0020
0000
0000
0000
0000
0000
1000
0000
0000
0000
0000
0000
,
0230
0001
0320
1000
0230
1000
0320
0001
,
0230
0000
0301
1000
0200
0000
1000
0000
0320
0000
0001
0000
0230
0000
1000
0000
,
0320
0000
1000
0000
0000
0000
0130
0000
0000
0010
0000
0000
0001
0000
0010
0000
0001
0000
0010
0000
0000
0000
0000
0000
0001
0000
0100
0000
0010
0000
0100
0000
0000
0000
0000
0000
0110
0000
0000
0000
0000
0000
0000
0000
0000
0000
0000
0000
,
0010
0000
0000
0000
1000
0000
0100
0010
0110
0000
0000
0000
0100
0000
0000
0000
,
0010
0000
0000
0000
0000
0000
0001
0000
0000
0010
0000
0000
0001
0000
0000
0000
0100
0000
0000
0000
0010
0000
0000
0000
1000
0000
0000
0000
0100
0000
0000
0000
0010
0000
0000
0000
0001
0000
0000
0000
0100
0000
0000
0000
0010
0000
0000
0000
,
2000
0000
0100
0000
3001
0100
0001
0100
0020
0000
0000
0000
0130
0000
0010
0000
,
0000
0000
1000
0001
1000
0000
0000
0000
0010
0000
0000
0000
0001
0000
0000
0000
0010
0000
0000
0000
1000
0000
0000
0000
0001
0000
0000
0000
0010
0000
0000
0000
,
0100
0000
1000
0100
0010
0000
0100
0000
0000
0000
0010
0000
0001
0000
0000
0000
,
0100
0000
0000
0000
0010
0000
0000
0000
0000
0000
0000
0000
0100
0000
0000
0000
0001
0000
0000
0000
0000
0000
0000
0000
1000
0000
0000
0000
0002
0000
1003
0001
,
1000
0000
0000
0000
0000
0000
0000
0000
0100
0000
0000
0000
0000
0000
0000
0000
1000
0000
0000
0000
0000
0000
0000
0000
0100
0000
0000
0000
0000
0000
0000
0000
0000
0000
0000
0000
0000
0000
0000
0000
0000
0000
0000
0000
0000
0000
0000
0000
0010
0000
0000
0000
0000
0000
0000
0000
0000
0000
0000
0000
0001
0000
0000
0000
0000
0000
0000
0000
0000
0000
0000
0000
0010
0000
0000
0000
0000
0000
0000
0000
0000
0000
0000
0000
0001
0000
0000
0000
0000
0000
0000
0000
0000
0000
0000
0000
1000
0000
0000
0000
0000
0000
0000
0000
0000
0000
0000
0000
0000
0000
0000
0000
0000
0000
0000
0000
0000
0000
0000
0000
0001
0000
0000
0000
0000
0000
1000
0000
0000
0000
0000
0000
0001
0000
0000
0000
0000
0000
1000
0000
0000
0000
0000
0000
0001
0000
0000
0000
0000
0000
0100
0000
0000
0000
0000
0000
0001
0000
0000
0000
0000
0000
0100
0000
0000
0000
0000
0000
0010
0000
0000
0000
0000
0000
0000
0000
0000
0000
0000
0000
0000
0000
0000
0000
0000
0000
0000
0000
0000
0000
0000
0000
,
2000
0000
3020
0000
2030
0000
3020
0000
1030
0000
0000
0000
1000
0000
0000
0000
1000
0000
0000
0001
1000
0000
0000
0000
0001
0000
0001
0000
0001
0000
0010
0001
,
0010
0000
0000
0000
0000
0000
0000
0000
0000
0000
0000
0000
0100
0000
0000
0000
0000
0000
0000
0000
0000
0000
0000
0000
0100
0000
0000
0000
0000
0000
0000
0000
0000
0000
0000
0000
0001
0000
0000
0000
0000
0000
0000
0000
0000
0000
0000
0000
0100
0000
0000
0000
0000
0000
0000
0000
0000
0000
0000
0000
0010
0000
0000
0000
0000
0000
0000
0000
0000
0000
0000
0000
0100
0000
0000
0000
0000
0000
0010
0000
0000
0000
0000
0000
0100
0000
0000
0000
0000
0000
0010
0000
0000
0000
0000
0000
0100
0000
0000
0000
0010
0000
0000
0000
0100
0000
0000
0000
0010
0000
0000
0000
0000
0000
0000
0000
0000
0000
0000
0000
0001
0000
0000
0000
1000
0000
0000
0000
0001
0000
0000
0000
1000
0000
0000
0000
0000
0000
0000
0000
0000
0000
0000
0000
2100
0000
0000
0000
0000
0000
0000
0000
0000
0000
0000
0000
0000
0000
0000
0000
0000
0000
0000
0000
0000
0000
0000
0000
3001
0000
0000
0000
0000
0000
0000
0000
0000
0000
0000
0000
0100
0000
0000
0000
0000
0000
0000
0000
0000
0000
0000
0000
,
0010
0000
0100
0001
1000
0000
1000
0000
0010
0000
0100
0010
1000
0000
0000
0000
2000
0000
0000
0000
3100
0000
0010
0000
0100
0000
0000
0000
1000
0000
1000
0000
,
0100
0000
0010
0100
0010
0000
0001
0000
2001
0000
0000
0000
3100
0000
0010
0000
0110
0000
0000
0000
1001
0000
0001
0000
0100
0000
0010
0100
0010
0000
0000
0000
,
2010
0000
0000
0000
3100
0000
0010
0000
0110
0000
0000
0000
0011
0000
0001
0000
0100
0000
0010
0100
0010
0100
0001
0010
0002
0000
0000
0000
1003
0000
0010
0000
,
0100
0000
0010
1000
0001
0000
0001
0000
0100
0000
0010
0100
0001
0000
0000
0000
0002
0000
0000
0000
0013
0000
0100
0000
0010
0000
0001
0000
1000
0000
0001
0000
,
0010
0000
0000
0000
0000
0000
0000
0000
0000
0000
0000
0000
0100
0000
0000
0000
0000
0000
0010
0000
0000
0000
0000
0000
0100
0000
0000
0000
0000
0000
0000
0000
0000
0000
0000
0000
1000
0000
0000
0000
0000
0000
0000
0000
0000
0000
0000
0000
1002
0000
0000
0000
0000
0000
0000
0000
0000
0000
0000
0000
0000
0000
0000
0000
0000
0000
0000
0000
0000
0000
0000
0000
0013
0000
0000
0000
0000
0000
0000
0000
0000
0000
0000
0000
0002
0000
0000
0000
0000
0000
0000
0000
0000
0000
0000
0000
0103
0000
0000
0000
0000
0000
0000
0000
0000
0000
0000
0000
0000
0000
0000
0000
0000
0000
0000
0000
0000
0000
0000
0000
1001
0000
0000
0000
0000
0000
0000
0000
0000
0000
0000
0000
1000
0000
0000
0000
0000
0000
0000
0000
0000
0000
0000
0000
0010
0000
0000
0000
1000
0000
0000
0000
0010
0000
0000
0000
1000
0000
0000
0000
0000
0000
0000
0000
0000
0000
0000
0000
0100
0000
0000
0000
0010
0000
0000
0000
0100
0000
0000
0000
0010
0000
0000
0000
0000
0000
0000
0000
0000
0000
0000
0000
,
0110
0000
0000
0000
0000
0000
0000
0000
0000
0100
0000
0000
0010
0001
0100
0010
1000
0100
0020
0000
0000
0001
0000
0000
,
0100
0000
0000
0000
0000
0000
0031
0000
0000
0000
0000
0000
0100
0000
0000
0000
0000
0000
0020
0000
0000
0000
0000
0000
0032
0000
0000
0000
0000
0000
0013
0100
0010
0200
0000
0000
0302
0000
0000
0000
0000
0000
0203
0000
0000
0000
0000
0000
,
0301
1000
1010
0000
0020
0000
1000
0000
0100
0000
1030
0000
0100
0000
0020
0000
,
2030
0000
0000
0000
0000
0000
3010
0100
0010
0200
0000
0000
2300
0000
0000
0000
0000
0000
3100
0000
0000
0100
0000
0000
1000
0000
0000
0000
0000
0000
1001
0000
0000
0000
0000
0000
1200
0000
0000
0000
0000
0000
1000
0000
0000
0000
0000
0000
,
0010
0000
0000
0000
0000
0000
1300
0000
0000
0000
0000
0000
0010
0000
0000
0000
0000
0000
0210
0000
0000
0000
0000
0000
2300
0000
0000
0000
0000
0000
3100
0010
0100
0020
0000
0000
2030
0000
0000
0000
0000
0000
3020
0000
0000
0000
0000
0000
,
1030
0001
0101
0000
0210
0000
0301
0100
0010
0100
0001
0000
0010
0000
0210
0000
,
0302
0000
0000
0000
0000
0000
0103
0010
0100
0020
0000
0000
0032
0000
0000
0000
0000
0000
0013
0000
0000
0000
0000
0000
0010
0000
0000
0000
0000
0000
0010
0000
0000
0000
0000
0000
1001
0000
0000
0000
0000
0000
1000
0000
0000
0100
0000
0000
,
0010
0100
0001
0000
1000
0000
0010
0000
0001
0000
1000
0010
0100
0010
0001
0000
,
1000
0000
0000
0100
0010
0100
0010
0000
0000
1000
0000
0000
1001
0000
0000
0000
0000
0000
0001
0000
0000
0100
0000
0000
0010
0000
0000
0100
0000
0000
1000
0000
0000
0000
0000
0000
0001
0000
0000
0000
0000
0000
0010
0000
0000
0000
0000
0000
,
1000
0000
0000
0000
0001
0000
0010
0100
0010
0000
1000
0000
0001
0000
0000
0000
1001
0000
0001
0000
0100
0000
0000
0000
0110
0000
0000
0000
0000
0000
0000
0000
,
0001
0100
1000
0001
0010
0000
0001
0010
,
1000
0100
1001
0000
1000
0100
0001
1000
,
0010
0000
0000
0000
0000
0000
0000
0000
0000
1000
0000
0000
0010
0000
0000
0000
0000
0000
0001
0000
0000
0000
0000
0000
0100
0000
0000
0010
0000
0000
0100
0000
0010
0000
0100
0000
0001
0000
0000
0100
0000
0000
0000
0000
0000
0000
0000
0000
,
0001
0000
0000
0000
0010
0000
0100
0000
0010
0000
0000
0000
0001
1000
0000
0000
,
0001
1000
0001
1000
0000
0000
0001
0000
0000
0000
0000
0000
1100
0000
0000
0000
0000
0000
0101
0000
0000
0000
0000
0000
,
0001
0100
0010
1000
0001
0010
0100
1000
0010
0100
0001
0010
0002
0000
0000
0000
,
0203
0320
2030
3100
0200
0000
0320
0032
,
0000
1003
2000
0000
3100
0020
0032
0203
,
0302
0000
0000
0000
0000
0000
1003
0000
0001
0000
1000
0001
0010
0000
0100
0000
,
1000
0010
0100
0010
0100
0001
1000
0100
,
1000
0000
0000
0000
0000
0000
0001
0000
0000
0000
0000
0000
0100
0000
0000
0000
0000
0000
0000
0000
0000
0000
0000
0000
0010
0000
0000
1000
0000
0000
0001
0000
1000
0000
0100
0000
1000
0000
0000
0000
0000
0000
0000
0000
0000
0100
0000
0000
,
0020
0000
0000
0000
0000
0000
0000
0000
0000
0000
0000
0000
0031
0010
0000
0001
0010
0100
1000
0010
0100
0000
0000
0000
0210
0000
0000
0000
0000
0000
0000
0000
,
0301
0000
0000
0001
0100
0000
0000
0000
0110
0000
0000
0000
0101
0000
0000
0000
1100
0000
1000
0000
0001
0000
0001
0000
0010
0100
0010
0100
1000
0000
0000
1000
,
0001
0000
0001
0000
1000
0001
1000
0001
2000
0000
0000
0000
0000
0000
0000
0000
3100
0000
0000
0000
1000
0000
0000
0000
0001
0000
0000
0000
0000
0000
0000
0000
,
0100
0020
0000
0000
2030
0000
0000
0000
3100
0000
0000
0000
0110
0000
0001
0000
,
1000
0000
1001
0000
0001
0000
0100
0000
0010
0100
0001
0100
0010
1000
0001
0010
,
0100
1000
0010
0100
0002
0010
0000
0000
2003
0000
0100
0000
3002
0000
0100
0000
,
2003
0001
3020
0100
2030
0100
3002
0100
,
2003
0100
3002
1000
0023
0001
0230
1000
,
0320
0000
0031
1000
1001
0000
0000
0000
0000
0000
0000
0000
0001
0000
1000
0000
,
0001
0000
0100
0000
0010
0000
0110
0000
0000
0000
0000
0000
0000
0000
0000
1000
0000
0000
1001
0000
0000
0001
0000
0000
,
0001
0000
0000
0000
0000
0000
0001
0000
0000
0000
0000
0000
1000
0000
0000
0000
0000
0000
1000
0000
0000
0000
0000
0000
0100
0000
0000
0010
0000
0000
0100
0000
0000
0010
0000
0000
0001
0000
0100
0000
0001
0000
0100
0000
0000
0000
0000
0000
,
0010
0000
0000
0000
0000
0000
0000
0000
0100
0000
0000
0000
0000
0000
0000
0000
0010
0000
0000
0000
0000
0000
0000
0000
0100
0000
0000
0000
0000
0000
0000
0000
0010
0000
0000
0000
0000
0000
0000
0000
0100
0000
0000
0000
0000
0000
0000
0000
0001
0000
0000
0000
0000
0000
0000
0000
0000
0000
0000
0000
0000
0000
0000
0000
0000
0000
0000
0000
0000
0000
0000
0000
0100
0000
0000
0000
0000
0000
0000
0000
0000
0000
0000
0000
0000
0000
0000
0000
0000
0000
0000
0000
0000
0000
0000
0000
0001
0000
0000
0000
0000
0000
0000
0000
0000
0000
0000
0000
0000
0000
0000
0000
0000
0000
0000
0000
0000
0000
0000
0000
0010
0000
0000
0000
0000
0000
0000
0000
0000
0000
0000
0000
0000
0000
0000
0000
0000
0000
0000
0000
0000
0000
0000
0000
0010
0000
0000
0000
0000
0000
0000
0000
0000
0000
0000
0000
0100
0000
0000
0000
0000
0000
0010
0000
0000
0000
0000
0000
0001
0000
0000
0000
0000
0000
0000
0000
0000
0000
0000
0000
0010
0000
0000
0000
0000
0000
0000
0000
0000
0000
0000
0000
,
0100
0000
0000
0000
0100
0000
1000
0001
1000
0000
0010
0000
0100
0000
0000
0000
0100
0000
0000
0000
0010
1000
0000
0000
0100
0000
0000
0000
0100
0000
0000
0000
,
0100
0000
0010
0000
0001
1000
0010
1000
0001
0000
1000
0000
0010
0100
0010
0000
,
0100
0000
0000
0000
0010
0100
0000
0000
0101
0000
0000
0000
0001
0000
0000
0000
0001
0000
0010
0000
0110
0000
0000
0000
0100
0000
0000
0000
1000
0000
0000
0000
,
1100
0000
1000
0000
1000
0010
0110
0000
0100
0000
0001
0000
1001
0000
1000
0000
,
0100
0000
0110
0000
0010
0000
0001
0100
0220
0000
0330
0000
0010
1000
1001
0000
,
0001
0010
0100
1000
0100
0010
0100
0000
0220
0000
0000
0000
0330
0000
0000
0000
0010
0000
0001
0000
1001
0000
0000
0000
1000
0010
0100
0001
0100
0010
0100
0010
,
0100
0000
2001
0100
3002
0100
2003
0010
,
3002
0100
2003
0100
3002
0100
2003
0100
,
3002
0010
2003
0010
3002
0010
2003
0100
,
3002
0000
0010
0000
1000
0000
0010
0000
1003
0000
0001
0100
0020
0000
0000
0000
,
1030
0000
0000
0000
0100
0000
0000
0000
0010
0000
0000
0000
0100
0000
0000
0000
1000
0000
0000
0000
0001
0000
0000
0000
0100
0000
0000
0000
0000
0000
0010
0000
0000
0100
0000
0000
0001
0000
0000
0000
0000
0000
0010
0000
0000
0100
0000
0000
,
1000
0000
0010
0100
0001
0000
0010
0100
1000
0000
0010
0100
0001
0000
0010
0100
,
1000
0100
1000
0100
0010
0001
0010
0100
1000
0010
0100
0001
1000
0100
0010
0001
,
0100
0000
0000
0001
0000
0000
0100
0000
0000
0001
0000
0000
1000
0000
0001
0000
1000
0000
0001
0000
1000
0000
0001
0000
1000
0000
0000
0010
0000
0000
0100
0000
0000
0001
0000
0000
0010
0000
0000
0100
0000
0000
0010
0000
0000
0100
0000
0000
,
1000
0000
0000
0001
0000
0000
0100
0000
0000
0010
0000
0000
1000
0000
0100
0000
1000
0000
0100
0000
0000
1000
0000
0000
0001
0000
0000
0100
0000
0000
0010
0000
0000
1000
0000
0000
0001
0000
0010
0000
0001
0000
0010
0000
0000
0000
0000
0000
,
1002
0000
0000
0000
0000
0000
0103
0001
0100
0020
0000
0000
,
0100
0000
0000
1030
0100
1000
0100
0010
0100
1000
0010
0100
,
0001
0000
0000
0000
0010
0000
0000
0000
0100
0000
0000
0000
0110
0000
0000
0000
0000
0000
0000
0000
0000
0001
0000
0000
0100
0000
0000
0010
0000
0000
0100
0000
0000
0001
0000
0000
1000
0000
0000
0000
0000
0000
0000
0000
0000
0000
0000
0000
,
2001
0000
0000
0100
,
0000
0000
3002
0000
,
0000
0100
0000
0000
,
0013
0000
0000
0000
;

//---------------dance-single - XO DS JA XMOD FL- TS- JU----------------
#NOTEDATA:;
#CHARTNAME:;
#STEPSTYPE:dance-single;
#DESCRIPTION:XO DS JA XMOD FL- TS- JU;
#CHARTSTYLE:;
#DIFFICULTY:Hard;
#METER:17;
#RADARVALUES:0.730958,0.970162,0.301828,0.380878,0.538979,712.000000,670.000000,42.000000,53.000000,0.000000,0.000000,0.000000,0.000000,0.000000,0.730958,0.970162,0.301828,0.380878,0.538979,712.000000,670.000000,42.000000,53.000000,0.000000,0.000000,0.000000,0.000000,0.000000;
#CREDIT:Karl with a K;
#NOTES:
0000
0000
0000
0000
,
0000
0000
0000
0000
,
0000
0000
0000
0000
,
0000
0000
0000
0000
,
0000
0000
0000
0000
,
0000
0000
0000
0000
,
0000
0000
0000
2002
,
0000
3003
0202
0000
,
0303
2020
0000
3030
,
0011
0000
0000
0000
0000
0000
0010
0001
0000
0000
0000
0000
1000
0100
0000
0000
0000
0000
2100
0000
0000
0000
0000
0000
,
0001
0000
0000
0000
3010
0000
0000
0000
0120
0000
0000
0000
1030
0010
0000
0000
,
0100
0001
0000
0000
0000
0000
0101
0000
0000
0000
0000
0000
0000
0000
0000
0000
0000
0000
0001
0000
0000
0010
0000
0000
,
0200
0000
0000
0000
0310
0100
0010
0100
1000
0100
1000
0000
0001
0000
0100
0000
,
0010
0100
1000
0100
0010
0100
0001
1000
,
0100
0010
0100
1000
0100
0010
0100
0001
,
1000
0001
0100
0010
0100
1000
0001
0010
,
0100
0010
1000
0010
0100
0010
0001
1000
,
0010
0100
0010
1000
0010
0100
0010
0001
,
1000
0000
0001
0000
0010
0000
0100
0000
0010
0000
1000
0001
1000
0000
0100
0000
,
0010
0100
0001
0100
0001
0100
0010
0100
,
1000
0000
0100
1000
0010
0000
0100
0000
0010
0000
0001
0000
1000
0000
0100
0000
,
0010
0000
0000
1000
0000
0000
0010
0100
0000
0000
0000
0000
0010
0100
0000
0000
0000
0000
1001
0000
0000
0000
0000
0000
,
0000
0000
0000
0000
0001
0000
0010
0100
1000
0000
0000
0000
0000
0000
0000
0000
,
1000
0000
0000
0000
0000
0000
0010
0000
0000
0100
0000
0000
0001
0000
0000
0000
0100
0000
0000
0000
0010
0000
0000
0000
1000
0000
0000
0000
0010
0000
0000
0000
0100
0000
0000
0000
0001
0000
0000
0000
0010
0000
0000
0000
0100
0000
0000
0000
,
2000
0000
0100
0000
3001
0010
0001
0100
,
0000
0010
1000
0000
0100
0000
0001
0000
0100
0000
0010
0000
0001
0000
0010
0000
,
0100
1000
0010
0100
0000
0010
1000
0000
,
0010
0000
0100
0000
0000
0000
0010
0000
0001
0000
0000
0000
0010
0000
0010
1000
,
0001
0000
0010
0000
0010
0100
0010
0000
0100
0000
0100
1000
0001
0000
0100
0000
,
0100
0000
0010
0000
0100
0000
0010
0000
0001
0000
0000
0000
0010
0000
0000
0000
0100
0000
0000
0010
0001
0000
0000
0000
0010
0000
0100
0000
0001
0000
0010
0000
,
1000
0010
1000
0010
1000
0010
0100
0100
0100
0000
1001
0000
1000
0000
0100
0000
,
0010
0001
0100
0010
0100
1000
1000
0000
0100
0000
0010
1000
0010
0000
1000
0100
,
0010
0000
1000
0000
1000
0000
0000
0000
0010
0000
0000
0000
0100
0000
1000
0000
0010
0000
0000
0000
0010
0000
0010
0000
0001
0000
0010
0100
0001
0000
0000
0000
,
0010
0000
0000
0000
0100
0000
0010
0000
0001
0000
0000
0000
0010
0000
0010
0000
1000
0000
0010
0000
0001
0010
0001
0000
0010
0000
0000
0000
0010
0000
0001
0000
,
1000
0000
0000
0000
0010
0000
0010
0000
0100
0000
1000
0100
0010
0000
0000
0000
0010
0000
0000
0000
0100
0000
0001
0000
1000
0000
0000
0000
0100
0000
0100
0000
,
0010
0000
0000
0000
0000
0000
0000
0000
0000
0000
0000
0000
0100
0000
0000
0000
0000
0000
0010
0000
0000
0000
0000
0000
0100
0000
0000
0000
0000
0000
0000
0000
0000
0000
0000
0000
0010
0000
0000
0000
0000
0000
0000
0000
0000
0000
0000
0000
1000
0000
0000
0000
0000
0000
0000
0000
0000
0000
0000
0000
0000
0000
0000
0000
0000
0000
0000
0000
0000
0000
0000
0000
0010
0000
0000
0000
0000
0000
0000
0000
0000
0000
0000
0000
0100
0000
0000
0000
0000
0000
0000
0000
0000
0000
0000
0000
0010
0000
0000
0000
0000
0000
0000
0000
0000
0000
0000
0000
0000
0000
0000
0000
0000
0000
0000
0000
0000
0000
0000
0000
0001
0000
0000
0000
0000
0000
0000
0000
0000
0000
0000
0000
0001
0000
0000
0000
0000
0000
0000
0000
0000
0000
0000
0000
0100
0000
0000
0000
0010
0000
0000
0000
0000
0000
0000
0000
0000
0000
0000
0000
0000
0000
0000
0000
0000
0000
0000
0000
0100
0000
0000
0000
0010
0000
0000
0000
0000
0000
0000
0000
0000
0000
0000
0000
0000
0000
0000
0000
0000
0000
0000
0000
,
1001
0000
0000
0000
0000
0000
0000
0000
0000
0001
0000
0000
0010
0100
0010
0100
0000
0000
2000
0000
0000
0000
0000
0000
,
0001
0000
0000
3001
0000
0000
0000
0000
0000
0010
0000
0000
0001
0000
0000
1000
0001
1000
0001
0000
0000
0200
0000
0000
,
0301
1001
0002
0000
1000
1003
0000
0010
,
1000
0000
0000
0000
0000
0000
0001
0000
1000
0000
0001
0000
0010
0000
0000
0000
0000
0000
0010
0000
0000
0100
0000
0000
1000
0000
0000
0000
0000
0000
0110
0000
0000
0000
0000
0000
0012
0000
0000
0000
0000
0000
0000
0000
0000
0000
0000
0000
,
1000
0000
0000
1003
0000
0000
0000
0000
0000
0101
0000
0000
1100
0000
0000
0001
1000
0001
1000
0000
0000
0020
0000
0000
,
1030
1001
2010
0000
0001
3001
0000
1100
,
0101
0000
0000
0000
0000
0000
1000
0000
0001
0000
1000
0000
0100
0000
0000
0000
0000
0000
0010
0000
0000
0000
0000
0000
0010
0000
0000
0000
0000
0000
0010
0000
0000
0000
0000
0000
0110
0000
0000
0000
0000
0000
0100
0000
0000
1000
0000
0000
,
0010
0000
0100
0000
0010
0000
1000
0000
0001
0000
0100
0001
0010
0000
0100
0000
,
0010
0000
0100
0010
0100
0000
0010
0000
0001
0000
0000
0000
0100
0000
0010
0000
0100
0000
0000
0000
1000
0000
0000
0000
0100
0000
0000
0000
0001
0000
0000
0000
,
1000
0000
0100
0010
0100
0001
0001
0000
0101
0100
1000
0000
1001
0000
0000
0000
,
0001
0100
1000
0100
0010
0000
0010
1000
,
0100
0100
1000
0000
1000
0100
0001
0100
,
0010
0000
0000
0001
0010
0000
0001
0000
0100
0000
0100
0000
0010
1000
0000
0000
,
1000
0000
0100
0000
0020
0000
0000
0000
0031
0000
0100
0000
0001
1000
0000
0000
,
0001
1000
0000
0000
1001
0000
0000
0000
1000
0000
0100
0000
0010
0000
0001
0000
,
0100
0000
0010
0000
0100
0000
0100
0000
0010
0100
0010
0100
0020
0000
0000
0000
,
0100
2030
3002
0103
0200
0000
0320
2030
,
0000
3200
0320
0000
0230
0320
0032
0203
,
0302
0000
0000
0000
0003
0000
1000
0000
0001
0000
1000
0100
0010
0000
0001
0000
,
0100
0001
0100
0010
1000
0001
0100
0001
,
1000
0000
0100
0000
1000
0000
0000
0000
0010
0000
1000
0000
0100
0000
0000
0100
,
1000
0000
0000
0000
0000
0000
0001
0001
1000
1000
0001
0000
0021
0000
0000
0000
,
0031
0000
0000
0000
1200
0000
0000
0000
1000
0000
0000
0000
1300
0000
0000
0000
1010
0000
0010
0000
1000
0000
1000
0000
0010
0000
0010
0000
0100
0000
0000
0100
,
0001
0000
0000
0001
0020
0000
0000
0000
0032
0000
0000
0000
0000
0000
0000
0000
0103
0000
0000
0000
0010
0000
0000
0000
0200
0000
0000
0000
0000
0000
0000
0000
,
0320
2030
3100
0110
,
0010
0011
0000
0001
0101
0000
0100
0110
,
0000
0010
2000
0000
3100
0010
0200
0000
,
0320
0032
0100
2003
,
3010
0100
0020
0000
0230
0000
0302
0000
,
0013
0000
0000
0001
1000
0000
0000
0000
0000
0000
0000
0000
0000
0000
0000
0000
,
1010
0000
1001
0000
0000
0001
1000
0100
,
1000
0000
0100
0000
1000
0000
0100
0000
0010
0001
0010
0000
0001
1000
0001
0000
,
0100
0000
0001
0000
0100
0000
0001
0000
1000
0000
0000
0000
0100
0000
0000
0000
1000
0000
0000
0000
0010
0000
0000
0000
0100
0000
0000
0010
0100
0000
0000
0000
,
0001
0000
0000
0000
0010
0000
0000
0001
0010
0000
0000
0000
0100
0000
0000
0000
0000
0000
0000
0000
0100
0010
0000
0000
0001
0000
0000
0000
0001
0000
0000
0000
,
0001
0000
0100
0000
0100
0001
1000
0001
1000
0000
0100
0000
0010
0001
0020
0000
,
0030
0000
0000
0000
0010
0001
0000
0000
1000
0000
0000
0000
0100
0000
0000
0000
0100
0000
1000
0000
0001
0000
0000
0000
0000
0000
0000
0000
0100
0000
0000
0000
,
0010
0000
0100
0000
0100
0010
1000
0000
0000
0000
0100
0000
0010
0000
0001
0000
,
0100
0000
0010
0000
0100
0000
0001
1000
1020
0000
0030
0000
0010
1000
1200
0000
,
1300
0000
1000
0000
1000
0000
0100
0000
0120
0000
0000
0000
0030
0000
0000
0000
0010
0000
0001
0000
0201
0000
0000
0000
0310
0100
0010
0100
0010
0000
0000
0000
,
0110
0000
1010
0010
0001
0010
0100
0010
,
1000
0001
0010
0100
0010
0001
0010
0100
,
0010
1000
0001
0100
1000
0100
0010
0001
,
1000
0100
0010
0100
0001
0100
0010
0100
,
1000
0000
0010
0000
0100
0000
0010
0000
0001
0000
0000
0001
0010
0000
0000
0010
,
0100
0000
0000
0100
0001
0000
1000
0001
1000
0000
0100
0010
0100
0010
0100
0000
,
1000
0010
1000
0010
1000
0010
1000
0010
1000
0000
0000
0000
0001
0010
0001
0010
,
0001
0010
0001
0010
0001
0000
0000
0000
1000
0100
0010
0100
1000
0100
0010
0001
,
0100
0010
0100
0000
0001
0100
0010
0100
0001
0100
0010
1000
0100
0010
0001
0000
,
1001
0000
0000
0000
0000
0000
1000
0100
0010
0002
0000
0000
,
0100
0000
0000
1003
0010
0100
0001
0010
0100
0010
0100
1000
,
0001
0000
0000
0000
1001
0000
0000
1000
0010
0000
1000
0000
0100
0000
0000
0000
,
0210
0000
0000
2300
,
0000
0000
0010
0000
,
0000
0001
0000
3000
,
1001
0000
0000
0000
;

//---------------dance-single - XO DS- JA XMOD JU----------------
#NOTEDATA:;
#CHARTNAME:;
#STEPSTYPE:dance-single;
#DESCRIPTION:XO DS- JA XMOD JU;
#CHARTSTYLE:;
#DIFFICULTY:Medium;
#METER:14;
#RADARVALUES:0.521526,0.873146,0.244337,0.718639,0.158101,508.000000,474.000000,34.000000,100.000000,0.000000,0.000000,0.000000,0.000000,0.000000,0.521526,0.873146,0.244337,0.718639,0.158101,508.000000,474.000000,34.000000,100.000000,0.000000,0.000000,0.000000,0.000000,0.000000;
#CREDIT:Karl with a K;
#NOTES:
0000
0000
0000
0000
,
0000
0000
0000
0000
,
0000
0000
0000
0000
,
0000
0000
0000
0000
,
0000
0000
0000
0000
,
0000
0000
0000
0000
,
0000
0000
0000
2002
,
0000
3003
2200
0000
,
3300
0022
0000
0033
,
1000
0000
0100
0000
0010
0000
0010
0000
0001
0000
0001
0000
1000
0001
0000
0000
,
1000
0010
0001
0010
,
1000
0100
0020
0000
0000
0000
1030
0010
,
0001
0000
1000
1000
1000
0000
0200
0000
,
2300
3020
2030
3002
,
0103
0200
0302
0023
,
2030
3020
0130
0020
,
0032
0023
0032
2003
,
3100
0200
2300
3020
,
0032
0000
0000
0000
0023
0000
0000
0000
0130
0000
0000
0010
0200
0000
0000
0000
,
0302
0023
0032
2003
,
3100
0000
0000
0010
0200
0000
0000
0000
2300
0000
0000
0000
3020
0000
0000
0000
,
0031
0000
0010
0000
0100
0010
0000
0000
0100
0010
0000
0000
0020
0000
0000
0000
,
2030
0000
0000
0000
3020
0000
0000
1030
0002
0000
0000
0000
0023
0000
0000
0000
,
0130
0000
0000
0100
0010
0100
0010
0000
0000
0001
0000
0000
,
0200
0000
0010
0000
0310
0000
1000
0010
,
0000
0100
0001
0010
0001
1000
0001
0010
,
0100
1000
0010
1000
0000
1000
0100
0000
,
0010
0001
0000
0001
0100
0000
0010
0010
,
1000
0001
0001
1000
0001
0010
0100
1000
,
0100
0010
0011
0001
0001
1001
1000
1000
,
1010
0000
0010
0000
0110
0000
1001
0000
2000
0000
0000
3100
0010
0000
0001
0000
,
0000
0001
0100
0000
0010
0000
1000
0000
0001
0000
1000
0100
1000
0000
0010
0000
,
1000
0100
0010
0100
0000
1000
0001
0000
,
0001
0100
0000
0010
1000
0000
0001
1000
,
0100
0000
0010
0000
0001
0000
0100
0000
0010
0000
0100
0000
0001
1000
0001
0000
,
0100
0100
1010
1000
0100
0110
0010
0001
,
1001
0000
0000
1000
0010
0100
0002
0000
,
0000
2003
0000
3010
1000
0001
1000
0200
,
1000
0010
2300
0000
0000
3002
0000
1003
,
0100
0000
1000
0000
0010
0000
0100
0001
0100
0000
0001
0000
2100
0000
0001
0000
,
0001
0000
3002
0000
0000
0000
0103
0000
0001
0000
1000
1000
0001
0000
0020
0000
,
0100
0031
0102
1000
1000
2003
0000
3001
,
0010
0000
0100
0100
1000
0000
0110
0000
0010
0000
0010
0000
1001
0000
0001
0100
,
0001
0000
0010
0000
0010
0000
0001
0000
1001
0000
1000
0100
1000
0000
0010
0000
,
0100
0010
0100
0000
1001
0000
1000
0010
1000
0000
1100
0000
0100
0000
1000
0000
,
1001
0000
0001
0010
0001
0000
0101
0000
0110
0000
0110
0000
1001
0000
0000
0000
,
1000
0100
0010
0001
0100
0000
0010
0010
,
0100
0100
0001
0000
0001
0100
0010
1000
,
0100
0000
0000
0100
0010
0000
0100
0000
0010
0000
0010
0000
0001
0010
0000
0000
,
0010
0000
0100
0000
1000
0000
0000
0000
1000
0000
0000
0000
0010
0100
0000
0000
,
0100
0010
0000
0000
1010
0000
0000
0000
1001
0000
0000
0000
1100
0000
0000
0000
,
0012
0000
1000
0000
0103
0001
0020
0000
,
0000
0230
0000
1000
2300
0000
0000
3002
,
0000
0000
2003
0000
0000
3010
1000
0100
,
0020
0000
0000
0000
0000
0000
0031
0000
0000
0000
0001
1000
0010
0000
1000
0000
,
0001
0010
0001
0010
0001
1000
0100
0010
,
0001
0000
0100
0000
0010
0000
0000
0000
0010
0000
1000
0000
0000
0000
0000
1000
,
0002
0000
0000
0000
0000
0000
1003
0010
0100
0001
1000
0100
2000
0000
0000
0000
,
0100
0000
0000
0000
3001
0000
0000
0000
0101
0000
0000
0000
0110
0000
0000
0000
1000
0000
1000
0000
0001
0000
0100
0000
0010
0000
0010
0000
1000
0000
0000
1000
,
0100
0100
0020
0000
0032
0000
0000
0000
0100
0000
0000
0000
1000
0000
0000
0000
,
0023
0100
0031
0011
,
0010
1000
0000
1000
0010
0001
0100
0010
,
1000
0100
0020
0000
0032
0000
0203
0000
,
0320
0230
0320
2030
,
3200
0302
0203
2300
,
3001
0000
0000
0001
1000
0000
0000
0000
0000
0000
0000
0000
0010
0000
1000
0000
,
0100
0000
0110
0000
0000
0100
0010
0001
,
1000
0010
1000
0001
0010
0010
0001
0001
,
0100
0010
0000
0000
1000
0000
0000
0000
0000
0000
0100
0000
0000
0000
0000
0000
,
0010
0000
0000
0001
0000
0000
0001
0000
,
0000
0100
0000
0000
0010
0000
0000
1000
,
0000
0100
0001
0000
0000
0100
0000
0010
,
0010
0000
0000
1000
0000
0010
0001
0000
,
0100
0010
0100
0100
2000
0000
3100
0001
,
0100
0000
0000
0000
0010
0000
0000
0000
0002
0000
0000
0000
0000
0000
0000
0000
0013
0000
0000
0000
1000
0000
0000
0000
0001
1000
0001
0000
1000
0000
0001
0000
,
1000
0002
0203
0302
,
2003
3010
0020
2030
,
3200
0000
0302
0000
2003
0000
3010
0100
,
0020
0032
0203
2300
,
3002
0013
0020
0032
,
2003
0000
3200
0000
0302
0000
0013
0010
,
1000
0010
0001
0100
1000
0000
0001
0010
,
1000
0100
0001
1000
0001
0100
1000
0010
,
0001
0000
1000
0100
0001
0010
1000
0000
,
1010
0000
0000
0000
0000
0000
0010
0100
0010
0100
0000
0000
,
0000
0000
0000
0010
0001
0010
0002
0000
0000
0203
0000
0000
,
0310
0000
0000
0000
0110
0000
0000
0010
1000
0000
0001
0000
1000
0000
0000
0000
,
2002
0000
0000
0000
,
0000
0000
0000
0000
,
0000
0000
0000
3003
,
0001
0000
0000
0000
;

//---------------dance-single - ----------------
#NOTEDATA:;
#CHARTNAME:;
#STEPSTYPE:dance-single;
#DESCRIPTION:;
#CHARTSTYLE:;
#DIFFICULTY:Easy;
#METER:10;
#RADARVALUES:0.358293,0.582097,0.316201,0.201219,0.000000,349.000000,305.000000,44.000000,28.000000,0.000000,0.000000,0.000000,0.000000,0.000000,0.358293,0.582097,0.316201,0.201219,0.000000,349.000000,305.000000,44.000000,28.000000,0.000000,0.000000,0.000000,0.000000,0.000000;
#CREDIT:Karl with a K;
#NOTES:
// measure 0
0000
0000
0000
0000
,  // measure 1
0000
0000
0000
0000
,  // measure 2
0000
0000
0000
0000
,  // measure 3
0000
0000
0000
0000
,  // measure 4
0000
0000
0000
0000
,  // measure 5
0000
0000
0000
0000
,  // measure 6
0000
0000
0000
1001
,  // measure 7
0000
0000
1010
0000
,  // measure 8
0000
0101
0000
0000
,  // measure 9
1001
1000
0100
1100
,  // measure 10
0100
0010
0011
0001
,  // measure 11
1000
1010
0000
0010
,  // measure 12
1001
0000
1001
1000
,  // measure 13
0100
0010
0001
0100
,  // measure 14
0010
1000
0100
0010
,  // measure 15
1000
0010
0100
1000
,  // measure 16
0010
0100
0001
0010
,  // measure 17
0100
1000
0010
0100
,  // measure 18
1000
0100
0001
0001
,  // measure 19
0010
0100
1000
0010
,  // measure 20
0100
0001
0010
0100
,  // measure 21
0001
0100
0010
0001
,  // measure 22
0100
0010
1000
0100
,  // measure 23
0010
0001
0100
0010
,  // measure 24
0002
0000
0013
1000
,  // measure 25
0000
0100
0000
0000
0010
0000
0000
0100
,  // measure 26
0000
0000
1000
0000
0000
1000
0000
0000
,  // measure 27
0001
0000
0000
0001
0000
0000
1000
1000
,  // measure 28
0000
0100
0100
0000
0010
0010
0000
0001
,  // measure 29
0001
0000
1001
0000
0000
0110
0000
0000
,  // measure 30
1001
0000
0000
0110
0000
0000
1000
0010
,  // measure 31
0000
0100
0010
0000
1000
0100
0000
0010
,  // measure 32
0100
0000
1000
1000
0000
0001
0001
0000
,  // measure 33
1000
1000
0000
0001
0001
0000
0001
0100
,  // measure 34
0000
0010
0100
0001
0010
0100
0000
0010
,  // measure 35
0001
0001
0010
0001
1000
0010
1000
0001
,  // measure 36
1001
0000
0000
1000
0000
0000
0002
0000
,  // measure 37
0000
0103
0000
0010
1000
1000
0000
0200
,  // measure 38
0000
0000
2300
0000
0000
3100
0000
0010
,  // measure 39
0001
0001
1000
0020
0000
0030
2100
0000
,  // measure 40
0000
3100
0000
0010
0011
0000
0001
0200
,  // measure 41
0000
0300
0102
0000
0000
0103
0000
0010
,  // measure 42
1010
0000
1000
0100
0100
0100
1000
0000
,  // measure 43
0000
0100
0000
0000
0010
0000
0000
0001
,  // measure 44
0000
0000
0001
0000
0000
0100
0000
0000
,  // measure 45
0010
0000
0000
0010
0100
0010
1000
0000
,  // measure 46
1000
0100
0010
0010
,  // measure 47
0001
0100
0100
0010
,  // measure 48
1000
0001
0001
1000
,  // measure 49
0100
0010
0001
0100
,  // measure 50
0010
0001
0010
1000
,  // measure 51
0100
0001
0100
2000
,  // measure 52
0000
3200
0000
0300
0200
0000
0000
2300
,  // measure 53
0000
0000
3002
0000
0000
0013
0001
0100
,  // measure 54
0002
0000
0000
0203
0300
0100
0020
0000
,  // measure 55
0000
2030
0000
0000
3200
0000
0000
0320
,  // measure 56
0000
0000
0031
0000
1000
0001
0100
0000
,  // measure 57
0002
0000
0000
1003
0010
0110
2001
0000
,  // measure 58
0000
3100
0100
0100
0010
0010
0010
0001
,  // measure 59
0100
0110
2002
0000
3003
0000
1000
0000
,  // measure 60
0010
1000
0100
0110
,  // measure 61
0000
0011
0000
0000
1100
0000
0000
2001
,  // measure 62
0000
3010
0100
0001
,  // measure 63
0010
0100
0010
0001
,  // measure 64
0100
0010
0010
1000
,  // measure 65
0100
1000
0000
0001
,  // measure 66
0001
0100
0000
2002
,  // measure 67
0000
3003
0010
0100
,  // measure 68
0110
0000
1000
0000
0000
0010
0000
0000
,  // measure 69
0100
0000
0000
0001
0000
0000
0001
0000
,  // measure 70
0000
0100
0000
0000
0010
0000
0000
1000
,  // measure 71
0000
0000
1000
0000
0000
0100
0000
0000
,  // measure 72
0010
0000
0000
0001
0000
0000
0001
0000
,  // measure 73
0000
0010
0000
0000
0110
0000
0000
1001
,  // measure 74
0000
0000
0110
0000
0000
1001
1001
1001
,  // measure 75
0000
0000
0001
1000
,  // measure 76
0010
0100
0001
0010
,  // measure 77
0100
0001
1000
0010
,  // measure 78
0001
0100
0010
1000
,  // measure 79
0100
0010
0001
0100
,  // measure 80
0010
0001
1000
0100
,  // measure 81
0110
1010
1001
0011
,  // measure 82
0110
0000
1100
0000
1000
0000
0001
0100
,  // measure 83
0001
0000
1000
0010
1000
0000
0001
0000
,  // measure 84
1000
0000
0100
0110
,  // measure 85
0000
0001
1001
0000
,  // measure 86
0000
0110
0010
0100
,  // measure 87
2002
0000
0000
0000
,  // measure 88
0000
0000
0000
0000
,  // measure 89
0000
0000
0000
0000
,  // measure 90
3003
0000
0000
0000
;

//---------------dance-single - ----------------
#NOTEDATA:;
#CHARTNAME:;
#STEPSTYPE:dance-single;
#DESCRIPTION:;
#CHARTSTYLE:;
#DIFFICULTY:Beginner;
#METER:7;
#RADARVALUES:0.191979,0.355726,0.136541,0.043118,0.000000,187.000000,168.000000,19.000000,6.000000,0.000000,0.000000,0.000000,0.000000,0.000000,0.191979,0.355726,0.136541,0.043118,0.000000,187.000000,168.000000,19.000000,6.000000,0.000000,0.000000,0.000000,0.000000,0.000000;
#CREDIT:Karl with a K;
#NOTES:
// measure 0
0000
0000
0000
0000
,  // measure 1
0000
0000
0000
0000
,  // measure 2
0000
0000
0000
0000
,  // measure 3
0000
0000
0000
0000
,  // measure 4
0000
0000
0000
0000
,  // measure 5
0000
0000
0000
0000
,  // measure 6
0000
0000
0000
1000
,  // measure 7
0000
0000
0100
0000
,  // measure 8
0000
0010
0000
0000
,  // measure 9
0001
0000
0000
0001
,  // measure 10
0000
0000
0100
0000
,  // measure 11
0000
0010
0000
0000
,  // measure 12
0010
0000
0000
1000
,  // measure 13
0000
0000
1000
0000
,  // measure 14
0000
0001
0000
0000
,  // measure 15
0001
0000
0000
1000
,  // measure 16
0000
0000
1000
0000
,  // measure 17
0000
0001
0000
0000
,  // measure 18
0001
0000
0000
1000
,  // measure 19
0000
0000
0100
0000
,  // measure 20
0000
0010
0000
0000
,  // measure 21
0001
0000
0000
0001
,  // measure 22
0000
0000
0100
0000
,  // measure 23
0000
0010
0010
0000
,  // measure 24
1000
1000
0000
0001
,  // measure 25
0000
0000
1000
0000
,  // measure 26
0000
0000
0010
0000
0000
0010
0000
0000
,  // measure 27
0100
0000
0000
0100
0000
0000
0001
0000
,  // measure 28
0000
0000
0010
0000
,  // measure 29
0000
0000
0100
0000
0000
0100
0000
0000
,  // measure 30
0100
0000
0000
0100
0000
0000
1000
0000
,  // measure 31
0000
0100
0000
0000
0010
0000
0000
0001
,  // measure 32
0000
0000
1000
0000
0000
1000
0000
0000
,  // measure 33
0001
0000
0000
0001
0000
0000
1000
0000
,  // measure 34
0000
0010
0000
0000
0100
0000
0000
0001
,  // measure 35
0000
0000
1000
0000
0000
0001
0000
0000
,  // measure 36
1000
0000
0000
0001
0000
0000
2000
0000
,  // measure 37
0000
3000
0000
0000
0001
0000
0000
0100
,  // measure 38
0000
0000
0002
0000
0000
0003
0000
0000
,  // measure 39
0001
0000
0000
0010
0000
0000
0200
0000
,  // measure 40
0000
0300
0000
0000
1000
0000
0000
0001
,  // measure 41
0000
0000
0200
0000
0000
0300
0000
0000
,  // measure 42
0001
0000
0000
0010
0000
0000
0100
0000
,  // measure 43
0000
0000
1000
0000
,  // measure 44
0000
0001
0000
0000
,  // measure 45
1000
0000
0000
0001
,  // measure 46
0000
0000
0100
0100
,  // measure 47
0000
0010
0000
0000
,  // measure 48
1000
1000
0000
0001
,  // measure 49
0000
0000
0010
0010
,  // measure 50
0000
0100
0100
0100
,  // measure 51
0100
0100
0000
1000
,  // measure 52
0000
0100
0000
0000
0100
0000
0000
1000
,  // measure 53
0000
0000
0001
0000
0000
0100
0000
0000
,  // measure 54
0001
0000
0000
0010
,  // measure 55
0000
0100
0000
0000
1000
0000
0000
0100
,  // measure 56
0000
0000
0010
0000
0000
0001
0000
0000
,  // measure 57
0100
0000
0000
0010
0010
0000
0110
0000
,  // measure 58
0000
1001
0000
0000
0110
0000
0000
1001
,  // measure 59
0000
1000
0000
0000
,  // measure 60
0010
0010
0000
1001
,  // measure 61
0000
0000
0110
0000
,  // measure 62
0000
0001
0000
0000
,  // measure 63
0010
0010
0000
0100
,  // measure 64
0000
0000
1000
0000
,  // measure 65
0000
1001
0000
0000
,  // measure 66
0110
0000
0000
1001
,  // measure 67
0000
0000
1001
1001
,  // measure 68
0000
0000
1000
0000
0000
0100
0000
0000
,  // measure 69
0010
0000
0000
0100
0000
0000
1000
0000
,  // measure 70
0000
0010
0000
0000
0100
0000
0000
0010
,  // measure 71
0000
0000
1000
0000
0000
1000
0000
0000
,  // measure 72
0001
0000
0000
0001
0000
0000
1000
0000
,  // measure 73
0000
0001
0000
0000
1001
0000
0000
0110
,  // measure 74
0000
0000
1001
0000
0000
0110
0000
0000
,  // measure 75
0000
0000
0000
0001
,  // measure 76
0001
0000
1000
1000
,  // measure 77
0000
0001
0001
0000
,  // measure 78
0010
0010
0000
0100
,  // measure 79
0100
0000
1000
1000
,  // measure 80
0000
0010
0010
0000
,  // measure 81
0100
0100
0100
0001
,  // measure 82
0001
0001
1000
1000
,  // measure 83
1000
0100
0100
0100
,  // measure 84
0010
0000
0000
0110
,  // measure 85
0000
0000
1001
0000
,  // measure 86
0000
0110
0000
0000
,  // measure 87
2002
0000
0000
0000
,  // measure 88
0000
0000
0000
0000
,  // measure 89
0000
0000
0000
0000
,  // measure 90
3003
0000
0000
0000
;
