#VERSION:0.83;
#TITLE:NUCLEAR FUSION;
#SUBTITLE:;
#ARTIST:Karl with a K ✕ Daniel Van Eden;
#TITLETRANSLIT:;
#SUBTITLETRANSLIT:;
#ARTISTTRANSLIT:;
#GENRE:;
#ORIGIN:;
#CREDIT:;
#BANNER:Nuclear Fusion-bn.png;
#BACKGROUND:Nuclear Fusion-bg.png;
#PREVIEWVID:;
#JACKET:Nuclear Fusion-jacket.png;
#CDIMAGE:;
#DISCIMAGE:;
#LYRICSPATH:;
#CDTITLE:;
#MUSIC:Nuclear Fusion.ogg;
#OFFSET:-0.000000;
#SAMPLESTART:42.724670;
#SAMPLELENGTH:11.000000;
#SELECTABLE:YES;
#BPMS:0.000=180.000;
#STOPS:;
#DELAYS:;
#WARPS:;
#TIMESIGNATURES:0.000=4=4;
#TICKCOUNTS:0.000=4;
#COMBOS:0.000=1;
#SPEEDS:0.000=1.000=0.000=0;
#SCROLLS:0.000=1.000;
#FAKES:;
#LABELS:0.000=Song Start;
#BGCHANGES:;
#KEYSOUNDS:;
#ATTACKS:
;

//---------------dance-single - XO+ DS JA+ RH- TS- JU HS-----------------
#NOTEDATA:;
#CHARTNAME:;
#STEPSTYPE:dance-single;
#DESCRIPTION:XO+ DS JA+ RH- TS- JU HS-;
#CHARTSTYLE:;
#DIFFICULTY:Challenge;
#METER:17;
#RADARVALUES:0.782835,0.952943,0.180903,0.271354,0.459794,727.000000,703.000000,24.000000,36.000000,0.000000,0.000000,0.000000,0.000000,0.000000,0.782835,0.952943,0.180903,0.271354,0.459794,727.000000,703.000000,24.000000,36.000000,0.000000,0.000000,0.000000,0.000000,0.000000;
#CREDIT:Karl with a K x Daniel Van Eden;
#NOTES:
0000
0000
0000
0000
,
0000
0000
0000
0000
,
0000
0000
0000
0000
,
0000
0000
0000
0000
,
0000
0000
0000
0000
,
0000
0000
0000
0000
,
0000
0000
0000
0000
,
0000
0000
0000
0000
,
2001
0000
3100
1000
0000
1000
0100
0000
,
0100
0010
0001
0000
0010
2000
0000
3010
,
0002
0000
0000
0000
0103
0000
0001
0000
0000
0000
0001
0100
0001
0000
1000
0000
,
0100
0000
0010
0000
0001
0000
0010
0000
0100
0001
0100
0001
0100
0000
1000
0000
,
0002
0000
0103
0001
0000
0001
2000
0000
,
3100
0010
0001
0010
0100
0000
0000
0000
0100
0000
0002
0000
0000
0000
0103
0000
,
1000
0000
0000
0000
0001
0000
1000
0000
0000
0000
0100
1000
0100
0000
1000
0000
,
0100
0010
0100
1000
0001
0010
0001
1000
0010
0100
0001
0100
0010
0000
1000
0000
,
1002
0000
0013
0011
0000
0001
0011
0010
,
0100
1000
1100
0000
0100
0002
0000
1003
,
0020
0000
0000
0000
0031
0000
1001
0000
0000
0000
0001
1000
0010
0000
1000
0000
,
0010
0000
0100
0000
1000
0000
0100
0000
0010
0001
0010
0001
0010
0000
1000
0000
,
2001
0000
3010
1010
0000
1000
2010
0000
,
3010
0100
0001
1000
0100
0000
0000
0000
0010
0000
2000
0000
0000
0000
3001
0000
,
0200
0000
0000
0000
1300
0000
0001
0000
0000
0000
0010
0001
0010
0000
0001
0000
,
0100
0010
0100
0001
1000
0010
1000
0001
0010
0100
1000
0100
0010
0000
0001
0000
,
2002
0000
0000
0000
,
0000
0000
0000
0000
,
0000
0000
0000
0000
,
0000
0000
0000
3003
,
1001
0000
0001
0100
0000
0100
0001
1000
,
0010
0000
1000
0100
0000
0100
0010
0001
,
1000
0000
0010
1000
0000
1000
0001
0010
,
0100
0000
0100
0000
1000
0000
0001
0000
1000
0010
0100
0001
0010
0001
0010
0001
,
1000
0000
0010
1000
0001
0010
0100
0010
,
0000
0000
0010
0001
1000
0000
0010
0000
0001
0000
0010
0000
1000
0000
0100
0000
,
0001
0100
0010
0100
0100
1000
0010
0100
,
0001
0000
0001
0100
0001
0000
1000
0100
1000
0000
0010
0000
1000
0000
0001
0000
,
0010
0000
0010
0001
1000
0010
0100
0010
,
0000
0000
0010
1000
0001
0000
0100
0000
1000
0000
0001
0000
0010
0000
1000
0000
,
0100
0000
0011
0001
0010
1000
0010
0001
,
1000
0000
0001
0010
0001
0000
1000
0010
1000
0000
0010
0100
0001
0000
1000
0000
,
0100
0000
0000
0000
0020
0000
0000
0000
0031
0000
0000
0001
0010
0100
1000
0000
,
1000
0000
0000
1000
0010
0100
0001
0000
0001
0000
0100
0000
0100
0000
0100
0010
,
1000
0000
1000
0000
0001
0000
0010
0100
0010
0000
0010
0000
0001
0000
0100
0000
,
0010
0000
0010
0100
0001
0000
1000
0100
0010
0000
0001
0010
0100
0000
1000
0000
,
0001
0000
0000
0100
0001
1000
0100
0001
0100
1000
0000
0000
,
0001
0000
0000
0000
0100
0000
0000
0000
1000
0000
0000
0000
0100
0000
0000
0000
0000
0000
0100
0000
0000
0000
0000
0000
0001
0000
0000
0000
0000
0000
0010
0000
0000
0000
0000
0000
0001
0000
0000
1000
0000
0000
0001
0000
0000
1000
0000
0000
,
0001
0000
0001
0000
0100
0000
0010
0100
0010
0000
0010
0000
1000
0000
0001
0000
,
0010
0001
0010
0001
1000
0010
1000
0010
0100
0001
1000
0100
0010
0000
0001
0000
,
2002
0000
0000
0000
,
0000
0000
0000
3003
,
1001
1000
0010
0010
0200
0000
0301
0100
,
0010
0010
1000
0100
0010
0010
2000
0000
,
3001
0100
0010
0010
0002
0000
0013
0010
,
0200
0000
0000
0000
0310
0000
0010
0000
0001
0000
0100
0000
0001
0000
1000
0100
,
0010
0000
0000
0010
0000
0000
0001
0000
0000
1000
0000
0000
0010
0000
0000
0010
0000
0000
0010
0000
0000
1000
0000
0100
,
0000
1000
0000
0010
0000
0000
0010
0000
0000
0100
0000
0000
0001
0000
0000
0010
0000
0000
0010
0000
0000
0010
0000
0000
,
0100
0000
0100
0000
0010
0000
0010
0000
0100
1000
0100
1000
0010
0000
0010
0000
,
0100
0100
0010
0010
0001
1000
0100
0001
,
1000
0000
0010
0000
1000
0000
0100
0000
0100
0000
0010
0000
0001
1000
0010
0000
,
1000
0001
0100
0000
0001
0000
0010
0000
0100
0000
0010
0000
1000
0000
0010
0000
,
0001
0000
0100
0000
0001
0100
0010
0000
0010
0000
0010
0000
1000
0100
1000
0001
,
0100
0000
0010
0000
1000
0100
1000
0000
0010
0000
0100
0001
0100
0000
0010
0000
,
0010
0000
1000
0100
0010
0000
0010
0000
0100
1000
0010
0000
0100
0001
0010
0000
,
0010
0000
0100
0000
0010
0001
0010
0000
0001
0000
0010
0000
1000
0000
0010
0000
,
0001
0010
0010
0001
1000
0010
0010
0010
,
0001
0000
0010
0000
1000
0001
0100
0001
0010
0000
1000
0000
0001
0000
0100
0000
,
0110
0000
1000
0100
0010
0001
1001
1000
,
0100
0001
0100
1000
0001
0100
0010
0100
,
1000
0000
0100
0000
0001
0010
0001
0000
0010
0000
0100
0000
1000
0000
0001
0000
,
0100
0000
0010
0000
0100
0000
0001
0000
0010
0000
0001
0000
1000
0010
1000
0000
,
0100
0010
0001
0100
0010
1000
0100
0001
,
0100
0010
0001
0100
0010
0001
0010
1000
,
0002
0000
0000
0000
0003
0000
1000
0001
1000
0000
0100
0000
0010
0000
1000
0000
,
0001
0100
1000
0001
0100
0100
0010
0100
,
0010
0010
1000
1000
0001
0010
0100
0100
,
1000
0001
1000
0001
1000
0001
1000
0001
1000
0001
1000
0001
0010
0000
0100
0000
,
0000
1000
0000
0001
1002
0000
0103
0020
,
0000
0000
1030
0000
0001
0010
0001
0000
0100
0000
0010
1000
0010
0000
0100
0000
,
2000
0000
0100
0000
3200
0000
0301
0100
,
0001
0000
0000
1000
0000
0000
0010
0000
0000
1000
0000
0000
0001
0000
0000
0000
0000
0000
0001
0000
0010
0000
0001
0000
,
0100
1000
0100
0001
1000
0100
0001
0100
1000
0001
0100
0001
,
0020
0000
0000
0000
0001
0000
0000
0000
1000
0000
0000
0000
0031
0000
0010
0100
,
1000
0000
0100
0000
0001
0100
0010
0001
1000
0000
0000
0001
0100
0000
0010
0000
,
1000
0100
0010
1000
0010
0100
1000
0100
,
0110
0000
0000
0000
0011
0000
0001
0000
0100
0000
0010
0000
0100
0010
1000
0000
,
0010
0000
0001
0000
0010
0000
1000
0000
0010
0100
0001
0000
0100
0000
1000
0000
,
0100
0001
0020
0000
2030
0000
3002
0000
,
0103
0010
0001
1000
0010
1000
0100
0010
,
0100
0001
0100
1000
1002
0000
0103
0101
,
0000
0000
0001
0100
0001
0000
0100
0000
0010
0000
1000
0000
1010
0000
0000
0000
,
0010
0002
0000
1003
0200
0000
0301
1001
,
0000
0000
0001
1000
0100
0000
1000
0000
0100
0000
0010
0000
1000
0000
0010
0000
,
0100
0001
0100
0001
0100
0000
0010
0000
0020
0000
0001
1000
0000
0000
1000
0001
,
0000
0000
0001
1000
0000
0000
1030
0000
0200
0000
1000
0001
0000
0000
0001
1000
,
0000
0000
1000
0001
0000
0000
0301
0000
0010
0000
0010
0000
0001
0000
0001
0000
,
0100
0000
0100
0000
0010
0000
0010
0000
0100
0010
0100
0001
1000
0010
1000
0001
,
0010
0100
1000
0100
0010
0000
0001
0000
1000
0010
0100
0000
0001
0000
1000
0100
,
0010
0001
1001
0000
0000
0000
0000
0000
;

//---------------dance-single - XO DS JA TS- JU----------------
#NOTEDATA:;
#CHARTNAME:;
#STEPSTYPE:dance-single;
#DESCRIPTION:XO DS JA TS- JU;
#CHARTSTYLE:;
#DIFFICULTY:Hard;
#METER:15;
#RADARVALUES:0.611623,0.806336,0.165827,0.407031,0.124371,568.000000,546.000000,22.000000,54.000000,0.000000,0.000000,0.000000,0.000000,0.000000,0.611623,0.806336,0.165827,0.407031,0.124371,568.000000,546.000000,22.000000,54.000000,0.000000,0.000000,0.000000,0.000000,0.000000;
#CREDIT:Karl with a K;
#NOTES:
0000
0000
0000
0000
,
0000
0000
0000
0000
,
0000
0000
0000
0000
,
0000
0000
0000
0000
,
0000
0000
0000
0000
,
0000
0000
0000
0000
,
0000
0000
0000
0000
,
0000
0000
0000
0000
,
1001
0000
0001
0010
0000
0001
0010
0000
,
0001
0010
0100
0000
1000
0020
0000
0130
,
0001
0000
1000
0010
0000
1000
0010
1000
,
0001
0010
0100
0001
0100
0010
0001
0100
,
0001
0000
1000
0010
0000
1000
0010
0000
,
1000
0010
0100
0000
0001
0020
0000
0130
,
1000
0000
0001
0010
0000
0001
0010
0001
,
0001
0100
1000
0100
0001
1000
0100
1000
,
1001
0000
0001
0100
0000
0001
0100
0000
,
0001
0100
0010
0000
1000
0200
0000
0310
,
0001
0000
1000
0100
0000
1000
0100
1000
,
0001
1000
0010
0001
0010
1000
0001
0010
,
0001
0000
1000
0100
0000
1000
0100
0000
,
1000
0100
0010
0000
0001
0200
0000
0310
,
1000
0000
0001
0100
0000
0001
0100
0001
,
0001
0010
1000
0001
0100
1000
0001
0000
,
0220
0000
0000
0000
,
0000
0000
0000
0000
,
0000
0000
0000
0000
,
0000
0000
0000
0330
,
1000
0000
0000
0100
0000
0000
0010
0000
,
0001
0000
0000
0010
0000
0000
0100
0000
,
1000
0000
0010
0100
0000
0100
0001
0000
,
0001
0000
0001
0000
0010
0000
0000
0000
0001
0010
0001
0000
1000
0010
1000
0010
,
1000
0000
0001
1000
0010
1000
0001
0020
,
0000
0001
0031
1000
0010
0100
0001
0100
,
0010
0001
0010
0200
0000
0301
1000
0100
,
1000
0100
0100
0000
0010
1000
0010
0100
,
1000
0000
1000
0001
0010
0001
1000
0020
,
0000
1000
1030
0001
0010
0100
1000
0100
,
0002
0000
0203
0000
0310
0100
1000
0001
,
0100
0010
0010
0100
0010
1000
0100
0010
,
1000
0000
0000
0000
0010
0000
0000
0000
0110
0000
0000
0011
0000
0001
1000
0000
,
1001
0000
0000
1010
0000
0010
0100
0000
0110
0000
0000
0000
1001
0000
0000
0000
,
0002
0000
0203
0000
0310
0001
0010
0100
,
0002
0000
0023
0000
0130
0010
0100
1000
,
0001
0000
0000
1000
0100
0010
0001
0010
0100
1000
0000
0000
,
0001
0000
0100
0000
0010
0000
1000
0000
0000
0010
0000
0000
0100
0000
0000
0000
0000
0000
0001
0000
0000
0001
0000
0000
,
2000
0000
3200
0000
0310
1000
0010
0100
,
2000
0000
3020
0000
0130
0010
0100
0001
,
2000
0000
0000
0000
,
0000
0000
0000
0000
,
3001
0100
0020
0000
0230
0000
0301
0001
,
0020
0000
0130
0100
0020
0000
0032
0000
,
1003
1000
0020
0000
0130
0000
0020
0000
,
1030
0000
0000
0000
0020
0000
0000
0000
0130
0000
0010
0000
0001
0000
0010
0100
,
0020
0000
0000
0000
0000
0000
1030
0000
0000
1000
0000
0000
0020
0000
0000
0000
0000
0000
0000
0000
0000
0130
0000
0001
,
0000
0100
0000
0020
0000
0000
0000
0000
0000
1030
0000
0000
1000
0000
0000
0020
0000
0000
0000
0000
0000
0000
0000
0000
,
0130
0000
0100
0000
0020
0000
0000
0000
1030
0001
1000
0001
0020
0000
0000
0000
,
0130
0100
0020
0000
0031
0010
1000
0010
,
0100
0000
0010
0000
0100
0000
1000
0000
0100
0000
0010
0000
0001
0010
0001
0000
,
0100
0001
1000
0010
0100
0010
1000
0010
,
1000
0000
0100
0000
1000
0001
0010
0000
0010
0000
0010
0000
0001
0100
0010
1000
,
0001
0000
0010
0000
0001
1000
0001
0000
0010
0000
0100
0001
0100
0000
0010
0000
,
0010
0001
0010
0010
0100
0010
0001
0010
,
0010
0100
0010
0010
0001
0010
0100
0010
,
0001
0010
1000
0001
0100
0010
0010
0001
,
0100
0000
0010
0000
0010
1000
0001
1000
0010
0000
0001
0000
1000
0000
0100
0000
,
0002
0000
1000
1000
1003
0000
1000
0100
,
0010
0001
0100
0010
2000
0000
0010
0000
,
0001
3200
0010
1000
,
0320
0100
0001
0032
,
0100
1000
2003
0100
,
0010
3020
1000
0100
,
0230
0010
0001
0302
,
0010
0000
0100
0000
1003
0001
1000
0001
,
1000
0001
0100
0010
0100
0010
0100
0010
,
1000
1000
1000
0001
0001
0001
1000
0100
,
0000
0011
0000
1000
0020
0000
0130
0002
,
0000
0103
0010
0001
0010
0100
0001
1000
,
0200
0000
0010
0000
0310
0000
0100
1000
,
0100
0010
1000
0010
0200
0000
0320
0000
,
0032
0000
0000
1003
0100
0010
0001
0100
0010
1000
0000
0000
,
0002
0000
1000
0000
1003
0000
0001
0100
,
1000
0001
0010
1000
0200
0000
0310
0002
,
0000
0013
0100
0001
0100
0010
0001
1000
,
0010
0110
1001
0011
,
1100
1001
1010
0101
,
1001
0110
1001
0110
,
0001
0010
0001
1000
0010
1000
0001
0100
,
0001
1000
0100
1000
1001
0000
1000
0100
,
0000
1000
0100
0000
1000
0100
0010
0000
,
0001
0200
0000
0310
1000
0000
0001
0100
,
0000
0000
0100
0001
0100
0000
0001
0000
1000
0000
0001
0000
0010
0000
1000
0000
,
0010
0100
0010
0100
1000
0000
0010
0000
1000
0000
0001
0000
0100
0000
0001
0000
,
0010
0001
0100
0001
0010
0100
0010
0100
,
1000
0100
0010
0100
0001
0100
1000
0001
,
0100
1000
0100
0001
1000
0100
0001
0100
,
1000
0001
0100
0001
1000
0100
0001
1000
,
0010
0001
1000
0000
0000
0000
0000
0000
;

//---------------dance-single - ----------------
#NOTEDATA:;
#CHARTNAME:;
#STEPSTYPE:dance-single;
#DESCRIPTION:;
#CHARTSTYLE:;
#DIFFICULTY:Beginner;
#METER:5;
#RADARVALUES:0.157213,0.256561,0.015075,0.060301,0.000000,146.000000,144.000000,2.000000,8.000000,0.000000,0.000000,0.000000,0.000000,0.000000,0.157213,0.256561,0.015075,0.060301,0.000000,146.000000,144.000000,2.000000,8.000000,0.000000,0.000000,0.000000,0.000000,0.000000;
#CREDIT:Karl with a K;
#NOTES:
// measure 0
0000
0000
0000
0000
,  // measure 1
0000
0000
0000
0000
,  // measure 2
0000
0000
0000
0000
,  // measure 3
0000
0000
0000
0000
,  // measure 4
0000
0000
0000
0000
,  // measure 5
0000
0000
0000
0000
,  // measure 6
0000
0000
0000
0000
,  // measure 7
0000
0000
0000
0000
,  // measure 8
1000
0000
0000
0000
,  // measure 9
0001
0000
0000
0000
,  // measure 10
1000
0000
0000
0000
,  // measure 11
0010
0000
0000
0000
,  // measure 12
1000
0000
0000
0000
,  // measure 13
0001
0000
0000
0000
,  // measure 14
1000
0000
0000
0000
,  // measure 15
0010
0000
1000
0000
,  // measure 16
0001
0000
0000
0000
,  // measure 17
1000
0000
0000
0000
,  // measure 18
0001
0000
0000
0000
,  // measure 19
0100
0000
0000
0000
,  // measure 20
0001
0000
0000
0000
,  // measure 21
1000
0000
0000
0000
,  // measure 22
0001
0000
0000
0000
,  // measure 23
0100
0000
0001
0000
,  // measure 24
2000
0000
0000
0000
,  // measure 25
0000
0000
0000
0000
,  // measure 26
0000
0000
0000
0000
,  // measure 27
0000
0000
0000
0000
,  // measure 28
3000
0000
0000
0000
,  // measure 29
0000
0000
0000
0000
,  // measure 30
0000
0000
0000
0000
,  // measure 31
0000
0000
0000
0000
,  // measure 32
0001
0000
0010
0000
,  // measure 33
0100
0000
0010
0000
,  // measure 34
0001
0000
0100
0000
,  // measure 35
0010
0000
0100
0000
,  // measure 36
0001
0000
1000
0000
,  // measure 37
0010
0000
0100
0000
,  // measure 38
0010
0000
1000
0000
,  // measure 39
0100
0000
0010
0000
,  // measure 40
0001
0000
1000
1000
,  // measure 41
1000
1000
1000
0000
,  // measure 42
0001
0000
0010
0000
,  // measure 43
0100
0000
1000
0000
,  // measure 44
0000
0001
0001
0001
,  // measure 45
0001
0001
0001
0000
,  // measure 46
1000
0000
0010
0000
,  // measure 47
0100
0000
0001
0000
,  // measure 48
0002
0000
0000
0000
,  // measure 49
0000
0000
0003
0000
,  // measure 50
1000
0000
0100
0000
,  // measure 51
0000
0100
0000
0100
,  // measure 52
0000
0000
0100
0000
,  // measure 53
0100
0000
1000
0000
,  // measure 54
0000
0000
0001
0000
0000
0000
0000
0100
,  // measure 55
0000
0000
0000
0100
0000
0000
0000
0000
,  // measure 56
0100
0000
0100
0000
,  // measure 57
0100
0000
0001
0000
,  // measure 58
1000
0000
0100
0100
,  // measure 59
0100
0000
0100
0100
,  // measure 60
0100
0000
0000
0100
,  // measure 61
0100
0000
1000
0000
,  // measure 62
0001
0000
0100
0100
,  // measure 63
0000
0100
0000
0000
0100
0000
0100
0000
,  // measure 64
0100
0000
0000
0010
0000
0000
0000
0100
,  // measure 65
0000
0000
0010
0000
0000
0100
0000
0000
,  // measure 66
0220
0000
0000
0330
,  // measure 67
0000
0000
2000
0000
,  // measure 68
0000
3000
0000
0000
,  // measure 69
0200
0000
0000
0300
,  // measure 70
0000
0000
0020
0000
,  // measure 71
0000
0030
0000
0000
,  // measure 72
0002
0000
0000
0003
,  // measure 73
0000
0000
0100
0000
,  // measure 74
0000
0100
0000
0000
,  // measure 75
0010
0000
0000
1000
,  // measure 76
0000
0000
1001
0000
,  // measure 77
0000
1000
0000
0000
,  // measure 78
0010
0000
0000
0100
,  // measure 79
0000
0000
0001
0000
,  // measure 80
0000
0100
0000
0000
,  // measure 81
0010
0000
0000
1000
,  // measure 82
1000
1000
1000
0000
,  // measure 83
0000
0100
0000
0000
,  // measure 84
0010
0010
0000
0001
,  // measure 85
0001
0000
0010
0010
,  // measure 86
0000
1000
1000
0000
,  // measure 87
0010
0000
0000
0000
,  // measure 88
0000
0000
0001
0000
,  // measure 89
1000
0000
0001
0000
,  // measure 90
1000
0000
0001
0000
,  // measure 91
1000
0000
0100
0000
,  // measure 92
0010
0000
0001
0001
,  // measure 93
0001
0000
1000
1000
,  // measure 94
1000
0000
0001
1000
,  // measure 95
0001
0000
0010
0100
,  // measure 96
0010
0000
0000
0000
0001
0000
0000
1000
,  // measure 97
0000
0001
0000
0000
;

//---------------dance-single - XO DS- JA- TS- JU-----------------
#NOTEDATA:;
#CHARTNAME:;
#STEPSTYPE:dance-single;
#DESCRIPTION:XO DS- JA- TS- JU-;
#CHARTSTYLE:;
#DIFFICULTY:Medium;
#METER:12;
#RADARVALUES:0.493175,0.623078,0.105527,0.211053,0.018844,458.000000,444.000000,14.000000,28.000000,0.000000,0.000000,0.000000,0.000000,0.000000,0.493175,0.623078,0.105527,0.211053,0.018844,458.000000,444.000000,14.000000,28.000000,0.000000,0.000000,0.000000,0.000000,0.000000;
#CREDIT:VanEden;
#NOTES:
0000
0000
0000
0000
,
0000
0000
0000
0000
,
0000
0000
0000
0000
,
0000
0000
0000
0000
,
0000
0000
0000
0000
,
0000
0000
0000
0000
,
0000
0000
0000
0000
,
0000
0000
0000
0000
,
2000
0000
0000
3010
0000
0010
1000
0000
,
0001
1000
0001
0000
0000
0100
0000
0010
,
2000
0000
0000
3010
0000
0010
1000
0000
,
1000
0001
0010
0000
0100
0010
0001
0100
,
0002
0000
0000
0013
0000
0010
0001
0000
,
1000
0001
1000
0000
0000
0010
0000
0100
,
0001
0000
1000
0001
0000
1000
0100
0000
,
0010
0001
1000
0000
0010
0100
0010
1000
,
0200
0000
0000
0010
0000
0000
0310
0000
,
0010
0100
0020
0000
0000
0031
0000
0001
,
2000
0000
0000
0010
0000
3010
0100
0000
,
0001
1000
0010
0000
1000
0100
0010
0001
,
0200
0000
0000
0010
0000
0000
0310
0000
,
0010
1000
0001
0000
0010
0100
0000
1000
,
0100
0000
0010
0100
0000
0100
1000
0000
,
0001
1000
0001
0100
0010
1000
0001
0000
,
2002
0000
0000
0000
,
0000
0000
0000
0000
,
0000
0000
0000
0000
,
0000
0000
0000
3003
,
1000
0000
0010
0000
0000
0100
0010
0000
,
0100
0000
0001
0000
0000
0010
0001
0000
,
0010
0000
0100
0000
0000
1000
0100
0000
,
0010
0000
0001
0000
1000
0001
1000
0000
,
1001
0000
0001
1000
0001
0000
1000
0100
,
0000
0100
0010
0000
0001
0010
0100
0000
,
1000
0000
0001
0100
0000
0100
0010
1000
,
0010
0000
1000
0000
0100
0010
0001
1000
,
0001
0000
1000
0001
0100
0000
0001
0010
,
0000
0010
0100
0000
1000
0100
0010
0001
,
2000
0000
3001
0000
0001
0010
0100
1000
,
0002
0000
1003
0000
0010
1000
0100
0010
,
0001
0000
0000
0000
0200
0000
0000
0000
0310
0000
0000
0010
0000
0000
0010
0000
,
0100
0000
0000
0100
0000
0000
0100
0000
0010
0000
0000
0000
0100
0000
0000
0000
,
1001
0000
1000
0000
0010
1000
0010
0100
,
0001
0000
0010
0000
0100
0010
0100
1000
,
0001
0000
0000
1000
0000
1000
0001
0000
0001
0010
0000
0000
,
0100
0000
0000
0000
0100
0000
0010
0000
0000
0001
0000
0000
1000
0000
0000
0000
0000
0000
0010
0000
0000
0000
0000
0000
,
0110
0000
0100
0000
0001
1000
0010
1000
,
0100
0000
0010
0000
0001
0010
0001
1000
,
0200
0000
0000
0000
,
0000
0000
0000
0000
,
1300
1000
0000
0000
0001
0000
1000
1000
,
0000
0000
0010
0010
0000
0000
0100
0000
,
0010
0010
0000
0000
0100
0000
0101
0000
,
0001
0000
1001
0000
1000
0100
0010
0100
,
0100
0000
0010
0010
0000
0000
0001
2000
,
0000
3001
0000
0100
0010
0010
0000
0000
,
0100
0100
0000
0000
0001
0010
0001
0000
,
1000
0100
1000
0000
0010
1000
0001
0100
,
0001
0000
0001
1000
0001
0000
1000
0000
,
1000
0100
1000
0000
1000
0000
0010
0000
,
0010
0100
0010
0000
0010
0000
1000
0001
,
1000
0000
0100
0001
0000
0100
1000
0000
,
0001
0010
0100
0000
0010
0001
1000
0001
,
1000
0000
0010
0100
0010
0100
0001
0000
,
1000
0100
1000
0001
1000
0010
0100
0000
,
0001
0100
0001
1000
0001
0010
0100
0010
,
0100
0000
0000
0100
1000
0100
0010
0000
,
0000
0011
0000
0000
1001
0000
1000
0000
,
0100
0000
0010
0001
0010
0000
0100
0000
,
1000
0000
0001
0000
0100
0000
0010
1000
,
0010
1000
0002
1000
,
0013
0200
0010
1300
,
0010
0000
0000
0010
1000
0000
0001
0000
,
1000
0001
0010
0100
0020
0000
0001
0000
,
0031
0002
1000
1003
,
0220
0000
0330
1001
,
0000
0000
0000
0000
1000
0000
0001
0100
,
0000
0001
0010
0000
0100
0010
0100
0000
,
2000
0000
0100
0000
3100
0000
0100
1000
,
0100
0010
0001
1000
0001
0000
0002
0000
,
0203
2300
3002
0023
,
2030
0001
3001
1001
,
0001
0100
0010
1000
0001
0000
0010
0100
,
0000
0010
0100
1000
0001
1000
0000
0010
,
1000
0000
0001
1000
0010
0000
1000
0000
,
0001
0010
0100
0000
0010
0000
0001
1000
,
0100
0020
0100
0130
,
0100
0010
0100
0010
0001
0010
0001
1000
,
0001
1000
0010
0100
0001
0000
1000
0010
,
0000
0010
1000
0000
0001
1000
0001
0000
,
0010
0001
0000
1000
0100
0000
1000
0010
,
0000
0010
1000
0000
0001
0100
0001
0000
,
1000
0100
0010
0001
1000
0000
1001
0000
,
0001
1000
0100
0000
1000
0000
0011
0000
,
0001
0100
0010
0000
1000
0010
1000
0010
,
1000
0001
1000
0001
0010
0100
1000
0001
,
1000
0010
0100
0010
1000
0001
0000
0001
,
1000
1001
0000
0000
;

//---------------dance-single - ----------------
#NOTEDATA:;
#CHARTNAME:;
#STEPSTYPE:dance-single;
#DESCRIPTION:;
#CHARTSTYLE:;
#DIFFICULTY:Easy;
#METER:9;
#RADARVALUES:0.339193,0.476471,0.150752,0.120602,0.000000,315.000000,295.000000,20.000000,16.000000,0.000000,0.000000,0.000000,0.000000,0.000000,0.339193,0.476471,0.150752,0.120602,0.000000,315.000000,295.000000,20.000000,16.000000,0.000000,0.000000,0.000000,0.000000,0.000000;
#CREDIT:VanEden;
#NOTES:
// measure 0
0000
0000
0000
0000
,  // measure 1
0000
0000
0000
0000
,  // measure 2
0000
0000
0000
0000
,  // measure 3
0000
0000
0000
0000
,  // measure 4
0000
0000
0000
0000
,  // measure 5
0000
0000
0000
0000
,  // measure 6
0000
0000
0000
0000
,  // measure 7
0000
0000
0000
0000
,  // measure 8
0001
0000
0000
0010
0000
0000
0001
0000
,  // measure 9
0001
0000
1000
0000
0000
0100
0000
0000
,  // measure 10
1000
0000
0000
0001
0000
0000
0001
0000
,  // measure 11
1000
0010
0100
0001
,  // measure 12
1000
0000
0000
0010
0000
0000
1000
0000
,  // measure 13
1000
0000
0001
0000
0000
0100
0000
0000
,  // measure 14
0001
0000
0000
1000
0000
0000
1000
0000
,  // measure 15
0001
0010
0100
1000
,  // measure 16
0001
0000
0000
0001
0000
0000
1000
0000
,  // measure 17
1000
0000
0001
0000
0000
0010
0000
0000
,  // measure 18
0010
0000
0000
0100
0000
0000
0100
0000
,  // measure 19
1000
0001
0100
0010
,  // measure 20
1000
0000
0000
0001
0000
0000
0001
0000
,  // measure 21
1000
0000
1000
0000
0000
0001
0000
0000
,  // measure 22
0100
0000
0000
0100
0000
0000
0100
0000
,  // measure 23
0010
1000
0001
1000
,  // measure 24
2002
0000
0000
0000
,  // measure 25
0000
0000
0000
0000
,  // measure 26
0000
0000
0000
0000
,  // measure 27
0000
0000
0000
3003
,  // measure 28
0001
0100
0000
0100
,  // measure 29
1000
0100
0000
0100
,  // measure 30
0001
1000
0000
1000
,  // measure 31
0001
0000
0010
0000
0001
1000
0001
0000
,  // measure 32
1000
0000
0010
0000
0100
0000
0000
0100
,  // measure 33
0000
0010
1000
0001
,  // measure 34
0001
0000
0000
1000
0000
0000
0010
0000
,  // measure 35
0010
0000
0100
0000
0010
0100
0010
0000
,  // measure 36
1000
0000
0001
0000
0100
0000
0000
0100
,  // measure 37
0000
0010
1000
0001
,  // measure 38
0010
0001
1000
0001
,  // measure 39
0010
0000
0010
0000
0001
1000
0001
1000
,  // measure 40
0001
0000
0001
1010
,  // measure 41
1000
0000
0011
0000
0001
1000
1000
0000
,  // measure 42
0010
1000
0001
0010
,  // measure 43
0100
0010
0100
1000
,  // measure 44
0001
0000
1100
1000
,  // measure 45
0001
1000
0101
0001
,  // measure 46
1000
0001
0010
0001
,  // measure 47
1000
0010
1000
0100
,  // measure 48
0020
0000
0000
0000
,  // measure 49
0000
0000
0000
0000
,  // measure 50
0130
0000
0110
0010
,  // measure 51
0000
0001
0000
1001
,  // measure 52
1000
0000
1001
0001
,  // measure 53
1000
0010
1000
0001
,  // measure 54
1001
0000
0010
0000
0110
0000
0000
0100
,  // measure 55
0000
1100
0000
0000
1000
0000
0000
0000
,  // measure 56
0001
0000
0101
0000
,  // measure 57
0100
0000
0010
1000
,  // measure 58
0001
0001
1000
0010
,  // measure 59
1000
1000
0001
0010
,  // measure 60
0100
0010
0010
0100
,  // measure 61
1000
0001
1000
0001
,  // measure 62
1001
1000
0010
0010
,  // measure 63
1000
1000
0001
0010
,  // measure 64
0100
0100
0010
0001
,  // measure 65
1000
0000
0010
0000
0100
0000
0001
1000
,  // measure 66
0001
0000
0001
0010
,  // measure 67
0000
0100
0000
0000
2000
0000
0000
0000
,  // measure 68
0000
0010
0000
0001
,  // measure 69
3002
0000
0000
0100
,  // measure 70
0000
0000
0010
0000
0023
0000
0000
0130
,  // measure 71
0000
0200
1000
1300
,  // measure 72
0001
0000
1000
0010
,  // measure 73
1000
0000
0001
1000
0002
0000
0000
0000
,  // measure 74
0000
2003
0000
3000
,  // measure 75
0220
0000
0330
1001
,  // measure 76
0000
0000
0000
0000
0001
0000
0000
0010
,  // measure 77
0000
0010
0100
1000
,  // measure 78
0002
1000
1003
1000
,  // measure 79
0010
0100
0001
1000
,  // measure 80
0100
0010
0100
0010
,  // measure 81
0002
0010
0013
0110
,  // measure 82
0000
0000
0000
0000
1001
0000
0000
0001
,  // measure 83
0000
1000
0010
1000
,  // measure 84
0002
0010
0013
2000
,  // measure 85
0100
3100
0002
0100
,  // measure 86
0103
0010
1000
0001
,  // measure 87
0010
0001
0010
0000
0100
0010
0100
0000
,  // measure 88
1000
0100
1000
0000
1001
0000
0000
1000
,  // measure 89
0000
0010
1000
0001
,  // measure 90
0000
0100
0000
0000
0001
0000
0000
0001
,  // measure 91
0000
0010
0100
1000
,  // measure 92
0010
1000
0001
0100
,  // measure 93
0001
0100
0001
0000
1000
0000
0001
0000
,  // measure 94
1000
0001
1000
0000
0010
0000
1000
0000
,  // measure 95
0010
1000
0010
0000
1000
0000
0100
0000
,  // measure 96
0010
0000
0001
1000
0001
0000
0000
0110
,  // measure 97
0000
1001
0000
0000
;

//---------------dance-double - ----------------
#NOTEDATA:;
#CHARTNAME:;
#STEPSTYPE:dance-double;
#DESCRIPTION:;
#CHARTSTYLE:;
#DIFFICULTY:Challenge;
#METER:18;
#RADARVALUES:0.748377,1.026246,0.158290,0.256279,0.410800,695.000000,674.000000,21.000000,34.000000,0.000000,0.000000,0.000000,0.000000,0.000000,0.748377,1.026246,0.158290,0.256279,0.410800,695.000000,674.000000,21.000000,34.000000,0.000000,0.000000,0.000000,0.000000,0.000000;
#CREDIT:Karl with a K;
#NOTES:
00000000
00000000
00000000
00000000
,
00000000
00000000
00000000
00000000
,
00000000
00000000
00000000
00000000
,
00000000
00000000
00000000
00000000
,
00000000
00000000
00000000
00000000
,
00000000
00000000
00000000
00000000
,
00000000
00000000
00000000
00000000
,
00000000
00000000
00000000
00000000
,
20010000
00000000
31000000
10000000
00000000
01000000
00100000
00000000
,
01000000
00100000
00010000
00000000
00001000
00000020
00000000
00000130
,
00000002
00000000
00000000
00000000
00000103
00000000
00000001
00000000
00000000
00000000
00000001
00000100
00000001
00000000
00001000
00000000
,
00000010
00000000
00010000
00000000
00001000
00000000
01000000
00000000
00100000
01000000
00100000
01000000
00100000
00000000
10000000
00000000
,
00020000
00000000
01030000
00010000
00000000
00010000
20000000
00000000
,
30010000
00100000
00010000
00100000
00010000
00000000
00000000
00000000
01000000
00000000
00002000
00000000
00000000
00000000
00013000
00000000
,
00010000
00000000
00000000
00000000
00000100
00000000
00001000
00000000
00000000
00000000
00000100
00001000
00000100
00000000
00001000
00000000
,
00000001
00000100
00000010
00000100
00000010
00001000
00000010
00010000
00001000
00100000
00010000
01000000
00100000
00000000
10000000
00000000
,
10020000
00000000
00130000
00110000
00000000
00001000
00101000
00000000
,
00001000
00010000
00010100
00000000
00000100
00000002
00000000
00001003
,
00000020
00000000
00000000
00000000
00000031
00000000
00001001
00000000
00000000
00000000
00000001
00000100
00000010
00000000
00001000
00000000
,
00000100
00000000
00010000
00000000
00001000
00000000
00010000
00000000
00001000
00100000
00001000
00100000
00001000
00000000
00010000
00000000
,
00011000
00000000
00000010
00001010
00000000
00010000
00010010
00000000
,
00010000
00001000
01000000
00010000
01000000
00000000
00000000
00000000
01000000
00000000
20000000
00000000
00000000
00000000
30010000
00000000
,
00200000
00000000
00000000
00000000
10300000
00000000
00010000
00000000
00000000
00000000
00100000
00010000
00100000
00000000
00010000
00000000
,
10000000
00100000
01000000
00100000
01000000
00010000
01000000
00001000
00010000
00000100
00001000
00000010
00000100
00000000
00000001
00000000
,
00002002
00000000
00000000
00000000
,
00000000
00000000
00000000
00000000
,
00000000
00000000
00000000
00000000
,
00000000
00000000
00000000
00003003
,
00001001
00000000
00000001
00000100
00000000
00000010
00010000
00001000
,
00100000
00000000
00010000
01000000
00000000
00100000
10000000
00010000
,
10000000
00000000
01000000
00100000
00000000
00001000
00010000
00000100
,
00000010
00000000
00000010
00000000
00000001
00000000
00000000
00000000
00000001
00000100
00000010
00000000
00000010
00001000
00000010
00001000
,
00000010
00000000
00000100
00001000
00010000
00100000
01000000
00100000
,
00000000
10000000
10000000
00100000
00010000
00100000
10000000
01000000
,
00010000
01000000
00100000
01000000
00000000
00100000
00001000
00010000
,
00000100
00000001
00000001
00000100
00000010
00001000
00010000
01000000
,
10000000
00000000
00100000
10000000
00010000
01000000
00100000
01000000
,
00000000
10000000
00010000
00100000
10000000
00010000
00100000
00001000
,
00010000
00000000
00011000
00000000
00001000
00000010
00000001
00001000
,
00000001
00000000
00000100
00000000
00000100
00000000
00001000
00000000
00001000
00000000
00010000
00001000
00010000
00000000
01000000
00000000
,
00100000
00000000
00000000
00000000
00002000
00000000
00000000
00000000
00013000
00000000
00000000
00001000
00000000
00000010
00000001
00000000
,
00000100
00000000
00000000
00001000
00000000
00010000
00001000
00000000
00010000
00000000
00100000
00000000
10000000
00000000
10000000
00000000
,
10000000
01000000
00100000
01000000
01000000
00100000
00010000
01000000
,
00001000
00000000
00010000
00001000
00010000
00000000
00001000
00010000
00000100
00000000
00000010
00000001
00000100
00000000
00000001
00000000
,
00001000
00000000
00000000
00000001
00000100
00001000
00010000
00001000
00010000
01000000
00000000
00000000
,
10000000
00000000
00000000
00000000
00100000
00000000
00000000
00000000
00010000
00000000
00000000
00000000
00100000
00000000
00000000
00000000
00000000
00000000
01000000
00000000
00000000
00000000
00000000
00000000
00010000
00000000
00000000
00000000
00000000
00000000
00000000
00000000
00000000
00000000
00000000
00000000
00100000
00000000
00000000
00010000
00000000
00000000
00100000
00000000
00000000
00010000
00000000
00000000
,
00100000
00000000
00010000
00000000
01000000
00000000
00001000
00010000
00001000
00000000
00010000
00000000
00000010
00000000
00001000
00000000
,
00000001
00000100
00000001
00000100
00000010
00000000
00001000
00000100
00001000
00000100
00000010
00000000
00001000
00000000
00010000
00000000
,
00022000
00000000
00000000
00000000
,
00000000
00000000
00000000
00033000
,
10010000
10000000
00100000
00100000
02000000
00000000
03001000
00010000
,
00000010
00000010
00010000
00001000
00100000
00100000
02000000
00000000
,
03010000
00001000
00000010
00000010
00002000
00000000
00103000
00100000
,
00002000
00000000
00000000
00000000
00003010
00000000
00000010
00000000
00000001
00000000
00000100
00000000
00001000
00000000
00010000
00001000
,
00100000
00000000
00000000
00100000
00000000
00000000
00001000
00000000
00000000
00010000
00000000
00000000
00000010
00000000
00000000
00000010
00000000
00000000
00000010
00000000
00000000
00000100
00000000
00001000
,
00000000
00010000
00000000
00100000
00000000
00000000
00100000
00000000
00000000
00010000
00000000
00000000
00001000
00000000
00000000
00000010
00000000
00000000
00000010
00000000
00000000
00000010
00000000
00000000
,
00001000
00000000
00010000
00000000
00100000
00000000
00100000
00000000
01000000
00001000
00010000
00000000
00000010
00000000
00000010
00000000
,
00010000
00001000
00100000
00100000
00010000
10000000
01000000
00010000
,
00001000
00000000
00000010
00000000
00001000
00000000
00010000
00000000
01000000
00000000
00100000
00000000
00001000
00010000
00000010
00000000
,
00010000
00001000
01000000
00000000
00010000
00000000
00100000
00000000
00001000
00000000
00000010
00000000
00001000
00000000
00100000
00000000
,
00010000
00000000
01000000
00000000
00001000
00010000
00000010
00000000
00000010
00000000
00000010
00000000
00001000
00000100
00010000
00001000
,
00010000
00000000
00100000
00000000
01000000
00001000
00010000
00000000
00000010
00000000
00000100
00001000
00010000
00000000
00100000
00000000
,
00100000
00000000
00010000
00001000
00000010
00000000
00000010
00000000
00001000
00010000
00100000
00000000
00010000
00001000
00000010
00000000
,
00000010
00000000
00001000
00000000
00100000
00010000
00100000
00000000
00001000
00000000
00000010
00000000
00010000
00000000
00100000
00000000
,
00001000
00000010
00000010
00001000
00010000
00100000
00100000
00100000
,
00001000
00000000
00000010
00000000
00001000
00000001
00010000
00001000
00100000
00000000
00010000
00000000
10000000
00000000
01000000
00000000
,
01100000
00000000
10000000
01000000
00100000
00001000
00011000
00000000
,
01000000
00001000
00000000
00010000
00000100
00000010
00000001
00000100
,
00000010
00000000
00000000
00000000
00010000
00001000
00010000
00000000
00001000
00000000
01000000
00000000
00010000
00000000
00000000
00000000
,
10000000
00000000
01000000
00000000
00100000
00000000
00001000
00000000
00010000
00000000
00000000
00000000
00000010
00001000
00000010
00000000
,
00000100
00000001
00001000
00000000
00000001
00000100
00000010
00010000
,
00001000
00000000
00010000
00001000
00100000
00010000
00100000
00010000
,
02000000
00000000
00000000
00000000
03000000
00000000
00010000
00100000
00010000
00000000
01000000
00000000
00100000
00000000
10000000
00000000
,
01000000
00100000
00001000
00010000
00020000
00000100
00000100
00000000
,
00000100
00000000
00030020
00001000
00001000
00000000
00001000
00000000
,
00010030
00001000
00010000
00001000
00010000
00001000
00010000
00001000
00010000
00001000
00010000
00001000
00100000
00000000
00010000
00000000
,
00000000
00001000
00000000
00000100
00000120
00000000
00000031
00000020
,
00000000
00000000
00001030
00000000
00010000
00000010
00010000
00000000
00001000
00000000
00100000
00000000
00010000
00000000
10000000
00000000
,
02000000
00100000
00100000
13000000
,
01000000
00000000
00000000
00100000
00000000
00000000
00010000
00000000
00000000
10000000
00000000
00000000
00010000
00000000
00000000
00000000
00000000
00000000
00010000
00000000
00100000
00000000
00010000
00000000
,
01000000
00001000
01000000
00001000
00010000
00000100
00000010
00000001
00000100
00000010
00010000
00001000
,
00200000
00000000
00000000
00000000
00010000
00000000
00000000
00000000
00010000
00000000
00000000
00000000
00310000
00000000
01000000
00100000
,
10000000
00000000
01000000
00000000
10000000
01000000
00100000
00001000
00010000
00000000
00000000
00001000
01000000
00000000
00100000
00000000
,
10000000
01000000
00010000
00001000
00010000
00000010
00001000
00000001
,
00000100
00000000
00010010
00000000
00201000
00000000
01300000
10000000
,
00100000
00010000
00001000
00100000
01000000
00010000
00001000
00000010
,
00000001
00000100
00000020
00000000
00002030
00000000
00023000
00000000
,
01030000
00100000
00010000
10000000
01000000
00010000
00100000
00010000
,
00001000
00000100
00000010
00000001
00001002
00000000
00000103
00000001
,
00000000
00000100
00000010
00000000
00000100
00000010
00001000
00000000
,
00010000
00200000
00000000
01300000
20000000
00000000
31000000
10000000
,
00000000
00000000
10000000
01000000
10000000
00000000
00010000
00000000
00100000
00000000
00001000
00000000
00010000
00000000
00000100
00000000
,
00000010
00000100
00000010
00000100
00000010
00000000
00000001
00000000
00001000
00000000
00000001
00000010
00000001
00000000
00001000
00000010
,
00001000
00000000
00000100
00010000
00000100
00000000
00010000
00001000
00010000
00000000
00001000
01000000
00001000
00000000
01000000
00100000
,
01000000
00000000
00010000
10000000
00010000
00000000
00010000
00000000
00100000
00000000
00100000
00000000
00010000
00000000
00010000
00000000
,
10000000
00000000
10000000
00000000
00010000
00000000
00010000
00000000
10000000
01000000
00100000
00010000
10000000
00100000
01000000
00001000
,
00010000
00000100
00000010
00000001
00001000
00000000
00000001
00000000
00000100
00001000
00010000
00001000
00100000
00000000
01000000
00010000
,
00001000
00010000
00000010
00000000
00011000
00000000
00000000
00000000
00000000
00000000
00000000
00000000
00000000
00000000
00000000
00000000
;
