#VERSION:0.83;
#TITLE:Mk RM2;
#SUBTITLE:~the contraption~;
#ARTIST:Z-I-v Sound Team "Karl with a K";
#TITLETRANSLIT:;
#SUBTITLETRANSLIT:;
#ARTISTTRANSLIT:;
#GENRE:;
#ORIGIN:;
#CREDIT:;
#BANNER:Mk RM2 the contraption banner.png;
#BACKGROUND:Mk RM2 the contraption bg.png;
#PREVIEWVID:;
#JACKET:Mk RM2 the contraption jk.png;
#CDIMAGE:;
#DISCIMAGE:Mk RM2 the contraption file graphic.png;
#LYRICSPATH:;
#CDTITLE:;
#MUSIC:Mk RM2 the contraption.ogg;
#OFFSET:-0.000000;
#SAMPLESTART:12.800000;
#SAMPLELENGTH:15.000000;
#SELECTABLE:YES;
#BPMS:0.000=300.000;
#STOPS:;
#DELAYS:;
#WARPS:;
#TIMESIGNATURES:0.000=4=4;
#TICKCOUNTS:0.000=4;
#COMBOS:0.000=1;
#SPEEDS:0.000=1.000=0.000=0;
#SCROLLS:0.000=1.000;
#FAKES:;
#LABELS:0.000=Song Start;
#BGCHANGES:;
#KEYSOUNDS:;
#ATTACKS:
;

//---------------dance-single - XO DS JA- BU RH TS- STR[{1-1}@225/7@150/3@225] JU----------------
#NOTEDATA:;
#CHARTNAME:;
#STEPSTYPE:dance-single;
#DESCRIPTION:XO DS JA- BU RH TS- STR[{1-1}@225/7@150/3@225] JU;
#CHARTSTYLE:;
#DIFFICULTY:Challenge;
#METER:19;
#RADARVALUES:1.082317,1.625000,0.320122,0.167683,0.910823,994.000000,952.000000,42.000000,22.000000,0.000000,0.000000,0.000000,0.000000,0.000000,1.082317,1.625000,0.320122,0.167683,0.910823,994.000000,952.000000,42.000000,22.000000,0.000000,0.000000,0.000000,0.000000,0.000000;
#CREDIT:Karl with a K;
#NOTES:
0000
0000
0000
0000
,
0000
0000
0000
0000
,
0000
0000
0000
0000
,
0000
0000
0000
0000
,
1000
0001
0100
0001
,
0010
0001
1000
0100
,
1000
0010
1000
0001
,
1000
0100
0010
0001
,
1000
0010
0010
1000
,
1000
0001
0001
0001
,
0001
0010
0010
0001
,
0001
1000
1000
1000
,
1000
0100
0100
0010
,
0010
0001
0001
0001
,
0001
0100
0100
0010
,
0010
1000
1000
0001
,
1001
0000
1000
0100
1000
0001
1000
0100
,
0000
0010
0001
0000
1000
0000
1001
0000
,
0001
0100
0010
1000
0001
0000
1001
0000
,
1000
0100
0010
0001
1000
0000
1001
0000
,
0001
0100
0000
0100
0010
0100
0001
1000
,
0010
0000
0100
0010
0000
1000
0000
0010
,
0000
1000
0100
1000
0100
0010
0000
0010
,
0001
1000
0001
1000
0001
0010
0000
0010
,
0002
0000
0103
0001
0010
0100
1000
0010
,
0000
0100
0010
0000
1000
0000
0001
0000
,
1000
0100
0010
0100
0001
0000
0100
0000
,
1000
0010
0100
0010
0001
0000
0010
0000
,
0100
0010
0000
0100
0010
1000
0001
1000
,
0001
0000
0100
0001
0000
0010
0000
0010
,
0000
0001
1000
0001
0100
0010
0000
0010
,
1000
0100
0010
0100
1000
0010
0000
0001
,
0010
0000
0000
0000
0000
0000
1000
0000
0001
0000
1000
0000
0001
0000
0000
1000
0000
0000
0001
0000
0000
0010
0000
0000
,
0000
0100
0010
0000
0210
0000
0301
0000
,
0100
0000
0000
1000
0000
0000
0001
0000
1000
0000
0001
0000
1000
0000
0000
0000
0000
0000
1010
0000
0000
0000
0000
0000
,
1000
0000
0100
0000
1000
0000
0001
0000
0000
0010
0000
0000
0001
0000
0000
0000
0000
0000
0011
0000
0000
0000
0000
0000
,
1000
0000
0000
0010
0000
0000
0000
0000
0000
0010
0000
0000
0100
0000
0000
0001
0000
0000
0000
0000
1000
0000
0001
0000
,
1000
0000
0001
0100
0000
0101
0000
1100
,
0000
0000
0000
1000
0000
0000
0001
0000
1000
0000
0001
0000
1000
0000
0000
0001
0000
0000
0000
0000
0000
0001
0000
0000
,
0000
0000
0000
0100
0000
0000
0001
0000
0100
0000
0001
0000
0100
0000
0000
0010
0000
0000
0000
0000
0000
0010
0000
0000
,
1000
0000
0000
0000
0000
0000
0100
0000
0000
0001
0000
0000
0100
0000
0010
0000
0100
0000
1000
0000
0000
0010
0000
0000
,
0000
0100
0010
0000
0001
0000
0001
0000
,
0010
0000
0100
0000
0010
0000
1000
0000
0000
0001
0000
0000
0010
0000
0000
0000
0000
0000
0010
0000
0000
0000
0000
0000
,
0100
0000
0000
1000
0000
0000
0100
0000
0010
0000
0001
0000
0010
0000
0000
0000
0000
0000
0010
0000
0000
0000
0000
0000
,
0001
0000
0000
1000
0000
0000
0000
0000
0000
0001
0000
0000
1000
0000
0100
0000
0010
0000
0001
0000
0000
0100
0000
0000
,
0010
0000
0100
0010
0000
0010
0000
0010
,
0000
0000
0000
1000
0000
0000
0001
0000
0100
0000
0010
0000
1000
0000
0000
0001
0000
0000
0000
0000
0000
0001
0000
0000
,
0000
0000
0000
0001
0000
0000
1000
0000
0000
0000
0100
0000
1000
0000
0000
0010
0000
0000
0000
0000
0000
0010
0000
0000
,
0001
0010
0000
0000
0000
0000
0000
0000
,
0010
0000
0000
1000
0000
0000
0100
0000
0010
0000
0001
0000
1000
0000
0000
0000
0000
0000
0000
0000
0000
0000
0000
0000
,
0000
0000
0001
1000
0000
0000
1010
0000
,
0000
0000
0000
1000
0000
0000
0100
0010
0001
1000
0010
0100
,
0001
0000
0000
0000
1000
0000
1000
0001
,
0100
0010
1000
0001
0000
0000
1000
0100
0010
0001
0000
0000
,
1000
0000
0000
0100
0000
0000
0000
0000
0010
0000
0100
0000
1000
0000
0001
0000
0100
0000
0010
0000
0000
0000
0000
0000
,
1000
0010
0000
0000
0000
0000
0000
0000
,
1000
0000
0000
0100
0000
0000
0010
0000
0001
0000
0100
0000
0010
0000
0000
0000
0000
0000
0000
0000
0000
0000
0000
0000
,
0000
0000
1000
0001
0000
0000
0011
0000
,
0000
0000
0000
0000
0000
0000
0001
0000
0000
0000
0000
0000
0100
0000
0010
0000
1000
0000
0001
0000
0000
0100
0000
0000
,
0001
0000
0000
1000
0100
1000
0001
0000
0000
0100
0001
0100
,
0010
0000
0000
0100
0000
0000
0010
0000
0000
0000
0000
0000
1000
0000
0100
0000
0010
0000
0001
0000
0000
0000
0000
0000
,
1000
0000
0000
0100
0000
1000
0000
0100
0000
0010
0000
0001
0000
1000
0000
0010
0000
0000
0100
0000
0000
0000
0000
0000
,
1000
0100
0000
0000
0000
0000
0010
0000
,
1000
0100
1000
0100
0010
0100
0001
0000
0000
0000
0000
0000
,
0100
0000
0000
1000
0000
0000
0000
0000
0000
1010
0000
0000
0000
0000
0000
0000
0000
0000
0010
0000
0000
1000
0000
0100
,
0000
0010
0000
0001
0000
0000
0010
0000
0000
0001
0000
0000
0100
0000
0000
0010
0000
0000
0001
0000
0000
0010
0000
0000
,
0100
0000
0010
0000
0100
0000
0001
0000
0000
1000
0000
0010
0000
0100
0000
0001
0000
0000
0010
0000
0000
0100
0000
0000
,
1000
0000
0100
0000
1000
0000
0001
0000
0010
0000
0001
0000
1000
0000
0000
0100
0000
0000
0001
0000
0000
0000
0000
0000
,
0110
0000
0000
0000
0000
0000
0000
0000
0000
0000
0000
0000
0001
0000
0000
0100
0000
0000
0001
0000
0100
0000
0010
0000
,
0001
0000
0000
0000
0001
0010
1000
0000
,
1100
0000
0000
0000
0000
0000
0000
0000
0000
0100
0000
0000
0010
0000
0001
0000
0100
0000
0010
0000
0000
1000
0000
0000
,
0100
0000
0000
0000
0000
0000
0010
0000
0100
0000
1000
0000
0001
0000
0000
0010
0000
0000
0001
0000
0000
0010
0000
0000
,
0001
0000
0100
0000
0010
0000
1000
0000
0000
0010
0000
0000
1000
0000
0100
0000
0010
0000
0001
0000
1000
0000
0010
0000
,
0100
0000
0000
0010
0000
0000
0000
0100
0000
0010
0000
0000
1000
0000
0000
0000
0001
0000
1000
0000
0000
0100
0000
0000
,
0110
0000
0000
0000
0000
0000
0000
0000
0000
0100
0000
0000
0010
0000
0001
0000
0010
0000
0100
0000
1000
0000
0100
0000
,
1000
0000
0000
0001
0100
0010
0001
0000
0000
0010
0000
0000
,
1000
0000
0000
0000
0100
0000
0000
0000
0001
0000
0000
0000
1000
0000
0000
0010
0000
0000
0001
0000
0000
1000
0000
0000
,
0010
0000
0100
0000
0001
0000
0010
0000
0100
0000
1000
0000
0001
0000
0010
0000
0001
0000
0010
0000
0000
0001
0000
0000
,
1001
0000
0000
0000
0000
0000
1000
0100
0010
0001
1000
0001
,
0100
0000
0000
0000
0001
0100
1000
0100
,
0001
0000
0100
0000
0010
0000
1000
0000
0001
0000
1000
0000
0100
0000
0000
0010
0000
0000
0100
0000
0000
0010
0000
0000
,
1000
0000
0000
0000
0000
0000
1000
0010
0100
0010
0001
1000
,
0010
0100
0010
1000
0010
0100
0001
0010
0100
0010
0001
0010
,
0001
1000
0100
1000
0001
1000
0001
0000
0000
0000
0000
0000
,
1010
0000
0000
1010
0000
0000
1000
0010
0100
0001
0100
0010
,
1000
0000
0000
0001
0000
0000
1000
0000
0100
0000
0010
0000
,
0010
0000
0000
0001
0000
0000
0100
0000
0000
0010
0000
0000
0100
0000
0010
0000
0100
0000
0001
0000
1000
0000
0001
0000
,
1000
0000
0100
0000
0010
0000
0001
0000
0000
0010
0000
0000
0001
0000
0100
0000
0010
0000
1000
0000
0010
0000
0100
0000
,
0010
0000
0000
1000
0000
0000
0100
0000
0000
1000
0000
0000
0010
0000
1000
0000
0100
0000
0010
0000
0001
0000
0100
0000
,
0010
0000
0000
0100
0000
0000
0001
0000
0000
0100
0000
0000
0001
0000
0100
0000
0010
0000
1000
0000
0100
0000
0010
0000
,
0001
0010
0001
0010
0001
0010
0100
0010
0100
0010
0100
0010
,
0001
1000
0001
1000
0001
1000
0001
0000
0000
0101
0000
0000
,
2010
0000
0000
0000
,
0000
0000
0000
0000
,
0000
0000
0000
0000
,
0000
0000
0000
0000
,
0000
0000
0000
0000
,
0000
0000
0000
0000
,
0000
0000
0000
0000
,
0000
0000
0000
3000
,
1000
0001
0100
0001
,
1000
0010
1000
0001
,
0010
0001
1000
0100
,
1000
0001
1000
0001
,
2000
0010
3002
0010
,
2003
0100
3002
0100
,
2003
0010
0001
0010
,
3002
0010
0010
0013
,
0001
0100
0010
0100
0001
0010
0100
1000
,
0100
0010
0100
1000
0010
0100
0010
1000
,
0001
0010
0100
0010
0001
0100
0010
1000
,
0010
0100
0010
1000
0100
0010
0100
1000
,
0001
0010
0100
1000
0100
0010
0001
1000
,
0001
0100
0010
1000
0010
0100
0001
1000
,
0010
1000
0001
0010
0001
1000
0010
1000
,
0100
1000
0001
0100
0001
1000
0001
1000
,
0001
0010
0100
1000
0010
0100
0001
1000
,
0100
0010
0001
0100
0010
1000
0100
0010
,
0001
0010
0001
1000
0010
1000
0010
0100
,
0001
0100
0001
1000
0100
1000
0100
0010
,
0001
0000
0000
0100
0000
0000
0010
0000
0000
0100
0000
0000
1000
0000
0000
0100
0000
0000
0010
0000
0100
0000
0010
0000
,
1000
0100
0010
0100
0001
0100
0010
0100
,
0000
0000
0000
1000
0001
1000
0001
0000
0000
0001
0000
0000
,
0001
0000
0001
1000
0001
0000
1000
0000
,
1010
0000
0000
1000
0100
0010
0001
0000
0000
0001
0000
0000
,
0100
1000
0100
0001
1002
0000
0013
0000
,
0011
0000
0000
0001
0100
0010
1000
0000
0000
1000
0000
0000
,
0100
0001
0100
1000
2001
0000
3020
0000
,
0031
0000
0000
0010
0100
0001
0010
0000
0000
0100
0000
0000
,
0010
0001
0100
0010
1000
0000
0021
0000
,
1030
0000
0000
0010
0100
1000
0010
0000
0000
0100
0000
0000
,
0010
1000
0100
0010
0001
0000
1020
0000
,
0031
0000
0000
0010
1000
0001
0010
0000
0000
0100
0000
0000
,
0001
0100
1000
0010
1010
0000
1200
0000
,
0301
0000
0000
0100
1000
0001
0100
0000
0000
0010
0000
0000
,
0001
0010
1000
0100
1100
0000
0021
0000
,
1030
0000
0000
0010
0001
1000
0010
0000
0000
0100
0000
0000
,
1000
0100
0001
0010
0011
0000
0201
0000
,
1300
0000
0000
0100
0000
0000
0001
0000
0010
0000
0002
0000
0100
0000
0000
0000
0000
0000
1003
0000
0010
0000
1000
0000
,
0100
0010
0001
0100
0101
0000
1020
0000
,
0130
0000
0000
0010
0100
0001
0010
0000
0000
0100
0000
0000
,
0110
0000
0000
0010
0001
0100
0010
0000
0000
0100
0000
0000
,
0110
0000
0000
0100
0001
0010
0100
0000
0000
0001
0000
0000
,
0110
0000
0000
0100
0010
0001
0100
0000
0000
0010
0000
0000
,
1002
0000
0000
0013
0100
0001
0100
0000
0000
1000
0000
0000
,
1010
0000
0000
0010
0100
1000
0100
0000
0000
0001
0000
0000
,
0110
0000
0000
0100
1000
0100
0010
0000
0000
1000
0000
0000
,
1100
0000
0000
0100
0001
0100
0010
0000
0000
0001
0000
0000
,
1000
0000
0000
0010
1000
0100
1000
0000
0000
0100
1000
0010
,
1000
0000
0000
1000
0001
0010
0001
0000
0000
0010
0001
0100
,
0001
0000
0000
1000
0100
0010
0100
0000
0000
1000
0010
0100
,
0010
0000
0000
1000
0001
1000
0001
0000
0000
1000
0010
1000
,
0001
0010
0100
1000
0100
0010
0001
0100
0010
1000
0010
0100
,
0001
0010
0100
1000
0100
0010
0001
0100
0010
1000
0010
0100
,
0001
0010
0100
1000
0010
0100
0001
0010
0100
1000
0010
0100
,
0001
0010
0100
1000
0010
0100
0001
0010
0100
1000
0010
0100
,
0220
0000
0000
0000
,
0000
0000
0000
0000
,
0000
0000
0000
0000
,
0000
0000
0000
0000
,
0000
0000
0000
0000
,
0000
0000
0000
0000
,
0000
0000
0000
0000
,
0000
0000
0000
0000
,
0330
0000
0000
0000
;

//---------------dance-single - XO- JA- RH- TS- STR[2@150] JU-----------------
#NOTEDATA:;
#CHARTNAME:;
#STEPSTYPE:dance-single;
#DESCRIPTION:XO- JA- RH- TS- STR[2@150] JU-;
#CHARTSTYLE:;
#DIFFICULTY:Hard;
#METER:17;
#RADARVALUES:0.858014,1.125000,0.198171,0.068598,0.060976,788.000000,762.000000,26.000000,9.000000,0.000000,0.000000,0.000000,0.000000,0.000000,0.858014,1.125000,0.198171,0.068598,0.060976,788.000000,762.000000,26.000000,9.000000,0.000000,0.000000,0.000000,0.000000,0.000000;
#CREDIT:Karl with a K;
#NOTES:
0000
0000
0000
0000
,
0000
0000
0000
0000
,
0000
0000
0000
0000
,
0000
0000
0000
0000
,
1000
0000
0100
0000
,
1000
0000
0001
0000
,
0100
0000
0001
0000
,
0010
0000
0100
0000
,
1000
1000
0010
0100
,
0001
0010
0001
1000
,
0001
0001
0010
0100
,
1000
0010
1000
0100
,
1000
0010
1000
0100
,
1000
0010
1000
0001
,
0010
0001
0100
0001
,
0010
0001
0100
0001
,
1000
0000
0001
0100
0010
0100
0001
0010
,
0000
0100
0010
0000
0001
0000
0001
0000
,
1000
0010
1000
0010
1000
0000
1000
0000
,
0001
0010
0001
0010
0001
0000
0001
0000
,
1000
0010
0000
1000
0100
0010
0001
1000
,
0010
0000
0100
0010
0000
1000
0000
0010
,
0000
1000
0100
0010
0001
1000
0000
0001
,
0100
0010
1000
0001
0010
0001
0000
0001
,
1000
0000
0010
1000
0100
0010
0100
1000
,
0000
0001
0010
0000
0010
0000
0010
0000
,
0001
0100
0010
0100
0001
0000
0001
0000
,
1000
0100
0010
0100
1000
0000
1000
0000
,
0001
0010
0000
0010
0001
1000
0001
1000
,
0010
0000
0100
0010
0000
0010
0000
0010
,
0000
1000
0100
0010
0001
0010
0000
0010
,
0000
0001
0100
0010
1000
0010
0000
0010
,
0002
0000
0023
0000
1030
0100
0010
0001
,
0000
0001
0010
0000
0110
0000
1001
0000
,
1000
0100
2000
0000
3001
0000
1001
0000
,
0002
0000
0103
0001
1000
0000
1001
0000
,
1000
0100
0000
0100
0010
0001
0000
0001
,
1000
0000
1000
0100
0000
0001
0000
0100
,
0000
1000
0001
0000
0001
1000
0000
0010
,
0000
0100
0010
0000
0010
1000
0000
1000
,
0001
0000
0010
1000
0010
0000
0001
0100
,
0000
0100
0001
0000
1100
0000
0011
0000
,
1000
0100
0010
0100
1000
0000
1010
0000
,
0001
0100
0010
0100
0001
0000
0011
0000
,
1000
0001
0000
1000
0100
0010
0001
0000
,
0010
0000
0100
1000
0000
0010
0000
0010
,
0000
1000
0002
0000
1003
0010
0000
0010
,
0000
0010
0100
0000
0001
0010
0000
0010
,
0001
1000
0000
0000
0000
0000
0000
0000
,
1000
0100
1000
0100
1000
0000
0000
0000
,
0000
0000
0001
1000
0000
0000
0110
0000
,
0000
0000
0001
0000
0100
0010
1000
0000
,
0001
0000
0000
0000
1001
0000
1000
0100
,
0010
0100
1000
0000
0001
0100
0001
0000
,
1000
0100
1000
0100
0010
0001
0100
0000
,
0100
0001
0000
0000
0000
0000
0000
0000
,
0001
0100
0001
0100
0001
0000
0000
0000
,
0000
0000
1000
0001
0000
0000
0110
0000
,
0000
0000
1000
0000
0100
0010
0001
0000
,
0010
0000
0001
0100
0010
0000
1000
0100
,
0010
0100
0010
0000
0002
0000
0103
0000
,
0010
1000
0001
1000
0100
0000
1000
0000
,
1000
0010
0000
0000
0000
0000
0010
0000
,
0100
0001
0100
0010
1000
0000
0000
0000
,
0001
1000
0000
1001
0000
0000
1000
0100
,
0010
0001
0100
0000
0010
0100
0010
0100
,
0010
1000
0001
0010
0100
0000
0010
0001
,
1000
0010
0100
0001
1000
0010
1000
0000
,
1001
0000
0000
0000
1000
0100
1000
0010
,
0100
0000
0000
0000
0001
0010
0001
0000
,
0011
0000
0000
0010
0100
1000
0100
1000
,
0001
0000
0001
0100
0010
1000
0000
1000
,
0001
0010
0100
1000
0001
1000
0100
0010
,
0001
0000
0000
0000
0000
0000
0001
0000
1000
0000
0001
0000
,
1000
0000
0000
0000
0100
0010
0100
0010
,
0100
0000
1000
0010
0100
0000
0010
0000
,
1000
0000
0000
0000
0010
0000
0000
0000
0100
0000
0000
0000
0001
0000
0000
1000
0000
0000
0001
0000
0000
1000
0000
0000
,
0001
0010
0100
1000
0010
0100
0001
1000
,
0010
0000
0000
0000
1000
0100
1000
0100
,
0010
0000
0000
0000
0001
0010
0001
0010
,
0100
1000
0100
1000
0010
0100
0001
0100
,
0010
0000
0000
0000
0000
0000
1000
0000
0100
0000
0010
0000
,
0001
0000
0100
0000
0010
0000
1000
0000
0100
0000
0010
0000
,
0001
0000
0100
0000
0010
0000
1000
0000
0000
0000
0000
0000
,
1001
0000
0001
0000
1000
0100
0010
0100
,
1000
0000
0000
0001
0000
0000
0100
0000
0010
0000
0100
0000
,
0010
1000
0100
0000
0010
0000
0100
0000
,
0010
0001
0100
0000
0010
1000
0100
0000
,
1000
0100
0010
0001
0010
0100
1000
0000
,
0001
0100
0010
1000
0010
0100
0001
0000
,
1000
0100
0010
0001
0100
0010
1000
0100
,
0010
0001
0100
0010
1000
0100
0010
0000
,
0220
0000
0000
0000
,
0000
0000
0000
0000
,
0000
0000
0000
0000
,
0000
0000
0000
0000
,
0000
0000
0000
0000
,
0000
0000
0000
0000
,
0000
0000
0000
0000
,
0000
0000
0000
0330
,
1000
0001
1000
0000
,
0100
0010
0100
0000
,
0010
0100
0010
0000
,
0001
1000
0001
0000
,
0100
0010
0100
0000
,
0010
0100
0010
0000
,
1000
0001
1000
0000
,
0001
1000
0100
0000
,
1000
0010
1000
0010
1000
0000
0001
0000
,
1000
0001
0000
0010
0001
0000
0100
0000
,
0001
0010
0001
0010
0001
0000
1000
0000
,
0001
1000
0000
0010
1000
0000
1000
0000
,
0001
0100
0001
0100
0001
0000
1000
0000
,
0001
1000
0000
0100
1000
0000
0010
0000
,
1000
0100
1000
0100
1000
0000
0001
0000
,
1000
0001
0000
0100
0001
0000
0010
0000
,
0001
0100
0010
1000
0001
1000
0001
0000
,
1000
0100
0010
0001
1000
0001
1000
0000
,
0001
0010
0100
1000
0001
1000
0001
0000
,
1000
0010
0100
0001
1000
0001
1000
0000
,
0100
0010
0100
0010
0001
1000
0001
1000
,
0010
0100
0010
0100
0001
1000
0001
0000
,
0000
1000
1000
1000
,
0001
0001
0001
0100
,
0001
0000
0010
0001
0100
0000
0001
0000
,
1000
0010
1000
0010
1000
0000
0001
0000
,
1000
0000
0010
1000
0100
0000
1000
0000
,
0001
0010
0001
0010
0001
0000
0001
0000
,
1000
0000
0100
1000
0010
0000
1000
0000
,
0001
0100
0001
0100
0001
0000
1000
0000
,
0001
0000
0100
0001
0010
0000
0001
0000
,
1000
0100
1000
0100
1000
0000
0010
0000
,
1000
0000
0100
0010
1000
0000
0010
0000
,
0001
0100
0010
1000
0010
0000
0100
0000
,
0010
0000
0100
0010
0001
0000
0010
0000
,
1000
0100
0010
0001
0010
0000
0100
0000
,
0100
0000
0010
0100
0001
0000
0100
0000
,
1000
0010
0100
0001
0100
0000
0010
0000
,
0100
0000
0010
0100
1000
0000
0100
0001
,
0010
0100
1000
0100
0010
0000
1001
0000
,
0110
0000
1000
0010
0100
0000
0001
0000
,
0110
0000
0001
0010
0100
0000
1000
0000
,
1001
0000
1000
0010
0100
0000
0001
0000
,
1001
0000
0001
0010
0100
0000
1000
0000
,
0110
0000
0001
0100
0010
0000
1000
0000
,
0110
0000
1000
0100
0010
0000
0001
0000
,
1001
0000
0001
0100
0010
0000
1000
0000
,
1001
0000
1000
0100
0010
0000
0001
0000
,
1001
0000
1000
0100
0010
0000
0001
0100
,
0010
0000
1000
0100
0010
0000
0001
0100
,
0010
0000
0100
0001
0010
0000
0100
1000
,
0010
0000
0100
0001
0010
0000
0100
1000
,
0010
1000
0100
0010
0001
0100
0010
1000
,
0100
0010
0001
0100
0010
1000
0100
0010
,
0001
0100
0010
0100
1000
0100
0010
0100
,
0001
0000
0000
0010
0000
0000
0100
0000
0000
0010
0000
0000
1000
0000
0000
0010
0000
0000
0100
0000
0010
0000
0100
0000
,
0020
0000
0000
0000
,
0000
0000
0000
0000
,
0000
0000
0000
0000
,
0000
0000
0000
0000
,
0000
0000
0000
0000
,
0000
0000
0000
0000
,
0000
0000
0000
0000
,
0000
0000
0000
0000
,
0030
0000
0000
0000
;

//---------------dance-single - XO- JA- RH- TS- STR[1@150]----------------
#NOTEDATA:;
#CHARTNAME:;
#STEPSTYPE:dance-single;
#DESCRIPTION:XO- JA- RH- TS- STR[1@150];
#CHARTSTYLE:;
#DIFFICULTY:Medium;
#METER:14;
#RADARVALUES:0.617378,1.062500,0.083841,0.053354,0.019055,567.000000,556.000000,11.000000,7.000000,0.000000,0.000000,0.000000,0.000000,0.000000,0.617378,1.062500,0.083841,0.053354,0.019055,567.000000,556.000000,11.000000,7.000000,0.000000,0.000000,0.000000,0.000000,0.000000;
#CREDIT:Karl with a K;
#NOTES:
0000
0000
0000
0000
,
0000
0000
0000
0000
,
0000
0000
0000
0000
,
0000
0000
0000
0000
,
0000
0000
0000
0000
,
0000
0000
0000
0000
,
0000
0000
0000
0000
,
0000
0000
0000
0000
,
1000
0000
1000
0100
,
0010
0000
0001
0000
,
0001
0000
0001
0100
,
0010
0000
1000
0000
,
1000
0000
0100
0000
,
1000
0100
0010
0000
,
0001
0000
0100
0000
,
0001
0100
0010
1000
,
0001
0000
1000
0000
0100
0000
1000
0001
,
0000
1000
0001
0100
,
0010
1000
0100
0010
,
0001
0100
0010
1000
,
0001
1000
0000
0000
0001
0000
0010
0000
,
0001
0000
1000
0010
0000
1000
0000
0000
,
0001
0000
0010
0000
0001
0000
0000
0001
,
1000
0000
0010
0000
1000
0000
0000
1000
,
0001
0000
1000
0000
0100
0000
0010
0100
,
0000
0100
0010
0000
0001
0000
0001
0000
,
1000
0010
1000
1000
,
0001
0010
0001
0001
,
1000
0001
0000
0000
1000
0000
0100
0000
,
0010
0000
0100
0010
0000
0010
0000
0010
,
0000
0000
0001
0000
0100
0010
0000
0010
,
1000
0000
0001
0000
1000
0001
0000
0000
,
1001
0000
0001
0000
0100
0000
0001
1000
,
0000
0001
1000
0100
,
0010
0001
0100
0010
,
1000
0100
0010
0001
,
1000
0001
0000
0000
1000
0000
0010
0000
,
1000
0000
0001
0010
0000
0001
0000
0000
,
1000
0000
0010
0000
1000
0001
0000
0000
,
0001
0000
0010
0000
0001
0000
0000
0001
,
1000
0000
0001
0000
0100
0000
0010
0100
,
0000
0100
0010
0000
1000
0000
1000
0000
,
0001
0010
0001
0001
,
1000
0010
1000
1000
,
0001
1000
0000
0000
0001
0000
0100
0000
,
0010
0000
0100
0010
0000
0010
0000
0010
,
0000
0000
1000
0000
0100
0010
0000
0010
,
0001
0000
1000
0000
0001
1000
0000
0000
,
1001
0000
0000
0000
,
1000
0100
1000
0000
,
0000
0001
0000
0001
,
0000
0001
0200
0000
,
0301
0000
0001
0001
,
1000
0100
1000
0100
,
0010
0100
1000
0100
,
1001
0000
0000
0000
,
0001
0100
0001
0000
,
0000
1000
0000
1000
,
0000
1000
0200
0000
,
1300
0000
1000
1000
,
0001
0100
0001
0100
,
0010
0100
0001
0100
,
0010
0000
1000
0001
,
1000
0000
0100
0000
,
0010
0000
0000
0010
0000
0000
0010
0000
,
0001
0010
0100
1000
,
0001
0100
0010
0001
,
0010
0100
0001
0010
,
0110
0000
1000
0001
,
1000
0000
0000
0000
0000
1000
0001
0000
,
0101
0000
0000
0001
0100
0000
0010
0000
,
1000
0100
0010
0100
,
1000
0010
0100
0010
,
1000
0000
0001
0000
1000
0000
0001
0000
0000
0000
0000
0000
,
1001
0000
0002
0000
,
0103
0100
0010
1000
,
0100
0000
0010
0000
0001
0000
0100
0000
0000
0100
0000
0000
,
0001
1000
0001
1000
,
0010
0000
1000
0100
,
0010
0000
0001
0001
,
0100
0100
0001
0001
,
0010
0000
0001
1000
,
0001
1000
0010
1000
,
0100
0010
0001
0000
,
1000
1000
0100
0010
,
0001
0000
0000
0100
0000
0000
0010
0000
0100
0000
0000
0000
,
0001
0100
0010
1000
,
0100
0010
0100
0010
,
0001
0100
0010
1000
,
0100
0010
0001
1000
,
0001
0100
1000
0100
,
0001
0010
1000
0010
,
0002
0000
0000
0000
,
0000
0000
0000
0000
,
0000
0000
0000
0000
,
0000
0000
0000
0000
,
0000
0000
0000
0000
,
0000
0000
0000
0000
,
0000
0000
0000
0000
,
0000
0000
0000
0000
,
2003
0000
0001
0000
,
0000
0000
0001
0000
,
0000
0000
0001
0000
,
0000
0000
0001
0000
,
0000
0000
0010
0000
,
0000
0000
0001
0000
,
0000
0000
0100
0000
,
0000
0000
0001
0000
,
3001
0000
0100
0010
0100
0000
0001
0000
,
0010
0100
0010
0001
,
1000
0000
0100
0010
0100
0000
1000
0000
,
0010
0100
0010
0010
,
1000
0000
0010
0100
0010
0000
1000
0000
,
0100
0010
0100
1000
,
0001
0000
0010
0100
0010
0000
0001
0000
,
0100
0010
0100
0001
,
1000
0000
0100
0010
0001
0000
0100
0000
,
0001
0000
0100
0010
1000
0000
0100
0000
,
1000
0000
0010
0100
0001
0000
0100
0000
,
0001
0000
0010
0100
1000
0000
0100
0000
,
1000
0000
0010
0000
0100
0000
0001
0010
,
0001
0010
0100
0100
,
0000
2000
3000
1000
,
0001
0000
0001
1000
,
0010
0000
1000
0100
0010
0000
0001
0000
,
0010
0000
0010
0001
0010
0000
0001
0000
,
0010
0000
0001
0100
0010
0000
1000
0000
,
0010
0000
0010
0100
0010
0000
0110
0000
,
0100
0000
0001
0010
0100
0000
1000
0000
,
0100
0000
0100
1000
0100
0000
1000
0000
,
0100
0000
1000
0010
0100
0000
0001
0000
,
0100
0000
0100
0010
0100
0000
0110
0000
,
0010
0000
1000
0100
0010
0000
0100
0000
,
0010
0001
0010
0100
0010
0000
0001
0000
,
0010
0000
0001
0100
0010
0000
0100
0000
,
0010
0100
0010
1000
0010
0000
0110
0000
,
0100
0000
0001
0010
0100
0000
0010
0000
,
0100
1000
0100
0010
0100
0000
1000
0000
,
0100
0000
1000
0010
0100
0000
0001
0100
,
0010
0100
0110
0110
,
1000
0000
0100
0010
0100
0000
1000
0000
,
0001
0000
0100
0010
0100
0000
0001
0000
,
1000
0000
0010
0100
0010
0000
1000
0000
,
0001
0000
0010
0100
0010
0000
0001
0000
,
1000
0000
0100
0010
0100
0000
0010
0000
,
0001
0000
0100
0010
0100
0000
0010
0000
,
1000
0000
0010
0100
0010
0000
0100
0000
,
0001
0000
0010
0100
0010
0000
0100
0000
,
1000
0000
0100
1000
0001
0000
0100
0001
,
1000
0000
0100
1000
0001
0000
0100
0001
,
0010
0000
0001
1000
0010
0000
1000
0001
,
0010
0000
0001
1000
0010
0000
1000
0001
,
0010
0000
0100
0010
0100
0000
0010
0100
,
0010
0000
0100
0010
0100
0000
0010
0100
,
1000
0001
1000
0001
1000
0001
1000
0001
,
1000
0001
1000
0001
1000
0001
1000
0001
,
2000
0000
0000
0000
,
0000
0000
0000
0000
,
0000
0000
0000
0000
,
0000
0000
0000
0000
,
0000
0000
0000
0000
,
0000
0000
0000
0000
,
0000
0000
0000
0000
,
0000
0000
0000
0000
,
3000
0000
0000
0000
;

//---------------dance-single - ----------------
#NOTEDATA:;
#CHARTNAME:;
#STEPSTYPE:dance-single;
#DESCRIPTION:;
#CHARTSTYLE:;
#DIFFICULTY:Easy;
#METER:11;
#RADARVALUES:0.411585,0.625000,0.030488,0.175305,0.000000,378.000000,374.000000,4.000000,23.000000,0.000000,0.000000,0.000000,0.000000,0.000000,0.411585,0.625000,0.030488,0.175305,0.000000,378.000000,374.000000,4.000000,23.000000,0.000000,0.000000,0.000000,0.000000,0.000000;
#CREDIT:Karl with a K;
#NOTES:
// measure 0
0000
0000
0000
0000
,  // measure 1
0000
0000
0000
0000
,  // measure 2
0000
0000
0000
0000
,  // measure 3
0000
0000
0000
0000
,  // measure 4
0000
0000
0000
0000
,  // measure 5
0000
0000
0000
0000
,  // measure 6
0000
0000
0000
0000
,  // measure 7
0000
0000
0000
0000
,  // measure 8
1000
0000
0100
0000
,  // measure 9
1000
0000
0100
0000
,  // measure 10
0010
0000
0001
0000
,  // measure 11
0010
0000
0001
0000
,  // measure 12
1000
0000
0010
0000
,  // measure 13
1000
0000
0010
0000
,  // measure 14
0200
0000
0302
0000
,  // measure 15
0203
0000
0302
0000
,  // measure 16
1003
0000
0000
0000
0100
0000
0000
1000
,  // measure 17
0000
1000
0001
0000
,  // measure 18
0001
0000
0001
0000
,  // measure 19
1000
0000
1000
0000
,  // measure 20
0001
0000
0100
0000
,  // measure 21
0001
0000
0000
0001
0000
0000
0000
0000
,  // measure 22
1000
0000
0001
0000
,  // measure 23
1000
0000
0001
0000
,  // measure 24
0010
0000
0000
0000
0001
0000
0000
0010
,  // measure 25
0000
0010
0001
0000
,  // measure 26
1000
0000
0010
0000
,  // measure 27
1000
0000
0010
0000
,  // measure 28
1000
0000
0100
0000
,  // measure 29
0010
0000
0000
0001
0000
0000
0000
0000
,  // measure 30
0100
0000
0010
0000
,  // measure 31
0100
0000
0010
0000
,  // measure 32
0010
0000
0000
0000
1000
0000
0000
1000
,  // measure 33
0000
0000
1000
0010
,  // measure 34
1000
0000
0001
0000
,  // measure 35
1000
0000
0001
0010
,  // measure 36
0001
0000
0001
0000
,  // measure 37
0001
0000
0000
0100
0000
0010
0000
1000
,  // measure 38
0000
0000
0001
0000
,  // measure 39
1000
0000
0001
0000
,  // measure 40
1000
0000
0000
0000
0100
0000
0000
0010
,  // measure 41
0000
0000
0001
0000
,  // measure 42
1000
0000
1000
0010
,  // measure 43
1000
0000
0001
0010
,  // measure 44
0001
0000
0100
0000
,  // measure 45
0010
0000
0000
1000
0000
0001
0000
1000
,  // measure 46
0000
0000
0001
0000
,  // measure 47
1000
0000
0001
0000
,  // measure 48
0020
0000
0030
0000
,  // measure 49
0001
0100
0001
0000
,  // measure 50
0000
1000
0000
0010
,  // measure 51
0000
1000
0200
0300
,  // measure 52
1000
0000
1000
0000
,  // measure 53
0100
1000
0100
0000
,  // measure 54
0010
0000
0001
0000
,  // measure 55
0010
0000
0000
0000
,  // measure 56
0001
0000
0001
0000
,  // measure 57
0000
0001
0000
0010
,  // measure 58
0000
0001
0100
0000
,  // measure 59
0010
0100
0010
0000
,  // measure 60
0010
0010
0000
0000
,  // measure 61
0010
1000
0001
0000
,  // measure 62
0010
0000
0000
0010
,  // measure 63
0001
0000
0010
0000
,  // measure 64
0001
0000
0000
0010
0000
0000
0001
0000
,  // measure 65
0100
0001
1000
0000
,  // measure 66
0100
0000
1000
0010
,  // measure 67
0100
0000
0001
0000
,  // measure 68
1001
0000
0001
0100
,  // measure 69
0001
0000
0000
0000
0000
1000
0000
0000
,  // measure 70
1001
0000
1000
0100
,  // measure 71
1000
0001
0100
0000
,  // measure 72
0001
0100
0010
1000
,  // measure 73
0100
0010
0001
0000
,  // measure 74
1001
0000
2000
0000
,  // measure 75
3001
0001
1000
1000
,  // measure 76
0001
0000
0001
0100
,  // measure 77
0001
1000
0100
1000
,  // measure 78
0010
0000
0100
0100
,  // measure 79
0010
0000
1000
1000
,  // measure 80
0001
0001
0100
0100
,  // measure 81
0001
0000
2000
0000
,  // measure 82
3200
0000
2300
0000
,  // measure 83
3200
0000
0310
0000
,  // measure 84
0001
0001
0100
0000
,  // measure 85
0001
0100
0001
0000
,  // measure 86
0010
0000
0200
0000
,  // measure 87
2300
0000
3002
0000
,  // measure 88
0023
0000
0032
0000
,  // measure 89
0203
0000
0320
0000
,  // measure 90
1030
0100
0010
0001
,  // measure 91
0100
0010
1000
0001
,  // measure 92
2002
0000
0000
0000
,  // measure 93
0000
0000
0000
0000
,  // measure 94
0000
0000
0000
0000
,  // measure 95
0000
0000
0000
0000
,  // measure 96
0000
0000
0000
0000
,  // measure 97
0000
0000
0000
0000
,  // measure 98
0000
0000
0000
0000
,  // measure 99
0000
0000
0003
0000
,  // measure 100
0200
0000
0000
0000
,  // measure 101
0000
0000
0000
0000
,  // measure 102
0000
0000
0000
0000
,  // measure 103
0000
0000
0000
0000
,  // measure 104
0000
0000
0000
0000
,  // measure 105
0000
0000
0000
0000
,  // measure 106
0000
0000
0000
0000
,  // measure 107
0000
0000
3300
0000
,  // measure 108
1000
0000
0001
0000
,  // measure 109
0100
0010
0100
0000
,  // measure 110
0001
0000
1000
0000
,  // measure 111
0100
0010
0100
0000
,  // measure 112
1000
0000
0001
0000
,  // measure 113
0100
0010
1000
0000
,  // measure 114
0001
0000
1000
0000
,  // measure 115
0100
0010
0001
0000
,  // measure 116
1000
0100
0010
0000
,  // measure 117
0001
0001
0100
0000
,  // measure 118
0001
0100
0010
0000
,  // measure 119
1000
1000
0100
0000
,  // measure 120
1000
0010
0100
0001
,  // measure 121
0010
0100
1000
0001
,  // measure 122
0000
2000
0000
0000
,  // measure 123
0000
0000
0000
3000
,  // measure 124
0001
0100
0100
0010
,  // measure 125
1000
0100
0010
0100
,  // measure 126
1000
0100
0100
0010
,  // measure 127
0001
0100
0010
1000
,  // measure 128
1000
0010
0010
0100
,  // measure 129
0001
0010
0100
0010
,  // measure 130
0001
0010
0010
0100
,  // measure 131
1000
0010
0100
0010
,  // measure 132
1000
0100
0010
0100
,  // measure 133
1000
0010
0100
0010
,  // measure 134
1000
0100
0010
0100
,  // measure 135
1000
0010
0100
0001
,  // measure 136
0001
0010
0100
0010
,  // measure 137
0001
0100
0010
0100
,  // measure 138
0001
0010
0100
0010
,  // measure 139
0001
0100
0010
0100
,  // measure 140
0001
0100
0010
0010
,  // measure 141
1000
0100
0010
0010
,  // measure 142
0001
0100
0010
0010
,  // measure 143
1000
0100
0010
0010
,  // measure 144
0001
0010
0100
0100
,  // measure 145
1000
0010
0100
0100
,  // measure 146
0001
0010
0100
0100
,  // measure 147
1000
0010
0100
0100
,  // measure 148
0001
0001
0010
0010
,  // measure 149
0100
0100
1000
1000
,  // measure 150
0010
0010
0100
0100
,  // measure 151
0001
0001
1000
1000
,  // measure 152
0100
0010
0001
0100
,  // measure 153
0010
1000
0100
0010
,  // measure 154
0001
0100
0010
1000
,  // measure 155
0100
0010
0001
0100
,  // measure 156
0002
0000
0000
0000
,  // measure 157
0000
0000
0000
0000
,  // measure 158
0000
0000
0000
0000
,  // measure 159
0000
0000
0000
0000
,  // measure 160
0000
0000
0000
0000
,  // measure 161
0000
0000
0000
0000
,  // measure 162
0000
0000
0000
0000
,  // measure 163
0000
0000
0000
0000
,  // measure 164
0003
0000
0000
0000
;

//---------------dance-single - ----------------
#NOTEDATA:;
#CHARTNAME:;
#STEPSTYPE:dance-single;
#DESCRIPTION:;
#CHARTSTYLE:;
#DIFFICULTY:Beginner;
#METER:7;
#RADARVALUES:0.248258,0.475610,0.015244,0.022866,0.000000,228.000000,226.000000,2.000000,3.000000,0.000000,0.000000,0.000000,0.000000,0.000000,0.248258,0.475610,0.015244,0.022866,0.000000,228.000000,226.000000,2.000000,3.000000,0.000000,0.000000,0.000000,0.000000,0.000000;
#CREDIT:;
#NOTES:
// measure 0
0000
0000
0000
0000
,  // measure 1
0000
0000
0000
0000
,  // measure 2
0000
0000
0000
0000
,  // measure 3
0000
0000
0000
0000
,  // measure 4
0000
0000
0000
0000
,  // measure 5
0000
0000
0000
0000
,  // measure 6
0000
0000
0000
0000
,  // measure 7
0000
0000
0000
0000
,  // measure 8
1000
0000
0000
0000
,  // measure 9
0001
0000
0000
0000
,  // measure 10
1000
0000
0000
0000
,  // measure 11
0001
0000
0000
0000
,  // measure 12
1000
0000
0000
0000
,  // measure 13
0001
0000
0000
0000
,  // measure 14
1000
0000
0000
0000
,  // measure 15
0001
0000
0000
0000
,  // measure 16
1000
0000
1000
0000
,  // measure 17
1000
0000
0000
0000
,  // measure 18
0001
0000
0001
0000
,  // measure 19
0001
0000
0000
0000
,  // measure 20
1000
0000
1000
0000
,  // measure 21
1000
0000
0000
0000
,  // measure 22
0001
0000
0001
0000
,  // measure 23
0001
0000
0000
0000
,  // measure 24
0010
0000
0100
0000
,  // measure 25
0010
0000
0000
0000
,  // measure 26
0100
0000
0010
0000
,  // measure 27
0100
0000
0000
0000
,  // measure 28
0010
0000
0100
0000
,  // measure 29
0010
0000
0000
0000
,  // measure 30
0100
0000
0010
0000
,  // measure 31
0100
0000
0010
0000
,  // measure 32
0001
0000
0001
0000
,  // measure 33
0001
0000
0000
0000
,  // measure 34
1000
0000
1000
0000
,  // measure 35
1000
0000
0000
0000
,  // measure 36
0001
0000
0001
0000
,  // measure 37
0001
0000
0000
0000
,  // measure 38
1000
0000
1000
0000
,  // measure 39
1000
0000
0000
0000
,  // measure 40
0010
0000
0100
0000
,  // measure 41
0010
0000
0000
0000
,  // measure 42
0100
0000
0010
0000
,  // measure 43
0100
0000
0000
0000
,  // measure 44
0010
0000
0100
0000
,  // measure 45
0010
0000
0000
0000
,  // measure 46
0100
0000
0010
0000
,  // measure 47
0100
0000
0010
0000
,  // measure 48
1000
0000
0000
0000
,  // measure 49
0001
0000
1000
0000
,  // measure 50
0000
1000
0000
0001
,  // measure 51
0000
0000
1000
0000
,  // measure 52
0001
0000
0001
0000
,  // measure 53
1000
0000
0001
0000
,  // measure 54
1000
0000
0001
0000
,  // measure 55
0001
0000
0000
0000
,  // measure 56
1000
0000
0001
0000
,  // measure 57
0000
0001
0000
1000
,  // measure 58
0000
0000
0001
0000
,  // measure 59
1000
0000
1000
0000
,  // measure 60
0001
0000
1000
0000
,  // measure 61
0001
0000
1000
0000
,  // measure 62
0001
0000
0000
0010
,  // measure 63
0000
0000
0001
0000
,  // measure 64
1000
0000
0000
0010
0000
0000
0000
0000
,  // measure 65
1000
0000
0001
0000
,  // measure 66
0100
0000
0001
0000
,  // measure 67
1000
0000
0100
0000
,  // measure 68
0010
0000
0001
0000
,  // measure 69
0001
0000
0000
0000
0000
1000
0000
0000
,  // measure 70
1000
0000
0100
0000
,  // measure 71
1000
0000
0100
0000
,  // measure 72
0010
0000
0001
0000
,  // measure 73
0100
0000
0010
0000
,  // measure 74
1000
0000
0100
0000
,  // measure 75
1000
0000
1000
0000
,  // measure 76
0001
0000
0100
0000
,  // measure 77
0100
0000
0100
0000
,  // measure 78
0001
0000
0100
0000
,  // measure 79
0001
0000
1000
0000
,  // measure 80
0100
0000
0100
0000
,  // measure 81
1000
0000
0001
0000
,  // measure 82
0100
0000
0010
0000
,  // measure 83
1000
0000
0001
0000
,  // measure 84
1000
1000
0000
0000
,  // measure 85
0001
0000
1000
0000
,  // measure 86
0010
0000
1000
0000
,  // measure 87
0100
0000
1000
0000
,  // measure 88
0010
0000
0100
0000
,  // measure 89
0010
0000
0100
0000
,  // measure 90
0010
0000
0100
0000
,  // measure 91
0010
0000
0100
0000
,  // measure 92
0220
0000
0000
0000
,  // measure 93
0000
0000
0000
0000
,  // measure 94
0000
0000
0000
0000
,  // measure 95
0000
0000
0000
0000
,  // measure 96
0000
0000
0000
0000
,  // measure 97
0000
0000
0000
0000
,  // measure 98
0000
0000
0000
0000
,  // measure 99
0330
0000
0000
0000
,  // measure 100
0200
0000
0000
0000
,  // measure 101
0000
0000
0000
0000
,  // measure 102
0000
0000
0000
0000
,  // measure 103
0000
0000
0000
0000
,  // measure 104
0000
0000
0000
0000
,  // measure 105
0000
0000
0000
0000
,  // measure 106
0000
0000
0000
0000
,  // measure 107
0300
0000
0000
0000
,  // measure 108
0001
0000
0000
0000
,  // measure 109
1000
0000
0000
0000
,  // measure 110
0001
0000
0000
0000
,  // measure 111
1000
0000
0000
0000
,  // measure 112
0001
0000
0000
0000
,  // measure 113
1000
0000
0000
0000
,  // measure 114
0001
0000
0000
0000
,  // measure 115
1000
0000
0000
0000
,  // measure 116
0100
0000
0000
0000
,  // measure 117
0010
0000
0000
0000
,  // measure 118
0001
0000
0000
0000
,  // measure 119
0100
0000
0000
0000
,  // measure 120
0010
0000
0000
0000
,  // measure 121
1000
0000
0000
0000
,  // measure 122
0000
0000
0000
0000
,  // measure 123
0000
0000
0000
0000
,  // measure 124
1000
0000
0100
0000
,  // measure 125
0010
0000
0010
0000
,  // measure 126
0001
0000
0100
0000
,  // measure 127
0010
0000
0010
0000
,  // measure 128
1000
0000
0100
0000
,  // measure 129
0010
0000
0010
0000
,  // measure 130
0001
0000
0100
0000
,  // measure 131
0010
0000
1000
0000
,  // measure 132
0001
0000
0100
0000
,  // measure 133
0010
0000
0010
0000
,  // measure 134
1000
0000
0100
0000
,  // measure 135
0010
0000
0010
0000
,  // measure 136
0001
0000
0100
0000
,  // measure 137
0010
0000
0010
0000
,  // measure 138
1000
0000
0100
0000
,  // measure 139
0010
0000
0001
0000
,  // measure 140
1000
0000
1000
0000
,  // measure 141
0001
0000
0001
0000
,  // measure 142
1000
0000
1000
0000
,  // measure 143
0001
0000
0001
0000
,  // measure 144
0010
0000
0010
0000
,  // measure 145
0100
0000
0100
0000
,  // measure 146
0010
0000
0100
0000
,  // measure 147
0010
0000
0100
0000
,  // measure 148
1000
0000
0010
0000
,  // measure 149
0100
0000
0001
0000
,  // measure 150
0010
0000
0100
0000
,  // measure 151
1000
0000
0010
0000
,  // measure 152
1000
0001
1000
0000
,  // measure 153
0001
1000
0001
0000
,  // measure 154
1000
1000
1000
0000
,  // measure 155
0001
0001
0001
0000
,  // measure 156
1001
0000
0000
0000
;
