#VERSION:0.83;
#TITLE:Mein Land;
#SUBTITLE:;
#ARTIST:Rammstein;
#TITLETRANSLIT:;
#SUBTITLETRANSLIT:;
#ARTISTTRANSLIT:;
#GENRE:;
#ORIGIN:;
#CREDIT:;
#BANNER:Mein Land banner.png;
#BACKGROUND:Mein Land bg.png;
#PREVIEWVID:;
#JACKET:Mein Land jk.png;
#CDIMAGE:;
#DISCIMAGE:;
#LYRICSPATH:;
#CDTITLE:;
#MUSIC:Mein Land.ogg;
#OFFSET:-0.000000;
#SAMPLESTART:49.090904;
#SAMPLELENGTH:15.000000;
#SELECTABLE:YES;
#BPMS:0.000=176.000,
32.000=88.000,
40.000=176.000,
56.000=88.000,
64.000=176.000,
80.000=88.000,
88.000=176.000,
104.000=88.000,
112.000=176.000,
208.000=88.000,
272.000=176.000;
#STOPS:;
#DELAYS:;
#WARPS:;
#TIMESIGNATURES:0.000=4=4;
#TICKCOUNTS:0.000=4;
#COMBOS:0.000=1;
#SPEEDS:0.000=1.000=0.000=0;
#SCROLLS:0.000=1.000;
#FAKES:;
#LABELS:0.000=Song Start;
#BGCHANGES:;
#KEYSOUNDS:;
#ATTACKS:
;

//---------------dance-single - XO DS JA- XMOD JU-----------------
#NOTEDATA:;
#CHARTNAME:;
#STEPSTYPE:dance-single;
#DESCRIPTION:XO DS JA- XMOD JU-;
#CHARTSTYLE:;
#DIFFICULTY:Hard;
#METER:13;
#RADARVALUES:0.473457,0.594602,0.147001,0.487776,0.073500,496.000000,474.000000,22.000000,73.000000,0.000000,0.000000,0.000000,0.000000,0.000000,0.473457,0.594602,0.147001,0.487776,0.073500,496.000000,474.000000,22.000000,73.000000,0.000000,0.000000,0.000000,0.000000,0.000000;
#CREDIT:Karl with a K;
#NOTES:
0000
0000
0000
0000
,
0000
0000
0000
0000
,
0000
0000
0000
0000
,
0000
0000
0000
0000
,
1000
0010
1000
0100
1000
0100
1000
0001
,
0010
0001
0100
0001
1000
0010
1000
0100
,
1000
0010
1000
0100
1000
0100
1000
0010
,
0100
0010
0100
0001
0100
0001
0001
0001
,
1000
0000
0000
0000
,
0000
0000
0000
0000
0000
0000
0000
0000
0000
0000
0100
0000
0010
0100
1000
0000
,
0001
0010
0001
0100
0001
0000
0001
1000
,
0010
1000
0100
0000
0100
0010
0001
0100
,
0001
0010
0001
0100
0001
0000
0001
0010
,
0100
0010
0100
1000
0100
1000
0010
0000
,
1000
0100
1000
0100
,
1000
0000
0000
0000
0001
0000
0000
0000
0100
0000
0100
0000
0010
0100
0001
0001
,
0010
1000
0010
0100
1000
0000
1000
0010
,
0001
0010
0100
0000
0100
0010
0100
0001
,
0010
0100
0001
0100
0010
0001
0100
0010
,
0001
0010
0100
0010
0100
0010
1000
0000
,
0001
0100
0001
0100
,
0001
0000
0000
0000
1000
0000
0000
1000
0100
0000
0010
0000
0010
0001
0100
0000
,
0010
0001
0010
0100
0001
0000
0001
0010
,
1000
0010
0001
0000
0001
0010
0100
1000
,
0010
0100
1000
0100
0010
1000
0100
0010
,
1000
0010
0100
0010
0100
0010
0001
1000
,
0002
0000
0000
0000
,
1003
1000
0000
0100
0010
0010
0000
0001
1000
0001
1000
0001
0100
0010
0010
0000
,
1002
0000
0103
0001
0100
0000
0001
1000
,
0010
1000
0100
0000
0100
0010
0001
0000
,
2001
0000
3100
1000
0100
0000
1000
0010
,
0100
0010
0100
0001
0100
0001
1000
0001
,
2000
3020
0230
0302
,
0023
0000
0130
0010
0001
0010
0001
0100
,
0001
0010
0011
0000
1000
0010
1010
0000
,
0001
0100
0101
0000
1000
0001
0001
0001
,
2001
0000
3100
1000
0100
0000
1000
0001
,
0010
0001
0100
0000
0100
0010
1000
0000
,
1002
0000
0103
0001
0100
0000
0001
0010
,
0100
0010
0100
1000
0100
1000
0001
1000
,
0002
0023
0230
2300
,
3020
0000
0130
0010
1000
0010
1000
0100
,
1000
0010
1010
0000
0001
0010
0001
0010
,
0000
0100
1100
0000
0001
0100
0001
0001
,
0020
0000
0100
0000
1000
0000
0130
1000
,
0100
1000
0020
0000
0001
0000
0230
0000
,
0301
1000
0200
0000
0001
0000
1000
0000
,
0010
0000
0001
0000
1300
0010
0100
0000
,
0020
0000
0100
0000
0001
0000
0130
0001
,
0100
0001
0020
0000
1000
0000
0230
0000
,
1300
0001
0200
0000
0301
1000
0200
0000
,
0310
0001
0100
0001
0010
0100
1000
0001
,
2000
0000
0000
0000
0100
0000
0000
0000
3002
0100
0000
0000
1000
0000
0000
0000
,
0023
0000
0130
0020
0001
0000
0031
0010
,
0120
0000
0000
0000
0032
0000
0000
0000
0203
0001
0000
0000
0010
0000
0000
0000
,
0320
0000
1000
0000
0001
0100
1030
0000
,
1002
0100
2003
0001
,
3020
0000
0130
0020
1000
0000
1030
0000
,
0120
0000
2030
0000
3200
1000
0010
0000
,
0320
0000
0000
0000
0031
0010
0100
0010
1000
0010
0100
0010
0001
1000
0001
0100
,
0010
0000
2002
0000
0000
0000
0000
3003
,
0000
0000
0000
0000
,
0000
0000
0000
0000
,
0000
0000
0000
0000
0000
1000
1000
0000
,
0020
0200
0000
0000
,
0000
0000
0000
0000
0330
0001
0001
0000
,
0020
0001
0001
0001
0001
0001
0001
0001
,
0230
0000
0010
0000
0010
0000
0010
0000
0001
0000
0010
0000
1300
0010
0001
0010
,
2000
0000
3010
1000
0010
0000
1000
0001
,
0100
0001
0010
0000
0010
0100
1000
0000
,
1002
0000
0013
0001
0010
0000
0001
0100
,
0010
0100
0010
1000
0010
1000
0001
1000
,
0002
0203
0320
2030
,
3200
0000
0310
0100
1000
0100
1000
0010
,
1000
0100
1100
0000
0001
0100
0101
0000
,
1000
0010
1010
0000
0001
1000
1001
0000
,
1002
0000
0013
0001
0020
0000
2030
0000
,
3002
0000
0100
0000
2003
0000
3020
0030
,
0012
0000
0103
0001
0200
0000
2300
0000
,
3002
0000
0010
0000
2003
0000
3200
0300
,
0102
0000
0013
0001
0020
0000
2030
0000
,
3002
1000
0203
2300
,
3010
0001
1000
0001
0010
0001
1000
0001
,
0010
1000
0100
0001
1000
0010
0001
1000
,
0001
2002
0000
3003
;

//---------------dance-single - ----------------
#NOTEDATA:;
#CHARTNAME:;
#STEPSTYPE:dance-single;
#DESCRIPTION:;
#CHARTSTYLE:;
#DIFFICULTY:Medium;
#METER:10;
#RADARVALUES:0.332184,0.396401,0.013364,0.347457,0.000000,348.000000,346.000000,2.000000,52.000000,0.000000,0.000000,0.000000,0.000000,0.000000,0.332184,0.396401,0.013364,0.347457,0.000000,348.000000,346.000000,2.000000,52.000000,0.000000,0.000000,0.000000,0.000000,0.000000;
#CREDIT:Karl with a K;
#NOTES:
0000
0000
0000
0000
,
0000
0000
0000
0000
,
0000
0000
0000
0000
,
0000
0000
0000
0000
,
1000
0000
1000
0001
0100
0000
0001
0000
,
0010
0001
0100
0000
0001
0000
1000
0000
,
0001
0000
0001
1000
0100
0000
1000
0000
,
0010
0100
0100
0001
,
1000
0000
0000
0000
,
0000
0000
0000
0000
0000
1000
0001
1000
,
0001
0000
0001
1000
0100
0000
1000
0000
,
0010
0000
0100
0000
0001
0010
0100
0000
,
1000
0000
1000
0001
0100
0000
0001
0000
,
0010
0100
0100
1000
,
0001
0100
0100
0100
,
0001
0000
0001
0000
0001
0001
0010
0100
,
1000
0000
1000
0001
0100
0000
0001
0000
,
0010
0000
0100
0000
1000
0010
0100
0000
,
0001
0000
0001
1000
0100
0000
1000
0000
,
0010
0100
0100
0001
,
1000
0100
0100
0100
,
1000
0000
1000
0000
1000
1000
0010
0100
,
0001
0000
0001
1000
0010
0000
1000
0000
,
0100
0000
0010
0000
0001
0100
0010
0000
,
1000
0000
1000
0001
0010
0000
0001
0000
,
0100
0010
0010
1000
,
0002
0000
0000
0000
,
1003
0000
1000
0000
0100
0010
0001
0100
,
0001
0000
0001
0100
0001
0000
1000
0000
,
0010
0000
0100
0000
0001
0010
0001
0000
,
1000
0000
1000
0100
1000
0000
0001
0000
,
0010
0000
0100
1000
0001
0000
1000
0000
,
0001
0001
1000
1000
,
0010
0000
1000
0000
0100
0010
0001
0000
,
2000
0010
3002
0010
,
2003
0000
0010
0000
3001
0010
0001
0000
,
1000
0000
1000
0100
1000
0000
0001
0000
,
0010
0000
0100
0000
1000
0010
1000
0000
,
0001
0000
0001
0100
0001
0000
1000
0000
,
0010
0000
0100
0001
1000
0000
0001
0000
,
1000
1000
0001
0001
,
0010
0000
0001
0000
0100
0010
1000
0000
,
0002
0100
2003
0100
,
3002
0000
0100
0000
1003
0100
0010
0000
,
0002
0100
1000
0100
,
2003
0010
0001
0100
,
3002
0100
0010
1000
,
2003
0001
3100
1000
,
2000
0100
0001
0100
,
3002
0010
1000
0100
,
2003
3020
0230
0302
,
2003
0000
3200
0000
1300
0001
1000
0000
,
0002
0100
2003
0100
,
3020
1000
2030
0001
,
3002
0100
2003
0100
,
3002
0010
2003
3100
,
2000
0100
3002
0100
,
0023
0001
0032
1003
,
2000
0100
0001
0010
,
3002
1000
2003
3002
,
1003
0000
2002
0000
0000
0000
0000
3003
,
0000
0000
0000
0000
,
0000
0000
0000
0000
,
0000
0000
0000
0000
0000
1000
0001
0000
,
2000
0002
0000
0000
,
0000
0000
0000
0000
3003
0001
1000
0000
,
0020
1000
1000
1000
,
0230
0000
0010
0000
0301
0010
0100
0010
,
0001
0000
1000
0010
1000
0000
0001
0000
,
0100
0000
0010
0000
1000
0100
1000
0000
,
0001
0000
0001
0010
0001
0000
1000
0000
,
0100
0000
0010
0001
1000
0000
0001
0000
,
1000
1000
0001
0001
,
0100
0000
0001
0000
0010
0100
1000
0000
,
0002
0100
2003
0100
,
3002
0000
0100
0000
1003
0100
1000
0000
,
0001
0000
0001
0010
0001
0000
1000
0000
,
0020
0001
2030
3100
,
1000
0000
1000
0010
1000
0000
0001
0000
,
0020
1000
0032
0103
,
0001
0000
0001
0100
0001
0000
1000
0000
,
0200
0001
0320
0031
,
1000
0010
1000
0000
0001
0010
0001
0000
,
1000
0001
0100
0001
1000
0100
1000
0000
,
0010
0220
0000
0330
;

//---------------dance-single - ----------------
#NOTEDATA:;
#CHARTNAME:;
#STEPSTYPE:dance-single;
#DESCRIPTION:;
#CHARTSTYLE:;
#DIFFICULTY:Easy;
#METER:5;
#RADARVALUES:0.229092,0.283144,0.006682,0.133637,0.000000,240.000000,239.000000,1.000000,20.000000,0.000000,0.000000,0.000000,0.000000,0.000000,0.229092,0.283144,0.006682,0.133637,0.000000,240.000000,239.000000,1.000000,20.000000,0.000000,0.000000,0.000000,0.000000,0.000000;
#CREDIT:Karl with a K;
#NOTES:
0000
0000
0000
0000
,
0000
0000
0000
0000
,
0000
0000
0000
0000
,
0000
0000
0000
0000
,
1000
0010
0100
0000
,
0001
0100
0001
0000
,
0001
0010
0100
0000
,
0010
0010
0001
0001
,
1000
0000
0000
0000
,
0000
0000
0000
0000
,
0001
0010
0100
0000
,
1000
0100
1000
0000
,
1000
0010
0100
0000
,
0010
0010
1000
1000
,
0001
0000
0001
0000
,
1000
0000
1000
0000
,
0001
0010
0100
0000
,
1000
0100
0010
0000
,
0001
0100
0010
1000
,
0010
1000
1000
0001
,
1000
0000
1000
0000
,
0001
0000
0001
0000
,
1000
0010
0100
0000
,
0001
0100
0010
0000
,
1000
0100
0010
0001
,
0010
0001
0001
1000
,
0002
0000
0000
0003
,
1000
1000
1000
1000
,
0001
0010
0100
1000
,
0010
0100
0010
0000
,
1000
0010
0100
0001
,
0010
0001
0001
0000
,
1000
0100
1000
0100
,
0010
0001
1000
0000
,
1000
0010
1000
0001
,
0010
0001
1000
0000
,
1000
0010
0100
0001
,
0010
0100
0010
0000
,
0001
0010
0100
1000
,
0010
1000
1000
0000
,
0001
0100
0001
0100
,
0010
1000
0001
0000
,
0001
0010
0001
1000
,
0010
1000
0001
0001
,
1000
0100
0010
0001
,
0000
0010
0001
0100
,
0000
0001
0010
0100
,
1000
0001
0100
0000
,
0001
0100
0010
1000
,
0000
0010
1000
0000
,
0001
0010
0001
0100
,
0001
1000
0100
0000
,
2000
3000
0002
0003
,
0020
0030
0010
0010
,
0002
0003
0200
0300
,
0002
0003
1000
1000
,
0200
0300
2000
3000
,
0020
0030
0010
0010
,
0020
0030
0200
0300
,
0002
0003
2000
3000
,
0001
0100
0000
0000
,
0000
0000
0000
0000
,
0000
0000
0000
0000
,
0000
0000
0000
0001
,
1000
0200
0000
0000
,
0000
0000
0300
1000
,
0002
0000
0000
0003
,
0200
0000
0302
0000
,
1003
0100
0010
0001
,
0100
0010
0100
0000
,
0001
0100
0010
1000
,
0100
1000
1000
0000
,
0001
0010
0001
0010
,
0100
1000
0001
0000
,
0001
0100
0001
1000
,
0100
1000
0001
0000
,
0001
0100
0010
1000
,
0100
0001
0100
0000
,
1000
0100
0010
0001
,
0100
1000
0100
0001
,
1000
0010
1000
0100
,
0001
1000
0010
0000
,
0001
0100
1000
0001
,
0010
1000
0001
0010
,
0100
0220
0000
0330
;

//---------------dance-single - ----------------
#NOTEDATA:;
#CHARTNAME:;
#STEPSTYPE:dance-single;
#DESCRIPTION:;
#CHARTSTYLE:;
#DIFFICULTY:Beginner;
#METER:2;
#RADARVALUES:0.092591,0.168383,0.006682,0.000000,0.000000,97.000000,96.000000,1.000000,0.000000,0.000000,0.000000,0.000000,0.000000,0.000000,0.092591,0.168383,0.006682,0.000000,0.000000,97.000000,96.000000,1.000000,0.000000,0.000000,0.000000,0.000000,0.000000,0.000000;
#CREDIT:Karl with a K;
#NOTES:
// measure 0
0000
0000
0000
0000
,  // measure 1
0000
0000
0000
0000
,  // measure 2
0000
0000
0000
0000
,  // measure 3
0000
0000
0000
0000
,  // measure 4
1000
0000
0000
0000
,  // measure 5
0100
0000
0000
0000
,  // measure 6
1000
0000
0000
0000
,  // measure 7
0010
0000
0000
0000
,  // measure 8
1000
0000
0000
0000
,  // measure 9
0000
0000
0000
0000
,  // measure 10
0001
0000
0000
0000
,  // measure 11
0100
0000
0000
0000
,  // measure 12
0001
0000
0000
0000
,  // measure 13
0010
0000
0000
0000
,  // measure 14
0001
0000
0000
0000
,  // measure 15
0000
0000
0000
0000
,  // measure 16
1000
0000
0000
0000
,  // measure 17
0100
0000
0000
0000
,  // measure 18
1000
0000
0000
0000
,  // measure 19
0010
0000
0000
0000
,  // measure 20
1000
0000
0000
0000
,  // measure 21
0000
0000
0000
0000
,  // measure 22
0001
0000
0000
0000
,  // measure 23
0100
0000
0000
0000
,  // measure 24
0001
0000
0000
0000
,  // measure 25
0010
0000
0000
0000
,  // measure 26
0001
0000
0000
0000
,  // measure 27
0000
0000
0000
0000
,  // measure 28
1000
0000
0000
0000
,  // measure 29
0100
0000
0000
0000
,  // measure 30
1000
0000
0000
0000
,  // measure 31
0010
0000
0000
0000
,  // measure 32
1000
0000
0000
0000
,  // measure 33
0100
0000
0000
0000
,  // measure 34
1000
0000
0000
0000
,  // measure 35
0001
0000
0000
0000
,  // measure 36
0001
0000
0000
0000
,  // measure 37
0100
0000
0000
0000
,  // measure 38
0001
0000
0000
0000
,  // measure 39
0010
0000
0000
0000
,  // measure 40
0001
0000
0000
0000
,  // measure 41
0100
0000
0000
0000
,  // measure 42
0001
0000
0000
0000
,  // measure 43
0001
0000
0000
0000
,  // measure 44
1000
0000
0100
0000
,  // measure 45
0000
0000
0010
0000
,  // measure 46
0001
0000
0100
0000
,  // measure 47
0000
0000
0001
0000
,  // measure 48
1000
0000
0010
0000
,  // measure 49
0000
0000
0100
0000
,  // measure 50
0001
0000
0001
0000
,  // measure 51
1000
0000
0001
0000
,  // measure 52
1000
0000
1000
0000
,  // measure 53
1000
0000
0000
0000
,  // measure 54
0001
0000
0001
0000
,  // measure 55
0001
0000
0000
0000
,  // measure 56
0100
0000
0100
0000
,  // measure 57
0010
0000
0000
0000
,  // measure 58
0010
0000
0010
0000
,  // measure 59
0100
0000
0001
0000
,  // measure 60
1000
0000
0000
0000
,  // measure 61
0000
0000
0000
0000
,  // measure 62
0000
0000
0000
0000
,  // measure 63
0000
0000
0000
0000
,  // measure 64
0001
0000
0000
0000
,  // measure 65
0000
0000
0000
0000
,  // measure 66
1000
0000
0000
0000
,  // measure 67
0001
0000
0000
0000
,  // measure 68
0001
0000
0100
0000
,  // measure 69
0001
0000
0000
0000
,  // measure 70
0001
0000
0001
0000
,  // measure 71
0010
0000
0000
0000
,  // measure 72
0001
0000
0100
0000
,  // measure 73
0010
0000
0000
0000
,  // measure 74
1000
0000
0001
0000
,  // measure 75
1000
0000
0001
0000
,  // measure 76
1000
0000
0100
0000
,  // measure 77
0010
0000
0010
0000
,  // measure 78
0001
0000
0100
0000
,  // measure 79
0010
0000
0010
0000
,  // measure 80
1000
0000
0100
0000
,  // measure 81
0010
0000
0010
0000
,  // measure 82
0001
0000
1000
0000
,  // measure 83
0001
0000
1000
0000
,  // measure 84
1001
0000
0000
0000
;
