#VERSION:0.83;
#TITLE:Les trois enigmes de l'epreuve technique par le feu du pyromane desequilibre;
#SUBTITLE:;
#ARTIST:Z-I-v Sound Team "Karl with a K";
#TITLETRANSLIT:;
#SUBTITLETRANSLIT:;
#ARTISTTRANSLIT:;
#GENRE:THREE RIDDLES;
#ORIGIN:;
#CREDIT:;
#BANNER:Les trois énigmes de lépreuve technique par le feu du pyromane déséquilibré banner.png;
#BACKGROUND:Les trois énigmes de lépreuve technique par le feu du pyromane déséquilibré bg.png;
#PREVIEWVID:;
#JACKET:Les trois énigmes de lépreuve technique par le feu du pyromane déséquilibré jk.png;
#CDIMAGE:Les trois énigmes de lépreuve technique par le feu du pyromane déséquilibré jk copy.png;
#DISCIMAGE:Les trois énigmes de lépreuve technique par le feu du pyromane déséquilibré file graphic.png;
#LYRICSPATH:;
#CDTITLE:;
#MUSIC:Les trois énigmes de lépreuve technique par le feu du pyromane déséquilibré.ogg;
#OFFSET:-0.000000;
#SAMPLESTART:117.000000;
#SAMPLELENGTH:15.000000;
#SELECTABLE:YES;
#BPMS:0.000=200.000;
#STOPS:240.000=1.800,
254.333=0.600,
266.333=0.600,
452.500=0.300;
#DELAYS:;
#WARPS:;
#TIMESIGNATURES:0.000=4=4;
#TICKCOUNTS:0.000=4;
#COMBOS:0.000=1;
#SPEEDS:0.000=1.000=0.000=0;
#SCROLLS:0.000=1.000;
#FAKES:;
#LABELS:0.000=Song Start;
#BGCHANGES:;
#KEYSOUNDS:;
#ATTACKS:
;

//---------------dance-single - XO+ DS+ JA- XMOD FL+ RH TS JU- HS+ Rolls+ Spins+----------------
#NOTEDATA:;
#CHARTNAME:;
#STEPSTYPE:dance-single;
#DESCRIPTION:XO+ DS+ JA- XMOD FL+ RH TS JU- HS+ Rolls+ Spins+;
#CHARTSTYLE:;
#DIFFICULTY:Challenge;
#METER:18;
#RADARVALUES:0.561154,1.213693,0.165975,0.982019,0.802213,568.000000,544.000000,24.000000,142.000000,53.000000,0.000000,22.000000,1.000000,0.000000,0.561154,1.213693,0.165975,0.982019,0.802213,568.000000,544.000000,24.000000,142.000000,53.000000,0.000000,22.000000,1.000000,0.000000;
#CREDIT:Z-I-v Pyrotechnics Team Karl with a K;
#NOTES:
// measure 0
0000
0000
0000
0000
,  // measure 1
0000
0000
0000
0000
,  // measure 2
0000
0000
0000
0000
,  // measure 3
0000
0000
0000
0000
,  // measure 4
0000
0000
0000
0000
,  // measure 5
0000
0000
0000
0000
,  // measure 6
0000
0000
0000
0000
,  // measure 7
0000
0000
0000
0000
,  // measure 8
0000
0000
0000
0000
,  // measure 9
0000
0000
0000
0000
,  // measure 10
0000
0000
0000
0000
,  // measure 11
0000
0000
0000
0000
,  // measure 12
0000
0000
0000
0000
,  // measure 13
0000
0000
0000
0000
,  // measure 14
0000
0000
0000
0000
,  // measure 15
0000
0000
0000
0000
,  // measure 16
0000
0000
0000
0000
,  // measure 17
0000
0000
0000
0000
,  // measure 18
0000
0000
0000
0000
,  // measure 19
0000
0000
0000
0000
,  // measure 20
0000
0000
0000
0000
,  // measure 21
0000
0000
0000
0000
,  // measure 22
0000
0000
0000
0000
,  // measure 23
0000
0000
0000
0000
,  // measure 24
0000
0000
0000
0000
,  // measure 25
0000
0000
0000
0000
,  // measure 26
0000
0000
2002
0000
,  // measure 27
3003
0220
0000
0330
,  // measure 28
0202
0000
0000
0000
0000
0000
0000
0000
0000
0000
0000
0000
0000
0000
0000
0000
0303
0000
0000
0000
0000
0000
0000
0000
1010
0000
0000
0000
0000
0000
0000
0001
,  // measure 29
0010
0000
0000
0000
0000
0000
0000
0100
1000
0000
0000
0000
0000
0000
0000
0000
0120
0000
0000
0000
0000
0000
0000
0000
0001
0000
0000
0000
0000
0000
0000
0000
,  // measure 30
0100
0001
0130
1000
,  // measure 31
0020
1000
0130
0001
,  // measure 32
1001
0000
1000
0000
0001
0100
0001
0100
,  // measure 33
0001
0000
1000
0100
1000
0100
1000
0000
,  // measure 34
0010
0000
1000
0000
0100
0000
0010
0000
0001
0000
0100
0000
0010
1000
0001
1000
,  // measure 35
0100
1000
0001
1000
0010
1000
0001
0100
0020
0000
0000
0000
0000
0000
0000
0000
,  // measure 36
0000
0000
0000
0000
0130
0010
0110
0000
,  // measure 37
2000
0000
0000
0000
0010
0000
0000
0000
3002
0000
0000
0000
0100
0000
0000
0000
1003
0000
0000
0000
0100
0000
0000
1000
0001
0000
0000
0000
0000
0000
0000
0000
,  // measure 38
0002
0000
0000
0000
0010
0000
0000
0000
2003
0000
0000
0000
0100
0000
0000
0000
3001
0000
0000
0000
0100
0000
0000
0001
1000
0000
0000
0000
0000
0000
0000
0000
,  // measure 39
0001
0010
0000
0000
0000
0000
0000
0000
0002
0000
0000
0000
0100
0000
0000
0000
2003
0000
0000
0000
0010
0000
0000
0000
3001
0000
0000
0000
0010
0000
0000
0001
,  // measure 40
1000
0000
0000
0000
0000
0000
0000
0000
2000
0000
0000
0000
0100
0000
0000
0000
3002
0000
0000
0000
0010
0000
0000
0000
1003
0000
0000
0000
0010
0000
0000
1000
,  // measure 41
0010
0000
0000
0000
1000
0000
0000
0100
0010
0000
0000
0000
0001
0000
0000
0000
2000
0000
0000
0000
0100
0000
0000
0000
3002
0000
0000
0000
0100
0000
0000
0000
,  // measure 42
1003
0000
0000
0010
1000
0000
0000
0000
0002
0000
0000
0000
0100
0000
0000
0000
2003
0000
0000
0000
0100
0000
0000
0000
3001
0000
0000
0010
0001
0000
0000
0000
,  // measure 43
2000
0000
0000
0000
0000
0000
0000
0000
0000
0000
0000
0000
0000
0000
0000
0000
0000
0000
0000
0000
0000
0000
0000
0000
0100
0000
0000
0000
0000
0000
0000
0000
0000
0000
0000
0000
0000
0000
0000
0000
0000
0000
0000
0000
0000
0000
0000
0000
3002
0000
0000
0000
0000
0000
0000
0000
0000
0000
0000
0000
0000
0000
0000
0000
0000
0000
0000
0000
0000
0000
0000
0000
0100
0000
0000
0000
0000
0000
0000
0000
0000
0000
0000
0000
0000
0000
0000
0000
0000
0000
0000
0000
0000
0000
0000
0000
1003
0000
0000
0000
0000
0000
0000
0000
0000
0000
0000
0000
0000
0000
0000
0000
0000
0000
0000
0000
0000
0000
0000
0000
0010
0000
0000
0000
0000
0000
0000
0000
0000
0000
0000
0000
0000
0000
0000
0000
0000
0000
0100
0000
0000
0000
0000
0000
0010
0000
0000
0000
0000
0000
0000
0000
0000
0000
0000
0000
0000
0000
0000
0000
0000
0000
0000
0000
0000
0000
0000
0000
0000
0000
1000
0000
0000
0000
0000
0000
0100
0000
0000
0000
0000
0000
0000
0000
0000
0000
0000
0000
0000
0000
0000
0000
,  // measure 44
0000
0000
0000
0000
0000
0000
0000
0000
0000
0000
0000
0000
0000
0000
0000
0000
0001
0000
0000
0000
0000
0000
0000
0000
0000
0000
0000
0000
0000
0000
0000
0000
0100
0000
0000
0000
0000
0000
0000
0000
0000
0000
0000
0000
0000
0000
0000
0000
1000
0000
0000
0000
0000
0000
0000
0000
0000
0000
0000
0000
0000
0000
0000
0000
0000
0000
0000
0000
0000
0000
0000
0000
0010
0000
0000
0000
0000
0000
0000
0000
0000
0000
0000
0000
0000
0000
0000
0000
0000
0000
0000
0000
0000
0000
0000
0000
0010
0000
0000
0000
0000
0000
0000
0000
0000
0000
0000
0000
0000
0000
0000
0000
0000
0000
0000
0000
0000
0000
0000
0000
0010
0000
0000
0000
0000
0000
0000
0000
0000
0000
0000
0000
0000
0000
0000
0000
0000
0000
0000
0000
0000
0000
0000
0000
0100
0000
0000
0000
0000
0000
0000
0000
0000
0000
0000
0000
0000
0000
0000
0000
0000
0000
0000
0000
0000
0000
0000
0000
0010
0000
0000
0000
0000
0000
0000
0000
0000
0000
0000
0000
0000
0000
0000
0000
0000
0000
1000
0000
0000
0000
0000
0000
,  // measure 45
0010
0000
0000
0000
0100
0000
0000
0001
1000
0000
0000
0000
0001
0000
0000
0010
0004
0000
0003
0000
0100
0000
0000
0000
0001
0000
0000
0000
0010
0000
0000
0000
,  // measure 46
0010
0000
0000
0000
0010
0000
0000
0000
0100
0000
0000
0000
0010
0000
0000
0001
0010
0000
0000
0000
0100
0000
0000
1000
0001
0000
0000
0000
1000
0000
0000
0010
,  // measure 47
4000
0000
3000
0000
0100
0000
0000
0000
1000
0000
0000
0000
0010
0000
0000
0000
0010
0000
0000
0000
0010
0000
0000
0000
1000
0000
0000
0000
1000
0000
0000
0001
,  // measure 48
1000
0000
0000
0000
0001
0000
0000
1000
0001
0000
0000
0000
1000
0000
0000
0001
1000
0000
0000
0000
1000
0000
0000
0000
0010
0000
1000
0000
0010
0000
0000
0000
,  // measure 49
1000
0000
0000
0000
0000
0000
0000
0000
0000
0000
0000
0000
0010
0000
0000
0000
0000
0000
0000
0000
0000
0000
0000
0000
1000
0000
0000
0000
0000
0000
0000
0000
0000
0000
0000
0000
0010
0000
0000
0000
0000
0000
0000
0000
0000
0000
0000
0000
0100
0000
0000
0000
0000
0000
0000
0000
0000
0000
0000
0000
0010
0000
0000
0000
0000
0000
0000
0000
0000
0000
0000
0000
0100
0000
0000
0000
0000
0000
0000
0000
0000
0000
0000
0000
0000
0000
0000
0000
0000
0000
0001
0000
0000
0000
0000
0000
0010
0000
0000
0000
0000
0000
0000
0000
0000
0000
0000
0000
0000
0000
0000
0000
0000
0000
0000
0000
0000
0000
0000
0000
0000
0000
0100
0000
0000
0000
0000
0000
1000
0000
0000
0000
0000
0000
0000
0000
0000
0000
0000
0000
0000
0000
0000
0000
0000
0000
0000
0000
0000
0000
0000
0000
0000
0000
0001
0000
0000
0000
0000
0000
0400
0000
0000
0000
0000
0000
0000
0000
0000
0000
0000
0000
0300
0000
0000
0000
0000
0000
0000
0000
0000
0000
0000
0000
0000
0000
0000
0000
0000
0000
0000
0000
,  // measure 50
0010
1000
0100
0010
0002
0000
0000
0000
0000
0000
0000
0000
0000
0000
0000
0000
,  // measure 51
0000
0000
0000
0203
,  // measure 52
0000
0000
0000
0000
,  // measure 53
0000
0000
0000
0310
0000
0010
1000
0000
1000
0100
0000
0100
,  // measure 54
0010
0000
0000
0000
1000
0000
0000
0000
0100
0000
0000
0000
0001
0000
0000
0010
0000
0000
0001
0000
0000
0000
0010
0000
,  // measure 55
0001
0000
0001
0100
0000
0100
0010
0000
0001
0000
0100
0000
,  // measure 56
1000
0000
0000
0010
0000
0000
1000
0000
0000
0000
0010
0000
0000
0000
0001
0000
0000
0000
0100
0000
0000
1000
0000
0000
,  // measure 57
0001
0000
0000
0000
0010
0000
0000
0000
1000
0000
0000
0000
0100
0000
0000
0001
0000
0000
2000
3000
0000
0000
0020
0030
,  // measure 58
0000
0000
0002
0003
0000
0000
2000
3000
0000
0000
0200
0300
0000
0000
0002
0003
0000
0000
0020
0030
0000
0000
2000
3000
,  // measure 59
0000
0000
0002
0003
0000
0000
0200
0300
0000
0000
2000
3000
0000
0000
0020
0030
0000
0000
0002
0003
0000
0000
0200
0000
,  // measure 60
0000
0000
0000
0000
0000
0000
0000
0000
0000
0000
0000
0000
0300
0000
0000
0000
0000
0000
2000
3000
0000
0000
0020
0030
,  // measure 61
0000
0000
0002
0003
0000
0000
0200
0300
0000
0000
2000
3000
0000
0000
0002
0003
0000
0000
0020
0030
0000
0000
2000
3000
,  // measure 62
0000
0000
0200
0300
0000
0000
0002
0003
0000
0000
2000
3000
0000
0000
0020
0030
0000
0000
0002
0003
0000
0000
0200
0300
,  // measure 63
0000
0000
2000
3000
0000
0000
0004
0003
0000
0000
0010
0000
0000
0000
1000
0000
0000
0000
0002
0003
0000
0000
0020
0030
,  // measure 64
0000
0000
2000
3000
0000
0000
0200
0300
0000
0000
0002
0003
0000
0000
2000
3000
0000
0000
0020
0030
0000
0000
0002
0003
,  // measure 65
0000
0000
0200
0300
0000
0000
2000
3000
0000
0000
0002
0003
0000
0000
0020
0030
0000
0000
2000
3000
0000
0000
0200
0300
,  // measure 66
0000
0000
0002
0003
0000
0000
4000
3000
0000
0000
0010
0000
0000
0000
0002
0000
0000
0000
2003
3000
0000
0000
0002
0003
,  // measure 67
0020
0030
2000
3000
0000
0000
0200
0300
0000
0000
0004
0003
0000
0000
0010
0000
0000
0000
2000
0000
0000
0000
0000
0000
,  // measure 68
0000
0000
3002
0003
0000
0000
2000
3000
0200
0300
0002
0003
0000
0000
0020
0030
0000
4000
3001
0000
0000
0000
0020
0000
,  // measure 69
0000
0000
0000
0000
0000
4030
3001
0000
0000
0000
0020
0000
0000
0000
0000
0000
0000
4030
3001
0000
0000
0000
0200
0000
,  // measure 70
0000
0000
0000
0000
0000
0000
2300
3000
0000
0000
0002
0003
0200
0300
2000
3000
0000
0000
0020
0030
0000
0000
0004
0003
,  // measure 71
0000
0000
0100
0000
0000
0000
2000
0000
0000
0000
0000
0000
0000
0000
3002
0003
0000
0000
2000
3000
0020
0030
0002
0003
,  // measure 72
0000
0000
0200
0300
0000
4000
3001
0000
0000
0000
0200
0000
0000
0000
0000
0000
0000
4300
3001
0000
0000
0000
0200
0000
,  // measure 73
0000
0000
0000
0000
0000
4300
3001
0000
0000
0000
0020
0000
0000
0000
0000
0000
0000
0000
2030
3000
0000
0000
0020
0030
,  // measure 74
0200
0300
0020
0030
0000
0000
0002
0003
0000
0200
0300
0000
0000
4000
3002
0003
0000
0000
2000
3000
0000
0000
0200
0300
,  // measure 75
0020
0030
0200
0300
0000
0000
0002
0003
0000
0000
0020
0030
0000
4000
3001
0000
0000
0000
0010
0000
0000
0000
0200
0300
,  // measure 76
0020
0030
0200
0300
0000
0000
2000
3000
0000
0000
0020
0030
0000
0004
2003
3000
0000
0000
0002
0003
0000
0000
0020
0030
,  // measure 77
0200
0300
0020
0030
0000
0000
2000
3000
0000
0000
0200
0300
0000
0004
2003
3000
0000
0000
0002
0000
0000
0000
0103
0000
,  // measure 78
1000
0002
0000
0013
1000
0002
0000
0013
1000
0002
0000
0103
,  // measure 79
1000
0002
0000
0103
1000
0002
0000
0013
1000
0001
0000
1001
,  // measure 80
0000
0101
0000
1010
0000
1100
0000
0011
0000
1001
0000
0110
,  // measure 81
0000
1001
0000
1010
0000
0011
0000
0101
0000
1200
0000
0000
,  // measure 82
0000
0000
0000
0000
,  // measure 83
0000
0000
0000
0000
,  // measure 84
0000
0000
0000
0000
,  // measure 85
0000
0000
0000
0000
,  // measure 86
0000
0000
0000
0000
,  // measure 87
0000
0000
2300
3040
,  // measure 88
0000
0000
0000
0000
,  // measure 89
0000
0000
0000
0000
,  // measure 90
0000
0000
0000
0000
0030
0000
0040
0100
,  // measure 91
0000
0100
0000
0100
0000
0100
0000
0100
,  // measure 92
0000
0100
0000
0001
0000
1000
0031
0040
,  // measure 93
0100
0100
1000
1000
0100
0130
0042
0000
,  // measure 94
0000
0000
0000
0000
,  // measure 95
0003
0000
0000
0000
0M01
0000
0M00
0001
1000
0000
0M00
0000
1000
0000
0M00
0000
,  // measure 96
0100
0000
000M
1000
0001
0000
0M00
0000
0001
0000
0M00
0000
0100
0000
000M
0100
,  // measure 97
1000
0000
000M
0000
1000
0000
000M
0000
0100
0000
M000
0100
0001
0000
M000
0000
,  // measure 98
0001
0000
M000
0000
M000
0000
0001
0100
M000
0000
0001
0000
M000
0000
0100
0000
,  // measure 99
000M
0000
1000
0100
000M
0000
1000
0000
000M
0000
0100
0000
000M
0000
0100
1000
,  // measure 100
000M
0000
0001
0000
M000
0000
0100
0000
M000
0000
0100
0001
M000
0000
1000
0000
,  // measure 101
000M
0000
0000
0100
0000
0000
M000
0000
0001
0000
1000
0000
000M
0000
1000
0000
0001
0000
0M00
0000
0000
0100
0000
0000
,  // measure 102
000M
0000
0001
0000
1000
0000
0M00
0000
1000
0000
0100
0000
000M
0000
0000
0001
0000
0000
0M00
0000
0001
0000
0100
0000
,  // measure 103
000M
0000
0000
1000
0000
0000
0001
0000
0000
1000
0000
0000
000M
0000
0000
0000
0000
0000
0100
0000
0000
0000
0000
0000
M000
0000
0000
0000
1000
0000
0000
0000
0100
0000
0000
0000
M000
0000
0000
0001
0000
0000
1000
0000
0000
0001
0000
0000
,  // measure 104
M000
0000
0100
0000
M000
0001
1000
0001
M000
0001
1000
0001
M000
0001
1000
0000
,  // measure 105
000M
1000
0001
1000
000M
1000
0001
1000
000M
0000
0100
0000
000M
1000
0001
0M00
,  // measure 106
0001
1000
0M00
1000
0001
0M00
0001
1000
0M00
0100
000M
0100
000M
0100
000M
0100
,  // measure 107
000M
0000
0100
0000
003M
0000
0100
0000
0010
0000
1000
0000
0001
0000
0010
0000
0100
0000
1000
0000
0001
0000
0000
0000
1001
0000
0000
0000
0000
0000
0000
2000
,  // measure 108
0010
0000
0000
0000
0000
0000
0000
0000
0000
0000
0000
0000
0000
0000
0000
0000
0000
0000
0000
0000
0000
0000
0000
0000
0000
0000
3002
0000
0000
0000
0000
0000
0100
0000
0000
0000
0000
0000
0000
0000
0000
0000
0000
0000
0000
0000
0000
0000
0000
0000
0000
0000
0000
0000
0000
0000
0000
0000
1003
0000
0000
0000
0000
0000
0100
0000
0000
0000
0000
0000
0000
0000
0000
0000
0000
0000
0000
0000
0000
0000
0000
0000
0000
0000
0000
0000
0000
0000
0000
0000
0000
0000
0000
0000
0000
0000
0110
0000
0000
0000
0000
0000
0000
0000
0000
0000
0000
0000
0000
0000
0000
0000
0000
0000
0000
0000
0000
0000
0000
0000
0000
0000
0000
0000
0000
0000
0000
0000
0000
0000
0000
0000
0000
0000
0000
0000
0000
0000
0000
0000
0000
0000
0000
0000
0010
0000
0000
0000
0000
0000
0000
0000
0000
0000
0000
0000
0001
0000
0000
0000
0000
0000
0000
0000
0000
0000
0000
0000
1000
0000
0000
0000
0000
0000
0000
0000
0000
0000
0000
0000
0010
0000
0000
0000
0000
0000
0000
0000
0000
0000
0000
0000
,  // measure 109
0100
0000
0000
0000
0000
0000
0000
0000
0000
0000
0000
0000
0001
0000
0000
0000
0000
0000
0000
0000
0000
0000
0000
0000
1000
0000
0000
0000
0000
0000
0000
0000
0000
0000
0000
0000
0000
0000
0000
0000
0000
0000
0000
0000
0000
0000
0000
0000
1001
0000
0000
0000
0000
0000
0000
0000
0000
0000
0000
0000
0000
0000
0000
0000
0000
0000
0000
0000
0000
0000
0000
0000
0000
0000
0000
0000
0000
0000
0000
0000
0000
0000
0000
0000
0000
0000
0000
0000
0000
0000
0000
0000
0000
0000
0000
0000
2000
0000
0000
0000
0000
0000
0000
0000
3000
0000
0000
0000
0000
0000
0000
0000
0000
0000
0000
0000
0000
0000
0000
0000
0000
0000
0000
0000
0000
0000
0000
0000
0002
0000
0000
0000
0000
0000
0000
0000
0003
0000
0000
0000
0000
0000
0000
0000
0020
0000
0000
0000
0000
0000
0000
0000
0030
0000
0000
0000
0000
0000
0000
0000
2000
0000
0000
0000
0000
0000
0000
0000
3000
0000
0000
0000
0000
0000
0000
0000
0000
0000
0000
0000
0000
0000
0000
0000
0000
0000
0200
0000
0000
0000
0000
0000
,  // measure 110
0320
0000
0000
0000
0000
0000
0030
0000
0000
0000
0000
0000
0000
0000
0000
0000
0000
0000
0000
0000
0000
0000
0000
0000
0000
0000
0000
0000
0000
0000
0000
0000
0000
0000
0000
0000
0000
0000
0000
0000
0000
0000
0000
0000
0000
0000
0000
0000
1000
0000
0000
0000
0000
0000
0000
0000
0000
0000
0000
0000
0010
0000
0000
0000
0000
0000
0000
0000
0000
0000
0000
0000
0100
0000
0000
0000
0000
0000
0000
0000
0000
0000
0000
0000
0001
0000
0000
0000
0000
0000
0000
0000
0000
0000
0000
0000
0010
0000
0000
0000
0000
0000
0000
0000
0000
0000
0000
0000
0000
0000
0000
0000
0100
0000
0000
0000
0000
0000
0000
0000
0000
0000
0000
0000
0000
0000
0000
0000
1000
0000
0000
0000
0000
0000
0000
0000
0000
0000
0000
0000
0000
0000
0000
0000
0010
0000
0000
0000
0000
0000
0000
0000
0000
0000
0000
0000
0000
0000
0000
0000
0000
0000
0000
0000
0000
0000
0000
0000
0000
0000
0000
0000
0000
0000
0000
0000
0000
0000
0000
0000
0000
0000
0000
0000
0000
0000
0000
0000
0000
0000
0000
0000
,  // measure 111
1000
0000
0000
0000
0000
0000
0100
0000
0000
0000
0000
0000
0010
0000
0000
0000
0100
0000
0000
0000
0010
0000
0000
0000
0001
0000
0000
0100
0000
0000
0010
0000
0000
0100
0000
0000
0001
0000
0000
1000
0000
0000
0100
0000
0000
0010
0000
0000
,  // measure 112
0100
0000
0000
1000
0000
0000
0001
0000
0000
0100
0000
0000
0010
0000
0000
1000
0000
0000
0100
0000
0000
0010
0000
0000
0100
0000
0000
1000
0000
0000
0010
0000
0000
0100
0000
0000
0001
0000
0000
0000
0010
0000
0000
0000
0100
0000
0000
0000
,  // measure 113
0010
0010
0240
0000
0000
0000
0000
0000
,  // measure 114
0000
0000
0000
0000
,  // measure 115
0000
0000
0000
0000
,  // measure 116
0000
0300
0000
0030
,  // measure 117
00L0
0000
0000
0000
;

//---------------dance-single - (CSP Tutorial)----------------
#NOTEDATA:;
#CHARTNAME:;
#STEPSTYPE:dance-single;
#DESCRIPTION:(CSP Tutorial);
#CHARTSTYLE:;
#DIFFICULTY:Edit;
#METER:18;
#RADARVALUES:0.630310,1.335062,0.172891,1.182573,0.822960,638.000000,613.000000,25.000000,171.000000,0.000000,0.000000,5.000000,1.000000,0.000000,0.630310,1.335062,0.172891,1.182573,0.822960,638.000000,613.000000,25.000000,171.000000,0.000000,0.000000,5.000000,1.000000,0.000000;
#CREDIT:Karl with a K;
#NOTES:
0000
0000
0000
0000
,
0000
0000
0000
0000
,
0000
0000
0000
0000
,
0000
0000
0000
0000
,
0000
0000
0000
0000
,
0000
0000
0000
0000
,
0000
0000
0000
0000
,
0000
0000
0000
0000
,
0000
0000
0000
0000
,
0000
0000
0000
0000
,
0000
0000
0000
0000
,
0000
0000
0000
0000
,
0000
0000
0000
0000
,
0000
0000
0000
0000
,
0000
0000
0000
0000
,
0000
0000
0000
0000
,
0000
0000
0000
0000
,
0000
0000
0000
0000
,
0000
0000
0000
0000
,
0000
0000
0000
0000
,
0000
0000
0000
0000
,
0000
0000
0000
0000
,
0000
0000
0000
0000
,
0000
0000
0000
0000
,
0000
0000
0000
0000
,
0000
0000
0000
0000
,
0000
0000
2002
0000
,
3003
0220
0000
0330
,
0202
0000
0000
0000
0000
0000
0000
0000
0000
0000
0000
0000
0000
0000
0000
0000
0303
0000
0000
0000
0000
0000
0000
0000
1010
0000
0000
0000
0000
0000
0000
0001
,
0010
0000
0000
0000
0000
0000
0000
0100
1000
0000
0000
0000
0000
0000
0000
0000
0120
0000
0000
0000
0000
0000
0000
0000
0001
0000
0000
0000
0000
0000
0000
0000
,
0100
0001
0130
1000
,
0020
1000
0130
0001
,
1001
0000
1000
0000
0001
0100
0001
0100
,
0001
0000
1000
0100
1000
0100
1000
0000
,
0010
0000
1000
0000
0100
0000
0010
0000
0001
0000
0100
0000
0010
1000
0001
1000
,
0100
1000
0001
1000
0010
1000
0001
0100
0020
0000
0000
0000
0000
0000
0000
0000
,
0000
0000
0000
0000
0130
0010
0110
0000
,
2000
0000
0000
0000
0010
0000
0000
0000
3002
0000
0000
0000
0100
0000
0000
0000
1003
0000
0000
0000
0100
0000
0000
1000
0001
0000
0000
0000
0000
0000
0000
0000
,
0002
0000
0000
0000
0010
0000
0000
0000
2003
0000
0000
0000
0100
0000
0000
0000
3001
0000
0000
0000
0100
0000
0000
0001
1000
0000
0000
0000
0000
0000
0000
0000
,
0001
0010
0000
0000
0000
0000
0000
0000
0002
0000
0000
0000
0100
0000
0000
0000
2003
0000
0000
0000
0010
0000
0000
0000
3001
0000
0000
0000
0010
0000
0000
0001
,
1000
0000
0000
0000
0000
0000
0000
0000
2000
0000
0000
0000
0100
0000
0000
0000
3002
0000
0000
0000
0010
0000
0000
0000
1003
0000
0000
0000
0010
0000
0000
1000
,
0010
0000
0000
0000
1000
0000
0000
0100
0010
0000
0000
0000
0001
0000
0000
0000
2000
0000
0000
0000
0100
0000
0000
0000
3002
0000
0000
0000
0100
0000
0000
0000
,
1003
0000
0000
0010
1000
0000
0000
0000
0002
0000
0000
0000
0100
0000
0000
0000
2003
0000
0000
0000
0100
0000
0000
0000
3001
0000
0000
0010
0001
0000
0000
0000
,
2000
0000
0000
0000
0000
0000
0000
0000
0000
0000
0000
0000
0000
0000
0000
0000
0000
0000
0000
0000
0000
0000
0000
0000
0100
0000
0000
0000
0000
0000
0000
0000
0000
0000
0000
0000
0000
0000
0000
0000
0000
0000
0000
0000
0000
0000
0000
0000
3002
0000
0000
0000
0000
0000
0000
0000
0000
0000
0000
0000
0000
0000
0000
0000
0000
0000
0000
0000
0000
0000
0000
0000
0100
0000
0000
0000
0000
0000
0000
0000
0000
0000
0000
0000
0000
0000
0000
0000
0000
0000
0000
0000
0000
0000
0000
0000
1003
0000
0000
0000
0000
0000
0000
0000
0000
0000
0000
0000
0000
0000
0000
0000
0000
0000
0000
0000
0000
0000
0000
0000
0010
0000
0000
0000
0000
0000
0000
0000
0000
0000
0000
0000
0000
0000
0000
0000
0000
0000
0100
0000
0000
0000
0000
0000
0010
0000
0000
0000
0000
0000
0000
0000
0000
0000
0000
0000
0000
0000
0000
0000
0000
0000
0000
0000
0000
0000
0000
0000
0000
0000
1000
0000
0000
0000
0000
0000
0100
0000
0000
0000
0000
0000
0000
0000
0000
0000
0000
0000
0000
0000
0000
0000
,
0000
0000
0000
0000
0000
0000
0000
0000
0000
0000
0000
0000
0000
0000
0000
0000
0001
0000
0000
0000
0000
0000
0000
0000
0000
0000
0000
0000
0000
0000
0000
0000
0100
0000
0000
0000
0000
0000
0000
0000
0000
0000
0000
0000
0000
0000
0000
0000
1000
0000
0000
0000
0000
0000
0000
0000
0000
0000
0000
0000
0000
0000
0000
0000
0000
0000
0000
0000
0000
0000
0000
0000
0010
0000
0000
0000
0000
0000
0000
0000
0000
0000
0000
0000
0000
0000
0000
0000
0000
0000
0000
0000
0000
0000
0000
0000
0010
0000
0000
0000
0000
0000
0000
0000
0000
0000
0000
0000
0000
0000
0000
0000
0000
0000
0000
0000
0000
0000
0000
0000
0010
0000
0000
0000
0000
0000
0000
0000
0000
0000
0000
0000
0000
0000
0000
0000
0000
0000
0000
0000
0000
0000
0000
0000
0100
0000
0000
0000
0000
0000
0000
0000
0000
0000
0000
0000
0000
0000
0000
0000
0000
0000
0000
0000
0000
0000
0000
0000
0010
0000
0000
0000
0000
0000
0000
0000
0000
0000
0000
0000
0000
0000
0000
0000
0000
0000
1000
0000
0000
0000
0000
0000
,
0010
0000
0000
0000
0100
0000
0000
0001
1000
0000
0000
0000
0001
0000
0000
0010
0004
0000
0003
0000
0100
0000
0000
0000
0001
0000
0000
0000
0010
0000
0000
0000
,
0010
0000
0000
0000
0010
0000
0000
0000
0100
0000
0000
0000
0010
0000
0000
0001
0010
0000
0000
0000
0100
0000
0000
1000
0001
0000
0000
0000
1000
0000
0000
0010
,
4000
0000
3000
0000
0100
0000
0000
0000
1000
0000
0000
0000
0010
0000
0000
0000
0010
0000
0000
0000
0010
0000
0000
0000
1000
0000
0000
0000
1000
0000
0000
0001
,
1000
0000
0000
0000
0001
0000
0000
1000
0001
0000
0000
0000
1000
0000
0000
0001
1000
0000
0000
0000
1000
0000
0000
0000
0010
0000
1000
0000
0010
0000
0000
0000
,
1000
0000
0000
0000
0000
0000
0000
0000
0000
0000
0000
0000
0010
0000
0000
0000
0000
0000
0000
0000
0000
0000
0000
0000
1000
0000
0000
0000
0000
0000
0000
0000
0000
0000
0000
0000
0010
0000
0000
0000
0000
0000
0000
0000
0000
0000
0000
0000
0100
0000
0000
0000
0000
0000
0000
0000
0000
0000
0000
0000
0010
0000
0000
0000
0000
0000
0000
0000
0000
0000
0000
0000
0100
0000
0000
0000
0000
0000
0000
0000
0000
0000
0000
0000
0000
0000
0000
0000
0000
0000
0001
0000
0000
0000
0000
0000
0010
0000
0000
0000
0000
0000
0000
0000
0000
0000
0000
0000
0000
0000
0000
0000
0000
0000
0000
0000
0000
0000
0000
0000
0000
0000
0100
0000
0000
0000
0000
0000
1000
0000
0000
0000
0000
0000
0000
0000
0000
0000
0000
0000
0000
0000
0000
0000
0000
0000
0000
0000
0000
0000
0000
0000
0000
0000
0001
0000
0000
0000
0000
0000
0400
0000
0000
0000
0000
0000
0000
0000
0000
0000
0000
0000
0300
0000
0000
0000
0000
0000
0000
0000
0000
0000
0000
0000
0000
0000
0000
0000
0000
0000
0000
0000
,
0010
1000
0100
0010
0002
0000
0000
0000
0000
0000
0000
0000
0000
0000
0000
0000
,
0000
0000
0000
0203
,
0000
0000
0000
0000
,
0000
0000
0000
0310
0000
0010
1000
0000
1000
0100
0000
0100
,
0020
0000
0000
0000
2030
0000
0000
0000
3200
0000
0000
0000
0301
0000
0000
0010
0000
0000
0001
0000
0000
0000
0010
0000
,
0001
0000
0001
0100
0000
0100
0020
0000
0032
0000
0203
0000
,
1300
0000
0000
0010
0000
0000
2000
0000
0000
0000
3020
0000
0000
0000
0032
0000
0000
0000
0103
0000
0000
1000
0000
0000
,
0002
0000
0000
0000
0023
0000
0000
0000
2030
0000
0000
0000
3100
0000
0000
0001
0000
0000
2000
0000
0000
0000
3020
0000
,
0000
0032
0000
2003
0000
3200
0000
0302
0000
0023
0000
2030
,
0000
3002
0000
0203
0000
2300
0000
3020
0000
0032
0000
0203
,
0000
0000
0000
0000
0000
0000
0000
0000
0000
2300
0000
3020
,
0000
0032
0000
0203
0000
2300
0000
3002
0000
0023
0000
2030
,
0000
3200
0000
0302
0000
2003
0000
3020
0000
0032
0000
0203
,
0000
2300
0000
3002
0000
0010
0000
2003
0000
3002
0000
0023
,
0000
2030
0000
3200
0000
0302
0000
2003
0000
3020
0000
0032
,
0000
0203
0000
2300
0000
3002
0000
0023
0000
2030
0000
3200
,
0000
0302
0000
2003
0000
0010
0000
3002
0000
2003
0000
3002
,
0023
2030
0000
3200
0000
0302
0000
0010
0000
2003
0000
0000
,
0000
0000
3002
0000
0000
0000
2003
0000
3200
0000
0302
0000
0000
0000
0023
0000
0000
2030
0001
0000
0000
0000
3020
0000
,
0000
0000
0000
0000
0000
2030
0001
0000
0000
0000
3020
0000
0000
0000
0000
0000
0000
2030
0001
0000
0000
0000
3200
0000
,
0000
0000
0000
2300
0000
3002
0203
2300
0000
3020
0000
0032
,
0000
0100
0000
2003
0000
0000
0000
3002
0000
2003
3020
0032
,
0000
0000
0203
0000
0000
2300
0001
0000
0000
0000
3200
0000
0000
0000
0000
0000
0000
2300
0001
0000
0000
0000
3200
0000
,
0000
0000
0000
0000
0000
2300
0001
0000
0000
0000
3020
0000
0000
0000
0000
0000
0000
0000
2030
0000
0000
0000
3020
0000
,
0230
0000
0320
0000
0030
0000
0002
0000
0000
0000
0203
0000
0000
2300
3002
0000
0000
0000
2003
0000
0000
0000
3200
0000
,
0320
0000
0230
0000
0000
0000
0302
0000
0000
0000
0023
0000
0000
2030
3002
0000
0000
0000
0023
0000
0000
0000
0230
0000
,
0320
0000
0230
0000
0300
0000
2000
0000
0000
0000
3020
0000
0000
0032
2003
0000
0000
0000
3002
0000
0000
0000
0023
0000
,
0230
0000
0320
0000
0000
0000
2030
0000
0000
0000
3200
0000
0000
0302
2003
0000
0000
0000
3002
0000
0000
0000
0103
0000
,
1000
0002
0000
0013
1000
0002
0000
0013
1000
0002
0000
0103
,
1000
0002
0000
0103
1000
0002
0000
0013
1000
0001
0000
1001
,
0000
0101
0000
1010
0000
1100
0000
0011
0000
1001
0000
0110
,
0000
1001
0000
1010
0000
0011
0000
0101
0000
1200
0000
0000
,
0000
0000
0000
0000
,
0000
0000
0000
0000
,
0000
0000
0000
0000
,
0000
0000
0000
0000
,
0000
0000
0000
0000
,
0000
0000
2300
3040
,
0000
0000
0000
0000
,
0000
0000
0000
0000
,
0000
0000
0000
0000
0030
0000
0010
0100
,
0010
0100
0010
0100
0010
0100
0010
0100
,
0010
0100
0010
0001
0010
1000
0001
0010
,
0100
0010
0100
0010
1000
0010
1000
0010
0100
0010
0100
0000
0012
0000
0000
0000
,
0010
0010
0010
0010
,
0013
0000
0000
0000
0011
0000
0010
0001
1000
0000
0010
0000
1000
0000
0010
0000
,
0100
0000
0010
1000
0001
0000
0010
0000
0001
0000
0010
0000
0100
0000
0010
0100
,
1000
0000
0010
0000
1000
0000
0010
0000
0100
0000
0010
0100
0001
0000
0010
0000
,
0001
0000
0010
0000
0010
0000
0001
0100
0010
0000
0001
0000
0010
0000
0100
0000
,
0010
0000
1000
0100
0010
0000
1000
0000
0010
0000
0100
0000
0010
0000
0100
1000
,
0010
0000
0001
0000
0010
0000
0100
0000
0010
0000
0100
0001
0010
0000
1000
0000
,
0010
0000
0000
0100
0000
0000
0010
0000
0001
0000
1000
0000
0010
0000
1000
0000
0001
0000
0010
0000
0000
0100
0000
0000
,
0010
0000
0001
0000
1000
0000
0010
0000
1000
0000
0100
0000
0010
0000
0000
0001
0000
0000
0010
0000
0001
0000
0100
0000
,
0010
0000
0000
1000
0000
0000
0001
0000
0000
1000
0000
0000
0010
0000
0000
0000
0000
0000
0100
0000
0000
0000
0000
0000
0010
0000
0000
0000
1000
0000
0000
0000
0100
0000
0000
0000
0010
0000
0000
0001
0000
0000
1000
0000
0000
0001
0000
0000
,
0010
0000
0100
0000
0010
0001
1000
0001
0010
0001
1000
0001
0010
0001
1000
0000
,
0010
1000
0001
1000
0010
1000
0001
1000
0010
0000
0100
0000
0010
1000
0001
0010
,
0001
1000
0010
1000
0001
0010
0001
1000
0010
0100
0010
0100
0010
0100
0010
0100
,
0010
0000
0100
0000
0010
0000
0100
0000
0010
0000
1000
0000
0001
0000
0010
0000
0100
0000
1000
0000
0001
0000
0000
0000
1001
0000
0000
0000
0000
0000
0000
2000
,
0010
0000
0000
0000
0000
0000
0000
0000
0000
0000
0000
0000
0000
0000
0000
0000
0000
0000
0000
0000
0000
0000
0000
0000
0000
0000
3002
0000
0000
0000
0000
0000
0100
0000
0000
0000
0000
0000
0000
0000
0000
0000
0000
0000
0000
0000
0000
0000
0000
0000
0000
0000
0000
0000
0000
0000
0000
0000
1003
0000
0000
0000
0000
0000
0100
0000
0000
0000
0000
0000
0000
0000
0000
0000
0000
0000
0000
0000
0000
0000
0000
0000
0000
0000
0000
0000
0000
0000
0000
0000
0000
0000
0000
0000
0000
0000
0110
0000
0000
0000
0000
0000
0000
0000
0000
0000
0000
0000
0000
0000
0000
0000
0000
0000
0000
0000
0000
0000
0000
0000
0000
0000
0000
0000
0000
0000
0000
0000
0000
0000
0000
0000
0000
0000
0000
0000
0000
0000
0000
0000
0000
0000
0000
0000
0010
0000
0000
0000
0000
0000
0000
0000
0000
0000
0000
0000
0001
0000
0000
0000
0000
0000
0000
0000
0000
0000
0000
0000
1000
0000
0000
0000
0000
0000
0000
0000
0000
0000
0000
0000
0010
0000
0000
0000
0000
0000
0000
0000
0000
0000
0000
0000
,
0100
0000
0000
0000
0000
0000
0000
0000
0000
0000
0000
0000
0001
0000
0000
0000
0000
0000
0000
0000
0000
0000
0000
0000
1000
0000
0000
0000
0000
0000
0000
0000
0000
0000
0000
0000
0000
0000
0000
0000
0000
0000
0000
0000
0000
0000
0000
0000
1001
0000
0000
0000
0000
0000
0000
0000
0000
0000
0000
0000
0000
0000
0000
0000
0000
0000
0000
0000
0000
0000
0000
0000
0000
0000
0000
0000
0000
0000
0000
0000
0000
0000
0000
0000
0000
0000
0000
0000
0000
0000
0000
0000
0000
0000
0000
0000
2000
0000
0000
0000
0000
0000
0000
0000
0000
0000
0000
0000
0000
0000
0000
0000
0000
0000
0000
0000
0000
0000
0000
0000
0000
0000
0000
0000
0000
0000
0000
0000
3002
0000
0000
0000
0000
0000
0000
0000
0000
0000
0000
0000
0000
0000
0000
0000
0023
0000
0000
0000
0000
0000
0000
0000
0000
0000
0000
0000
0000
0000
0000
0000
2030
0000
0000
0000
0000
0000
0000
0000
0000
0000
0000
0000
0000
0000
0000
0000
0000
0000
0000
0000
0000
0000
0000
0000
0000
0000
3200
0000
0000
0000
0000
0000
,
0320
0000
0000
0000
0000
0000
0000
0000
0000
0000
0000
0000
1030
0000
0000
0010
0000
0000
0100
0000
0000
0001
0000
0000
0010
0000
0000
0000
0100
0000
0000
0000
1000
0000
0000
0000
0010
0000
0000
0000
0000
0000
0000
0000
0000
0000
0000
0000
,
1000
0000
0000
0000
0000
0000
0100
0000
0000
0000
0000
0000
0010
0000
0000
0000
0100
0000
0000
0000
0010
0000
0000
0000
0001
0000
0000
0100
0000
0000
0010
0000
0000
0100
0000
0000
0001
0000
0000
1000
0000
0000
0100
0000
0000
0010
0000
0000
,
0100
0000
0000
1000
0000
0000
0001
0000
0000
0100
0000
0000
0010
0000
0000
1000
0000
0000
0100
0000
0000
0010
0000
0000
0100
0000
0000
1000
0000
0000
0010
0000
0000
0100
0000
0000
0001
0000
0000
0000
0010
0000
0000
0000
0100
0000
0000
0000
,
0010
0010
0240
0000
0000
0000
0000
0000
,
0000
0000
0000
0000
,
0000
0000
0000
0000
,
0000
0300
0000
0030
,
00L0
0000
0000
0000
;

//---------------dance-single - XO DS JA- XMOD FL- RH TS Rolls Spins----------------
#NOTEDATA:;
#CHARTNAME:;
#STEPSTYPE:dance-single;
#DESCRIPTION:XO DS JA- XMOD FL- RH TS Rolls Spins;
#CHARTSTYLE:;
#DIFFICULTY:Hard;
#METER:15;
#RADARVALUES:0.460383,1.132780,0.027663,0.629322,0.567082,466.000000,462.000000,4.000000,91.000000,51.000000,0.000000,6.000000,0.000000,0.000000,0.460383,1.132780,0.027663,0.629322,0.567082,466.000000,462.000000,4.000000,91.000000,51.000000,0.000000,6.000000,0.000000,0.000000;
#CREDIT:Z-I-v Pyrotechnics Team Karl with a K;
#NOTES:
// measure 0
0000
0000
0000
0000
,  // measure 1
0000
0000
0000
0000
,  // measure 2
0000
0000
0000
0000
,  // measure 3
0000
0000
0000
0000
,  // measure 4
0000
0000
0000
0000
,  // measure 5
0000
0000
0000
0000
,  // measure 6
0000
0000
0000
0000
,  // measure 7
0000
0000
0000
0000
,  // measure 8
0000
0000
0000
0000
,  // measure 9
0000
0000
0000
0000
,  // measure 10
0000
0000
0000
0000
,  // measure 11
0000
0000
0000
0000
,  // measure 12
0000
0000
0000
0000
,  // measure 13
0000
0000
0000
0000
,  // measure 14
0000
0000
0000
0000
,  // measure 15
0000
0000
0000
0000
,  // measure 16
0000
0000
0000
0000
,  // measure 17
0000
0000
0000
0000
,  // measure 18
0000
0000
0000
0000
,  // measure 19
0000
0000
0000
0000
,  // measure 20
0000
0000
0000
0000
,  // measure 21
0000
0000
0000
0000
,  // measure 22
0000
0000
0000
0000
,  // measure 23
0000
0000
0000
0000
,  // measure 24
0000
0000
0000
0000
,  // measure 25
0000
0000
0000
0000
,  // measure 26
0000
0000
2000
0000
,  // measure 27
0000
3200
0000
0000
,  // measure 28
0320
0001
0100
0032
,  // measure 29
0000
0000
1003
1000
,  // measure 30
0010
0010
0100
0100
,  // measure 31
0001
0001
0010
0010
,  // measure 32
0100
0000
0100
0000
1000
0100
0010
0001
,  // measure 33
1000
0000
0001
0100
0010
1000
0001
0000
,  // measure 34
0001
0000
0010
0000
0100
0000
1000
0000
0010
0000
0100
0000
0001
1000
0000
0000
,  // measure 35
1000
0001
0000
0000
0001
1000
0000
0000
2002
0000
0000
0000
0000
0000
0000
0000
,  // measure 36
0000
0003
3100
0110
,  // measure 37
0002
0000
0000
0000
0100
0000
0000
0000
2003
0000
0000
0000
0100
0000
0000
0000
3001
0000
0000
0000
0000
0000
0000
1000
0001
0000
0000
0000
0000
0000
0000
0000
,  // measure 38
2000
0000
0000
0000
0100
0000
0000
0000
3002
0000
0000
0000
0100
0000
0000
0000
1003
0000
0000
0000
0000
0000
0000
0001
1000
0000
0000
0000
0000
0000
0000
0000
,  // measure 39
0001
0000
2000
0010
3002
0010
1003
0001
,  // measure 40
0010
0000
0002
0010
2003
0010
3002
0010
,  // measure 41
0013
1000
0001
0100
1000
0010
0001
0010
,  // measure 42
1000
1000
0001
0010
1000
0010
0001
1000
,  // measure 43
0001
0000
0000
0100
0000
0000
1000
0000
0000
0100
0000
0000
0001
0000
0000
0100
0000
0000
1000
0000
0000
0000
0001
0000
,  // measure 44
0000
0000
0010
0000
1000
0000
0001
0000
0000
0010
0000
0000
0010
0000
0000
0010
0000
0000
0100
0000
0000
0010
0000
0000
,  // measure 45
1000
0010
0001
0200
0010
0301
1000
0010
,  // measure 46
0010
0010
0100
0010
0001
0010
1000
0200
,  // measure 47
0010
1300
0001
0010
0001
0010
0001
0010
,  // measure 48
0001
0000
0001
0000
1000
0000
1000
0000
0010
0000
0010
0000
0100
0010
0100
0000
,  // measure 49
0001
0000
0000
0100
0000
0000
0001
0000
0000
0000
0000
0000
1000
0000
0000
0100
0000
0000
1000
0000
0000
0100
0000
0000
0010
0000
0000
0000
0000
0000
0000
0000
0001
0000
0000
0000
0000
0000
0000
0000
0100
0000
0000
0000
0000
0000
0000
0000
,  // measure 50
0001
1000
0001
1000
0002
0000
0000
0000
0000
0000
0000
0000
0000
0000
0000
0000
,  // measure 51
0000
0000
0000
2003
,  // measure 52
0000
0000
0000
0000
,  // measure 53
0000
0000
0000
3010
0000
0010
1000
0000
1000
0010
0000
0000
,  // measure 54
1000
0000
0100
0000
0010
0000
1000
0000
0000
0010
0000
0010
,  // measure 55
0001
0000
0001
0010
0000
0000
0001
0000
0100
0000
0010
0000
,  // measure 56
0001
0000
0000
0010
0000
1000
0000
0100
0000
0010
0000
0000
,  // measure 57
0010
0000
0001
0000
0100
0000
0010
0000
0000
0010
0000
1000
,  // measure 58
0000
0100
0000
0001
0000
0100
0000
1000
0000
0010
0000
0001
,  // measure 59
0000
0010
0000
1000
0000
0100
0000
0010
0000
0001
0000
0200
,  // measure 60
0000
0000
0000
0000
0000
0000
0300
0000
0000
0002
0003
0020
,  // measure 61
0030
2000
3000
0200
0300
0000
0000
0002
0003
0200
0300
2000
,  // measure 62
3000
0020
0030
0000
0000
0002
0003
0020
0030
2000
3000
0200
,  // measure 63
0300
0000
0000
0002
0003
0100
0000
2000
3000
2000
3000
0200
,  // measure 64
0300
0002
0003
0020
0030
0000
0000
2000
3000
0020
0030
0002
,  // measure 65
0003
0200
0300
0000
0000
2000
3000
0200
0300
0002
0003
0020
,  // measure 66
0030
0000
0000
2000
3000
0010
0000
0002
0003
0002
0003
0200
,  // measure 67
0300
2000
3000
0020
0030
0002
0003
0010
0000
2000
0000
0000
,  // measure 68
0000
0000
3020
0000
0030
0000
0002
0000
0003
0000
0200
0000
0300
0000
2000
0000
3000
0200
0310
0000
0000
0000
2000
0000
,  // measure 69
0000
3000
0000
0010
0000
0002
0000
0003
0000
0010
0000
2000
,  // measure 70
0000
3000
0000
0002
0003
0020
0030
2000
3000
0200
0300
0002
,  // measure 71
0003
0100
0000
2000
0000
0000
0000
3200
0300
0002
0003
0020
,  // measure 72
0030
0000
2000
0000
3000
0020
0130
0000
0000
0000
2000
0000
0000
0000
3000
0000
0000
0000
0100
0000
0000
0000
0002
0000
,  // measure 73
0000
0003
0000
0100
0000
2000
0000
3000
0000
0001
0000
0010
,  // measure 74
0100
1000
0000
0010
0000
0001
0000
0010
0000
1000
0000
0100
,  // measure 75
0010
0001
0000
0010
0000
1000
0000
0010
0000
0001
0000
0100
,  // measure 76
0010
1000
0000
0100
0000
0001
0000
0100
0000
1000
0000
0010
,  // measure 77
0100
0001
0000
0100
0000
1000
0000
0100
0000
0002
0000
0013
,  // measure 78
0100
2000
0000
3010
0100
0002
0000
0013
0100
2000
0000
3010
,  // measure 79
0100
0002
0000
0013
0100
2000
0000
3010
0100
0001
0000
0001
,  // measure 80
0000
0001
0000
1000
0000
1000
0000
1000
0000
0100
0000
0100
,  // measure 81
0000
0100
0000
0010
0000
0001
0000
0100
0000
0102
0000
0000
,  // measure 82
0000
0000
1000
0000
,  // measure 83
0000
1000
0000
0000
,  // measure 84
0010
0000
0000
2003
,  // measure 85
0000
0000
0001
0000
,  // measure 86
0000
0100
0000
0000
,  // measure 87
0010
0000
0000
3004
,  // measure 88
0000
0000
0000
0000
,  // measure 89
0000
4003
0000
0000
,  // measure 90
0000
0000
0000
0000
0000
0000
3400
0040
,  // measure 91
0000
0000
0000
0000
,  // measure 92
0000
0300
0031
0100
1000
0100
0001
0010
,  // measure 93
1000
1000
1000
1000
1000
1000
0040
0000
,  // measure 94
0000
0000
0000
0000
,  // measure 95
0000
0000
0031
0040
0100
M000
0001
M000
,  // measure 96
0100
M000
0001
M000
0100
M000
1000
000M
,  // measure 97
0100
M000
0001
M000
0100
M000
0001
M000
,  // measure 98
0001
0000
0M00
0001
1000
0000
000M
0000
0100
0000
000M
0000
1000
0000
000M
0000
,  // measure 99
0100
000M
1000
000M
0100
000M
0001
M000
,  // measure 100
0100
000M
1000
000M
0100
000M
1000
000M
,  // measure 101
1000
0000
0000
0000
0000
0000
0M00
0000
0000
1000
0000
0000
000M
0000
0000
0000
0000
0000
0000
0000
1000
0000
0000
0000
000M
0000
0000
0000
1000
0000
0000
0000
0001
0000
0000
0000
M000
0000
0000
0000
0000
0000
0001
0000
0000
0000
0000
0000
,  // measure 102
M000
0000
0000
0000
0001
0000
M000
0000
0001
0000
1000
0000
000M
0000
0000
1000
0000
0000
000M
0000
0000
0000
1000
0000
,  // measure 103
000M
0000
1000
0000
0001
0000
M000
0000
0000
0001
0000
0000
M000
0000
0000
0000
0001
0000
M000
0000
0001
0000
M000
0000
,  // measure 104
0001
0000
M000
0000
0001
M000
0001
M000
0001
0100
000M
0000
0100
0000
000M
0000
,  // measure 105
1000
000M
1000
000M
1000
0100
M000
0000
0100
0000
M000
0000
0100
M000
0100
M000
,  // measure 106
0100
M000
0001
0000
0100
000M
0000
0000
0100
000M
0100
000M
0100
000M
1000
0000
,  // measure 107
0130
0000
0000
0000
0010
0000
0000
0000
0001
0000
0100
0000
0001
0000
0000
0000
1000
0000
0100
0000
1000
0000
0000
0000
0010
0000
0000
0000
0000
0000
0000
1000
,  // measure 108
0001
0000
0000
0000
0000
0000
0000
0000
0000
0000
0000
0000
0000
0000
0000
0000
0000
0000
0000
0000
0000
0000
0000
0000
0000
0000
0000
0000
0000
0000
0000
0000
0010
0000
0000
0000
0000
0000
0000
0000
0000
0000
0000
0000
0000
0000
0000
0000
0000
0000
0000
0000
0000
0000
0000
0000
0000
0000
0000
0000
0000
0000
0000
0000
0100
0000
0000
0000
0000
0000
0000
0000
0000
0000
0000
0000
0000
0000
0000
0000
0000
0000
0000
0000
0000
0000
0000
0000
0000
0000
1000
0000
0000
0000
0000
0000
0100
0000
0000
0000
0000
0000
0000
0000
0000
0000
0000
0000
0000
0000
0000
0000
0000
0000
0000
0000
0000
0000
0000
0000
0000
0000
0000
0000
0000
0000
0000
0000
0000
0000
0000
0000
0000
0000
0000
0000
0000
0000
0000
0000
0000
0000
0000
0000
1000
0000
0000
0000
0000
0000
0000
0000
0000
0000
0000
0000
0100
0000
0000
0000
0000
0000
0000
0000
0000
0000
0000
0000
1000
0000
0000
0000
0000
0000
0000
0000
0000
0000
0000
0000
0000
0000
0000
0000
0000
0000
0000
0000
0000
0000
0000
0000
,  // measure 109
0001
0000
0000
0100
0000
0000
0001
0000
0000
0000
0000
0000
2000
0000
0000
0000
3000
0000
0000
0000
0000
0000
0000
0000
0200
0000
0000
0000
0300
0000
0000
0000
0002
0000
0000
0000
0003
0000
0000
0000
0020
0000
0000
0000
0030
0000
0000
0000
,  // measure 110
2000
0000
3000
0000
0000
0000
0001
0000
0000
0100
0000
0000
1000
0000
0000
0100
0000
0000
0001
0000
0000
0000
0000
0000
,  // measure 111
1000
0000
0000
0000
0000
0000
0001
0000
0000
0000
0000
0000
0100
0000
0000
0000
0010
0000
0000
0000
0100
0000
0000
0000
0010
0000
0000
0000
0000
0000
1000
0000
0000
0000
0000
0000
0001
0000
0000
1000
0000
0000
0001
0000
0000
1000
0000
0000
,  // measure 112
0001
0000
0000
1000
0000
0000
0001
0000
0000
1000
0000
0000
0001
0000
0000
1000
0000
0000
0001
0000
0000
1000
0000
0000
0001
0000
0000
1000
0000
0000
0001
0000
0000
1000
0000
0000
0001
0000
0000
0000
1000
0000
0000
0000
0001
0000
0000
0000
,  // measure 113
0010
0001
2002
0000
0000
0000
0000
0000
,  // measure 114
0000
0000
0000
0000
,  // measure 115
0000
0000
0000
0000
,  // measure 116
0000
3000
0000
0000
,  // measure 117
0003
0000
0000
0000
;

//---------------dance-single - (ESP Tutorial)----------------
#NOTEDATA:;
#CHARTNAME:;
#STEPSTYPE:dance-single;
#DESCRIPTION:(ESP Tutorial);
#CHARTSTYLE:;
#DIFFICULTY:Edit;
#METER:15;
#RADARVALUES:0.520648,1.132780,0.027663,0.615491,0.567082,527.000000,523.000000,4.000000,89.000000,0.000000,0.000000,3.000000,0.000000,0.000000,0.520648,1.132780,0.027663,0.615491,0.567082,527.000000,523.000000,4.000000,89.000000,0.000000,0.000000,3.000000,0.000000,0.000000;
#CREDIT:Karl with a K;
#NOTES:
0000
0000
0000
0000
,
0000
0000
0000
0000
,
0000
0000
0000
0000
,
0000
0000
0000
0000
,
0000
0000
0000
0000
,
0000
0000
0000
0000
,
0000
0000
0000
0000
,
0000
0000
0000
0000
,
0000
0000
0000
0000
,
0000
0000
0000
0000
,
0000
0000
0000
0000
,
0000
0000
0000
0000
,
0000
0000
0000
0000
,
0000
0000
0000
0000
,
0000
0000
0000
0000
,
0000
0000
0000
0000
,
0000
0000
0000
0000
,
0000
0000
0000
0000
,
0000
0000
0000
0000
,
0000
0000
0000
0000
,
0000
0000
0000
0000
,
0000
0000
0000
0000
,
0000
0000
0000
0000
,
0000
0000
0000
0000
,
0000
0000
0000
0000
,
0000
0000
0000
0000
,
0000
0000
2000
0000
,
0000
3200
0000
0000
,
0320
0001
0100
0032
,
0000
0000
1003
1000
,
0010
0010
0100
0100
,
0001
0001
0010
0010
,
0100
0000
0100
0000
1000
0100
0010
0001
,
1000
0000
0001
0100
0010
1000
0001
0000
,
0001
0000
0010
0000
0100
0000
1000
0000
0010
0000
0100
0000
0001
1000
0000
0000
,
1000
0001
0000
0000
0001
1000
0000
0000
2002
0000
0000
0000
0000
0000
0000
0000
,
0000
0003
3100
0110
,
0002
0000
0000
0000
0100
0000
0000
0000
2003
0000
0000
0000
0100
0000
0000
0000
3001
0000
0000
0000
0000
0000
0000
1000
0001
0000
0000
0000
0000
0000
0000
0000
,
2000
0000
0000
0000
0100
0000
0000
0000
3002
0000
0000
0000
0100
0000
0000
0000
1003
0000
0000
0000
0000
0000
0000
0001
1000
0000
0000
0000
0000
0000
0000
0000
,
0001
0000
2000
0010
3002
0010
1003
0001
,
0010
0000
0002
0010
2003
0010
3002
0010
,
0013
1000
0001
0100
1000
0010
0001
0010
,
1000
1000
0001
0010
1000
0010
0001
1000
,
0001
0000
0000
0100
0000
0000
1000
0000
0000
0100
0000
0000
0001
0000
0000
0100
0000
0000
1000
0000
0000
0000
0001
0000
,
0000
0000
0010
0000
1000
0000
0001
0000
0000
0010
0000
0000
0010
0000
0000
0010
0000
0000
0100
0000
0000
0010
0000
0000
,
1000
0010
0001
0200
0010
0301
1000
0010
,
0010
0010
0100
0010
0001
0010
1000
0200
,
0010
1300
0001
0010
0001
0010
0001
0010
,
0001
0000
0001
0000
1000
0000
1000
0000
0010
0000
0010
0000
0100
0010
0100
0000
,
0001
0000
0000
0100
0000
0000
0001
0000
0000
0000
0000
0000
1000
0000
0000
0100
0000
0000
1000
0000
0000
0100
0000
0000
0010
0000
0000
0000
0000
0000
0000
0000
0001
0000
0000
0000
0000
0000
0000
0000
0100
0000
0000
0000
0000
0000
0000
0000
,
0001
1000
0001
1000
0002
0000
0000
0000
0000
0000
0000
0000
0000
0000
0000
0000
,
0000
0000
0000
2003
,
0000
0000
0000
0000
,
0000
0000
0000
3010
0000
0010
1000
0000
1000
0010
0000
0000
,
1000
0000
0100
0000
0010
0000
1000
0000
0000
0010
0000
0010
,
0001
0000
0001
0010
0000
0000
0001
0000
0100
0000
0010
0000
,
0001
0000
0000
0010
0000
1000
0000
0100
0000
0010
0000
0000
,
0010
0000
0001
0000
0100
0000
0010
0000
0000
0010
0000
1000
,
0000
0100
0000
0001
0000
0100
0000
1000
0000
0010
0000
0001
,
0000
0010
0000
1000
0000
0100
0000
0010
0000
0001
0000
0200
,
0000
0000
0000
0000
0000
0000
0000
0000
0000
0302
0000
0023
,
0000
2030
0000
3200
0000
0000
0000
0302
0000
0203
0000
2300
,
0000
3020
0000
0000
0000
0032
0000
0023
0000
2030
0000
3200
,
0000
0000
0000
0302
0000
0100
0000
1000
0000
2003
0000
3200
,
0000
0302
0000
0023
0000
0000
0000
2030
0000
3020
0000
0032
,
0000
0203
0000
0000
0000
2300
0000
3200
0000
0302
0000
0023
,
0000
0000
0000
2030
0000
0010
0000
0001
0000
3002
0000
0203
,
0000
2300
0000
3020
0000
0032
0000
0010
0000
2003
0000
0000
,
0000
0000
3020
0000
0000
0000
0032
0000
0000
0000
0203
0000
0000
0000
2300
0000
0000
3200
0010
0000
0000
0000
2300
0000
,
0000
0000
0000
0010
0000
3002
0000
0000
0000
0010
0000
2003
,
0000
0000
0000
3002
0000
0023
0000
2030
0000
3200
0000
0302
,
0000
0100
0000
2003
0000
0000
0000
3200
0000
0302
0000
0023
,
0000
0000
2030
0000
0000
3020
0100
0000
0000
0000
2030
0000
0000
0000
0000
0000
0000
0000
0100
0000
0000
0000
3002
0000
,
0000
0000
0000
0100
0000
2003
0000
0000
0000
3001
0000
0010
,
0100
1000
0000
0010
0000
0001
0000
0010
0000
1000
0000
0100
,
0010
0001
0000
0010
0000
1000
0000
0010
0000
0001
0000
0100
,
0010
1000
0000
0100
0000
0001
0000
0100
0000
1000
0000
0010
,
0100
0001
0000
0100
0000
1000
0000
0100
0000
0002
0000
0013
,
0100
2000
0000
3010
0100
0002
0000
0013
0100
2000
0000
3010
,
0100
0002
0000
0013
0100
2000
0000
3010
0100
0001
0000
0001
,
0000
0001
0000
1000
0000
1000
0000
1000
0000
0100
0000
0100
,
0000
0100
0000
0010
0000
0001
0000
0100
0000
0102
0000
0000
,
0000
0000
1000
0000
,
0000
1000
0000
0000
,
0010
0000
0000
2003
,
0000
0000
0001
0000
,
0000
0100
0000
0000
,
0010
0000
0000
3004
,
0000
0000
0000
0000
,
0000
4003
0000
0000
,
0000
0000
0000
0000
0000
0000
3100
0010
,
0100
0010
0100
0010
0100
0010
0100
0010
,
0100
0010
0001
0100
1000
0100
0001
0010
,
1000
1000
1000
1000
1000
1000
0040
0000
,
0000
0000
0000
0000
,
0000
0000
0031
0010
0100
0010
0001
0010
,
0100
0010
0001
0010
0100
0010
1000
0010
,
0100
0010
0001
0010
0100
0010
0001
0010
,
0001
0000
0010
0001
1000
0000
0010
0000
0100
0000
0010
0000
1000
0000
0010
0000
,
0100
0010
1000
0010
0100
0010
0001
0010
,
0100
0010
1000
0010
0100
0010
1000
0010
,
1000
0000
0000
0000
0000
0000
0010
0000
0000
1000
0000
0000
0010
0000
0000
0000
0000
0000
0000
0000
1000
0000
0000
0000
0010
0000
0000
0000
1000
0000
0000
0000
0001
0000
0000
0000
0010
0000
0000
0000
0000
0000
0001
0000
0000
0000
0000
0000
,
0010
0000
0000
0000
0001
0000
0010
0000
0001
0000
1000
0000
0010
0000
0000
1000
0000
0000
0010
0000
0000
0000
1000
0000
,
0010
0000
1000
0000
0001
0000
0010
0000
0000
0001
0000
0000
0010
0000
0000
0000
0001
0000
0010
0000
0001
0000
0010
0000
,
0001
0000
0010
0000
0001
0010
0001
0010
0001
0100
0010
0000
0100
0000
0010
0000
,
1000
0010
1000
0010
1000
0100
0010
0000
0100
0000
0010
0000
0100
0010
0100
0010
,
0100
0010
0001
0000
0100
0010
0000
0000
0100
0010
0100
0010
0100
0010
1000
0000
,
0100
0000
0000
0000
0010
0000
0000
0000
0001
0000
0100
0000
0001
0000
0000
0000
1000
0000
0100
0000
1000
0000
0000
0000
0010
0000
0000
0000
0000
0000
0000
1000
,
0001
0000
0000
0000
0000
0000
0000
0000
0000
0000
0000
0000
0000
0000
0000
0000
0000
0000
0000
0000
0000
0000
0000
0000
0000
0000
0000
0000
0000
0000
0000
0000
0010
0000
0000
0000
0000
0000
0000
0000
0000
0000
0000
0000
0000
0000
0000
0000
0000
0000
0000
0000
0000
0000
0000
0000
0000
0000
0000
0000
0000
0000
0000
0000
0100
0000
0000
0000
0000
0000
0000
0000
0000
0000
0000
0000
0000
0000
0000
0000
0000
0000
0000
0000
0000
0000
0000
0000
0000
0000
1000
0000
0000
0000
0000
0000
0100
0000
0000
0000
0000
0000
0000
0000
0000
0000
0000
0000
0000
0000
0000
0000
0000
0000
0000
0000
0000
0000
0000
0000
0000
0000
0000
0000
0000
0000
0000
0000
0000
0000
0000
0000
0000
0000
0000
0000
0000
0000
0000
0000
0000
0000
0000
0000
1000
0000
0000
0000
0000
0000
0000
0000
0000
0000
0000
0000
0100
0000
0000
0000
0000
0000
0000
0000
0000
0000
0000
0000
1000
0000
0000
0000
0000
0000
0000
0000
0000
0000
0000
0000
0000
0000
0000
0000
0000
0000
0000
0000
0000
0000
0000
0000
,
0001
0000
0000
0100
0000
0000
0001
0000
0000
0000
0000
0000
2000
0000
0000
0000
0000
0000
0000
0000
0000
0000
0000
0000
3200
0000
0000
0000
0000
0000
0000
0000
0302
0000
0000
0000
0000
0000
0000
0000
0023
0000
0000
0000
0000
0000
0000
0000
,
2030
0000
3001
0100
1000
0100
0001
0000
,
1000
0000
0000
0000
0000
0000
0001
0000
0000
0000
0000
0000
0100
0000
0000
0000
0010
0000
0000
0000
0100
0000
0000
0000
0010
0000
0000
0000
0000
0000
1000
0000
0000
0000
0000
0000
0001
0000
0000
1000
0000
0000
0001
0000
0000
1000
0000
0000
,
0001
0000
0000
1000
0000
0000
0001
0000
0000
1000
0000
0000
0001
0000
0000
1000
0000
0000
0001
0000
0000
1000
0000
0000
0001
0000
0000
1000
0000
0000
0001
0000
0000
1000
0000
0000
0001
0000
0000
0000
1000
0000
0000
0000
0001
0000
0000
0000
,
0010
0001
2002
0000
0000
0000
0000
0000
,
0000
0000
0000
0000
,
0000
0000
0000
0000
,
0000
3000
0000
0000
,
0003
0000
0000
0000
;

//---------------dance-single - XO DS JA- XMOD RH- TS----------------
#NOTEDATA:;
#CHARTNAME:;
#STEPSTYPE:dance-single;
#DESCRIPTION:XO DS JA- XMOD RH- TS;
#CHARTSTYLE:;
#DIFFICULTY:Medium;
#METER:12;
#RADARVALUES:0.358625,0.728216,0.034578,0.255878,0.280083,363.000000,358.000000,5.000000,37.000000,0.000000,0.000000,0.000000,0.000000,0.000000,0.358625,0.728216,0.034578,0.255878,0.280083,363.000000,358.000000,5.000000,37.000000,0.000000,0.000000,0.000000,0.000000,0.000000;
#CREDIT:Karl with a K;
#NOTES:
// measure 0
0000
0000
0000
0000
,  // measure 1
0000
0000
0000
0000
,  // measure 2
0000
0000
0000
0000
,  // measure 3
0000
0000
0000
0000
,  // measure 4
0000
0000
0000
0000
,  // measure 5
0000
0000
0000
0000
,  // measure 6
0000
0000
0000
0000
,  // measure 7
0000
0000
0000
0000
,  // measure 8
0000
0000
0000
0000
,  // measure 9
0000
0000
0000
0000
,  // measure 10
0000
0000
0000
0000
,  // measure 11
0000
0000
0000
0000
,  // measure 12
0000
0000
0000
0000
,  // measure 13
0000
0000
0000
0000
,  // measure 14
0000
0000
0000
0000
,  // measure 15
0000
0000
0000
0000
,  // measure 16
0000
0000
0000
0000
,  // measure 17
0000
0000
0000
0000
,  // measure 18
0000
0000
0000
0000
,  // measure 19
0000
0000
0000
0000
,  // measure 20
0000
0000
0000
0000
,  // measure 21
0000
0000
0000
0000
,  // measure 22
0000
0000
0000
0000
,  // measure 23
0000
0000
0000
0000
,  // measure 24
0000
0000
0000
0000
,  // measure 25
0000
0000
0000
0000
,  // measure 26
0000
0000
1001
0000
,  // measure 27
0000
0110
0000
0000
,  // measure 28
1001
0000
0000
0110
,  // measure 29
0001
1000
0001
0001
,  // measure 30
0001
0100
0100
0100
,  // measure 31
0010
0010
0010
1000
,  // measure 32
1000
1000
0001
0010
,  // measure 33
0100
1000
0010
0100
,  // measure 34
0001
0000
0001
0000
0001
0000
1000
0001
,  // measure 35
1000
0001
1000
0001
2000
0000
0000
0000
,  // measure 36
0000
0000
0001
0001
,  // measure 37
3002
0010
1003
0100
,  // measure 38
2000
0010
3001
0100
,  // measure 39
0100
0002
0100
1003
,  // measure 40
0010
2000
0100
3001
,  // measure 41
0010
0100
0010
0001
1000
0010
1000
0000
,  // measure 42
0100
0010
0001
0010
0001
0000
0100
0010
,  // measure 43
1000
0000
0000
0010
0000
0000
1000
0000
0000
0000
0000
0000
0001
0000
0000
0000
0000
0000
1000
0000
0000
0000
0100
0000
,  // measure 44
0000
0000
0010
0000
0000
0000
0001
0000
0000
0100
0000
0000
0010
0000
0000
0000
0000
0000
0100
0000
0000
0000
0000
0000
,  // measure 45
0010
0100
0010
0000
1000
0100
1000
0100
,  // measure 46
0010
0000
0100
0000
0010
0100
0010
0000
,  // measure 47
0001
0100
0001
0010
0001
0000
0200
0000
,  // measure 48
2300
3002
0023
2030
,  // measure 49
3200
0000
0000
0302
0000
0000
0103
0000
1000
0000
0001
0000
,  // measure 50
0200
0320
0000
0000
,  // measure 51
0000
0000
0000
0000
,  // measure 52
0000
0000
0000
0000
,  // measure 53
0000
0000
0000
1030
0000
1000
0100
0000
0000
1000
0000
0000
,  // measure 54
0001
0000
1000
0000
0001
0000
1000
0000
0000
0001
0000
0001
,  // measure 55
0100
0000
0000
0001
0000
0000
1000
0000
0001
0000
1000
0000
,  // measure 56
0001
0000
0000
1000
0000
0001
0000
1000
0000
0001
0000
0000
,  // measure 57
1000
0000
0001
0000
1000
0000
0001
0000
0000
1000
0000
0010
,  // measure 58
0000
1000
0000
0001
0000
0010
0000
0001
0000
1000
0000
0100
,  // measure 59
0000
1000
0000
0001
0000
0100
0000
0001
0000
1000
0000
0002
,  // measure 60
0000
0000
0000
1003
,  // measure 61
0000
0100
0000
0001
0000
0000
0000
0100
0000
0000
0000
1000
,  // measure 62
0000
0001
0000
0000
0000
1000
0000
0000
0000
0010
0000
0001
,  // measure 63
0000
0000
0000
0010
0000
1000
0000
0001
0000
1000
0000
0000
,  // measure 64
0000
0010
0000
0001
0000
0000
0000
0010
0000
0000
0000
1000
,  // measure 65
0000
0001
0000
0000
0000
1000
0000
0000
0000
0100
0000
0001
,  // measure 66
0000
0000
0000
0100
0000
1000
0000
0001
0000
0001
0000
0100
,  // measure 67
0000
0010
0000
1000
0000
0000
0000
1000
0000
0020
0000
0000
,  // measure 68
0000
1030
0000
0100
0000
0010
0000
0001
0000
0100
0000
0020
,  // measure 69
0000
0000
0000
0130
0000
0020
0000
0000
0000
0130
0000
0002
,  // measure 70
0000
0000
0000
1003
0000
0100
0000
0010
0000
0001
0000
0000
,  // measure 71
0000
0001
0000
0020
0000
0000
0000
0031
0000
0100
0000
0010
,  // measure 72
0000
1000
0000
0100
0000
0020
0000
0000
0000
0130
0000
0020
,  // measure 73
0000
0000
0000
0130
0000
2000
0000
0000
0000
3001
0000
0000
,  // measure 74
0000
0001
0000
1000
0000
0000
0000
1000
0000
0100
0000
0000
,  // measure 75
0000
0100
0000
0010
0000
0000
0000
0010
0000
0001
0000
0000
,  // measure 76
0000
0001
0000
0100
0000
0000
0000
0100
0000
0010
0000
0000
,  // measure 77
0000
0010
0000
1000
0000
0000
0000
1000
0000
0001
0000
0000
,  // measure 78
0000
0001
0000
0000
0000
0001
0000
0000
0000
1000
0000
0000
,  // measure 79
0000
1000
0000
0000
0000
1000
0000
0000
0000
0001
0000
1000
,  // measure 80
0000
0001
0000
1000
0000
0001
0000
1000
0000
0001
0000
1000
,  // measure 81
0000
0001
0000
1000
0000
0001
0000
0010
0000
0002
0000
0000
,  // measure 82
0000
0000
0000
0000
,  // measure 83
0000
0000
0000
0000
,  // measure 84
0000
0000
0000
2003
,  // measure 85
0000
0000
3200
0000
,  // measure 86
0000
0320
0000
0000
,  // measure 87
0032
0000
0000
1003
,  // measure 88
1000
1000
1000
1000
,  // measure 89
1000
0001
0001
0001
,  // measure 90
0001
0001
0001
1000
,  // measure 91
0010
0100
0001
0010
,  // measure 92
0100
0000
1000
0010
1000
0010
1000
0000
,  // measure 93
0001
0010
0100
0010
0001
0100
0020
0000
,  // measure 94
0000
0000
0000
0000
,  // measure 95
0000
1000
0100
1000
,  // measure 96
0100
0000
0100
0001
,  // measure 97
0100
0001
0100
0030
,  // measure 98
1000
0001
0020
0000
0000
0000
0100
0000
,  // measure 99
0001
0000
0100
1000
,  // measure 100
0000
0100
0001
0001
,  // measure 101
0031
1000
0020
0000
0100
0000
0100
0000
,  // measure 102
0001
0100
0100
1000
,  // measure 103
0100
0100
0001
0100
,  // measure 104
1030
0001
0020
0100
0100
0000
0100
0000
,  // measure 105
1000
1000
1000
0000
1000
0000
0100
0000
,  // measure 106
1000
0031
0020
0032
,  // measure 107
0203
0000
0310
1000
0100
1000
0010
0000
,  // measure 108
1000
0000
0000
0000
1000
0000
0000
0000
1000
0000
0000
0000
1000
0000
0000
0001
0000
0000
0010
0000
0000
0001
0000
0000
,  // measure 109
0100
0000
0000
0001
0000
0000
0010
0000
0000
0000
0000
0000
1000
0000
0000
0000
0010
0000
0000
0000
0001
0000
0000
0000
,  // measure 110
0100
0000
0010
0000
0010
0100
0010
0000
,  // measure 111
0010
0000
0010
0100
0010
0100
0010
0001
,  // measure 112
0010
0001
0010
0001
0010
1000
0010
1000
,  // measure 113
0100
0010
0220
0000
0000
0000
0000
0000
,  // measure 114
0000
0000
0000
0000
,  // measure 115
0000
0000
0000
0000
,  // measure 116
0000
0300
0000
0000
,  // measure 117
0030
0000
0000
0000
;

//---------------dance-single - ----------------
#NOTEDATA:;
#CHARTNAME:;
#STEPSTYPE:dance-single;
#DESCRIPTION:;
#CHARTSTYLE:;
#DIFFICULTY:Easy;
#METER:9;
#RADARVALUES:0.228216,0.525934,0.041494,0.165975,0.117566,231.000000,225.000000,6.000000,24.000000,0.000000,0.000000,0.000000,0.000000,0.000000,0.228216,0.525934,0.041494,0.165975,0.117566,231.000000,225.000000,6.000000,24.000000,0.000000,0.000000,0.000000,0.000000,0.000000;
#CREDIT:Karl with a K;
#NOTES:
0000
0000
0000
0000
,
0000
0000
0000
0000
,
0000
0000
0000
0000
,
0000
0000
0000
0000
,
0000
0000
0000
0000
,
0000
0000
0000
0000
,
0000
0000
0000
0000
,
0000
0000
0000
0000
,
0000
0000
0000
0000
,
0000
0000
0000
0000
,
0000
0000
0000
0000
,
0000
0000
0000
0000
,
0000
0000
0000
0000
,
0000
0000
0000
0000
,
0000
0000
0000
0000
,
0000
0000
0000
0000
,
0000
0000
0000
0000
,
0000
0000
0000
0000
,
0000
0000
0000
0000
,
0000
0000
0000
0000
,
0000
0000
0000
0000
,
0000
0000
0000
0000
,
0000
0000
0000
0000
,
0000
0000
0000
0000
,
0000
0000
0000
0000
,
0000
0000
0000
0000
,
0000
0000
0001
0000
,
0000
0100
0000
0000
,
0010
0000
0000
1000
,
0000
0000
1000
0000
,
1000
0000
1000
0000
,
0001
0000
0001
0000
,
0001
0000
1000
1000
,
1000
0001
0001
0001
,
1000
1000
1000
0001
,
0001
0001
1001
0000
,
0000
0000
0000
0000
,
1000
0010
0100
0000
,
0001
0010
0100
0000
,
0000
1000
0100
0010
,
0000
0001
0100
0010
,
0001
0010
1000
0100
,
0010
0010
0001
0100
,
0100
0010
1000
1000
,
0000
0001
0010
0100
,
0001
0100
0010
0001
,
0100
0010
0001
0010
,
0100
0001
0010
0010
,
1000
1000
0010
0010
,
0001
0100
1000
0000
,
0100
0002
0000
0000
,
0000
0000
0000
0000
,
0000
0000
0000
0000
,
0000
2003
0000
0000
,
3200
0000
0000
0302
,
0000
0000
0203
0000
,
0000
2300
0000
0000
,
3020
0000
0000
0032
,
0000
0000
0023
0000
,
0000
2030
0000
0000
,
0000
0000
0000
3001
,
0000
0000
0000
1000
0000
0000
0000
0001
0000
0000
0000
0000
,
0000
1000
0000
0000
0000
0001
0000
0000
0000
0000
0000
1000
,
0000
0000
0000
0001
0000
1000
0000
0001
0000
1000
0000
0000
,
0000
0000
0000
0001
0000
0000
0000
1000
0000
0000
0000
0000
,
0000
0001
0000
0000
0000
1000
0000
0000
0000
0000
0000
0001
,
0000
0000
0000
1000
0000
0001
0000
1000
0000
0100
0000
0000
,
0000
0010
0000
0001
,
0000
0100
0000
0000
0000
0000
0000
0010
0000
0000
0000
1000
,
0000
0000
0000
0000
0000
1000
0000
0000
0000
0000
0000
1000
,
0000
0010
0000
0100
,
0000
0000
0000
0001
0000
0000
0000
0010
0000
0000
0000
0000
,
0000
0100
0000
0000
0000
1000
0000
0000
0000
0000
0000
1000
,
0000
0000
0000
0000
0000
1000
0000
0000
0000
0100
0000
0000
,
0000
0010
0000
0100
,
0000
0010
0000
0100
,
0000
0010
0000
0100
,
0000
0010
0000
0100
,
0000
0010
0000
0000
0000
0100
0000
0000
0000
0010
0000
0000
,
0000
0100
0000
0000
0000
0010
0000
0000
0000
0100
0000
0000
,
0000
0100
0000
0000
0000
0100
0000
0000
0000
0100
0000
0000
,
0000
0100
0000
0000
0000
0100
0000
0000
0000
0200
0000
0000
,
0000
0000
0000
0000
,
0000
0000
0000
0000
,
0000
0000
0000
0300
,
0000
0000
0000
0000
,
0000
0000
0000
0000
,
0000
0000
1000
2000
,
0000
0000
0000
0000
,
0000
3020
0000
0000
,
0000
0030
0010
0200
,
0000
0000
0000
0000
,
0000
0302
1000
1000
,
1000
1000
1000
1003
,
0000
0000
0000
0000
,
1000
0010
1000
0100
,
0010
0001
0100
1000
,
0100
0001
0010
0100
,
0100
0001
0100
1000
,
0001
0100
0010
0001
,
0010
0100
0001
1000
,
0001
1000
1000
1000
,
0010
0010
0010
0100
,
0100
0100
0001
0001
,
0001
0000
1000
0100
1000
0000
0001
0000
,
0100
0001
0100
0000
0001
0000
1000
0000
,
0100
0010
0002
0100
,
0100
2003
3200
0320
,
0031
0000
1000
0000
0001
0000
1000
0000
0000
0002
0000
0000
,
0203
0000
0000
0320
0000
0000
1030
0000
1000
0000
1000
0000
,
1000
0010
0100
0110
,
0100
0010
0110
0010
,
0100
0110
0100
0010
,
0110
2002
0000
0000
,
0000
0000
0000
0000
,
0000
0000
0000
0000
,
0000
3000
0000
0000
,
0003
0000
0000
0000
;

//---------------dance-single - ----------------
#NOTEDATA:;
#CHARTNAME:;
#STEPSTYPE:dance-single;
#DESCRIPTION:;
#CHARTSTYLE:;
#DIFFICULTY:Beginner;
#METER:5;
#RADARVALUES:0.102746,0.274118,0.020747,0.055325,0.055325,104.000000,101.000000,3.000000,8.000000,0.000000,0.000000,0.000000,0.000000,0.000000,0.102746,0.274118,0.020747,0.055325,0.055325,104.000000,101.000000,3.000000,8.000000,0.000000,0.000000,0.000000,0.000000,0.000000;
#CREDIT:Karl with a K;
#NOTES:
0000
0000
0000
0000
,
0000
0000
0000
0000
,
0000
0000
0000
0000
,
0000
0000
0000
0000
,
0000
0000
0000
0000
,
0000
0000
0000
0000
,
0000
0000
0000
0000
,
0000
0000
0000
0000
,
0000
0000
0000
0000
,
0000
0000
0000
0000
,
0000
0000
0000
0000
,
0000
0000
0000
0000
,
0000
0000
0000
0000
,
0000
0000
0000
0000
,
0000
0000
0000
0000
,
0000
0000
0000
0000
,
0000
0000
0000
0000
,
0000
0000
0000
0000
,
0000
0000
0000
0000
,
0000
0000
0000
0000
,
0000
0000
0000
0000
,
0000
0000
0000
0000
,
0000
0000
0000
0000
,
0000
0000
0000
0000
,
0000
0000
0000
0000
,
0000
0000
0000
0000
,
0000
0000
1000
0000
,
0000
1000
0000
0000
,
1000
0000
0000
1000
,
0000
0000
1000
0000
,
0000
0000
0000
0000
,
0000
0000
0000
0000
,
0000
0000
0001
0000
,
0000
0001
0000
0000
,
0001
0000
0000
0001
,
0000
0000
0001
0000
,
0000
0000
0000
0000
,
1000
0000
0000
0000
,
1000
0000
0000
0000
,
0000
1000
0000
0000
,
0000
1000
0000
0000
,
0001
1000
0001
0000
,
0000
0001
0000
0000
,
0001
0000
0000
0001
,
0000
0001
0000
0000
,
0010
0000
0000
0100
,
0000
0000
1000
0000
,
0000
0010
0000
0000
,
0010
0000
0000
0010
,
0010
0010
0010
0000
,
0000
1001
0000
0000
,
0000
0000
0000
0000
,
0000
0000
0000
0000
,
0000
1000
0000
0000
,
0010
0000
0000
0100
,
0000
0000
0001
0000
,
0000
0010
0000
0000
,
0100
0000
0000
1000
,
0000
0000
0001
0000
,
0000
1000
0000
0000
,
0000
0000
0000
1000
,
0000
0000
0000
0000
0000
0000
0000
1000
0000
0000
0000
0000
,
0000
0000
0000
0000
0000
1000
0000
0000
0000
0000
0000
0000
,
0000
0000
0000
1000
0000
0000
0000
1000
0000
0000
0000
0000
,
0000
0000
0000
0000
0000
0000
0000
0001
0000
0000
0000
0000
,
0000
0000
0000
0000
0000
0001
0000
0000
0000
0000
0000
0000
,
0000
0000
0000
0001
0000
0000
0000
0001
0000
0000
0000
0000
,
0000
1000
0000
1000
,
0000
0001
0000
0000
0000
0000
0000
0001
0000
0000
0000
0001
,
0000
0000
0000
0000
0000
0001
0000
0000
0000
0000
0000
1000
,
0000
0001
0000
0001
,
0000
0000
0000
0001
0000
0000
0000
1000
0000
0000
0000
0000
,
0000
1000
0000
0000
0000
1000
0000
0000
0000
0000
0000
1000
,
0000
0000
0000
0000
0000
1000
0000
0000
0000
0001
0000
0000
,
0000
0010
0000
0001
,
0000
1000
0000
0010
,
0000
1000
0000
0100
,
0000
0010
0000
0001
,
0000
0000
0000
0001
,
0000
0000
0000
1000
,
0000
1000
0000
1000
,
0000
1000
0000
1001
,
0000
0000
0000
0000
,
0000
0000
0000
0000
,
0000
0000
0000
0000
,
0000
0000
0000
0000
,
0000
0000
0000
0000
,
0000
0000
0000
0020
,
0000
0000
0000
0000
,
0000
0000
0000
0000
,
0000
0000
0000
0000
,
0000
0000
0000
0000
,
0000
0000
0000
0000
,
0030
0000
0000
0010
,
0000
0000
0000
0000
,
0000
0020
0000
0000
,
0000
0000
0000
0000
,
0000
0000
0000
0000
,
0030
0020
0000
0000
,
0000
0000
0000
0000
,
0000
0000
0000
0000
,
0030
0020
0000
0000
,
0000
0000
0000
0000
,
0000
0000
0000
0000
,
0030
0020
0000
0030
,
0020
0000
0030
0020
,
0000
0030
0020
0000
,
0030
0010
0000
0000
,
1000
0000
0000
0100
,
0000
0000
0010
0000
,
0000
0001
1000
0001
,
1000
0000
0000
1000
,
0001
1000
0001
0000
,
0000
1001
0000
0000
;
