#VERSION:0.83;
#TITLE:かくしん的☆めたまるふぉ~ぜっ!;
#SUBTITLE:(Himouto! Umaru-chan OP 1);
#ARTIST:Asuka Ogura;
#TITLETRANSLIT:Kakushinteki☆metamaruphose!;
#SUBTITLETRANSLIT:;
#ARTISTTRANSLIT:;
#GENRE:;
#ORIGIN:;
#CREDIT:;
#BANNER:Kakushinteki metamaruphose! banner.png;
#BACKGROUND:Kakushinteki metamaruphose! jk.png;
#PREVIEWVID:;
#JACKET:;
#CDIMAGE:;
#DISCIMAGE:;
#LYRICSPATH:;
#CDTITLE:;
#MUSIC:Kakushinteki metamaruphose!.ogg;
#OFFSET:0.000000;
#SAMPLESTART:58.479000;
#SAMPLELENGTH:15.000000;
#SELECTABLE:YES;
#BPMS:0.000=278.000,
192.000=199.000,
225.000=278.000;
#STOPS:;
#DELAYS:;
#WARPS:;
#TIMESIGNATURES:0.000=4=4;
#TICKCOUNTS:0.000=4;
#COMBOS:0.000=1;
#SPEEDS:0.000=1.000=0.000=0;
#SCROLLS:0.000=1.000;
#FAKES:;
#LABELS:0.000=Song Start;
#BGCHANGES:;
#KEYSOUNDS:;
#ATTACKS:
;

//---------------dance-single - ----------------
#NOTEDATA:;
#CHARTNAME:;
#STEPSTYPE:dance-single;
#DESCRIPTION:;
#CHARTSTYLE:;
#DIFFICULTY:Challenge;
#METER:11;
#RADARVALUES:0.352127,0.931966,0.288680,0.532948,0.000000,222.000000,196.000000,26.000000,48.000000,16.000000,0.000000,0.000000,0.000000,0.000000,0.352127,0.931966,0.288680,0.532948,0.000000,222.000000,196.000000,26.000000,48.000000,16.000000,0.000000,0.000000,0.000000,0.000000;
#CREDIT:Karl with a K as bobscheme;
#NOTES:
// measure 0
0000
0000
0000
0000
,  // measure 1
0000
0000
0000
0000
,  // measure 2
0000
0000
0000
0000
,  // measure 3
0000
0000
0000
0000
,  // measure 4
0000
0000
0000
0000
,  // measure 5
0000
0000
0000
0000
,  // measure 6
1000
0001
1000
0001
,  // measure 7
1000
0001
1000
0001
,  // measure 8
1000
0001
1000
0001
,  // measure 9
1001
0000
0000
0000
,  // measure 10
2020
0000
0000
3030
,  // measure 11
0022
0000
0000
0033
,  // measure 12
0220
0000
0000
0330
,  // measure 13
0110
0000
0010
0000
,  // measure 14
0220
0000
0000
0330
,  // measure 15
2200
0000
0000
3300
,  // measure 16
2000
0010
0010
0010
,  // measure 17
0010
0010
3010
0000
,  // measure 18
1000
0001
1000
0001
1000
0001
1000
0001
,  // measure 19
1000
0001
1000
0001
1000
0001
1000
0001
,  // measure 20
0020
0000
0002
0033
,  // measure 21
0011
0000
0000
0000
,  // measure 22
0022
0000
0000
0000
,  // measure 23
0000
0000
0000
0000
,  // measure 24
0000
0000
0000
0000
,  // measure 25
0000
0000
0000
0000
,  // measure 26
0000
0000
0000
0000
,  // measure 27
0000
0000
0000
0000
,  // measure 28
0000
0000
0000
0000
,  // measure 29
0000
0000
0000
0000
,  // measure 30
0000
0000
0000
0000
,  // measure 31
0033
0000
0000
0000
,  // measure 32
0200
0000
2300
0000
,  // measure 33
0000
0000
0000
3000
,  // measure 34
0101
0100
0100
0000
,  // measure 35
0101
0000
0000
0200
,  // measure 36
1300
MMMM
0000
0000
,  // measure 37
1001
0000
0000
0000
1000
0001
1000
0001
,  // measure 38
1000
0001
1000
0001
,  // measure 39
1000
0001
1000
0000
,  // measure 40
2000
0000
0000
0000
,  // measure 41
0020
0000
3030
0000
,  // measure 42
2020
0000
0000
0000
,  // measure 43
3030
0000
0000
0000
,  // measure 44
2000
0000
0000
0000
,  // measure 45
3020
0000
0000
0000
,  // measure 46
0031
0000
1000
0000
,  // measure 47
1001
0000
MMMM
0000
,  // measure 48
2000
0000
0000
0020
,  // measure 49
0000
3030
0002
0000
,  // measure 50
0000
0020
0000
0033
,  // measure 51
2000
0000
0000
0020
,  // measure 52
0000
0030
0002
0000
,  // measure 53
0003
3010
0000
0000
,  // measure 54
2000
0000
0000
3002
,  // measure 55
0000
0000
0023
0000
,  // measure 56
0030
0110
0000
0001
,  // measure 57
1000
0200
0000
0000
,  // measure 58
0000
0000
0000
0000
,  // measure 59
0000
0020
0000
0000
,  // measure 60
0000
0330
0000
0010
,  // measure 61
0000
0022
0000
0000
,  // measure 62
0000
0000
0000
0000
,  // measure 63
0033
1001
1001
1001
,  // measure 64
1001
1001
0000
0000
,  // measure 65
0000
1000
1000
0010
,  // measure 66
0010
0100
0001
0100
,  // measure 67
0001
0010
0010
0010
,  // measure 68
0010
0010
0010
0010
,  // measure 69
0010
0020
0000
0030
,  // measure 70
0000
0020
0000
0030
,  // measure 71
0000
0100
0100
0100
,  // measure 72
0100
0100
0100
0100
,  // measure 73
0100
1010
0000
1010
,  // measure 74
0000
1000
0000
0001
,  // measure 75
0000
2000
0000
0200
,  // measure 76
0000
0000
0000
3300
,  // measure 77
0000
2000
0000
3100
,  // measure 78
0000
0000
0001
0000
0000
0000
0100
0010
,  // measure 79
0100
0010
0100
0010
0100
0010
0100
0010
,  // measure 80
0100
0010
0100
0010
0100
0010
0100
0010
,  // measure 81
0100
0010
0001
1000
0001
1000
0001
1000
,  // measure 82
0001
0100
0010
0100
,  // measure 83
0010
0100
1000
0100
,  // measure 84
0001
0010
0001
1001
,  // measure 85
0000
2000
0000
0000
,  // measure 86
0000
3100
0000
0000
,  // measure 87
0000
1000
0001
1000
,  // measure 88
0001
1000
0001
1000
,  // measure 89
0001
2000
0000
0000
,  // measure 90
0000
3010
0000
0000
,  // measure 91
0000
1000
0001
1000
,  // measure 92
0001
1000
0001
1000
,  // measure 93
0001
0002
0000
0000
,  // measure 94
0000
0013
0000
0000
,  // measure 95
0000
0220
0000
0000
,  // measure 96
0000
0000
0000
0330
,  // measure 97
0000
0110
0000
MMMM
,  // measure 98
0000
0100
0000
MMMM
;

//---------------dance-single - XO DS JA- FL BU TS- JU----------------
#NOTEDATA:;
#CHARTNAME:;
#STEPSTYPE:dance-single;
#DESCRIPTION:XO DS JA- FL BU TS- JU;
#CHARTSTYLE:;
#DIFFICULTY:Hard;
#METER:16;
#RADARVALUES:0.756596,0.981791,0.710598,0.721701,0.155443,477.000000,413.000000,64.000000,65.000000,4.000000,0.000000,0.000000,0.000000,0.000000,0.756596,0.981791,0.710598,0.721701,0.155443,477.000000,413.000000,64.000000,65.000000,4.000000,0.000000,0.000000,0.000000,0.000000;
#CREDIT:Karl with a K as bobscheme;
#NOTES:
// measure 0
0000
0000
0000
0000
,  // measure 1
0000
0000
0000
0000
,  // measure 2
0000
0000
0000
0000
,  // measure 3
0000
0000
0000
0000
,  // measure 4
0000
0000
0000
0000
,  // measure 5
0000
0000
0000
0000
,  // measure 6
0000
0000
0000
0000
,  // measure 7
0000
0000
0000
0000
,  // measure 8
0000
0000
0000
0000
,  // measure 9
0000
0000
0000
0000
,  // measure 10
2001
0000
0000
0001
0000
0000
3010
0000
,  // measure 11
1002
0023
0230
0310
,  // measure 12
0210
0000
0000
0010
0000
0000
1300
0000
,  // measure 13
0011
0000
1010
0010
,  // measure 14
0220
0000
0330
0010
,  // measure 15
0202
0000
0303
1000
,  // measure 16
0200
0000
2300
0000
3002
0000
0013
0001
,  // measure 17
1000
0010
0000
0010
0100
0001
0100
0000
,  // measure 18
0101
0000
0000
0100
0001
0000
0010
0000
,  // measure 19
0001
1000
0100
1000
,  // measure 20
0002
0000
0000
0013
2000
0000
3010
0000
,  // measure 21
0200
0310
0002
1003
,  // measure 22
0100
1000
0001
0000
0100
0010
0100
0000
,  // measure 23
0110
0000
1001
0110
,  // measure 24
1000
0100
1000
0100
0010
0000
0110
0000
,  // measure 25
0001
0100
0001
0100
0010
0000
0110
0000
,  // measure 26
0001
1001
0010
0110
,  // measure 27
1000
0010
0100
0001
0010
0000
0110
0000
,  // measure 28
0001
0100
0010
0110
,  // measure 29
1000
0100
0010
0001
,  // measure 30
0100
0000
1000
0100
0000
0001
1000
0000
,  // measure 31
1001
0000
0000
0000
,  // measure 32
1000
0000
0000
0001
1000
0000
0100
0010
,  // measure 33
0000
0001
0010
0000
0001
0000
1000
0000
,  // measure 34
0010
0000
0000
1000
0001
0000
0100
0010
,  // measure 35
0000
1000
0010
0000
1000
0000
0001
0000
,  // measure 36
0010
0000
0000
0000
0000
0000
0001
0000
0100
0020
0000
0000
0000
0000
1030
0000
,  // measure 37
0000
0000
1000
0000
0000
0000
0100
0000
0010
0002
0000
0000
1000
0000
0000
0000
,  // measure 38
0103
0000
0000
0000
0001
0000
0000
0000
0001
0200
0000
0000
0000
0000
0301
0000
,  // measure 39
0000
0001
2000
0000
3200
0000
0320
0000
,  // measure 40
0031
0100
0001
1000
0001
0000
1000
0010
,  // measure 41
0000
0010
1000
0000
0100
0000
0010
0000
,  // measure 42
0001
0010
0000
0000
0001
1000
0000
0000
0001
0000
0010
0000
0000
0000
1000
0000
,  // measure 43
0000
1000
0010
0000
0001
0000
0100
0000
,  // measure 44
0010
0000
0010
0000
0001
0010
0100
0010
,  // measure 45
1000
0000
0000
0000
1000
0000
0000
0000
0001
1000
0000
0000
0001
0000
0000
0000
,  // measure 46
2200
3300
0000
0000
0022
0033
0000
0000
,  // measure 47
2002
3003
0000
0000
MMMM
0000
0000
0000
,  // measure 48
2000
0100
0100
3002
,  // measure 49
0100
0100
2003
0010
,  // measure 50
0010
3002
0010
0013
,  // measure 51
1001
1000
0100
0020
,  // measure 52
0001
0031
0002
0203
,  // measure 53
0320
0032
0023
0230
,  // measure 54
0302
0100
0100
0023
,  // measure 55
0100
0100
2030
3020
,  // measure 56
0031
1001
0000
0110
,  // measure 57
1001
0000
1000
0100
1000
0001
0000
0001
,  // measure 58
1000
0000
0010
1000
0001
1000
0100
0000
,  // measure 59
1100
0000
0001
0100
0010
0100
0000
0100
,  // measure 60
0001
0000
0010
0000
0001
0100
0010
0000
,  // measure 61
0101
0000
0001
0100
0001
1000
0000
1000
,  // measure 62
0001
0000
0010
0001
0100
0010
1000
0100
,  // measure 63
0010
0100
0000
0000
0011
0000
1100
0000
,  // measure 64
0101
0220
0000
0330
,  // measure 65
0000
0000
1010
0000
1000
0100
0000
0100
,  // measure 66
0010
1002
0203
0320
,  // measure 67
1030
0000
0011
0000
0001
0100
0000
0100
,  // measure 68
0010
2001
3200
0310
,  // measure 69
0011
0001
1010
1000
,  // measure 70
0011
0001
1100
1000
,  // measure 71
0101
0001
0101
1000
,  // measure 72
1010
0000
1000
0100
0010
0001
1000
0000
,  // measure 73
1000
0010
1000
0000
1000
0100
0010
0100
,  // measure 74
0000
0100
0001
0100
0000
0100
0010
0100
,  // measure 75
0000
0000
0000
0100
0000
0000
1000
0000
0000
0000
0000
0000
0010
0000
1000
0000
0010
0000
1000
0000
0000
0000
0000
0000
,  // measure 76
0010
0000
0100
0000
0010
0000
0100
0000
0000
0000
0000
0000
0010
0000
0000
0001
0000
0000
0010
0000
0000
1000
0000
0000
,  // measure 77
0100
0010
0100
1000
0000
0000
0011
0000
0000
0001
0000
0000
,  // measure 78
1010
1000
0101
0001
,  // measure 79
1100
2001
0100
0001
,  // measure 80
0010
0000
3001
0010
0100
0010
0001
0000
,  // measure 81
1001
0012
0100
0013
,  // measure 82
0001
2010
0100
3010
,  // measure 83
1000
0000
0001
0010
0100
0010
2000
0000
,  // measure 84
3020
0000
0000
0000
0031
0010
0000
0000
0001
0100
0000
0000
0001
1000
0000
0000
,  // measure 85
0020
0230
2300
3200
,  // measure 86
0310
0100
0000
0000
0101
0000
0000
0000
0000
0000
0000
0000
2002
0000
0000
0000
,  // measure 87
3003
0000
1000
0100
0010
0100
0001
0000
,  // measure 88
0101
0000
0001
0100
0010
0100
1000
0000
,  // measure 89
1100
0000
1010
0000
0010
0100
2000
0000
,  // measure 90
3200
0000
0000
0000
0301
0000
0000
0000
1001
0000
0000
0000
0001
0100
0000
0000
,  // measure 91
0001
0000
1000
0000
0001
0000
1000
0000
0000
0010
0000
0000
0100
0000
0000
0010
0000
0000
0001
0000
0000
0000
0000
0000
,  // measure 92
0011
0000
0001
0010
0100
0010
1000
0000
,  // measure 93
1010
0000
0000
1000
0100
0010
0001
0000
0000
1000
0010
0100
,  // measure 94
0001
0000
0000
1000
0100
1000
0001
0000
0000
0010
0100
1000
,  // measure 95
0100
2002
0000
0000
,  // measure 96
3003
0000
0000
0001
0010
0000
0000
0000
0100
0000
0100
0000
0000
0000
0000
0000
,  // measure 97
1001
0000
0110
0000
0001
0011
0000
0000
,  // measure 98
1010
1001
0000
0000
;

//---------------dance-single - XO- DS- JA- TS- JU-----------------
#NOTEDATA:;
#CHARTNAME:;
#STEPSTYPE:dance-single;
#DESCRIPTION:XO- DS- JA- TS- JU-;
#CHARTSTYLE:;
#DIFFICULTY:Medium;
#METER:12;
#RADARVALUES:0.505984,0.654527,0.399711,0.355299,0.000000,319.000000,283.000000,36.000000,32.000000,0.000000,0.000000,0.000000,0.000000,0.000000,0.505984,0.654527,0.399711,0.355299,0.000000,319.000000,283.000000,36.000000,32.000000,0.000000,0.000000,0.000000,0.000000,0.000000;
#CREDIT:Karl with a K as bobscheme;
#NOTES:
// measure 0
0000
0000
0000
0000
,  // measure 1
0000
0000
0000
0000
,  // measure 2
0000
0000
0000
0000
,  // measure 3
0000
0000
0000
0000
,  // measure 4
0000
0000
0000
0000
,  // measure 5
0000
0000
0000
0000
,  // measure 6
0000
0000
0000
0000
,  // measure 7
0000
0000
0000
0000
,  // measure 8
0000
0000
0000
0000
,  // measure 9
0000
0000
0000
0000
,  // measure 10
2002
0000
0000
3003
,  // measure 11
2020
0000
0000
3030
,  // measure 12
0022
0000
0000
0033
,  // measure 13
2200
3300
0022
0033
,  // measure 14
0202
0000
0000
0303
,  // measure 15
2200
0000
0000
3300
,  // measure 16
0220
0000
0000
0330
,  // measure 17
1000
0001
0000
0000
0001
1000
0000
0000
,  // measure 18
0010
0000
0000
0010
1000
0000
0000
0000
,  // measure 19
0100
0000
0000
0100
0010
0000
0000
0000
,  // measure 20
0110
0000
1001
0000
,  // measure 21
0110
0000
1001
0000
,  // measure 22
0001
1000
0001
1000
,  // measure 23
1001
0000
0110
1001
,  // measure 24
1000
0100
0010
0100
,  // measure 25
1000
0010
0100
0010
,  // measure 26
1000
0100
0010
0100
,  // measure 27
0001
0100
0010
0001
,  // measure 28
0001
0100
0010
0100
,  // measure 29
0001
0010
0100
0010
,  // measure 30
0001
0100
1000
0100
,  // measure 31
0110
0000
0000
0000
,  // measure 32
1000
0000
0000
0000
0100
0000
0000
0010
,  // measure 33
0000
0010
0001
0000
1000
0000
0000
0000
,  // measure 34
0001
0000
0000
0000
0100
0000
0000
0010
,  // measure 35
0000
0010
1000
0000
0001
0000
0000
0000
,  // measure 36
1000
0000
0000
0000
0001
0000
0000
1000
,  // measure 37
0000
1000
0100
0000
0010
0000
0001
0000
,  // measure 38
1000
0000
0000
0000
1000
0000
0000
0001
,  // measure 39
0000
0001
0100
0000
0010
0000
0100
0000
,  // measure 40
0001
0000
0001
0000
0010
0000
0000
0100
,  // measure 41
0000
0100
1000
0000
0001
0000
0000
0000
,  // measure 42
1000
0000
1000
0000
0010
0000
0000
0100
,  // measure 43
0000
0100
0001
0000
1000
0000
0000
0000
,  // measure 44
0001
0000
0001
0000
1000
0000
0000
0001
,  // measure 45
0000
0001
0010
0000
0100
0000
1000
0000
,  // measure 46
0001
0000
0110
0000
,  // measure 47
1001
0000
0000
0000
,  // measure 48
2000
0000
0001
3020
,  // measure 49
0000
0100
2030
0000
,  // measure 50
0001
3200
0000
0310
,  // measure 51
1002
0000
1000
0023
,  // measure 52
0000
0100
0032
0000
,  // measure 53
1000
0203
0001
0310
,  // measure 54
1001
1000
0100
0010
,  // measure 55
0100
1000
0001
0100
,  // measure 56
0010
0110
0000
0010
,  // measure 57
0100
0000
0001
0000
0000
1000
0000
0000
,  // measure 58
0001
0010
0001
0100
,  // measure 59
0001
0000
1000
0000
0000
0100
0000
0000
,  // measure 60
1000
0010
0000
0010
,  // measure 61
0100
0001
0100
0010
,  // measure 62
1000
0100
0010
0001
,  // measure 63
1000
0000
0001
1000
,  // measure 64
0001
1001
0000
0000
,  // measure 65
0000
0000
1010
0000
0000
1000
0000
0000
,  // measure 66
0010
1000
0001
0100
,  // measure 67
0001
0000
1001
0000
0000
0001
0000
0000
,  // measure 68
0010
0100
0000
0010
,  // measure 69
0001
0100
0110
0000
,  // measure 70
1000
0100
0110
0000
,  // measure 71
0010
0100
1000
0001
,  // measure 72
0010
0000
0001
0010
0001
0000
1000
0000
,  // measure 73
1000
0000
0010
0000
0000
0010
1000
0000
,  // measure 74
0000
1000
0001
0000
0000
0001
0100
0000
,  // measure 75
0000
0100
0001
0000
0000
0001
0010
0000
,  // measure 76
0000
0010
0100
0000
0000
0100
1000
0000
,  // measure 77
1000
0010
0110
0000
,  // measure 78
0001
0010
0110
0000
,  // measure 79
0100
0010
0001
1000
,  // measure 80
0100
0000
1000
0010
1000
0000
0001
0000
,  // measure 81
1001
2000
3200
0310
,  // measure 82
0000
0002
0203
0310
,  // measure 83
0000
0000
1000
0001
1000
0001
1000
0000
,  // measure 84
0001
0010
0010
0010
,  // measure 85
0001
0202
0000
0303
,  // measure 86
0000
1001
0000
1001
,  // measure 87
0000
1000
0100
0001
,  // measure 88
0100
1000
0010
0001
,  // measure 89
0010
1000
0001
0100
,  // measure 90
0010
1000
0100
0110
,  // measure 91
0000
0001
0100
1000
,  // measure 92
0100
0001
0010
1000
,  // measure 93
0010
0001
0010
0100
,  // measure 94
1000
0000
0010
0100
0010
0100
0010
0000
,  // measure 95
0000
2002
0000
0000
,  // measure 96
3003
0000
0110
0000
0001
0100
0000
0000
,  // measure 97
0010
0000
1000
0000
1000
0100
0000
0000
,  // measure 98
0010
0110
0000
0000
;

//---------------dance-single - ----------------
#NOTEDATA:;
#CHARTNAME:;
#STEPSTYPE:dance-single;
#DESCRIPTION:;
#CHARTSTYLE:;
#DIFFICULTY:Easy;
#METER:9;
#RADARVALUES:0.336265,0.545439,0.222062,0.210959,0.000000,212.000000,192.000000,20.000000,19.000000,0.000000,0.000000,0.000000,0.000000,0.000000,0.336265,0.545439,0.222062,0.210959,0.000000,212.000000,192.000000,20.000000,19.000000,0.000000,0.000000,0.000000,0.000000,0.000000;
#CREDIT:Karl with a K as bobscheme;
#NOTES:
0000
0000
0000
0000
,
0000
0000
0000
0000
,
0000
0000
0000
0000
,
0000
0000
0000
0000
,
0000
0000
0000
0000
,
0000
0000
0000
0000
,
0000
0000
0000
0000
,
0000
0000
0000
0000
,
0000
0000
0000
0000
,
0000
0000
0000
0000
,
2000
0000
0000
3000
,
0200
0000
0000
0300
,
0020
0000
0000
0030
,
0002
0003
0020
0030
,
0002
0000
0000
0003
,
0200
0000
0000
0300
,
0020
0000
0000
0030
,
2000
3000
0002
0003
,
1000
0000
1000
0000
,
0001
0100
0001
0000
,
1000
0000
0010
1000
,
0001
0000
0110
0000
,
1000
0100
1000
0000
,
1001
0000
0110
0000
,
0001
0100
0001
0000
,
1000
0100
1000
0000
,
0001
0100
0001
0000
,
0010
0100
0010
0100
,
1000
0010
1000
0000
,
0001
0010
0001
0000
,
1000
0000
0000
0100
0000
0000
1000
0000
,
0010
0000
0000
0000
,
1000
0000
0100
0000
,
1000
0000
0000
0000
,
0010
0000
0100
0000
,
0001
0000
0000
0000
,
0001
0000
0100
0000
,
0001
0000
0000
0000
,
0010
0000
0100
0000
,
1000
0000
0000
0000
,
1000
0000
1000
0000
,
0100
0000
1000
0000
,
0010
0000
0010
0000
,
0100
0000
0001
0000
,
1000
0000
0001
0000
,
0100
0000
0001
0000
,
0010
0000
0010
0000
,
0100
0000
0000
0000
,
1000
0000
0000
0010
,
0000
0000
0100
0000
,
0000
0001
0000
0000
,
1000
0000
0000
0100
,
0000
0000
0010
0000
,
0000
0001
0000
0000
,
2000
0000
3000
0002
,
0000
0003
2000
0000
,
3000
1001
0000
0110
,
0000
1000
0000
0100
,
0000
1000
0100
1000
,
0000
0001
0000
0100
,
0000
0001
0100
0001
,
0000
1000
0000
0100
,
0000
0010
0000
0001
,
0000
0000
0100
0100
,
0100
0110
0000
0000
,
0000
1000
0000
0100
,
0000
1000
0100
0010
,
0000
0001
0000
0100
,
0000
0001
0100
0010
,
0000
1000
1001
0000
,
0000
0001
1001
0000
,
0001
0100
0010
0100
,
0001
0010
0100
1000
,
0000
1001
0000
1000
,
0000
0100
0000
0010
,
0000
1001
0000
0110
,
0000
1001
0000
1000
,
0000
0001
1001
0000
,
0000
1000
1001
0000
,
1000
0100
0010
0100
,
1000
0010
0100
0010
,
0000
1000
1000
1000
,
0000
0001
0001
0001
,
0000
0010
0010
0010
,
0000
0100
0100
0100
,
0000
2002
0000
3003
,
0000
0220
0000
0330
,
0000
1000
0100
1000
,
0000
1000
0010
1000
,
0000
1000
0001
1000
,
0001
0100
0010
0110
,
0000
0001
0100
0001
,
0000
0001
0010
0001
,
0000
0001
0100
0010
,
1000
0100
0010
0110
,
0000
2002
0000
0000
,
0000
3003
0000
0000
,
0000
1000
0000
0001
,
0000
1001
0000
0000
;

//---------------dance-single - ----------------
#NOTEDATA:;
#CHARTNAME:;
#STEPSTYPE:dance-single;
#DESCRIPTION:;
#CHARTSTYLE:;
#DIFFICULTY:Beginner;
#METER:1;
#RADARVALUES:0.114203,0.164465,0.000000,0.000000,0.000000,72.000000,72.000000,0.000000,0.000000,0.000000,0.000000,0.000000,0.000000,0.000000,0.114203,0.164465,0.000000,0.000000,0.000000,72.000000,72.000000,0.000000,0.000000,0.000000,0.000000,0.000000,0.000000,0.000000;
#CREDIT:Karl with a K;
#NOTES:
0000
0000
0000
0000
,
0000
0000
0000
0000
,
0000
0000
0000
0000
,
0000
0000
0000
0000
,
0000
0000
0000
0000
,
0000
0000
0000
0000
,
0000
0000
0000
0000
,
0000
0000
0000
0000
,
0000
0000
0000
0000
,
0000
0000
0000
0000
,
1000
0000
0000
0000
,
1000
0000
0000
0000
,
1000
0000
0000
0000
,
1000
0000
0000
0000
,
0001
0000
0000
0000
,
0001
0000
0000
0000
,
0001
0000
0000
0000
,
0001
0000
0000
0000
,
0010
0000
0000
0000
,
0100
0000
0000
0000
,
0010
0000
0000
0000
,
0010
0000
0000
0000
,
0100
0000
0000
0000
,
1000
0000
0000
0000
,
0010
0000
0000
0000
,
0010
0000
0000
0000
,
0010
0000
0000
0000
,
0100
0000
0000
0000
,
0001
0000
0000
0000
,
1000
0000
0000
0000
,
0001
0000
0000
0000
,
1000
0000
0000
0000
,
0001
0000
0000
0000
,
0000
0000
0000
0000
,
1000
0000
0000
0000
,
0000
0000
0000
0000
,
0001
0000
0000
0000
,
0000
0000
0000
0000
,
1000
0000
0000
0000
,
0000
0000
0000
0000
,
0100
0000
0000
0000
,
0000
0000
0000
0000
,
0010
0000
0000
0000
,
0000
0000
0000
0000
,
0100
0000
0000
0000
,
0000
0000
0000
0000
,
0010
0000
0000
0000
,
0000
0000
0000
0000
,
0001
0000
0000
0000
,
0000
0000
0000
0000
,
0000
0000
0000
0000
,
1000
0000
0000
0000
,
0000
0000
0000
0000
,
0000
0000
0000
0000
,
0001
0000
0000
0000
,
0000
0000
0000
0000
,
0000
0000
0000
0000
,
0000
1000
0000
0000
,
0000
0000
0000
0000
,
0000
0001
0000
0000
,
0000
0001
0000
0000
,
0000
1000
0000
0000
,
0000
1000
0000
0000
,
0000
0100
0000
0000
,
0000
0010
0000
0000
,
0000
0001
0000
0000
,
0000
0001
0000
0000
,
0000
0001
0000
0000
,
0000
0001
0000
0000
,
0000
1000
0000
0000
,
0000
1000
0000
0000
,
0000
1000
0000
0000
,
0000
1000
0000
0000
,
0000
0100
0000
0000
,
0000
0010
0000
0000
,
0000
0100
0000
0000
,
0000
0010
0000
0000
,
0000
0001
0000
0000
,
0000
0100
0000
0000
,
0000
0010
0000
0000
,
0000
0010
0000
0000
,
0000
1000
0000
0000
,
0000
0001
0000
0000
,
0000
1000
0000
0000
,
0000
0001
0000
0000
,
0000
0010
0000
0000
,
0000
0100
0000
0000
,
0000
1000
0000
0000
,
0000
1000
0000
0000
,
0000
0001
0000
0000
,
0000
0001
0000
0000
,
0000
1000
0000
0000
,
0000
0001
0000
0000
,
0000
1000
0000
0000
,
0000
0001
0000
0000
,
0000
0001
0000
0000
,
0000
0000
0000
0000
,
0000
0000
0000
0000
,
0000
0000
0000
1000
;
