#VERSION:0.83;
#TITLE:Jump into the scent;
#SUBTITLE:;
#ARTIST:MASEraaaN;
#TITLETRANSLIT:;
#SUBTITLETRANSLIT:;
#ARTISTTRANSLIT:;
#GENRE:;
#ORIGIN:BMS OF FIGHTERS XVII;
#CREDIT:;
#BANNER:Jump into the scent banner.png;
#BACKGROUND:Jump into the scent bg.png;
#PREVIEWVID:;
#JACKET:Jump into the scent jk.png;
#CDIMAGE:KARL is the KNDKTR.png;
#DISCIMAGE:;
#LYRICSPATH:;
#CDTITLE:;
#MUSIC:Jump into the scent.ogg;
#OFFSET:-0.047000;
#SAMPLESTART:98.974106;
#SAMPLELENGTH:11.868134;
#SELECTABLE:YES;
#BPMS:0.000=91.000,
56.000=182.000,
88.000=91.000,
104.000=182.000,
136.000=91.000,
184.000=182.000;
#STOPS:;
#DELAYS:;
#WARPS:;
#TIMESIGNATURES:0.000=4=4;
#TICKCOUNTS:0.000=4;
#COMBOS:0.000=1;
#SPEEDS:0.000=1.000=0.000=0;
#SCROLLS:0.000=1.000;
#FAKES:;
#LABELS:0.000=Song Start;
#BGCHANGES:;
#KEYSOUNDS:;
#ATTACKS:
;

//---------------dance-single - XO- DS- FS- JA- XMOD JU+----------------
#NOTEDATA:;
#CHARTNAME:;
#STEPSTYPE:dance-single;
#DESCRIPTION:XO- DS- FS- JA- XMOD JU+;
#CHARTSTYLE:;
#DIFFICULTY:Challenge;
#METER:17;
#RADARVALUES:0.605697,1.070278,0.627534,0.707987,0.518923,527.000000,449.000000,78.000000,88.000000,200.000000,0.000000,0.000000,0.000000,0.000000,0.605697,1.070278,0.627534,0.707987,0.518923,527.000000,449.000000,78.000000,88.000000,200.000000,0.000000,0.000000,0.000000,0.000000;
#CREDIT:Karl with a K;
#OFFSET:-0.047000;
#BPMS:0.000000=91.000000
,56.000000=182.000000
,88.000000=91.000000
,104.000000=182.000000
,136.000000=91.000000
,184.000000=182.000000
;
#STOPS:;
#DELAYS:;
#WARPS:;
#TIMESIGNATURES:0.000000=4=4
;
#TICKCOUNTS:0.000000=4
;
#COMBOS:0.000000=1
;
#SPEEDS:0.000000=1.000000=0.000000=0
,40.000000=2.000000=14.000000=0
,54.000000=1.000000=1.000000=0
,168.000000=2.000000=14.000000=0
,182.000000=1.000000=1.000000=0
;
#SCROLLS:0.000000=1.000000
,54.000000=0.000000
,54.250000=2.000000
,54.500000=0.000000
,54.750000=2.000000
,55.000000=1.000000
,182.000000=0.000000
,182.250000=2.000000
,182.500000=0.000000
,182.750000=2.000000
,183.000000=1.000000
;
#FAKES:;
#LABELS:0.000000=Song Start
;
#NOTES:
0000
0000
0000
0000
,
0000
0000
0000
0000
,
0000
0000
0000
0000
,
0000
0000
0000
0000
,
0000
0000
0000
0000
,
0000
0000
0000
0000
,
2020
0000
0000
0000
0000
0000
0000
0000
3030
0000
0022
0000
0000
0000
0033
0000
0220
0000
0000
0000
0000
0000
0330
0000
0010
0001
1000
0000
0001
0100
0010
1000
,
0002
0000
0000
0000
0003
2002
0000
3003
0102
0000
1003
1200
0310
0001
0101
0000
,
0022
0000
0000
0000
0000
0000
0000
0000
0033
0000
2020
0000
0000
0000
3030
0000
0220
0000
0000
0000
0000
0000
0330
0000
0010
1000
0001
0000
1000
0100
0010
0001
,
2000
0000
0000
0000
3000
2002
0000
3003
0102
0000
0010
0000
0100
0000
0013
0000
,
1001
1000
0010
0100
0001
1000
0100
0010
,
0001
0000
0000
0000
1000
0000
0000
0000
0010
0000
0000
0000
0100
0000
0000
0000
0001
0000
0000
0000
1000
0000
0000
0000
0100
0000
0000
0000
0010
0001
0000
0010
,
0001
0000
0000
1000
0001
0000
0100
0000
0010
0000
0000
1000
0010
0000
0100
0000
0001
0000
0000
1000
0001
0000
0010
0000
0100
0000
0000
1000
0100
0000
0010
0000
,
0001
0000
0001
0000
0100
0000
0100
0000
0010
1000
0010
1000
0001
0010
0001
0010
0001
0000
0000
0000
1001
0000
0000
0000
0200
0000
0320
0000
0130
0000
MMMM
0000
,
2002
0000
3003
0000
MMMM
0000
1010
0000
MMMM
0000
0001
0010
0000
0000
0011
0000
,
MMMM
0000
1001
0000
MMMM
0000
1100
0000
MMMM
0000
0001
0100
0000
0000
0202
0000
,
0303
0000
1000
0100
0000
0000
1100
0000
MMMM
0000
0011
0000
MMMM
0000
1100
0000
,
MMMM
0000
0001
0100
0000
0000
0101
0000
MMMM
0000
1010
0000
MMMM
0000
0102
0000
,
2000
0000
3003
0000
MMMM
0000
0011
0000
MMMM
0000
1000
0010
0000
0000
1010
0000
,
MMMM
0000
1001
0000
MMMM
0000
0101
0000
MMMM
0000
1000
0100
0000
0000
2200
0000
,
3300
0000
0001
0100
0000
0000
0101
0000
MMMM
0000
1010
0000
MMMM
0000
0102
0000
,
2003
0000
3010
0100
0020
0000
0130
0000
0002
0000
1003
0000
0200
0000
1300
0000
,
2002
0000
3003
0000
0022
0000
0003
0000
0130
0000
0010
0001
0010
0000
0100
0000
0220
0000
0330
0000
1000
0100
1000
0000
0101
0000
0001
0100
0020
0000
0000
0000
,
0030
0000
1001
0000
2010
0000
3020
0000
0130
0000
0020
0000
1030
0000
0010
0000
0110
0000
0000
0000
1001
0000
0001
0100
0010
0000
1000
0000
2100
0000
3001
0000
,
MMMM
0000
1001
0000
0202
0000
0003
0000
0310
0000
0100
0001
0100
0000
0010
0000
0220
0000
0330
0000
1000
0010
1000
0000
0011
0000
0001
0010
0200
0000
0000
0000
,
0300
0000
1001
0000
2100
0000
3200
0000
0310
0000
0200
0000
1300
0000
0100
0000
0010
0100
0010
0100
1000
0001
1000
0001
0100
0000
0010
0000
0220
0330
0000
0000
,
2002
0000
3003
0000
MMMM
0000
0101
0000
MMMM
0000
1000
0100
0000
0000
1100
0000
,
MMMM
0000
1001
0000
MMMM
0000
0011
0000
MMMM
0000
1000
0010
2000
0000
0200
0000
,
3300
0000
0001
0010
0000
0000
0011
0000
MMMM
0000
1100
0000
MMMM
0000
0011
0000
,
MMMM
0000
1000
0010
0000
0000
1010
0000
MMMM
0000
0101
0000
MMMM
0000
0010
0000
,
1002
0000
0003
0000
MMMM
0000
1100
0000
MMMM
0000
0001
0100
0000
0000
0101
0000
,
MMMM
0000
1001
0000
MMMM
0000
1010
0000
MMMM
0000
0001
0010
0002
0000
0200
0000
,
0303
0000
1000
0010
0000
0000
1010
0000
MMMM
0000
0101
0000
MMMM
0000
1010
0000
,
MMMM
0000
1000
0100
0020
0000
0032
0000
0003
0000
2000
0000
3002
0000
0013
0000
,
0012
0000
0203
0000
,
0320
0000
2030
0000
,
3002
0000
0023
0000
,
0230
0000
0000
0000
2300
0000
0000
3000
,
1000
0000
0010
0000
1000
0100
0000
M100
0001
0000
0001
0100
0000
0100
0001
0000
,
0000
1000
0001
0000
1000
0100
0010
0001
0010
0000
0010
0000
0001
1000
0001
0000
,
1000
0000
0100
0000
1000
0010
0000
M010
0001
0000
0001
0010
0000
0010
0001
0000
,
0000
1000
0001
0000
1000
0010
0100
0001
0100
0000
0100
0000
0001
1000
0001
0000
,
2000
3200
0320
0032
,
2003
0000
3020
0000
0230
0010
0302
0000
,
1003
0100
0010
0001
0010
0100
1000
0001
,
1000
0000
0010
0000
0100
0000
0010
0000
0100
0001
1000
0001
1000
0100
0010
0100
1000
0000
0000
0000
1001
0000
0000
0000
0200
0000
0320
0000
0130
0000
MMMM
0000
,
1000
0000
0010
0000
MMMM
0000
0001
0000
0010
0100
0010
0000
1000
0000
0010
0000
,
MMMM
0011
MMMM
1000
0010
0001
0010
1000
,
0001
0000
0010
0000
MMMM
0000
1000
0000
0100
0010
0100
0000
0001
0000
0100
0000
,
0010
0000
MMMM
0000
0120
0000
0032
0000
0103
0010
0100
0000
1000
0000
0100
0000
,
0001
0000
0010
0000
MMMM
0000
1000
0000
0010
0100
0010
0000
0001
0000
0010
0000
,
MMMM
1010
MMMM
0001
0010
1000
0010
0001
,
1000
0000
0010
0000
MMMM
0000
0001
0000
0100
0010
0001
0000
0010
0000
0100
0000
,
0110
0000
MMMM
0000
0000
0001
1000
0000
1100
0000
0000
0011
0000
0000
1001
0000
,
1000
0000
0010
0000
0100
0000
0010
0000
0001
0010
0100
0000
0010
0000
1000
0000
,
0001
0010
0100
0010
1000
1000
0010
0001
,
1000
0000
0100
0000
0010
0000
0100
0000
0001
0100
0010
0000
0001
0000
0010
0000
,
001M
0100
0010
0100
1000
0100
0001
0000
,
0001
0000
0100
0000
0010
0000
0100
0000
1000
0100
0010
0000
0100
0000
0001
0000
,
1000
0100
0010
0100
0001
0100
1000
0001
,
1000
0010
1000
0010
0100
0010
0100
0010
1000
0001
0010
0100
1000
0000
0010
0000
,
M010
0000
0000
0000
1001
0000
0001
1000
0100
0000
0010
0000
0010
0000
MMMM
0000
;

//---------------dance-single - XO- JA- XMOD JU+----------------
#NOTEDATA:;
#CHARTNAME:;
#STEPSTYPE:dance-single;
#DESCRIPTION:XO- JA- XMOD JU+;
#CHARTSTYLE:;
#DIFFICULTY:Hard;
#METER:15;
#RADARVALUES:0.545932,0.846266,0.555126,0.016091,0.289631,475.000000,406.000000,69.000000,2.000000,0.000000,0.000000,0.000000,0.000000,0.000000,0.545932,0.846266,0.555126,0.016091,0.289631,475.000000,406.000000,69.000000,2.000000,0.000000,0.000000,0.000000,0.000000,0.000000;
#CREDIT:Karl with a K;
#OFFSET:-0.047000;
#BPMS:0.000000=91.000000
,56.000000=182.000000
,88.000000=91.000000
,104.000000=182.000000
,136.000000=91.000000
,184.000000=182.000000
;
#STOPS:;
#DELAYS:;
#WARPS:;
#TIMESIGNATURES:0.000000=4=4
;
#TICKCOUNTS:0.000000=4
;
#COMBOS:0.000000=1
;
#SPEEDS:0.000000=1.000000=0.000000=0
;
#SCROLLS:0.000000=1.000000
;
#FAKES:;
#LABELS:0.000000=Song Start
;
#NOTES:
0000
0000
0000
0000
,
0000
0000
0000
0000
,
0000
0000
0000
0000
,
0000
0000
0000
0000
,
0000
0000
0000
0000
,
0000
0000
0000
0000
,
0011
0000
0000
0000
0000
1010
0000
0000
0110
0000
0000
0000
0001
0001
0001
0000
,
1010
0000
0000
0000
0000
0011
0000
0000
0110
0000
0100
0000
1000
0010
0100
0000
,
1100
0000
0000
0000
0000
0101
0000
0000
0110
0000
0000
0000
1000
1000
1000
0000
,
0101
0000
0000
0000
0000
1100
0000
0000
0110
0000
0010
0000
0001
0000
0010
0000
,
0110
0100
0100
0100
0010
0010
0010
0010
,
0001
0001
0001
0001
1000
1000
1000
1000
,
0001
0100
0010
1000
0100
0010
0001
1000
,
0010
1000
0100
0010
0001
0100
0010
1000
0001
0000
1000
0000
0001
0000
1001
0000
,
1100
0000
0000
0000
0011
0000
0000
0000
1100
0000
1000
0100
0010
0000
0001
0000
,
0100
0000
0000
0000
1010
0000
0000
0000
0101
0000
0001
0100
0010
0000
0100
0000
,
0001
0000
1000
0100
0010
0000
0000
0000
0011
0000
0000
0000
1100
0000
0000
0000
,
1000
0000
0001
0100
0010
0000
0000
0000
1010
0000
0000
0000
0101
0000
0000
0000
,
1001
0000
0000
0000
0110
0000
0000
0000
1001
0000
1000
0010
0100
0000
0001
0000
,
0010
0000
0000
0000
0110
0000
0000
0000
1001
0000
0001
0010
0100
0000
0010
0000
,
0001
0000
1000
0010
0100
0000
0000
0000
0110
0000
0000
0000
1001
0000
0000
0000
,
1000
0000
0001
0010
0100
0000
0010
0000
0001
0000
0100
0000
0010
0000
0000
0000
,
2100
0000
0000
0000
3020
0000
0000
0000
0130
0000
0010
0000
0010
0000
0010
0000
0010
0000
0000
0000
1000
0001
1000
0000
0100
0000
0010
0000
0010
0000
0000
0000
,
0001
0000
0100
0000
0010
0000
0010
0000
0100
0000
0010
0000
0000
0000
0010
0000
0010
0000
0000
0000
1000
0000
0100
1000
0100
0000
0010
0000
0010
0000
0001
0000
,
0000
0000
0010
0000
0001
0000
0100
0000
0010
0000
0100
0000
0100
0000
0100
0000
0100
0000
0000
0000
0001
1000
0001
0000
0010
0000
0100
0000
0100
0000
0000
0000
,
1000
0000
0010
0000
0100
0000
0100
0000
0010
0000
0100
0000
0000
0000
0100
0000
0001
0100
0001
0100
0001
0000
0010
0001
0010
0000
0100
0000
0110
0000
0000
0000
,
0011
0000
0000
0000
1100
0000
0000
0000
0011
0000
0001
0010
0100
0000
1000
0000
,
0010
0000
0000
0000
0101
0000
0000
0000
1010
0000
1000
0010
0100
0000
0010
0000
,
1000
0000
0001
0010
0100
0000
0000
0000
1100
0000
0000
0000
0011
0000
0000
0000
,
0001
0000
1000
0010
0100
0000
0000
0000
0101
0000
0000
0000
1010
0000
0000
0000
,
0110
0000
0000
0000
1001
0000
0000
0000
0011
0000
0001
0100
0010
0000
1000
0000
,
0100
0000
0000
0000
1001
0000
0000
0000
1010
0000
1000
0100
0010
0000
0100
0000
,
1000
0000
0001
0100
0010
0000
0000
0000
1001
0000
0000
0000
0110
0000
0000
0000
,
0001
0000
1000
0100
0010
0000
0100
0000
1000
0000
0010
0000
0100
0000
0000
0000
,
1001
0000
0000
0000
,
0000
0000
0000
0000
,
0110
0000
0000
0000
,
0000
0000
0000
0000
,
0001
0000
0010
0000
0000
0100
0010
0000
0001
0000
0001
0000
0100
0000
0010
0000
,
1000
0000
0010
0000
0000
0100
0010
0000
0001
0000
0010
0000
1000
0000
0001
0000
,
1000
0000
0010
0000
0000
0100
0010
0000
1000
0000
1000
0000
0100
0000
0010
0000
,
0001
0000
0010
0000
0000
0100
0010
0000
1000
0000
0010
0000
0001
0000
1000
0000
,
0001
0001
1000
1000
,
0010
0010
0100
0100
,
0001
0010
0100
1000
0010
0100
0001
1000
,
0100
1000
0010
0100
0001
0010
0100
1000
0001
0000
1000
0000
0001
0000
1001
0000
,
1100
0000
0000
0000
1001
0000
0001
0000
0100
0010
1000
0000
0001
0000
1000
0000
,
0001
0000
1001
0001
0010
0010
0001
0000
,
1010
0000
1001
0001
0010
0100
1000
0001
,
1000
0000
1001
0001
0100
0100
0001
0000
,
0011
0000
0000
0000
1001
0000
1000
0000
0010
0100
0001
0000
1000
0000
0001
0000
,
1000
0000
1001
1000
0100
0100
1000
0000
,
0101
0000
1001
1000
0100
0010
0001
1000
,
1001
0000
0000
0000
0000
0001
0100
0000
0010
0000
0000
0110
0000
0000
1001
0000
,
1000
0000
0100
0000
0010
0000
0100
0000
0001
0100
0000
0000
0110
0000
0000
0000
,
0001
0100
0010
0100
1000
1000
0100
0000
,
0001
0000
0010
0000
0100
0000
0010
0000
1000
0000
0010
0000
0100
1000
0100
0000
,
1000
0000
0010
0000
0100
0000
0010
1000
0010
0000
0001
0000
0010
0000
1000
0000
,
1001
0001
0010
1000
0010
0001
1000
0001
,
1001
1000
0010
0001
0010
0010
1000
0000
,
1000
0100
0001
1000
0010
0001
1000
0010
,
0001
0000
1000
0100
0001
1000
0001
1001
;

//---------------dance-single - ----------------
#NOTEDATA:;
#CHARTNAME:;
#STEPSTYPE:dance-single;
#DESCRIPTION:;
#CHARTSTYLE:;
#DIFFICULTY:Beginner;
#METER:4;
#RADARVALUES:0.112634,0.198719,0.176997,0.016091,0.000000,98.000000,76.000000,22.000000,2.000000,0.000000,0.000000,0.000000,0.000000,0.000000,0.112634,0.198719,0.176997,0.016091,0.000000,98.000000,76.000000,22.000000,2.000000,0.000000,0.000000,0.000000,0.000000,0.000000;
#CREDIT:Karl with a K;
#OFFSET:-0.056000;
#BPMS:0.000000=91.000000
,56.000000=182.000000
,88.000000=91.000000
,104.000000=182.000000
,136.000000=91.000000
,184.000000=182.000000
;
#STOPS:;
#DELAYS:;
#WARPS:;
#TIMESIGNATURES:0.000000=4=4
;
#TICKCOUNTS:0.000000=4
;
#COMBOS:0.000000=1
;
#SPEEDS:0.000000=1.000000=0.000000=0
;
#SCROLLS:0.000000=1.000000
;
#FAKES:;
#LABELS:0.000000=Song Start
;
#NOTES:
// measure 0
0000
0000
0000
0000
,  // measure 1
0000
0000
0000
0000
,  // measure 2
0000
0000
0000
0000
,  // measure 3
0000
0000
0000
0000
,  // measure 4
0000
0000
0000
0000
,  // measure 5
0000
0000
0000
0000
,  // measure 6
1001
0000
0000
0000
,  // measure 7
0110
0000
0000
0000
,  // measure 8
1001
0000
0000
0000
,  // measure 9
0110
0000
0000
0000
,  // measure 10
2002
0000
0000
0000
,  // measure 11
0000
0000
0000
0000
,  // measure 12
0000
0000
0000
0000
,  // measure 13
0000
0000
3003
0000
,  // measure 14
1000
0000
0000
0000
,  // measure 15
1000
0000
0000
0000
,  // measure 16
0001
0000
0000
0000
,  // measure 17
0001
0000
0001
0000
,  // measure 18
0100
0000
0000
0000
,  // measure 19
0100
0000
0000
0000
,  // measure 20
0010
0000
0000
0000
,  // measure 21
1000
0000
1000
0000
,  // measure 22
1001
0000
0000
0000
,  // measure 23
0110
0000
0000
0000
,  // measure 24
0110
0000
0000
0000
,  // measure 25
0110
0000
0000
0000
,  // measure 26
0001
0000
0000
0000
,  // measure 27
0001
0000
0000
0000
,  // measure 28
1000
0000
0000
0000
,  // measure 29
1000
0000
1000
0000
,  // measure 30
0100
0000
0000
0000
,  // measure 31
0100
0000
0000
0000
,  // measure 32
0010
0000
0000
0000
,  // measure 33
0001
0000
0000
0000
,  // measure 34
1001
0000
0000
0000
,  // measure 35
0000
0000
0000
0000
,  // measure 36
0000
0000
0000
0000
,  // measure 37
0000
0000
0000
0000
,  // measure 38
1000
0000
0000
0000
,  // measure 39
0001
0000
0000
0000
,  // measure 40
1000
0000
0000
0000
,  // measure 41
0001
0000
0000
0000
,  // measure 42
1000
0000
1000
0000
,  // measure 43
0001
0000
0001
0000
,  // measure 44
1000
1000
1000
0000
,  // measure 45
0001
0001
0001
0000
,  // measure 46
1001
0000
0000
0110
,  // measure 47
0000
0000
0110
0000
,  // measure 48
1001
0000
0000
0110
,  // measure 49
0000
0000
0110
0000
,  // measure 50
1001
0000
0000
0110
,  // measure 51
0000
0000
0110
0000
,  // measure 52
1001
0000
0000
0110
,  // measure 53
0000
0000
0110
0000
,  // measure 54
1000
0000
0100
0000
,  // measure 55
0010
0000
0001
0000
,  // measure 56
1000
0000
0010
0000
,  // measure 57
0100
0000
0001
0000
,  // measure 58
1000
1000
1000
0000
,  // measure 59
0001
0001
0001
0000
,  // measure 60
1000
1000
1000
0000
,  // measure 61
0001
0001
0001
0001
;

//---------------dance-single - JA- XMOD JU----------------
#NOTEDATA:;
#CHARTNAME:;
#STEPSTYPE:dance-single;
#DESCRIPTION:JA- XMOD JU;
#CHARTSTYLE:;
#DIFFICULTY:Medium;
#METER:12;
#RADARVALUES:0.396519,0.522694,0.426401,0.072408,0.076430,345.000000,292.000000,53.000000,9.000000,0.000000,0.000000,0.000000,0.000000,0.000000,0.396519,0.522694,0.426401,0.072408,0.076430,345.000000,292.000000,53.000000,9.000000,0.000000,0.000000,0.000000,0.000000,0.000000;
#CREDIT:Karl with a K;
#NOTES:
0000
0000
0000
0000
,
0000
0000
0000
0000
,
0000
0000
0000
0000
,
0000
0000
0000
0000
,
0000
0000
0000
0000
,
0000
0000
0000
0000
,
1001
0000
0000
0000
0000
1001
0000
0000
0110
0000
0000
0000
0000
0110
0000
0000
,
0011
0000
0000
0000
0000
0011
0000
0000
1100
0000
0000
1100
0000
0000
0101
0000
,
0110
0000
0000
0000
0000
0110
0000
0000
1001
0000
0000
0000
0000
1001
0000
0000
,
1010
0000
0000
0000
0000
1010
0000
0000
0101
0000
0001
0000
0001
0000
0001
0000
,
1000
1000
0100
0100
,
0010
0010
0001
0001
,
1000
0010
1000
0100
0010
0001
0100
0001
,
0010
0100
1000
0010
0100
0000
0000
0110
,
1001
0000
0101
0000
0100
0010
0100
0000
,
0010
0000
1010
0000
1000
0100
1000
0000
,
0100
0010
0100
0010
0001
0000
1001
0000
,
0001
0100
0010
0100
0010
0000
0110
0000
,
1001
0000
1100
0000
0100
0010
0100
0000
,
0010
0000
0011
0000
0001
0100
0001
0000
,
0100
0010
0100
0010
1000
0000
1001
0000
,
1000
0100
0010
0110
,
1002
0000
0203
0010
0010
0010
0320
1000
,
2030
0000
0100
0000
3200
0000
0010
0000
0010
0000
0010
0000
0310
0001
0010
0000
,
1002
0000
0023
0100
0100
0100
0230
1000
,
2300
0000
0010
0000
3010
0000
0100
0000
0100
0010
0100
0010
1000
0100
0010
0000
,
1001
0000
1010
0000
0010
0100
0010
0000
,
0100
0000
0101
0000
0001
0010
0001
0000
,
0010
0100
0010
0100
1000
0000
1001
0000
,
1000
0010
0100
0010
0100
0000
0110
0000
,
1001
0000
0011
0000
0010
0100
0010
0000
,
0100
0000
1100
0000
1000
0010
1000
0000
,
0010
0100
0010
0100
0001
0000
1001
0000
,
0001
0010
0100
0010
0100
0000
0110
0000
,
1001
0000
0000
0000
,
0000
0000
0000
0000
,
0000
0000
0000
0000
,
0000
0000
0000
0000
,
0001
0000
0000
0000
0000
0100
0000
0000
0010
0000
0000
0000
0000
0100
0000
0000
,
0001
0000
0000
0000
0000
1000
0000
0000
0001
0000
0000
0000
1000
0000
0000
0000
,
1000
0000
0000
0000
0000
0100
0000
0000
0010
0000
0000
0000
0000
0100
0000
0000
,
1000
0000
0000
0000
0000
0001
0000
0000
1000
0000
0000
0000
0010
0000
0000
0000
,
1000
0100
0010
0010
,
0001
0100
0010
0010
,
1000
0100
1000
0010
0100
0001
0010
0001
,
0100
0010
1000
0100
0010
0000
0000
0110
,
1001
0000
1001
0000
0100
0010
0100
0000
,
0010
0000
0110
0000
1000
1000
0001
0000
,
0110
0000
0110
0000
1000
0001
1000
0000
,
0001
0000
1001
0000
0010
0010
0100
0000
,
1001
0000
1001
0000
0010
0100
0010
0000
,
0100
0000
0110
0000
0001
0001
1000
0000
,
0110
0000
0110
0000
1000
0001
1000
0000
,
0001
0000
0000
0000
0000
1001
0000
0000
1000
0000
0000
0010
0000
0000
0010
0000
,
1000
0100
0010
0000
0001
0100
0010
0000
,
1000
0100
0010
0000
0001
0001
0010
0000
,
0001
0010
0100
0000
1000
0010
0100
0000
,
0001
0000
0010
0000
0100
1000
0010
0000
,
1000
0010
1000
0010
1000
0010
1000
0000
,
0001
0010
0001
0010
0001
0010
0001
0000
,
1000
0100
0010
0001
0100
0010
1000
0001
,
1000
0000
0001
0100
0010
0100
0001
1000
;

//---------------dance-single - ----------------
#NOTEDATA:;
#CHARTNAME:;
#STEPSTYPE:dance-single;
#DESCRIPTION:;
#CHARTSTYLE:;
#DIFFICULTY:Easy;
#METER:8;
#RADARVALUES:0.216074,0.298079,0.241359,0.032181,0.000000,188.000000,158.000000,30.000000,4.000000,0.000000,0.000000,0.000000,0.000000,0.000000,0.216074,0.298079,0.241359,0.032181,0.000000,188.000000,158.000000,30.000000,4.000000,0.000000,0.000000,0.000000,0.000000,0.000000;
#CREDIT:Karl with a K;
#NOTES:
0000
0000
0000
0000
,
0000
0000
0000
0000
,
0000
0000
0000
0000
,
0000
0000
0000
0000
,
0000
0000
0000
0000
,
0000
0000
0000
0000
,
1001
0000
1000
0000
,
0110
0000
0100
0000
,
1001
0000
0001
0000
,
0110
0000
0010
0000
,
1001
0000
1000
0000
,
0001
0000
0001
0000
,
1000
1000
0001
0001
,
1000
0100
0010
0000
,
0001
0000
0000
0110
0000
0000
0001
0000
,
0000
0010
0000
0010
0000
0000
0100
0000
,
1000
0000
0000
0110
0000
1000
0000
1000
,
0000
0010
0000
0010
0000
0000
1000
0000
,
1000
0000
0000
0110
0000
0000
1000
0000
,
0000
0100
0000
0100
0000
0000
0010
0000
,
0001
0000
0000
0110
0000
0001
0000
0001
,
0000
0100
0000
0100
0000
0000
0010
0000
,
2000
0100
3100
1001
,
0002
0100
0103
1001
,
2000
0010
3010
1001
,
0002
0010
0013
1001
,
0001
0000
0000
0110
0000
0000
0001
0000
,
0000
0100
0000
0100
0000
0000
0010
0000
,
1000
0000
0000
0110
0000
1000
0000
1000
,
0000
0100
0000
0100
0000
0000
1000
0000
,
1000
0000
0000
0110
0000
0000
1000
0000
,
0000
0010
0000
0010
0000
0000
0100
0000
,
0001
0000
0000
0110
0000
0001
0000
0001
,
0000
0010
0000
0010
0000
0000
0100
0000
,
0110
0000
0000
0000
,
0000
0000
0000
0000
,
0000
0000
0000
0000
,
0000
0000
0000
0000
,
1000
0000
0010
0000
,
0100
0000
0001
0000
,
0001
0000
0010
0000
,
0100
0000
1000
0000
,
1000
1000
1000
0000
,
0001
0001
0001
0000
,
1000
1000
0001
0001
,
1000
0010
0100
0000
,
0001
0000
0011
0000
,
1000
0000
1010
0000
,
0001
0000
0011
0000
,
1100
0000
0101
0000
,
1000
0000
1010
0000
,
0001
0000
0011
0000
,
1000
0000
1010
0000
,
1001
0000
0110
0110
,
1000
0100
0010
0100
,
1000
0010
0100
0001
,
0001
0100
0010
0100
,
0001
0010
0100
1000
,
1000
0001
0001
0100
,
0100
0010
0010
1000
,
0100
0010
0001
0100
,
0001
0010
0100
0110
;

//---------------dance-double - ----------------
#NOTEDATA:;
#CHARTNAME:;
#STEPSTYPE:dance-double;
#DESCRIPTION:;
#CHARTSTYLE:;
#DIFFICULTY:Challenge;
#METER:17;
#RADARVALUES:0.578113,0.920937,0.587308,0.539036,0.462605,503.000000,430.000000,73.000000,67.000000,376.000000,0.000000,0.000000,0.000000,0.000000,0.578113,0.920937,0.587308,0.539036,0.462605,503.000000,430.000000,73.000000,67.000000,376.000000,0.000000,0.000000,0.000000,0.000000;
#CREDIT:Karl with a K;
#OFFSET:-0.047000;
#BPMS:0.000000=91.000000
,56.000000=182.000000
,88.000000=91.000000
,104.000000=182.000000
,136.000000=91.000000
,184.000000=182.000000
;
#STOPS:;
#DELAYS:;
#WARPS:;
#TIMESIGNATURES:0.000000=4=4
;
#TICKCOUNTS:0.000000=4
;
#COMBOS:0.000000=1
;
#SPEEDS:0.000000=1.000000=0.000000=0
,40.000000=2.000000=14.000000=0
,54.000000=1.000000=1.000000=0
,168.000000=2.000000=14.000000=0
,182.000000=1.000000=1.000000=0
;
#SCROLLS:0.000000=1.000000
,54.000000=0.000000
,54.250000=2.000000
,54.500000=0.000000
,54.750000=2.000000
,55.000000=1.000000
,182.000000=0.000000
,182.250000=2.000000
,182.500000=0.000000
,182.750000=2.000000
,183.000000=1.000000
;
#FAKES:;
#LABELS:0.000000=Song Start
;
#NOTES:
00000000
00000000
00000000
00000000
,
00000000
00000000
00000000
00000000
,
00000000
00000000
00000000
00000000
,
00000000
00000000
00000000
00000000
,
00000000
00000000
00000000
00000000
,
00000000
00000000
00000000
00000000
,
20200000
00000000
00000000
00000000
00000000
00000000
00000000
00000000
30300000
00000000
00220000
00000000
00000000
00000000
00330000
00000000
00022000
00000000
00000000
00000000
00000000
00000000
00033000
00000000
00010000
00000010
00000100
00000000
00000010
00000100
00000001
00000000
,
00000202
00000000
00000000
00000000
00000000
00000000
00000000
00000000
00000303
00000000
00002002
00000000
00000000
00000000
00000000
00003003
00020100
00000000
00000000
00000000
00031000
00000000
01002000
00000000
00013000
00000000
00001000
00000000
00100000
00000000
00000000
00000000
,
00220000
00000000
00000000
00000000
00000000
00000000
00000000
00000000
00330000
00000000
20200000
00000000
00000000
00000000
30300000
00000000
02200000
00000000
00000000
00000000
00000000
00000000
03300000
00000000
00100000
10000000
00010000
00000000
10000000
01000000
00100000
00000000
,
00022000
00000000
00000000
00000000
00033000
00020020
00000000
00030030
00001001
00000000
00000001
00000000
00001000
00000000
00000001
00000000
,
00001001
00000001
00000010
00000100
00001000
00000001
00000100
00000010
,
00010000
00000000
00000000
00000000
00001000
00000000
00000000
00000000
00100000
00000000
00000000
00000000
01000000
00000000
00000000
00000000
10000000
00000000
00000000
00000000
00010000
00000000
00000000
00000000
01000000
00000000
00000000
00000000
00100000
10000000
00000000
00100000
,
10000000
00000000
00000000
10000000
00010000
00000000
00100000
00000000
00001000
00000000
00000000
00001000
00010000
00000000
00000100
00000000
00000010
00000000
00000000
00000010
00000001
00000000
00000100
00000000
00000010
00000000
00000000
00000010
00010000
00000000
00001000
00000000
,
00010000
00000000
01000000
00000000
10000000
00000000
00100000
00000000
01000000
00010000
01000000
00000000
00001000
00010000
00001000
00010000
00001000
00000000
00000000
00000000
00001001
00000000
00000000
00000000
00011000
00000000
00000000
00000000
01100000
00000000
00000000
00000000
,
20020000
00000000
30030000
00000000
MMMMMMMM
00000000
10100000
00000000
MMMMMMMM
00000000
00100000
00010000
00000000
00000000
00101000
00000000
,
MMMMMMMM
00000000
00011000
00000000
MMMMMMMM
00000000
00010010
00000000
MMMMMMMM
00000000
00001000
00000010
00000000
00000000
00002002
00000000
,
00003003
00000000
00000001
00000010
00000000
00000000
00001001
00000000
MMMMMMMM
00000000
00001010
00000000
MMMMMMMM
00000000
00010010
00000000
,
MMMMMMMM
00000000
00001000
00010000
00000000
00000000
00101000
00000000
MMMMMMMM
00000000
00110000
00000000
MMMMMMMM
00000000
20000000
00000000
,
00200000
00000000
30300000
00000000
MMMMMMMM
00000000
11000000
00000000
MMMMMMMM
00000000
00010000
01000000
00000000
00000000
01001000
00000000
,
MMMMMMMM
00000000
00011000
00000000
MMMMMMMM
00000000
00010100
00000000
MMMMMMMM
00000000
00001000
00000100
00000000
00000000
00002002
00000000
,
00003003
00000000
00000001
00000100
00000000
00000000
00001001
00000000
MMMMMMMM
00000000
00001100
00000000
MMMMMMMM
00000000
00020000
00000000
,
00030010
00000000
00010000
00001000
00010000
00000000
00001000
00000000
01000000
00000000
00100000
00000000
10000000
00000000
00010000
00000000
,
20020000
00000000
30030000
00000000
00202000
00000000
00003000
00000000
00310000
00000000
01000000
00001000
01000000
00000000
00001000
00000000
00011000
00000000
00000000
00000000
00010000
00000100
00010000
00000000
00000100
00000000
00000010
00000000
00000002
00000000
00000000
00000000
,
00000003
00000000
00001000
00000000
00001000
00000000
00000010
00000000
00010000
00000000
00001000
00000000
01000000
00000000
00100000
00000000
01100000
00000000
00000000
00000000
10010000
00000000
00010000
00100000
01000000
00000000
10000000
00000000
01000000
00000000
00010000
00000000
,
MMMMMMMM
00000000
00011000
00000000
00020000
00000000
00000000
00000000
00030010
00000000
00001000
00000001
00001000
00000000
00000100
00000000
00000020
00000000
00000000
00000000
00000031
00000010
00000001
00000000
00001001
00000000
00001000
00000100
00020000
00000000
00000000
00000000
,
00030000
00000000
00001000
00000000
00001000
00000000
00100000
00000000
00100000
00000000
00010000
00000000
01000000
00000000
00100000
00000000
01000000
00100000
01000000
00000000
00010000
10000000
00010000
10000000
01000000
00000000
00100000
00000000
00011000
00000000
00000000
00000000
,
00002002
00000000
00003003
00000000
MMMMMMMM
00000000
00000011
00000000
MMMMMMMM
00000000
00000010
00001000
00000000
00000000
00010010
00000000
,
MMMMMMMM
00000000
00011000
00000000
MMMMMMMM
00000000
00101000
00000000
MMMMMMMM
00000000
00001000
00100000
00020000
00000000
20000000
00000000
,
30030000
00000000
10000000
00100000
00000000
00000000
10010000
00000000
MMMMMMMM
00000000
00110000
00000000
MMMMMMMM
00000000
00101000
00000000
,
MMMMMMMM
00000000
00010000
00001000
00000000
00000000
00010010
00000000
MMMMMMMM
00000000
00001010
00000000
MMMMMMMM
00000000
00000002
00000000
,
00002000
00000000
00003003
00000000
MMMMMMMM
00000000
00000101
00000000
MMMMMMMM
00000000
00000100
00001000
00000000
00000000
00010100
00000000
,
MMMMMMMM
00000000
00011000
00000000
MMMMMMMM
00000000
01001000
00000000
MMMMMMMM
00000000
00001000
01000000
00020000
00000000
20000000
00000000
,
30030000
00000000
10000000
01000000
00000000
00000000
10010000
00000000
MMMMMMMM
00000000
01010000
00000000
MMMMMMMM
00000000
01001000
00000000
,
MMMMMMMM
00000000
00001000
00010000
00000200
00000000
00002300
00000000
00003000
00000000
00000001
00000000
00001000
00000000
00000000
00000000
,
00001002
00000000
00000023
00000000
,
00000230
00000000
00002300
00000000
,
00003020
00000000
00020030
00000000
,
00032000
00000000
00203000
00000000
,
00310000
00000000
00100000
00000000
00010000
01000000
00000000
01000000
00001000
00000000
00001000
01000000
00000000
01000000
00010000
00000000
,
00000000
10000000
00010000
00000000
10000000
01000000
00100000
00001000
00010000
00000000
00010000
00000000
00000100
00000010
00000001
00000000
,
00001000
00000000
00000010
00000000
00001000
00000100
00000000
00000100
00010000
00000000
00010000
00000100
00000000
00000100
00001000
00000000
,
00000000
00000001
00001000
00000000
00000001
00000100
00000010
00010000
00001000
00000000
00001000
00000000
01000000
00100000
10000000
00000000
,
20000000
32000000
03020000
00032000
,
00023000
00032000
00003200
00000302
,
00000103
00000010
00000100
00000010
00010000
00001000
00010000
00001000
,
00010000
00000000
00100000
00000000
10000000
00000000
01000000
00000000
00100000
00010000
00100000
00000000
00001000
00010000
00001000
00010000
00001000
00000000
00000000
00000000
00001001
00000000
00000000
00000000
00011000
00000000
00000000
00000000
01100000
00000000
00000000
00000000
,
10000000
00000000
00100000
00000000
MMMMMMMM
00000000
00001000
00000000
00010000
00001000
00010000
00000000
00000010
00000000
00001000
00000000
,
MMMMMMMM
00000011
MMMMMMMM
00000100
00001000
00000100
00000010
00000000
,
00000001
00000000
00000010
00000000
MMMMMMMM
00000000
00010000
00000000
00001000
00010000
00001000
00000000
01000000
00000000
00010000
00000000
,
01000000
00000000
MMMMMMMM
00000000
01200000
00000000
20300000
00000000
31000000
00100000
01000000
00000000
10000000
00000000
01000000
00000000
,
10000000
00000000
01000000
00000000
MMMMMMMM
00000000
00001000
00000000
00010000
00001000
00010000
00000000
00000100
00000000
00001000
00000000
,
MMMMMMMM
00000101
MMMMMMMM
00000010
00001000
00000010
00000100
00000000
,
00000001
00000100
MMMMMMMM
00010000
00001000
00010000
00001000
01000000
,
01100000
00000000
MMMMMMMM
00000000
00000000
00010000
00001000
00000000
00010010
00000000
00000000
00101000
00000000
00000000
10010000
00000000
,
10000000
00000000
00100000
00000000
01000000
00000000
00001000
00000000
00010000
00000100
00010000
00000000
00000010
00000000
00001000
00000000
,
00000001
00000010
00000100
00010000
00001000
00001000
00100000
00010000
,
10000000
00000000
01000000
00000000
00100000
00000000
00001000
00000000
00010000
00000010
00010000
00000000
00000100
00000000
00000010
00000000
,
00000010
00000100
00000010
00000001
00000010
00000100
00000110
00000000
,
00000001
00000100
00001000
00010000
00001000
00010000
01000000
00000000
,
10000000
01000000
00010000
00001000
00010000
00001000
00000100
00000000
,
00000001
00000100
00000001
00000000
00001000
00000100
00001000
00000000
00000010
00010000
00001000
00000000
00010000
00001000
00100000
00000000
,
00010000
00000000
00000000
00000000
10010000
00000000
00000000
00010000
01000000
00000000
00100000
00000000
00100000
00000000
MMMMMMMM
00000000
;

//---------------dance-double - ----------------
#NOTEDATA:;
#CHARTNAME:;
#STEPSTYPE:dance-double;
#DESCRIPTION:;
#CHARTSTYLE:;
#DIFFICULTY:Hard;
#METER:15;
#RADARVALUES:0.509153,0.746705,0.514900,0.016091,0.253427,443.000000,379.000000,64.000000,2.000000,0.000000,0.000000,0.000000,0.000000,0.000000,0.509153,0.746705,0.514900,0.016091,0.253427,443.000000,379.000000,64.000000,2.000000,0.000000,0.000000,0.000000,0.000000,0.000000;
#CREDIT:Karl with a K;
#OFFSET:-0.047000;
#BPMS:0.000000=91.000000
,56.000000=182.000000
,88.000000=91.000000
,104.000000=182.000000
,136.000000=91.000000
,184.000000=182.000000
;
#STOPS:;
#DELAYS:;
#WARPS:;
#TIMESIGNATURES:0.000000=4=4
;
#TICKCOUNTS:0.000000=4
;
#COMBOS:0.000000=1
;
#SPEEDS:0.000000=1.000000=0.000000=0
;
#SCROLLS:0.000000=1.000000
;
#FAKES:;
#LABELS:0.000000=Song Start
;
#NOTES:
00000000
00000000
00000000
00000000
,
00000000
00000000
00000000
00000000
,
00000000
00000000
00000000
00000000
,
00000000
00000000
00000000
00000000
,
00000000
00000000
00000000
00000000
,
00000000
00000000
00000000
00000000
,
10100000
00000000
00000000
00000000
00000000
00110000
00000000
00000000
00011000
00000000
00000000
00000000
00001000
00010000
00001000
00000000
,
00011000
00000000
00000000
00000000
00000000
00001010
00000000
00000000
00000011
00000000
00000010
00000000
00000100
00000010
00000001
00000000
,
00001010
00000000
00000000
00000000
00000000
00010010
00000000
00000000
00011000
00000000
00000000
00000000
00010000
00001000
00010000
00000000
,
00101000
00000000
00000000
00000000
00000000
00110000
00000000
00000000
10100000
00000000
10000000
00000000
00100000
00000000
10000000
00000000
,
01000000
01000000
01000000
01000000
00100000
00100000
00100000
00100000
,
00001000
00001000
00001000
00001000
00010000
00010000
00010000
00010000
,
00000100
00000010
00000100
00000010
00000001
00001000
00000001
00001000
,
00000010
00010000
00001000
00000000
00100000
00010000
10000000
00000000
00010000
00000000
10000000
00000000
00010000
00000000
10000000
00000000
,
11000000
00000000
00000000
00000000
00110000
00000000
00000000
00000000
00011000
00000000
00001000
01000000
00100000
00000000
01000000
00000000
,
00010000
00000000
00000000
00000000
00011000
00000000
00000000
00000000
00001010
00000000
00001000
00000001
00000010
00000000
00000001
00000000
,
00000100
00000000
00000010
00010000
00000000
00000000
00000000
00000000
00011000
00000000
00000000
00000000
01001000
00000000
00000000
00000000
,
00001000
00000000
00010000
00001000
00100000
00000000
00000000
00000000
00110000
00000000
00000000
00000000
11000000
00000000
00000000
00000000
,
10100000
00000000
00000000
00000000
01010000
00000000
00000000
00000000
00011000
00000000
00001000
00100000
01000000
00000000
00100000
00000000
,
00010000
00000000
00000000
00000000
00011000
00000000
00000000
00000000
00001100
00000000
00001000
00000001
00000100
00000000
00000001
00000000
,
00000010
00000000
00000100
00010000
00000000
00000000
00000000
00000000
00011000
00000000
00000000
00000000
00101000
00000000
00000000
00000000
,
00001000
00000000
00010000
00001000
01000000
00000000
00000000
00000000
00010000
00000000
01000000
00000000
00100000
00000000
10000000
00000000
,
10010000
00000000
00000000
00000000
20000000
00000000
00000000
00000000
30100000
00000000
01000000
00000000
00010000
00000000
01000000
00000000
00001000
00000000
00000000
00000000
00010000
00001000
00010000
00000000
00000100
00000000
00000010
00000000
00000010
00000000
00000000
00000000
,
00000001
00000000
00000100
00000000
00000010
00000000
00010000
00000000
00001000
00000000
00010000
00000000
00000000
00000000
00001000
00000000
00100000
00000000
00000000
00000000
00010000
00000000
10000000
00100000
10000000
00000000
00100000
00000000
00100000
00000000
00100000
00000000
,
10000000
00000000
00000000
00000000
20000000
00000000
00000000
00000000
31000000
00000000
00100000
00000000
00010000
00000000
00100000
00000000
00001000
00000000
00000000
00000000
00010000
00001000
00010000
00000000
00000010
00000000
00000100
00000000
00000100
00000000
00000000
00000000
,
00000001
00000010
00000100
00010000
00001000
00010000
00000000
00001000
01000000
00001000
00010000
00000100
00000010
00000001
00000010
00000001
,
00000011
00000000
00000000
00000000
00001100
00000000
00000000
00000000
00011000
00000000
00010000
00000010
00000100
00000000
00000010
00000000
,
00001000
00000000
00000000
00000000
00011000
00000000
00000000
00000000
01010000
00000000
00010000
10000000
01000000
00000000
10000000
00000000
,
00100000
00000000
01000000
00001000
00000000
00000000
00000000
00000000
00011000
00000000
00000000
00000000
00010010
00000000
00000000
00000000
,
00010000
00000000
00001000
00010000
00000100
00000000
00000000
00000000
00001100
00000000
00000000
00000000
00000011
00000000
00000000
00000000
,
00000101
00000000
00000000
00000000
00001010
00000000
00000000
00000000
00011000
00000000
00010000
00000100
00000010
00000000
00000100
00000000
,
00001000
00000000
00000000
00000000
00011000
00000000
00000000
00000000
00110000
00000000
00010000
10000000
00100000
00000000
10000000
00000000
,
01000000
00000000
00100000
00001000
00000000
00000000
00000000
00000000
00011000
00000000
00000000
00000000
00010100
00000000
00000000
00000000
,
00010000
00000000
00001000
00010000
00000010
00000000
00001000
00000000
00000000
00000000
00000010
00000000
00000100
00000000
00000000
00000000
,
00001001
00000000
00000000
00000000
,
00000000
00000000
00000000
00000000
,
00011000
00000000
00000000
00000000
,
00000000
00000000
00000000
00000000
,
00001000
00000000
00100000
00000000
00000000
01000000
00000000
00000000
00100000
00000000
00010000
00000000
01000000
00000000
00100000
00000000
,
10000000
00000000
00100000
00000000
00000000
01000000
00000000
00000000
00001000
00000000
00010000
00000000
00000100
00000000
00000010
00000000
,
00000001
00000000
00000100
00000000
00000000
00000010
00000000
00000000
00000100
00000000
00000001
00000000
00000010
00000000
00000100
00000000
,
00001000
00000000
00000100
00000000
00000000
00000010
00000000
00000000
00000100
00000000
00010000
00000000
00001000
00000000
01000000
00000000
,
00100000
00100000
10000000
10000000
,
01000000
01000000
00010000
00010000
,
00001000
00010000
00000100
00000010
00000001
00000100
00000010
00001000
,
00000100
00010000
00001000
00000000
01000000
00010000
10000000
00000000
00010000
00000000
10000000
00000000
00010000
00000000
10000000
00000000
,
11000000
00000000
00000000
00000000
10010000
00000000
00000000
00000000
01000000
00001000
00010000
00000000
00001000
00000000
00000000
00000000
,
00010100
00000000
00000110
00000001
00000010
00000010
00000001
00000000
,
00000101
00000000
00001000
00000100
00010000
00001000
00010000
00000000
,
01001000
00000000
01100000
10000000
00100000
00100000
10000000
00000000
,
10100000
00000000
00000000
00000000
10010000
00000000
00000000
00000000
00100000
00001000
00010000
00000000
00001000
00000000
00000000
00000000
,
00010010
00000000
00000110
00000001
00000100
00000100
00000001
00000000
,
00000011
00000000
00001000
00000010
00010000
00001000
00010000
00000000
,
00101000
00000000
00000000
00000000
00000000
01010000
00000000
00000000
00010000
00000000
00000000
01000000
00000000
00000000
00100000
00000000
,
10000000
00000000
01000000
00000000
00100000
00000000
01000000
00000000
00010000
00001000
00000000
00000000
00011000
00000000
00000000
00000000
,
00010000
00000010
00000100
00000010
00000001
00000010
00001000
00000000
,
00000001
00000000
00000010
00000000
00000100
00000000
00000010
00000000
00001000
00010000
00000000
00000000
00011000
00000000
00010000
00000000
,
00001000
01000000
00100000
01000000
10000000
01000000
00010000
00000000
,
10000000
01000000
00100000
00010000
00001000
00000100
00000010
00000000
,
00000001
00000100
00000010
00001000
00010000
01000000
00100000
00000000
,
10000000
01000000
00010000
00001000
00000100
00000001
00000010
00000100
,
00000010
00000000
00001000
00010000
00100000
10000000
00010000
10010000
;

//---------------dance-double - ----------------
#NOTEDATA:;
#CHARTNAME:;
#STEPSTYPE:dance-double;
#DESCRIPTION:;
#CHARTSTYLE:;
#DIFFICULTY:Medium;
#METER:12;
#RADARVALUES:0.387324,0.497804,0.434447,0.072408,0.072408,337.000000,283.000000,54.000000,9.000000,0.000000,0.000000,0.000000,0.000000,0.000000,0.387324,0.497804,0.434447,0.072408,0.072408,337.000000,283.000000,54.000000,9.000000,0.000000,0.000000,0.000000,0.000000,0.000000;
#CREDIT:Karl with a K;
#NOTES:
00000000
00000000
00000000
00000000
,
00000000
00000000
00000000
00000000
,
00000000
00000000
00000000
00000000
,
00000000
00000000
00000000
00000000
,
00000000
00000000
00000000
00000000
,
00000000
00000000
00000000
00000000
,
10010000
00000000
00000000
00000000
00000000
01100000
00000000
00000000
00101000
00000000
00000000
00000000
00000000
00101000
00000000
00000000
,
00011000
00000000
00000000
00000000
00000000
00000110
00000000
00000000
00001001
00000000
00000000
00001001
00000000
00000000
00001001
00000000
,
00000110
00000000
00000000
00000000
00000000
00000110
00000000
00000000
00011000
00000000
00000000
00000000
00000000
00011000
00000000
00000000
,
01001000
00000000
00000000
00000000
00000000
01001000
00000000
00000000
10010000
00000000
00010000
00000000
00010000
00000000
00010000
00000000
,
10000000
10000000
01000000
01000000
,
00100000
00100000
00001000
00001000
,
00010000
00000010
00001000
00000100
00000010
00000001
00000100
00000001
,
00000010
00000100
00010000
00001000
01000000
00000000
00000000
01100000
,
10010000
00000000
01010000
00000000
01000000
00001000
00010000
00000000
,
00001000
00000000
00011000
00000000
00010000
00000100
00001000
00000000
,
00000100
00001000
00000001
00000100
00000010
00000000
00011000
00000000
,
00001000
01000000
00010000
01000000
00100000
00000000
01100000
00000000
,
10010000
00000000
00110000
00000000
00100000
00001000
00010000
00000000
,
00001000
00000000
00011000
00000000
00010000
00000010
00001000
00000000
,
00000010
00001000
00000001
00000010
00000100
00000000
00011000
00000000
,
00001000
00100000
01000000
01100000
,
10020000
00000000
02030000
00100000
00100000
00100000
03200000
10000000
,
20300000
00000000
01000000
00000000
32000000
00000000
00100000
00000000
00100000
00000000
00100000
00000000
03100000
00001000
00100000
00000000
,
00021000
00000000
00030200
00000010
00000010
00000010
00000320
00000001
,
00000032
00000000
00000100
00000000
00000103
00000000
00000010
00000000
00010000
00001000
00010000
00000000
00001000
00000100
00000010
00000000
,
00001001
00000000
00001010
00000000
00000010
00010000
00001000
00000000
,
00010000
00000000
00011000
00000000
00001000
00100000
00010000
00000000
,
00100000
00010000
10000000
00100000
01000000
00000000
00011000
00000000
,
00010000
00000010
00001000
00000010
00000100
00000000
00000110
00000000
,
00001001
00000000
00001100
00000000
00000100
00010000
00001000
00000000
,
00010000
00000000
00011000
00000000
00001000
01000000
00010000
00000000
,
01000000
00010000
10000000
01000000
00100000
00000000
00011000
00000000
,
00001000
00010000
00000100
00000010
00000000
00000100
00000010
00000000
,
00001001
00000000
00000000
00000000
,
00000000
00000000
00000000
00000000
,
00000000
00000000
00000000
00000000
,
00000000
00000000
00000000
00000000
,
10000000
00000000
00000000
00000000
00000000
01000000
00000000
00000000
00100000
00000000
00000000
00000000
00000000
00001000
00000000
00000000
,
00010000
00000000
00000000
00000000
00000000
00000010
00000000
00000000
00000100
00000000
00000000
00000000
00000001
00000000
00000000
00000000
,
00000001
00000000
00000000
00000000
00000000
00000100
00000000
00000000
00000010
00000000
00000000
00000000
00000000
00010000
00000000
00000000
,
00001000
00000000
00000000
00000000
00000000
00100000
00000000
00000000
01000000
00000000
00000000
00000000
10000000
00000000
00000000
00000000
,
10000000
01000000
00100000
01000000
,
10000000
00010000
01000000
01000000
,
00001000
00100000
00010000
01000000
00100000
10000000
01000000
10000000
,
00100000
01000000
00001000
00010000
00000100
00000000
00000000
00000110
,
00001001
00000000
00011000
00000000
00100000
01000000
00100000
00000000
,
01000000
00000000
01100000
00000000
00010000
01000000
00100000
00000000
,
10010000
00000000
00011000
00000000
00010000
00000100
00000010
00000000
,
00000001
00000011
00010010
00101000
,
10010000
00000000
00011000
00000000
00000100
00000010
00000100
00000000
,
00000010
00000000
00000110
00000000
00001000
00000010
00000100
00000000
,
00001001
00000000
00011000
00000000
00001000
00100000
01000000
00000000
,
10000000
00000000
00000000
00000000
00000000
01010000
00000000
00000000
01000000
00000000
00000000
00100000
00000000
00000000
10000000
00000000
,
01000000
00000000
00100000
00000000
00001000
00010000
00001000
00000000
,
00010000
00000000
00000100
00000000
00000010
00000010
00000001
00000000
,
00000100
00000000
00000010
00000000
00010000
00001000
00010000
00000000
,
00001000
00000000
01000000
00000000
00100000
00100000
00100000
00000000
,
10000000
00100000
10000000
00000000
00010000
00100000
00010000
00000000
,
01000000
00001000
01000000
00000000
00001000
00010000
00001000
00000000
,
00010000
00000100
00000010
00000001
00001000
00000010
00000100
00000000
,
00000001
00000000
00000001
00000000
00000100
00000010
00000100
00000010
;

//---------------dance-double - ----------------
#NOTEDATA:;
#CHARTNAME:;
#STEPSTYPE:dance-double;
#DESCRIPTION:;
#CHARTSTYLE:;
#DIFFICULTY:Easy;
#METER:9;
#RADARVALUES:0.211477,0.273239,0.233314,0.000000,0.000000,184.000000,155.000000,29.000000,0.000000,0.000000,0.000000,0.000000,0.000000,0.000000,0.211477,0.273239,0.233314,0.000000,0.000000,184.000000,155.000000,29.000000,0.000000,0.000000,0.000000,0.000000,0.000000,0.000000;
#CREDIT:Karl with a K;
#NOTES:
00000000
00000000
00000000
00000000
,
00000000
00000000
00000000
00000000
,
00000000
00000000
00000000
00000000
,
00000000
00000000
00000000
00000000
,
00000000
00000000
00000000
00000000
,
00000000
00000000
00000000
00000000
,
10010000
00000000
10000000
00000000
,
00110000
00000000
00101000
00000000
,
00011000
00000000
00001000
00000000
,
00010010
00000000
00001010
00000000
,
00001001
00000000
00000001
00000000
,
00000100
00000000
00000010
00000000
,
00010000
00001000
00100000
01000000
,
10000000
10000000
00100000
00000000
,
10000000
00000000
00000000
01100000
00000000
00000000
00010000
00000000
,
00000000
00100000
00000000
00001000
00000000
00000000
00010000
00000000
,
00010000
00000000
00000000
00000110
00000000
00000001
00000000
00000001
,
00000000
00000100
00000000
00000010
00000000
00000000
00000100
00000000
,
00000001
00000000
00000000
00000110
00000000
00000000
00001000
00000000
,
00000000
00000010
00000000
00010000
00000000
00000000
00001000
00000000
,
00001000
00000000
00000000
01100000
00000000
10000000
00000000
10000000
,
00000000
01000000
00000000
00100000
00000000
00000000
01000000
00000000
,
10000000
01000000
00010000
00001000
,
00010000
00000010
00001000
00001001
,
00000001
00000100
00001000
00010000
,
00001000
00100000
00010000
10010000
,
10000000
00000000
00000000
10010000
00000000
00000000
00010000
00000000
,
00000000
01000000
00000000
00001000
00000000
00000000
00010000
00000000
,
00010000
00000000
00000000
00000110
00000000
00000001
00000000
00000001
,
00000000
00000010
00000000
00000100
00000000
00000000
00000010
00000000
,
00000001
00000000
00000000
00001001
00000000
00000000
00001000
00000000
,
00000000
00000100
00000000
00010000
00000000
00000000
00001000
00000000
,
00001000
00000000
00000000
01100000
00000000
10000000
00000000
10000000
,
00000000
00100000
00000000
01000000
00000000
00000000
00100000
00000000
,
10100000
00000000
00000000
00000000
,
00000000
00000000
00000000
00000000
,
00000000
00000000
00000000
00000000
,
00000000
00000000
00000000
00000000
,
00000001
00000000
00000100
00000000
,
00000010
00000000
00010000
00000000
,
00001000
00000000
00100000
00000000
,
01000000
00000000
10000000
00000000
,
10000000
01000000
00100000
00000000
,
01000000
00100000
00010000
00000000
,
10000000
00100000
00010000
00001000
,
00000010
00000001
00001000
00000000
,
00000001
00000000
00000011
00000000
,
00001000
00000000
00001010
00000000
,
00000010
00000000
00010010
00000000
,
00011000
00000000
00110000
00000000
,
10000000
00000000
10100000
00000000
,
00010000
00000000
00110000
00000000
,
00100000
00000000
00101000
00000000
,
00011000
00000000
00001010
00000000
,
00000001
00000100
00000010
00010000
,
00001000
00100000
01000000
01000000
,
10000000
00100000
01000000
00001000
,
00010000
00010000
00000100
00000010
,
00000001
00000100
00001000
00000000
,
00010000
01000000
10000000
00000000
,
00100000
00010000
00001000
00000010
,
00000001
00000001
00001000
00011000
;

//---------------dance-single - JU+++----------------
#NOTEDATA:;
#CHARTNAME:AIR Special;
#STEPSTYPE:dance-single;
#DESCRIPTION:JU+++;
#CHARTSTYLE:;
#DIFFICULTY:Edit;
#METER:3;
#RADARVALUES:0.443641,0.746705,1.552745,0.000000,0.100566,386.000000,193.000000,193.000000,0.000000,1020.000000,0.000000,0.000000,0.000000,0.000000,0.443641,0.746705,1.552745,0.000000,0.100566,386.000000,193.000000,193.000000,0.000000,1020.000000,0.000000,0.000000,0.000000,0.000000;
#CREDIT:;
#NOTES:
0000
0000
0000
0000
,
0000
0000
0000
0000
,
0000
0000
0000
0000
,
0000
0000
0000
0000
,
0000
0000
0000
0000
,
0000
0000
0000
0000
,
1001
0000
MMMM
0000
,
1001
0000
MMMM
0000
,
1001
0000
MMMM
0000
,
1001
0000
MMMM
0000
,
1001
MMMM
1001
MMMM
1001
MMMM
1001
MMMM
,
1001
MMMM
1001
MMMM
1001
MMMM
1001
MMMM
,
1001
MMMM
1001
MMMM
1001
MMMM
1001
MMMM
1001
MMMM
1001
MMMM
1001
MMMM
1001
MMMM
,
1001
MMMM
1001
MMMM
1001
MMMM
1001
MMMM
1001
0000
MMMM
0000
1001
MMMM
0000
0000
,
1001
MMMM
1001
MMMM
1001
MMMM
1001
MMMM
,
1001
MMMM
1001
MMMM
1001
MMMM
1001
MMMM
,
1001
MMMM
1001
MMMM
1001
MMMM
1001
MMMM
,
1001
MMMM
1001
MMMM
1001
MMMM
1001
MMMM
,
1001
MMMM
1001
MMMM
1001
MMMM
1001
MMMM
,
1001
MMMM
1001
MMMM
1001
MMMM
1001
MMMM
,
1001
MMMM
1001
MMMM
1001
MMMM
1001
MMMM
,
1001
MMMM
1001
MMMM
1001
MMMM
1001
MMMM
,
1001
MMMM
1001
MMMM
1001
MMMM
1001
MMMM
,
1001
MMMM
1001
MMMM
1001
MMMM
1001
MMMM
,
1001
MMMM
1001
MMMM
1001
MMMM
1001
MMMM
,
1001
MMMM
1001
MMMM
1001
MMMM
1001
MMMM
,
1001
MMMM
1001
MMMM
1001
MMMM
1001
MMMM
,
1001
MMMM
1001
MMMM
1001
MMMM
1001
MMMM
,
1001
MMMM
1001
MMMM
1001
MMMM
1001
MMMM
,
1001
MMMM
1001
MMMM
1001
MMMM
1001
MMMM
,
1001
MMMM
1001
MMMM
1001
MMMM
1001
MMMM
,
1001
MMMM
1001
MMMM
1001
MMMM
1001
MMMM
,
1001
MMMM
1001
MMMM
1001
MMMM
1001
MMMM
,
1001
MMMM
1001
MMMM
1001
MMMM
1001
MMMM
,
1001
MMMM
MMMM
MMMM
MMMM
MMMM
MMMM
MMMM
,
MMMM
MMMM
MMMM
MMMM
MMMM
MMMM
MMMM
MMMM
,
MMMM
MMMM
MMMM
MMMM
MMMM
MMMM
MMMM
MMMM
,
MMMM
MMMM
MMMM
MMMM
MMMM
MMMM
MMMM
MMMM
,
MMMM
MMMM
MMMM
MMMM
MMMM
MMMM
MMMM
MMMM
,
MMMM
MMMM
MMMM
MMMM
MMMM
MMMM
MMMM
MMMM
,
MMMM
MMMM
MMMM
MMMM
MMMM
MMMM
MMMM
MMMM
,
MMMM
MMMM
MMMM
MMMM
MMMM
MMMM
MMMM
MMMM
,
1001
MMMM
1001
MMMM
1001
MMMM
1001
MMMM
,
1001
MMMM
1001
MMMM
1001
MMMM
1001
MMMM
,
1001
MMMM
1001
MMMM
1001
MMMM
1001
MMMM
1001
MMMM
1001
MMMM
1001
MMMM
1001
MMMM
,
1001
MMMM
1001
MMMM
1001
MMMM
1001
MMMM
1001
0000
MMMM
0000
1001
0000
MMMM
0000
,
1001
MMMM
1001
MMMM
1001
MMMM
1001
MMMM
,
1001
MMMM
1001
MMMM
1001
MMMM
1001
MMMM
,
1001
MMMM
1001
MMMM
1001
MMMM
1001
MMMM
,
1001
MMMM
1001
MMMM
1001
MMMM
1001
MMMM
,
1001
MMMM
1001
MMMM
1001
MMMM
1001
MMMM
,
1001
MMMM
1001
MMMM
1001
MMMM
1001
MMMM
,
1001
MMMM
1001
MMMM
1001
MMMM
1001
MMMM
,
1001
MMMM
1001
MMMM
1001
MMMM
1001
MMMM
,
1001
MMMM
1001
MMMM
1001
MMMM
1001
MMMM
,
1001
MMMM
1001
MMMM
1001
MMMM
1001
MMMM
,
1001
MMMM
1001
MMMM
1001
MMMM
1001
MMMM
,
1001
MMMM
1001
MMMM
1001
MMMM
1001
MMMM
,
1001
MMMM
1001
MMMM
1001
MMMM
1001
MMMM
,
1001
MMMM
1001
MMMM
1001
MMMM
1001
MMMM
,
1001
MMMM
1001
MMMM
1001
MMMM
1001
MMMM
,
1001
MMMM
1001
MMMM
1001
MMMM
1001
MMMM
;

//---------------dance-double - JU+++----------------
#NOTEDATA:;
#CHARTNAME:;
#STEPSTYPE:dance-double;
#DESCRIPTION:JU+++;
#CHARTSTYLE:;
#DIFFICULTY:Edit;
#METER:3;
#RADARVALUES:0.443641,0.746705,1.552745,0.000000,0.096544,386.000000,193.000000,193.000000,0.000000,2040.000000,0.000000,0.000000,0.000000,0.000000,0.443641,0.746705,1.552745,0.000000,0.096544,386.000000,193.000000,193.000000,0.000000,2040.000000,0.000000,0.000000,0.000000,0.000000;
#CREDIT:;
#NOTES:
00000000
00000000
00000000
00000000
,
00000000
00000000
00000000
00000000
,
00000000
00000000
00000000
00000000
,
00000000
00000000
00000000
00000000
,
00000000
00000000
00000000
00000000
,
00000000
00000000
00000000
00000000
,
00011000
00000000
MMMMMMMM
00000000
,
00011000
00000000
MMMMMMMM
00000000
,
00011000
00000000
MMMMMMMM
00000000
,
00011000
00000000
MMMMMMMM
00000000
,
00011000
MMMMMMMM
00011000
MMMMMMMM
00011000
MMMMMMMM
00011000
MMMMMMMM
,
00011000
MMMMMMMM
00011000
MMMMMMMM
00011000
MMMMMMMM
00011000
MMMMMMMM
,
00011000
MMMMMMMM
00011000
MMMMMMMM
00011000
MMMMMMMM
00011000
MMMMMMMM
00011000
MMMMMMMM
00011000
MMMMMMMM
00011000
MMMMMMMM
00011000
MMMMMMMM
,
00011000
MMMMMMMM
00011000
MMMMMMMM
00011000
MMMMMMMM
00011000
MMMMMMMM
00011000
00000000
MMMMMMMM
00000000
00011000
00000000
MMMMMMMM
00000000
,
00011000
MMMMMMMM
00011000
MMMMMMMM
00011000
MMMMMMMM
00011000
MMMMMMMM
,
00011000
MMMMMMMM
00011000
MMMMMMMM
00011000
MMMMMMMM
00011000
MMMMMMMM
,
00011000
MMMMMMMM
00011000
MMMMMMMM
00011000
MMMMMMMM
00011000
MMMMMMMM
,
00011000
MMMMMMMM
00011000
MMMMMMMM
00011000
MMMMMMMM
00011000
MMMMMMMM
,
00011000
MMMMMMMM
00011000
MMMMMMMM
00011000
MMMMMMMM
00011000
MMMMMMMM
,
00011000
MMMMMMMM
00011000
MMMMMMMM
00011000
MMMMMMMM
00011000
MMMMMMMM
,
00011000
MMMMMMMM
00011000
MMMMMMMM
00011000
MMMMMMMM
00011000
MMMMMMMM
,
00011000
MMMMMMMM
00011000
MMMMMMMM
00011000
MMMMMMMM
00011000
MMMMMMMM
,
00011000
MMMMMMMM
00011000
MMMMMMMM
00011000
MMMMMMMM
00011000
MMMMMMMM
,
00011000
MMMMMMMM
00011000
MMMMMMMM
00011000
MMMMMMMM
00011000
MMMMMMMM
,
00011000
MMMMMMMM
00011000
MMMMMMMM
00011000
MMMMMMMM
00011000
MMMMMMMM
,
00011000
MMMMMMMM
00011000
MMMMMMMM
00011000
MMMMMMMM
00011000
MMMMMMMM
,
00011000
MMMMMMMM
00011000
MMMMMMMM
00011000
MMMMMMMM
00011000
MMMMMMMM
,
00011000
MMMMMMMM
00011000
MMMMMMMM
00011000
MMMMMMMM
00011000
MMMMMMMM
,
00011000
MMMMMMMM
00011000
MMMMMMMM
00011000
MMMMMMMM
00011000
MMMMMMMM
,
00011000
MMMMMMMM
00011000
MMMMMMMM
00011000
MMMMMMMM
00011000
MMMMMMMM
,
00011000
MMMMMMMM
00011000
MMMMMMMM
00011000
MMMMMMMM
00011000
MMMMMMMM
,
00011000
MMMMMMMM
00011000
MMMMMMMM
00011000
MMMMMMMM
00011000
MMMMMMMM
,
00011000
MMMMMMMM
00011000
MMMMMMMM
00011000
MMMMMMMM
00011000
MMMMMMMM
,
00011000
MMMMMMMM
00011000
MMMMMMMM
00011000
MMMMMMMM
00011000
MMMMMMMM
,
00011000
MMMMMMMM
MMMMMMMM
MMMMMMMM
MMMMMMMM
MMMMMMMM
MMMMMMMM
MMMMMMMM
,
MMMMMMMM
MMMMMMMM
MMMMMMMM
MMMMMMMM
MMMMMMMM
MMMMMMMM
MMMMMMMM
MMMMMMMM
,
MMMMMMMM
MMMMMMMM
MMMMMMMM
MMMMMMMM
MMMMMMMM
MMMMMMMM
MMMMMMMM
MMMMMMMM
,
MMMMMMMM
MMMMMMMM
MMMMMMMM
MMMMMMMM
MMMMMMMM
MMMMMMMM
MMMMMMMM
MMMMMMMM
,
MMMMMMMM
MMMMMMMM
MMMMMMMM
MMMMMMMM
MMMMMMMM
MMMMMMMM
MMMMMMMM
MMMMMMMM
,
MMMMMMMM
MMMMMMMM
MMMMMMMM
MMMMMMMM
MMMMMMMM
MMMMMMMM
MMMMMMMM
MMMMMMMM
,
MMMMMMMM
MMMMMMMM
MMMMMMMM
MMMMMMMM
MMMMMMMM
MMMMMMMM
MMMMMMMM
MMMMMMMM
,
MMMMMMMM
MMMMMMMM
MMMMMMMM
MMMMMMMM
MMMMMMMM
MMMMMMMM
MMMMMMMM
MMMMMMMM
,
00011000
MMMMMMMM
00011000
MMMMMMMM
00011000
MMMMMMMM
00011000
MMMMMMMM
,
00011000
MMMMMMMM
00011000
MMMMMMMM
00011000
MMMMMMMM
00011000
MMMMMMMM
,
00011000
MMMMMMMM
00011000
MMMMMMMM
00011000
MMMMMMMM
00011000
MMMMMMMM
00011000
MMMMMMMM
00011000
MMMMMMMM
00011000
MMMMMMMM
00011000
MMMMMMMM
,
00011000
MMMMMMMM
00011000
MMMMMMMM
00011000
MMMMMMMM
00011000
MMMMMMMM
00011000
00000000
MMMMMMMM
00000000
00011000
00000000
MMMMMMMM
00000000
,
00011000
MMMMMMMM
00011000
MMMMMMMM
00011000
MMMMMMMM
00011000
MMMMMMMM
,
00011000
MMMMMMMM
00011000
MMMMMMMM
00011000
MMMMMMMM
00011000
MMMMMMMM
,
00011000
MMMMMMMM
00011000
MMMMMMMM
00011000
MMMMMMMM
00011000
MMMMMMMM
,
00011000
MMMMMMMM
00011000
MMMMMMMM
00011000
MMMMMMMM
00011000
MMMMMMMM
,
00011000
MMMMMMMM
00011000
MMMMMMMM
00011000
MMMMMMMM
00011000
MMMMMMMM
,
00011000
MMMMMMMM
00011000
MMMMMMMM
00011000
MMMMMMMM
00011000
MMMMMMMM
,
00011000
MMMMMMMM
00011000
MMMMMMMM
00011000
MMMMMMMM
00011000
MMMMMMMM
,
00011000
MMMMMMMM
00011000
MMMMMMMM
00011000
MMMMMMMM
00011000
MMMMMMMM
,
00011000
MMMMMMMM
00011000
MMMMMMMM
00011000
MMMMMMMM
00011000
MMMMMMMM
,
00011000
MMMMMMMM
00011000
MMMMMMMM
00011000
MMMMMMMM
00011000
MMMMMMMM
,
00011000
MMMMMMMM
00011000
MMMMMMMM
00011000
MMMMMMMM
00011000
MMMMMMMM
,
00011000
MMMMMMMM
00011000
MMMMMMMM
00011000
MMMMMMMM
00011000
MMMMMMMM
,
00011000
MMMMMMMM
00011000
MMMMMMMM
00011000
MMMMMMMM
00011000
MMMMMMMM
,
00011000
MMMMMMMM
00011000
MMMMMMMM
00011000
MMMMMMMM
00011000
MMMMMMMM
,
00011000
MMMMMMMM
00011000
MMMMMMMM
00011000
MMMMMMMM
00011000
MMMMMMMM
,
00011000
MMMMMMMM
00011000
MMMMMMMM
00011000
MMMMMMMM
00011000
MMMMMMMM
;
