#VERSION:0.83;
#TITLE:It Doesn't Add Up;
#SUBTITLE:;
#ARTIST:Z-I-v Sound Team "Karl with a K";
#TITLETRANSLIT:;
#SUBTITLETRANSLIT:;
#ARTISTTRANSLIT:;
#GENRE:;
#ORIGIN:;
#CREDIT:;
#BANNER:It Doesn't Add Up banner.png;
#BACKGROUND:It Doesn't Add Up bg.png;
#PREVIEWVID:;
#JACKET:It Doesn't Add Up jk.png;
#CDIMAGE:;
#DISCIMAGE:;
#LYRICSPATH:;
#CDTITLE:;
#MUSIC:It Doesn't Add Up.ogg;
#OFFSET:-0.025000;
#SAMPLESTART:19.815704;
#SAMPLELENGTH:14.823532;
#SELECTABLE:YES;
#BPMS:0.000=170.000,
50.000=85.000,
51.000=42.500,
52.000=170.000,
108.000=85.000,
136.000=170.000,
196.000=160.000,
200.000=150.000,
204.000=140.000,
208.000=130.000,
216.000=120.000,
224.000=110.000,
260.000=220.000;
#STOPS:;
#DELAYS:;
#WARPS:;
#TIMESIGNATURES:0.000=4=4;
#TICKCOUNTS:0.000=4;
#COMBOS:0.000=1;
#SPEEDS:0.000=1.000=0.000=0;
#SCROLLS:0.000=1.000;
#FAKES:;
#LABELS:0.000=Song Start;
#BGCHANGES:;
#KEYSOUNDS:;
#ATTACKS:
;

//---------------dance-single - XO DS JA XMOD BU RH TS STR[13*-10*@170] JU----------------
#NOTEDATA:;
#CHARTNAME:;
#STEPSTYPE:dance-single;
#DESCRIPTION:XO DS JA XMOD BU RH TS STR[13*-10*@170] JU;
#CHARTSTYLE:;
#DIFFICULTY:Challenge;
#METER:17;
#RADARVALUES:0.832248,1.108156,0.175898,0.379939,1.217213,828.000000,803.000000,25.000000,54.000000,0.000000,0.000000,0.000000,0.000000,0.000000,0.832248,1.108156,0.175898,0.379939,1.217213,828.000000,803.000000,25.000000,54.000000,0.000000,0.000000,0.000000,0.000000,0.000000;
#CREDIT:Karl + a K;
#DISPLAYBPM:85.000000:220.000000;
#NOTES:
0000
0000
0000
0000
,
0000
0000
0000
0000
,
0000
0000
0000
0000
,
0000
0000
0000
0000
,
0000
0000
0000
0000
,
0000
0000
0000
0000
,
0000
0000
0000
0000
,
1001
0000
1000
0010
1000
0001
0010
0001
,
1000
0010
1000
0001
0010
0001
1001
0000
,
1000
0100
1000
0001
0100
0001
1000
0100
,
1000
0001
0100
0001
0010
0001
0010
0010
,
0100
0000
0100
0000
1000
0000
1000
0000
0010
0000
0010
0000
0100
0010
0100
0010
,
1000
0001
1000
0001
0200
0000
0000
0000
0000
0000
0000
0000
0300
0000
0000
0000
,
2001
0000
0000
0000
3001
0100
0001
0100
0010
0100
0010
0100
0010
1000
0010
1000
,
0001
1000
0001
1000
0001
0010
0001
0000
1000
0010
1000
0000
0002
0000
0000
0000
,
1003
0010
1000
0010
0100
0010
0100
0010
0100
0001
0100
0001
1000
0001
1000
0001
,
1000
0100
1000
0000
0001
0100
0001
0000
2000
0000
0000
0000
3001
0010
0001
0010
,
0100
0010
0100
0010
0100
1000
0100
1000
0001
1000
0001
1000
0001
0100
0001
0000
,
0100
0010
0100
0000
0002
0000
0000
0000
1003
0010
1000
0010
0100
0010
0100
0010
,
0100
0001
0100
0001
1000
0001
1000
0001
0020
0000
0230
0000
2300
0000
3001
0000
,
1002
0000
0000
0000
1003
0010
1000
0010
0100
0001
0100
0001
0010
0001
0010
0001
,
1000
0100
1000
0100
1000
0010
1000
0010
0100
0010
0100
0000
0001
0100
0001
0100
,
0010
1000
0010
1000
0100
1000
0100
1000
0001
0010
0001
0010
0001
0100
0001
0100
,
0010
0100
0010
0000
1000
0001
1000
0000
0001
1000
0001
1000
0001
0010
0001
0010
,
0100
1000
0100
1000
0010
1000
0010
1000
0001
0100
0001
0100
0001
0010
0001
0010
,
0100
0010
0100
0000
1000
0100
1000
0100
0010
0001
0010
0001
0100
0001
0100
0001
,
1000
0010
1000
0010
1000
0100
1000
0100
0020
0000
0230
0000
2300
0000
3001
0000
,
0201
0000
0000
0000
0000
0000
0301
1000
0100
0000
1000
0000
1000
0000
1000
0000
0000
0000
0001
0000
0100
0000
0001
0000
0010
0001
0010
0000
0210
0000
0000
0000
,
0000
0000
1300
0001
0100
0000
0001
0000
0001
0000
0001
0000
0000
0000
1000
0000
0001
0000
0100
0000
0010
0100
0010
1000
0200
0000
0000
0000
0000
0000
1300
0001
,
0100
0000
0001
0000
0001
0000
0001
0000
0000
0000
0100
0000
1000
0000
0100
0000
0010
1000
0010
0000
0210
0000
0000
0000
0000
0000
0301
1000
0100
0000
1000
0000
,
1000
0000
1000
0000
0000
0000
0100
0000
0001
0000
1000
0000
0020
0000
0000
0000
0230
0000
0000
0000
0000
0000
0310
0100
1000
0000
0100
0000
0010
0000
0210
0000
,
0000
0000
0301
0000
0100
0000
1000
0000
0001
0010
0001
0000
0200
0000
0000
0000
0000
0000
0310
0100
0001
0000
0100
0000
0010
0000
0210
0000
0000
0000
1300
0000
,
0100
0000
0001
0000
0010
0100
0010
0001
0200
0000
0000
0000
0000
0000
0310
0100
0001
0000
0010
0000
0100
0000
0120
0000
0000
0000
1030
0000
0010
0000
0001
0000
,
1000
0000
0000
0000
0000
0000
0010
0000
0000
0000
0000
0000
1000
0000
0000
0000
0000
0000
0000
0000
0000
0000
0000
0000
0200
0000
0000
0000
0000
0000
0000
0000
0000
0000
0000
0000
0000
0000
0000
0000
0000
0000
0000
0000
0000
0000
0000
0000
0000
0000
0000
0000
0000
0000
0000
0000
0000
0000
0000
0000
0310
0000
0000
0000
0000
0000
0100
0000
0000
0000
0000
0000
1000
0000
0000
0000
0000
0000
0000
0000
0000
0000
0000
0000
0010
0000
0000
0000
0000
0000
0000
0000
0000
0000
0000
0000
0100
0000
0000
0000
0000
0000
0000
0000
0000
0000
0000
0000
0120
0000
0000
0000
0000
0000
0000
0000
0000
0000
0000
0000
0000
0000
0000
0000
0000
0000
0000
0000
0000
0000
0000
0000
1030
0000
0000
0000
0000
0000
0000
0000
0000
0000
0000
0000
0001
0000
0000
0000
0000
0000
0000
0000
0010
0000
0000
0000
0000
0000
0000
0000
0001
0000
0000
0000
0000
0000
0000
0000
1000
0000
0000
0000
0000
0000
0000
0000
0010
0000
0000
0000
0000
0000
0000
0000
1000
0000
0000
0000
0000
0000
0000
0000
,
0002
0000
0000
0000
1003
0100
1000
0100
0010
0001
0010
0001
1000
0010
1000
0010
,
0200
0000
0301
0100
0001
1000
0001
1000
0020
0000
0130
0010
0002
0000
0000
0000
,
0013
0100
0010
0100
0010
1000
0010
1000
0001
0010
0001
0010
0200
0000
1300
0100
,
1000
0001
1000
0001
0020
0000
0130
0010
2000
0000
0000
0000
3010
0100
0010
0100
,
1000
0001
1000
0001
0010
0001
0010
0001
2000
0000
3100
1000
0001
1000
0001
1000
,
0020
0000
0130
0010
0002
0000
0000
0000
0013
0100
0010
0100
0001
1000
0001
1000
,
0010
1000
0010
1000
0002
0000
0103
0001
1000
0001
1000
0001
0020
0000
0130
0010
,
2000
0000
0000
0000
3010
0100
0010
0100
1000
0100
1000
0100
0010
0001
0010
0001
,
2000
0000
3100
0010
0001
0010
0001
0010
0200
0000
0310
0100
0002
0000
0000
0000
,
0103
0010
0100
0010
0001
0100
0001
0100
0010
1000
0010
1000
0002
0000
0103
0010
,
0100
0000
0000
0010
0000
0000
0100
0000
0000
0010
0000
0000
0002
0000
0000
0000
0000
0000
0013
0000
0000
0100
0000
0000
0010
0000
0000
0000
0100
0000
0000
0000
0001
0000
0000
0000
0010
0000
0000
0000
0100
0000
0000
0000
1000
0000
0000
0000
,
0001
0100
0001
1000
0100
0010
0001
0100
0010
1000
0100
1000
,
0001
0100
0001
0100
0010
0100
1000
0100
1000
0100
0010
0100
,
0001
0100
0001
0010
0100
0010
1000
0010
1000
0010
0100
0010
,
0200
1000
0010
1000
,
0010
0001
0010
0001
,
0010
1000
0010
1000
,
0010
0001
0010
1000
,
1300
1000
0100
0100
0010
0010
0001
0001
,
1000
1000
0010
0010
0100
0100
0001
0001
,
1000
0010
1000
0010
0100
0001
0100
0001
0100
0010
0100
0010
1000
0001
1000
0001
,
1001
0000
0000
0000
,
0202
0000
0000
0000
0300
0000
0103
0010
0001
0000
0010
0100
0001
0000
0101
0000
,
0000
0000
1100
0000
0100
0000
0110
0000
0001
0100
1000
0100
0002
0000
0000
0000
,
0103
0000
0000
0000
0000
0000
0101
0000
0000
0000
0000
0000
1200
0000
0000
0000
0000
0000
0000
0000
0000
0000
0000
0000
0000
0000
0000
1300
0000
0000
0100
0000
0000
0010
0000
0000
1000
0000
0000
0000
0000
0000
0010
0000
0100
0000
0010
0000
,
0100
0000
0000
0000
0000
0000
0110
0000
0000
0000
0000
0000
0000
0000
0000
0000
0000
0000
1000
0000
0000
0000
0010
0000
0000
0000
0100
0000
0000
0000
0001
0000
0000
0000
0000
0000
1000
0000
0000
0100
0000
0000
1000
0000
0100
0000
1000
0000
,
0200
0000
0000
0000
0000
0000
0000
0000
0000
0000
0000
0000
0310
0000
0000
0000
0001
0000
0000
0000
0100
0000
0000
0000
0201
0000
0000
0000
0000
0000
0000
0000
0000
0000
0000
0000
0000
0000
0000
0301
0000
0100
0000
0001
0000
0100
0000
0000
,
0010
0000
0000
1000
0000
0000
0100
0000
1000
0000
0100
0000
1000
0000
0000
0000
0000
0000
1100
0000
0000
0000
0000
0000
0000
0000
0000
0100
0000
0000
1000
0000
0000
0000
0100
0000
0000
0000
0010
0000
0000
0000
0001
0000
0000
0010
0000
0000
,
0001
0000
0000
0100
0000
0000
0010
0000
0100
0000
0010
0000
0200
0000
0000
0000
0000
0000
0000
0000
0000
0000
0000
0000
1300
0000
0000
0100
0000
0000
0010
0000
0000
1000
0000
0000
2010
0000
0000
0000
0000
0000
0000
0000
0000
0000
0000
0000
,
0000
0000
0000
3010
0000
0100
0000
0010
0000
0100
0000
0000
1000
0000
0000
0100
0000
0000
0001
0000
0100
0000
0001
0000
0100
0000
0000
0000
0000
0000
0110
0000
0000
0000
0000
0000
0000
0000
0000
0010
0000
0000
1000
0000
0000
0000
0010
0000
,
0000
0000
0100
0000
0000
0000
0001
0000
0000
0100
0000
0000
0102
0000
0000
0000
0000
0000
0000
0000
0000
0000
0000
0000
0103
0000
0010
0000
0100
0000
0010
0000
0100
0000
0010
0000
0100
0000
0000
0000
0001
0000
1000
0000
0000
0000
0000
0000
,
1001
1000
0010
0010
,
0100
0100
0001
0001
,
1000
1000
0100
0100
,
0001
0001
0100
0100
,
1000
0000
0000
1000
0000
0000
0001
0000
0010
0000
0001
0000
,
0010
0000
0100
0000
0010
0000
0100
0000
1000
0000
0100
0000
,
1000
0000
0001
0000
1000
0000
0001
0000
0100
0000
0001
0000
,
0100
0000
0010
0000
0100
0000
1000
0000
0100
0000
1000
0000
,
0100
0000
0001
0000
0100
0000
0001
0000
0100
0000
0001
0000
,
0010
0001
0010
0001
0010
0100
0010
0100
,
1000
0100
1000
0010
0100
0010
0100
0001
,
0100
0001
0100
0010
0100
0010
0100
1000
,
0100
1000
0100
0010
1000
0010
0100
0010
,
1000
0000
0000
0001
0000
0000
0100
0000
0000
0010
0000
0000
1000
0000
0100
0000
0010
0000
0100
0000
1000
0000
0001
0000
,
0100
0010
0100
0001
1000
0001
0010
0100
0010
0001
1000
0010
,
0100
0010
1000
0001
0100
0010
0100
0001
1000
0100
0010
0100
,
1000
0001
1000
0010
0100
0010
1000
0001
0010
0100
0010
0001
,
1000
0100
1000
0000
0100
1000
0100
0000
0010
0001
0010
0000
0001
0010
0001
0000
,
0200
0000
0000
0000
,
0000
0000
0000
0000
,
0000
0000
0000
0000
,
0000
0000
0000
0000
,
0000
0000
0300
0000
;

//---------------dance-single - XO DS JA XMOD BU RH TS JU----------------
#NOTEDATA:;
#CHARTNAME:;
#STEPSTYPE:dance-single;
#DESCRIPTION:XO DS JA XMOD BU RH TS JU;
#CHARTSTYLE:;
#DIFFICULTY:Hard;
#METER:15;
#RADARVALUES:0.638258,0.923463,0.091467,0.239221,0.622678,635.000000,622.000000,13.000000,34.000000,0.000000,0.000000,0.000000,0.000000,0.000000,0.638258,0.923463,0.091467,0.239221,0.622678,635.000000,622.000000,13.000000,34.000000,0.000000,0.000000,0.000000,0.000000,0.000000;
#CREDIT:Karl + with + a + K;
#DISPLAYBPM:85.000000:220.000000;
#NOTES:
0000
0000
0000
0000
,
0000
0000
0000
0000
,
0000
0000
0000
0000
,
0000
0000
0000
0000
,
0000
0000
0000
0000
,
0000
0000
0000
0000
,
0000
0000
0000
0000
,
1010
0000
0010
0002
0000
0013
2000
0000
,
3010
0002
0000
0013
1000
0000
1001
0000
,
1000
0200
0000
0301
0200
0000
1300
0200
,
0000
0301
0200
0000
0310
0000
0001
0010
,
0100
0000
0010
0000
0001
0000
0010
0000
0100
0000
1000
0000
0010
0100
0010
0100
,
0001
0100
0001
0100
0020
0000
0000
0000
0000
0000
0000
0000
0030
0000
0000
0000
,
1002
0000
0000
0000
1003
0100
1000
0000
0100
0000
0010
0000
0001
1000
0001
0000
,
1000
0100
0010
0100
0001
0100
2000
0000
,
3001
0100
0001
0000
0100
0000
0010
0000
1000
0001
1000
0000
0001
0000
0100
0000
,
0010
0000
0100
0000
0010
0000
0100
0000
0002
0000
0000
0000
1003
0010
1000
0000
,
0010
0000
0100
0000
0001
1000
0001
0000
1000
0000
0010
0000
0100
0000
0010
0000
,
0100
0000
0010
0000
2000
0000
0000
0000
3001
0010
0001
0000
0010
0000
0100
0000
,
1000
0001
1000
0000
0001
0000
0010
0000
0100
0000
0010
0000
1000
0000
0010
0000
,
0001
0100
0010
1000
0010
0100
0001
0010
,
0100
0010
0001
0100
1000
0100
0001
0010
,
0100
1000
0100
0010
0001
0010
0100
0010
,
1000
0010
0100
0100
1000
0100
0010
0001
,
0010
0100
1000
0010
0100
0010
1000
0100
,
0001
0100
1000
0010
0100
0001
0100
0010
,
1000
0100
0010
0100
1000
0010
0001
0010
,
0120
0000
0000
0100
0130
0100
0010
1000
0000
0100
0010
0100
0001
0100
0020
0000
,
0000
0100
0130
0100
0010
0001
0000
0100
0010
0100
1000
0100
0002
0000
0000
0100
,
0103
0100
0001
0010
0000
0100
1000
0100
0001
0100
2000
0000
0000
0100
3100
0100
,
1000
0000
0010
0000
0000
0000
0100
0000
1000
0000
0100
0000
0020
0000
0000
0000
2030
0000
0000
0000
0000
0000
3001
1000
0001
0000
0001
0000
1000
0000
0010
0000
,
0000
0000
0001
0000
0010
0000
1000
0000
0001
0000
0100
0000
0002
0000
0000
0000
0000
0000
1003
0001
1000
0000
1000
0000
0001
0000
0010
0000
0000
0000
1000
0000
,
0010
0000
0001
0000
1000
0000
0100
0000
2000
0000
0000
0000
0000
0000
3001
0100
0001
0000
0001
0000
1000
0000
0100
0000
0000
0000
0001
0000
0100
0000
1000
0000
,
0100
0000
0000
0000
0000
0000
0000
0000
0000
0000
0000
0000
0010
0000
0000
0000
0000
0000
0000
0000
0000
0000
0000
0000
0002
0000
0000
0000
0000
0000
0000
0000
0000
0000
0000
0000
0000
0000
0000
0000
0000
0000
0000
0000
0000
0000
0000
0000
0000
0000
0000
0000
0000
0000
0000
0000
0000
0000
0000
0000
1003
0000
0000
0000
0000
0000
0100
0000
0000
0000
0000
0000
1000
0000
0000
0000
0000
0000
0000
0000
0000
0000
0000
0000
1000
0000
0000
0000
0000
0000
0000
0000
0000
0000
0000
0000
0001
0000
0000
0000
0000
0000
0000
0000
0000
0000
0000
0000
0100
0000
0000
0000
0000
0000
0000
0000
0000
0000
0000
0000
0000
0000
0000
0000
0000
0000
0000
0000
0000
0000
0000
0000
1000
0000
0000
0000
0000
0000
0000
0000
0000
0000
0000
0000
0100
0000
0000
0000
0000
0000
0000
0000
0010
0000
0000
0000
0000
0000
0000
0000
0100
0000
0000
0000
0000
0000
0000
0000
0010
0000
0000
0000
0000
0000
0000
0000
0000
0000
0000
0000
0000
0000
0000
0000
0000
0000
0000
0000
0000
0000
0000
0000
,
0100
0001
0010
0100
1000
0100
0010
0001
,
0100
0000
0010
0000
0100
0000
0001
0000
0010
0001
0010
0000
0100
0000
1000
0000
,
0010
0100
0001
0100
0010
1000
0100
0010
,
0100
0000
1000
0000
0010
1000
0010
0000
0100
0000
0001
0000
0100
0000
0010
0000
,
1000
0010
0100
0001
0010
0100
0010
0001
,
0010
0001
0010
0000
0100
0000
1000
0000
0100
0000
0010
0000
0001
0000
0010
0000
,
0100
0000
1000
0000
0010
0000
0100
0000
0010
0000
1000
0000
0010
1000
0010
0000
,
0100
0001
0100
0000
0010
1000
0010
0000
1000
0010
1000
0000
0001
0100
0001
0000
,
0010
0001
0010
0000
0100
1000
0100
0000
1000
0010
1000
0000
0001
0010
0001
0000
,
1000
0010
1000
0000
0001
0010
0001
0000
1000
0010
1000
0000
0010
0100
0010
0000
,
0100
0000
0000
0001
0000
0000
0100
0000
0000
0000
0000
0000
0001
0000
0000
1000
0000
0000
0001
0000
0000
0000
0000
0000
1000
0000
0000
0000
0100
0000
0000
0000
1000
0000
0000
0000
0100
0000
0000
0000
0000
0000
0000
0000
0100
0000
0000
0000
,
1000
0000
1000
0001
0010
0001
0010
0000
0010
0001
0000
0001
,
0010
0100
0010
0001
0010
0001
0010
0100
0010
0100
1000
0100
,
1000
0001
1000
0010
1000
0010
0100
0010
0100
0001
0100
0001
,
2000
0001
0100
0001
,
0100
0001
0100
0001
,
0010
0001
0010
0001
,
0010
0001
0010
0001
,
3001
0010
0100
1000
0010
0100
0001
0010
,
0100
1000
0010
0100
0001
0010
0100
1000
,
0001
0010
0001
0000
1000
0010
1000
0000
0100
0010
0100
0000
0010
0100
0010
0000
,
0110
0000
0000
0000
,
2001
0000
0000
0000
0000
0000
3001
1000
0001
0000
1000
0100
1000
0000
1100
0000
,
0000
0100
0010
0100
0001
0100
0020
0000
,
0031
0000
0000
0000
0000
0000
0001
0000
0000
0000
0000
0000
2001
0000
0000
0000
0000
0000
0000
0000
0000
0000
0000
0000
3000
0000
0000
0001
0000
0000
1000
0000
0000
0001
0000
0000
1000
0000
0000
0000
0000
0000
0001
0000
0100
0000
0001
0000
,
0100
0000
0000
0000
0000
0000
0101
0000
0000
0000
0000
0000
0000
0000
0000
0000
0000
0000
0100
0000
0000
0000
1000
0000
0000
0000
0100
0000
0000
0000
0010
0000
0000
0000
0000
0000
1000
0000
0000
0010
0000
0000
0100
0000
0010
0000
0100
0000
,
0020
0000
0000
0000
0000
0000
0000
0000
0000
0000
0000
0000
1030
0000
0000
0000
0100
0000
0000
0000
1000
0000
0000
0000
0002
0000
0000
0000
0000
0000
0000
0000
0000
0000
0000
0000
0000
0000
0000
2003
0000
0000
0000
0000
0000
3001
0000
0000
,
0100
0000
0000
0000
0000
0000
0001
0000
0000
0000
0100
0000
0001
0000
0000
0000
0000
0000
0101
0000
0000
0000
0000
0000
0000
0000
0000
0000
0001
0000
0100
0000
0000
0000
0010
0000
0000
0000
0100
0000
0000
0000
1000
0000
0000
0100
0000
0000
,
0010
0100
0020
0000
1030
1000
1002
0000
,
0000
0000
0000
2003
0000
0000
0000
0000
0000
3001
0000
0000
1000
0000
0000
0100
0000
0000
1000
0000
0000
0000
0100
0000
1000
0000
0000
0000
0000
0000
1100
0000
0000
0000
0000
0000
0000
0000
0000
1000
0000
0000
0100
0000
0000
0000
0001
0000
,
0000
0000
0100
0000
0000
0000
0010
0000
0000
0001
0000
0000
2000
0000
0000
0000
0000
0000
0000
0000
0000
0000
0000
0000
3001
0000
1000
0000
0001
0000
1000
0000
0001
0000
1000
0000
0001
0000
0000
0000
0000
0000
0100
0000
0000
0000
0000
0000
,
0001
0010
0100
1000
,
0100
0010
0001
0100
,
0010
1000
0010
0100
,
0001
0010
0001
0010
,
0001
0000
0000
0010
0000
0000
0001
0000
0100
0000
0001
0000
,
0100
0000
0001
0000
0100
0000
0001
0000
0100
0000
0001
0000
,
1000
0000
0100
0000
1000
0000
0100
0000
1000
0000
0100
0000
,
1000
0000
0100
0000
1000
0000
0010
0000
0100
0000
0010
0000
,
0100
0000
0010
0000
0100
0000
0010
0000
0100
0000
0010
0000
,
1000
0010
1000
0000
0010
0100
0010
0000
,
0001
0010
0001
0000
1000
0100
1000
0000
,
0100
0010
0100
0000
0001
0100
0001
0000
,
0010
0100
0010
0000
1000
0010
1000
0000
,
0010
0000
0000
0001
0000
0000
0010
0000
0000
0000
0000
0000
0001
0000
0010
0000
0001
0000
0010
0000
0001
0000
0010
0000
,
0001
0000
0000
0010
0100
0010
0100
0010
0100
0010
0000
0000
,
0100
1000
0100
1000
0100
1000
0100
0000
0000
0010
0100
0010
,
0100
0010
0100
0010
0000
0000
0001
0100
0001
0100
0000
0000
,
0001
0001
0100
0100
0010
0010
1000
0000
,
2002
0000
0000
0000
,
0000
0000
0000
0000
,
0000
0000
0000
0000
,
0000
0000
0000
0000
,
0000
0000
3003
0000
;

//---------------dance-single - ----------------
#NOTEDATA:;
#CHARTNAME:;
#STEPSTYPE:dance-single;
#DESCRIPTION:;
#CHARTSTYLE:;
#DIFFICULTY:Beginner;
#METER:7;
#RADARVALUES:0.189970,0.379587,0.056287,0.084431,0.000000,189.000000,181.000000,8.000000,12.000000,0.000000,0.000000,0.000000,0.000000,0.000000,0.189970,0.379587,0.056287,0.084431,0.000000,189.000000,181.000000,8.000000,12.000000,0.000000,0.000000,0.000000,0.000000,0.000000;
#CREDIT:Karl;
#DISPLAYBPM:85.000000:220.000000;
#NOTES:
0000
0000
0000
0000
,
0000
0000
0000
0000
,
0000
0000
0000
0000
,
0000
0000
0000
0000
,
0000
0000
0000
0000
,
0000
0000
0000
0000
,
0000
0000
0000
0000
,
1000
0000
1000
0000
,
1000
0000
1000
0001
,
0000
0001
0000
0001
,
0000
0001
0010
0010
,
0010
0010
0010
0010
,
0010
0220
0000
0330
,
1000
1000
1000
1000
,
1000
1000
0000
0001
,
0001
0001
0001
0001
,
0001
0000
0100
0100
,
0100
0100
0100
0100
,
0000
0010
0010
0010
,
0010
0010
0010
0000
,
1000
1000
1000
1000
,
1000
1000
0000
0001
,
0001
0001
0001
0001
,
0001
0000
0010
0010
,
0010
0010
0010
0010
,
0000
0100
0100
0100
,
0100
0100
0100
0100
,
1000
0000
1000
0000
0000
1000
1000
1000
,
0000
1000
0000
0000
0001
0001
0001
0000
,
0001
0000
0000
0001
0001
0001
0000
0001
,
0000
0000
0001
0000
0110
0000
0010
0010
,
0000
0010
0010
0010
0000
0010
0010
0000
,
0100
0100
0100
0000
0100
0100
0000
0100
,
0100
0100
0000
0100
0100
0000
0100
0100
,
0002
0000
0000
0003
,
0001
0000
1000
2000
,
0000
0000
3000
1000
,
0000
0100
0200
0000
,
0000
0300
0100
0000
,
0010
0020
0000
0000
,
0030
0010
0000
1000
,
2000
0000
0000
3000
,
1000
0000
0010
0020
,
0000
0000
0030
0010
,
0000
0001
0002
0000
,
0003
0001
0000
0000
,
1000
2000
0000
0000
,
3000
1000
0000
0000
,
2002
0000
0000
0000
,
0000
0000
0000
0000
,
0000
0000
0000
0000
,
0000
0000
0000
0000
,
0000
0000
0000
0000
,
0000
0000
0000
0000
,
0000
0000
0000
3003
,
1001
0000
0000
0000
,
1001
0000
0010
0010
,
0000
0001
0001
0000
,
1000
1000
0000
0100
,
0100
0000
0001
0001
,
0000
0001
0001
0000
,
0010
0010
0000
1000
,
1000
0000
0001
0001
,
0000
0100
0100
0000
,
1000
1000
0000
1000
,
1001
0000
0000
0000
,
0000
0000
0000
0000
,
0000
0000
0000
0000
,
0000
0000
0000
0000
,
0000
0000
1001
0000
,
0000
0000
0000
0000
,
0100
0000
0000
0000
,
0000
0000
0010
0000
,
0000
0000
0000
0000
,
1000
0000
0001
0000
,
1000
0000
0001
0000
,
1000
0000
0001
0000
,
1000
0000
0001
0000
,
1000
0000
0010
0100
,
0010
0100
0010
0100
,
0010
0100
0010
0100
,
0010
0100
0010
0100
,
0010
0100
0010
0100
,
0110
0000
0000
0000
;

//---------------dance-single - XO JA XMOD RH TS JU----------------
#NOTEDATA:;
#CHARTNAME:;
#STEPSTYPE:dance-single;
#DESCRIPTION:XO JA XMOD RH TS JU;
#CHARTSTYLE:;
#DIFFICULTY:Medium;
#METER:13;
#RADARVALUES:0.516637,0.769553,0.098503,0.182934,0.242739,514.000000,500.000000,14.000000,26.000000,0.000000,0.000000,0.000000,0.000000,0.000000,0.516637,0.769553,0.098503,0.182934,0.242739,514.000000,500.000000,14.000000,26.000000,0.000000,0.000000,0.000000,0.000000,0.000000;
#CREDIT:Karl + with + a;
#DISPLAYBPM:85.000000:220.000000;
#NOTES:
0000
0000
0000
0000
,
0000
0000
0000
0000
,
0000
0000
0000
0000
,
0000
0000
0000
0000
,
0000
0000
0000
0000
,
0000
0000
0000
0000
,
0000
0000
0000
0000
,
1001
0000
1000
0010
0000
1000
0001
0000
,
0010
0001
0000
1000
0001
0000
1001
0000
,
0001
0010
0000
0001
1000
0000
0010
1000
,
0000
0001
1000
0000
1001
0000
1000
0010
,
1000
0010
0100
0001
0010
0100
1000
0010
,
0100
0001
2002
0000
0000
0000
3003
0000
,
1001
0000
1000
0010
0100
0010
1000
0010
,
0100
0001
0010
0100
0010
0001
1000
0000
,
0001
0010
0100
0010
0001
0010
0100
1000
,
0010
0100
0010
1000
0001
0000
1000
0100
,
0010
0100
1000
0100
0010
0001
0100
0010
,
0001
0010
0100
0000
0001
0100
0010
0100
,
0001
0100
0001
0010
1000
0010
0001
1000
,
1001
0000
0001
0010
0100
0010
1000
0010
,
0100
0010
0001
0100
1000
0100
0001
1000
,
0001
0100
0010
0100
1000
0100
0010
0100
,
0001
0010
1000
0010
0001
0000
1000
0010
,
0100
0010
0001
0010
0100
0010
1000
0100
,
0001
0100
1000
0001
1000
0100
0010
0100
,
0001
0100
0010
0100
1000
0010
0001
0010
,
2000
0000
0000
0000
3001
0100
0001
0100
0000
0010
1000
0001
0010
0001
0002
0000
,
0000
0000
1003
0100
1000
0100
0000
0010
0001
0010
0010
0001
0002
0000
0000
0000
,
1003
0010
1000
0010
0000
0100
0001
1000
0100
1000
2000
0000
0000
0000
3001
0010
,
0001
0010
0000
0100
1000
0010
0020
0000
2030
0000
0000
0000
3001
0010
0001
0010
,
0000
0100
1000
0001
0100
0001
0002
0000
0000
0000
1003
0010
1000
0010
0000
0100
,
0001
0100
1000
0100
0002
0000
0000
0000
1003
0100
1000
0100
0000
0010
0001
1000
,
0010
0000
0000
1000
0000
0000
2000
0000
0000
0000
0000
0000
0000
0000
0000
0000
0000
0000
3100
0000
0000
0010
0000
0000
1000
0000
0000
0010
0000
0000
0000
0000
0000
0100
0000
0000
1000
0000
0100
0000
0010
0000
0001
0000
0000
0000
0000
0000
,
1000
0010
0100
0010
1000
0010
0100
0010
,
1000
0100
0010
0001
0010
0100
1000
0100
,
0010
0100
1000
0100
0010
0100
1000
0010
,
0100
0001
0010
0010
0001
0100
0010
0100
,
0001
0100
0010
0100
0001
0010
0100
1000
,
0100
0010
0001
0010
0100
0010
0001
0010
,
0100
0010
0001
0100
0010
1000
0010
0010
,
1000
0100
0010
0100
0001
0100
0010
0100
,
1000
0010
0001
0010
1000
0001
1000
0010
,
0100
0010
0001
0010
0100
0010
1000
0100
,
0001
0000
0000
0100
0000
0000
1000
0000
0000
0001
0000
0000
1000
0000
0000
0000
1000
0000
0010
0000
0000
0000
0010
0000
,
1000
0000
0000
0001
0000
0001
0010
0000
0010
0001
0000
0001
,
0010
0000
0010
0001
0000
0001
0100
0000
0100
1000
0000
1000
,
0001
0000
0001
0010
0000
0010
1000
0000
1000
0001
0000
0000
,
1002
1000
1000
1000
,
1000
1000
1000
1000
,
1000
1000
1000
1000
,
1000
1000
1000
1003
,
2000
3020
0230
0302
,
2003
3200
0320
0032
,
0013
0100
0010
0100
1000
0001
0100
0010
,
0110
0000
0000
0000
,
1002
0000
0000
0100
0103
0010
0100
0100
,
0000
0001
0010
0100
0010
0100
0110
0000
,
0001
0000
1000
0000
2001
0000
0000
0000
0000
0100
0000
0000
3100
0000
0010
0000
,
0100
0000
0000
0100
0000
0000
0000
0000
0000
1000
0000
0010
0000
1000
0000
0010
0000
0000
0100
0000
0000
0001
0000
0000
,
1001
0000
0000
0000
0000
0000
0000
0000
0000
0000
0000
0000
0010
0000
0000
0000
0100
0000
0000
0000
1000
0000
0000
0000
0002
0000
0000
0000
0000
0000
0000
0000
0000
0000
0000
0000
0000
0000
0000
1000
0000
0000
0000
0000
0000
0000
0000
0000
,
1003
0000
0000
0100
0000
0000
1000
0000
0000
0000
0000
0000
0001
0000
0000
0000
0000
0000
0100
0000
0000
0000
0000
0000
0000
0000
0000
0001
0000
0000
0010
0000
0000
0000
0100
0000
0000
0000
0010
0000
0000
0000
0100
0000
0000
1000
0000
0000
,
0001
0000
0100
0000
0110
0000
0000
0000
0001
1000
0001
0000
2000
0000
0000
0000
,
0000
0000
0000
0001
0000
0000
0000
0000
0000
0000
0000
0000
3001
0000
0000
0100
0000
0000
0001
0000
0000
0000
0000
0000
1000
0000
0000
0000
0000
0000
0100
0000
0000
0000
0000
0000
0000
0000
0000
1000
0000
0000
0010
0000
0000
0000
0100
0000
,
0000
0000
0010
0000
0000
0000
0100
0000
0000
0001
0000
0000
0010
0000
0000
0000
0000
0000
0000
0000
0000
0000
0000
0000
1000
0000
0000
0000
0000
0000
1000
0000
0000
0000
0000
0000
1000
0000
0000
0000
0000
0000
0010
0000
0000
0000
0000
0000
,
0001
0010
0001
0010
,
0001
0010
0001
1000
,
0001
1000
0001
1000
,
0010
1000
0010
1000
,
0010
1000
0001
0100
,
0001
0100
0001
0100
,
0001
1000
0001
1000
,
0001
1000
0100
1000
,
0100
1000
0100
1000
,
0001
0001
0010
0010
,
0100
0100
1000
1000
,
0010
0010
0100
0100
,
0001
0010
0100
0010
,
0001
0100
0010
0001
,
0010
1000
0100
0001
,
0100
1000
0010
0001
,
0010
1000
0100
0001
,
1000
0010
0001
0100
,
0220
0000
0000
0000
,
0000
0000
0000
0000
,
0000
0000
0000
0000
,
0000
0000
0000
0000
,
0000
0000
0330
0000
;

//---------------dance-single - ----------------
#NOTEDATA:;
#CHARTNAME:;
#STEPSTYPE:dance-single;
#DESCRIPTION:;
#CHARTSTYLE:;
#DIFFICULTY:Easy;
#METER:10;
#RADARVALUES:0.313601,0.554078,0.063323,0.091467,0.017590,312.000000,303.000000,9.000000,13.000000,0.000000,0.000000,0.000000,0.000000,0.000000,0.313601,0.554078,0.063323,0.091467,0.017590,312.000000,303.000000,9.000000,13.000000,0.000000,0.000000,0.000000,0.000000,0.000000;
#CREDIT:Karl + with;
#DISPLAYBPM:85.000000:220.000000;
#NOTES:
0000
0000
0000
0000
,
0000
0000
0000
0000
,
0000
0000
0000
0000
,
0000
0000
0000
0000
,
0000
0000
0000
0000
,
0000
0000
0000
0000
,
0000
0000
0000
0000
,
1000
0100
0010
0001
,
0010
0100
1000
0001
,
0100
0010
1000
0010
,
0100
0001
1000
0010
,
0001
1000
0100
0001
,
1000
2002
0000
3003
,
1000
0100
0100
0010
,
0010
0000
0001
0000
0001
1000
0001
0000
,
0100
0100
0010
0010
,
1000
0000
1000
0001
1000
0000
0010
0000
,
0010
0100
0100
0001
,
0001
1000
0001
0000
0010
0000
0010
0000
,
0100
0000
0100
0000
1000
0000
1000
0001
,
0010
0001
0001
0100
,
0100
0000
0010
0000
0010
0100
0010
0000
,
1000
1000
0100
0100
,
0010
0000
0100
0010
0100
0000
1000
0000
,
1000
0010
0010
0100
,
0100
0010
0100
0000
0001
0000
0001
0000
,
0010
0000
0100
0000
1000
0001
1000
0001
,
1000
0000
0100
0100
0000
0100
1000
0010
,
0000
0100
0100
0000
0100
0001
0010
0000
,
0010
0010
0000
0010
0001
0100
0000
0010
,
0010
0000
1000
0001
1000
0001
0100
0001
,
1000
0100
1000
0010
1000
0100
1000
0001
,
0100
0001
0010
0001
0010
0010
0001
0010
,
0001
0100
0001
0010
0001
1000
0001
1000
,
1001
0001
0100
0001
,
0100
0001
0010
0001
,
1000
0100
1000
0100
,
1000
0000
0010
1000
0010
0000
0100
0000
,
0010
0100
0001
0001
,
0100
0001
0100
0010
,
0100
0000
0010
0000
1000
0000
1000
0100
,
0010
1000
0010
0100
,
0010
0000
0001
0000
0001
0100
0010
0000
,
0001
0010
0100
0010
,
1000
0100
0002
2003
,
3020
0032
0203
2300
,
3002
0013
0010
0010
,
0100
0100
0100
0010
,
0220
0000
0000
0000
,
0000
0000
0000
0000
,
0000
0000
0000
0000
,
0000
0000
0000
0330
,
1000
0000
0100
0000
,
0010
0000
0001
0000
,
0100
0100
0010
0010
,
1001
0000
0000
0000
,
1001
0000
0000
1000
1000
0000
0100
0100
,
0000
0001
0001
0000
0100
0100
0100
0000
,
1000
0000
1001
0000
0000
0001
0001
0000
,
0100
0000
0000
0100
0000
0000
0000
0000
0000
1000
0000
0000
0000
1000
0000
0000
0000
0000
0100
0000
0000
0100
0000
0000
,
0100
0000
0001
0000
1001
0000
0000
1000
,
1000
0000
0000
0000
0000
0000
0000
0000
0000
0000
0000
0000
0010
0000
0000
0000
0000
0000
0010
0000
0000
0000
0000
0000
0000
0000
0000
0001
0000
0000
0000
0000
0000
0000
0000
0000
0000
0000
0001
0000
0000
0000
0000
0000
0000
0000
0000
0000
,
0010
0010
0010
0000
1000
0000
1001
0000
,
0000
0000
0001
0000
0001
0000
0000
0000
0010
0000
0010
0000
0000
1000
0000
0000
,
0000
1000
0000
0000
0000
0000
0010
0000
0000
0000
0000
0000
0001
0000
0000
1000
0000
0000
0001
0000
0000
1000
0000
0000
,
0001
0000
1000
0000
,
1000
0000
0100
0000
,
0100
0000
0100
0000
,
0001
0000
0001
0000
,
0001
0000
1000
0000
,
1000
0000
1000
0000
,
0010
0000
0010
0000
,
0010
0000
0001
0000
,
0001
0000
0001
0000
,
1000
0100
1000
0100
,
1000
0100
0010
0100
,
0010
0100
0010
0100
,
0001
0100
0001
0100
,
0001
0100
0001
1000
,
0010
1000
0010
1000
,
0010
0100
0010
0100
,
0010
0100
0010
0001
,
0010
0001
0010
0000
,
2002
0000
0000
0000
,
0000
0000
0000
0000
,
0000
0000
0000
0000
,
0000
0000
0000
0000
,
0000
0000
3003
0000
;

//---------------dance-double - ----------------
#NOTEDATA:;
#CHARTNAME:;
#STEPSTYPE:dance-double;
#DESCRIPTION:;
#CHARTSTYLE:;
#DIFFICULTY:Challenge;
#METER:18;
#RADARVALUES:0.794053,1.046592,0.182934,0.225149,1.111674,790.000000,764.000000,26.000000,32.000000,0.000000,0.000000,0.000000,0.000000,0.000000,0.794053,1.046592,0.182934,0.225149,1.111674,790.000000,764.000000,26.000000,32.000000,0.000000,0.000000,0.000000,0.000000,0.000000;
#CREDIT:Karl with a K;
#NOTES:
00000000
00000000
00000000
00000000
,
00000000
00000000
00000000
00000000
,
00000000
00000000
00000000
00000000
,
00000000
00000000
00000000
00000000
,
00000000
00000000
00000000
00000000
,
00000000
00000000
00000000
00000000
,
00000000
00000000
00000000
00000000
,
10010000
00000000
00010000
00100000
00010000
00100000
00001000
00010000
,
00001000
00010000
00000010
00001000
00000001
00000000
00001001
00000000
,
00001000
00000010
00001000
00000010
00010000
00001000
00010000
00001000
,
00100000
00010000
10000000
00000000
10010000
00000000
10000000
10000000
,
01000000
00000000
01000000
00000000
00100000
00000000
00100000
00000000
00001000
00000000
00010000
00000000
00001000
00010000
00001000
00010000
,
00001000
00010000
00001000
00010000
00000200
00000000
00000000
00000000
00000000
00000000
00000000
00000000
00000300
00000000
00000000
00000000
,
00001002
00000000
00000000
00000000
00001003
00000010
00001000
00000010
00000100
00000010
00000100
00000010
00001000
00000010
00001000
00000010
,
00010000
00000010
00010000
00000010
00010000
00000000
00001000
00000000
01000000
00000000
00010000
00000000
20010000
00000000
00000000
00000000
,
30010000
00100000
00010000
00100000
01000000
00100000
01000000
00100000
00010000
00100000
00010000
00100000
00001000
00100000
00001000
00100000
,
00001000
00000000
00010000
00000000
00000100
00000000
00001000
00000000
00001002
00000000
00000000
00000000
00001003
00000100
00001000
00000100
,
00000010
00000100
00000010
00000100
00001000
00000100
00001000
00000100
00010000
00000100
00010000
00000100
00010000
00000000
00001000
00000000
,
00100000
00000000
00010000
00000000
20010000
00000000
00000000
00000000
30010000
01000000
00010000
01000000
00100000
01000000
00100000
01000000
,
00010000
01000000
00010000
01000000
00001000
01000000
00001000
01000000
00001000
00000000
00010000
00000000
00001000
00000000
00000010
00000000
,
00000110
00000000
00000000
00000000
00000001
00000010
00000001
00000010
00000100
00001000
00000100
00001000
00000001
00001000
00000001
00001000
,
00000001
00000100
00000001
00000100
00000001
00001000
00000001
00000000
00000010
00000000
00001000
00000000
00010000
00001000
00010000
00001000
,
00100000
00010000
00100000
00010000
10000000
00100000
10000000
00100000
01000000
00010000
01000000
00010000
10000000
01000000
10000000
01000000
,
00100000
00001000
00100000
00000000
00001000
00000000
01000000
00000000
00100000
00000000
00000000
00000000
10000000
00100000
10000000
00100000
,
01000000
00010000
01000000
00010000
10000000
00010000
10000000
00010000
10000000
01000000
10000000
01000000
10000000
00010000
10000000
00000000
,
00100000
00000000
00010000
00000000
00001000
00010000
00001000
00010000
00000010
00001000
00000010
00001000
00000001
00000010
00000001
00000010
,
00000100
00001000
00000100
00001000
00000001
00000100
00000001
00000100
00000010
00010000
00000010
00000000
00010000
00000000
00001000
00000000
,
00011000
00000000
00000000
00000000
00000000
00000000
00010000
01000000
00100000
00000000
00010000
00000000
01000000
00000000
00100000
00000000
00000000
00000000
10000000
00000000
01000000
00000000
10000000
00000000
01000000
00000000
00010000
00000000
00011000
00000000
00000000
00000000
,
00000000
00000000
00001000
00000100
00000010
00000000
00001000
00000000
00000100
00000000
00000010
00000000
00000000
00000000
00000001
00000000
00000100
00000000
00000001
00000000
00000100
00000010
00010000
00000000
00011000
00000000
00000000
00000000
00000000
00000000
00010000
00100000
,
01000000
00000000
00010000
00000000
00100000
00000000
01000000
00000000
00000000
00000000
10000000
00000000
00100000
00000000
10000000
00000000
00100000
00000000
00010000
00000000
00011000
00000000
00000000
00000000
00000000
00000000
00001000
00000010
00000100
00000000
00001000
00000000
,
00000010
00000000
00000100
00000000
00000000
00000000
00000001
00000000
00000010
00000000
00000100
00000000
00010000
00000000
00000000
00000000
00001001
00000000
00000000
00000000
00000000
00000000
00001000
00000100
00000010
00000000
00001000
00000000
00000010
00000000
00000100
00000000
,
00000000
00000000
00000010
00000000
00000100
00000000
00000010
00000000
00001000
00000000
00010000
00000000
00011000
00000000
00000000
00000000
00000000
00000000
00010000
00100000
01000000
00000000
00010000
00000000
00100000
00000000
01000000
00000000
00000000
00000000
10000000
00000000
,
00100000
00000000
10000000
00000000
00100000
01000000
00010000
00000000
10010000
00000000
00000000
00000000
00000000
00000000
00010000
00100000
01000000
00000000
00010000
00000000
01000000
00000000
00100000
00000000
00000000
00000000
01000000
00000000
00100000
00000000
01000000
00000000
,
00010000
00000000
00000000
00000000
00000000
00000000
00000000
00000000
00000000
00000000
00000000
00000000
00001000
00000000
00000000
00000000
00000000
00000000
00000000
00000000
00000000
00000000
00000000
00000000
00011000
00000000
00000000
00000000
00000000
00000000
00000000
00000000
00000000
00000000
00000000
00000000
00000000
00000000
00000000
00000000
00000000
00000000
00000000
00000000
00000000
00000000
00000000
00000000
00000000
00000000
00000000
00000000
00000000
00000000
00000000
00000000
00000000
00000000
00000000
00000000
00001000
00000000
00000000
00000000
00000000
00000000
00000100
00000000
00000000
00000000
00000000
00000000
00000010
00000000
00000000
00000000
00000000
00000000
00000000
00000000
00000000
00000000
00000000
00000000
00001000
00000000
00000000
00000000
00000000
00000000
00000000
00000000
00000000
00000000
00000000
00000000
00000100
00000000
00000000
00000000
00000000
00000000
00000000
00000000
00000000
00000000
00000000
00000000
00000010
00000000
00000000
00000000
00000000
00000000
00000000
00000000
00000000
00000000
00000000
00000000
00000000
00000000
00000000
00000000
00000000
00000000
00000000
00000000
00000000
00000000
00000000
00000000
00000001
00000000
00000000
00000000
00000000
00000000
00000000
00000000
00000000
00000000
00000000
00000000
00000100
00000000
00000000
00000000
00000000
00000000
00000000
00000000
00000010
00000000
00000000
00000000
00000000
00000000
00000000
00000000
00010000
00000000
00000000
00000000
00000000
00000000
00000000
00000000
00001000
00000000
00000000
00000000
00000000
00000000
00000000
00000000
00100000
00000000
00000000
00000000
00000000
00000000
00000000
00000000
00010000
00000000
00000000
00000000
00000000
00000000
00000000
00000000
,
10000000
00000000
00000000
00000000
00010000
01000000
00010000
01000000
00100000
10000000
00100000
10000000
00010000
00100000
00010000
00100000
,
02000000
00000000
00000000
00000000
03100000
00001000
00100000
00001000
00020000
00000000
00031000
00000000
00000200
00000000
00000000
00000000
,
00000310
00000100
00000010
00000100
00000010
00001000
00000010
00001000
00000001
00000010
00000001
00000010
00000200
00000000
00000000
00000000
,
00010300
00001000
00010000
00001000
00200000
00000000
00310000
00000000
20000000
00000000
00000000
00000000
30010000
00100000
00010000
00100000
,
01000000
10000000
01000000
10000000
00010000
01000000
00010000
01000000
00200000
00000000
00000000
00000000
01300000
00001000
01000000
00001000
,
00020000
00000000
00031000
00000000
00000020
00000000
00000000
00000000
00000130
00000010
00000100
00000010
00000100
00001000
00000100
00001000
,
00000001
00000100
00000001
00000100
00000020
00000000
00000000
00000000
00010030
00001000
00010000
00001000
02000000
00000000
03010000
00000000
,
10010000
00000000
00000000
00000000
10000000
01000000
10000000
01000000
00100000
01000000
00100000
01000000
00100000
00010000
00100000
00010000
,
20000000
00000000
30100000
01000000
00010000
01000000
00010000
01000000
00200000
00000000
01300000
00100000
00020000
00000000
00000000
00000000
,
00031000
00100000
00001000
00100000
00000100
00010000
00000100
00010000
00000100
00000010
00000100
00000010
00002000
00000000
00003010
00000100
,
00000010
00000000
00000000
00000100
00000000
00000000
00000010
00000000
00000000
00000100
00000000
00000000
00002000
00000000
00000000
00000000
00000000
00000000
00003001
00000000
00000000
00000000
00000000
00000000
00001000
00000000
00000000
00000000
00000100
00000000
00000000
00000000
00010000
00000000
00000000
00000000
00001000
00000000
00000000
00000000
00100000
00000000
00000000
00000000
00010000
00000000
00000000
00000000
,
10000000
00010000
01000000
00001000
00010000
00000010
00001000
00000001
00000100
00000010
00010000
00001000
,
01000000
00100000
10000000
01000000
00100000
01000000
10000000
01000000
10000000
01000000
00100000
01000000
,
00010000
01000000
00010000
00001000
00010000
00001000
00000100
00000010
00001000
00000100
00000010
00000001
,
00002001
00000100
00000001
00000100
,
00000001
00000010
00000001
00000010
,
00010000
00000010
00010000
00000010
,
00000001
00000100
00010000
00000100
,
00003001
00000001
00000100
00000100
00000010
00000010
00010000
00010000
,
00001000
00001000
00100000
00100000
01000000
01000000
10000000
10000000
,
00010000
00100000
00010000
00100000
00001000
00010000
00001000
00010000
00000010
00001000
00000010
00001000
00000100
00001000
00000001
00000100
,
00001000
00000000
00000000
00000000
,
20020000
00000000
00000000
00000000
30000000
00000000
00130000
01000000
00010000
00000000
00001000
00010000
00000010
00000000
00000100
00000000
,
00000000
00000000
00000001
00000000
00000010
00000000
00000100
00000000
00010000
01000000
10000000
00100000
00020000
00000000
00000000
00000000
,
00130000
00000000
00000000
00000000
00000000
00000000
01100000
00000000
00000000
00000000
00000000
00000000
10020000
00000000
00000000
00000000
00000000
00000000
00000000
00000000
00000000
00000000
00000000
00000000
00000000
00000000
00000000
10030000
00000000
00000000
00100000
00000000
00000000
01000000
00000000
00000000
10000000
00000000
00000000
00000000
00000000
00000000
01000000
00000000
00100000
00000000
01000000
00000000
,
00100000
00000000
00000000
00000000
00000000
00000000
01000000
00000000
00000000
00000000
00000000
00000000
00000000
00000000
00000000
00000000
00000000
00000000
00001000
00000000
00000000
00000000
00010000
00000000
00000000
00000000
00000100
00000000
00000000
00000000
00000010
00000000
00000000
00000000
00000000
00000000
00000001
00000000
00000000
00000100
00000000
00000000
00000001
00000000
00001000
00000000
00000001
00000000
,
00000010
00000000
00000000
00000000
00000000
00000000
00000000
00000000
00000000
00000000
00000000
00000000
00001000
00000000
00000000
00000000
00100000
00000000
00000000
00000000
00010000
00000000
00000000
00000000
20000000
00000000
00000000
00000000
00000000
00000000
00000000
00000000
00000000
00000000
00000000
00000000
00000000
00000000
00000000
30010000
00000000
00100000
00000000
00010000
00000000
00100000
00000000
00000000
,
00001000
00000000
00000000
00010000
00000000
00000000
00000100
00000000
00001000
00000000
00000100
00000000
00000010
00000000
00000000
00000000
00000000
00000000
00000110
00000000
00000000
00000000
00000000
00000000
00000000
00000000
00000000
00000001
00000000
00000000
00000100
00000000
00000000
00000000
00000010
00000000
00000000
00000000
00000001
00000000
00000000
00000000
00000010
00000000
00000000
00010000
00000000
00000000
,
00001000
00000000
00000000
00100000
00000000
00000000
01000000
00000000
10000000
00000000
01000000
00000000
20000000
00000000
00000000
00000000
00000000
00000000
00000000
00000000
00000000
00000000
00000000
00000000
30010000
00000000
00000000
01000000
00000000
00000000
00100000
00000000
00000000
00000000
00000000
00000000
20100000
00000000
00000000
00000000
00000000
00000000
00000000
00000000
00000000
00000000
00000000
00000000
,
00000000
00000000
00000000
30100000
00000000
01000000
00000000
00100000
00000000
01000000
00000000
00000000
00001000
00000000
00000000
00010000
00000000
00000000
00000010
00000000
00001000
00000000
00000010
00000000
00000100
00000000
00000000
00000000
00000000
00000000
00000110
00000000
00000000
00000000
00000000
00000000
00000000
00000000
00000000
00000001
00000000
00000000
00000010
00000000
00000000
00000000
00000100
00000000
,
00000000
00000000
00000001
00000000
00000000
00000000
00000100
00000000
00000000
00010000
00000000
00000000
00002000
00000000
00000000
00000000
00000000
00000000
00000000
00000000
00000000
00000000
00000000
00000000
00103000
00000000
01000000
00000000
00100000
00000000
01000000
00000000
00100000
00000000
01000000
00000000
00100000
00000000
00000000
00000000
00000000
00000000
00010000
00000000
00000000
00000000
00000000
00000000
,
10010000
10000000
01000000
00100000
,
00010000
01000000
00100000
10000000
,
00010000
00100000
00001000
00010000
,
00000100
00001000
00000010
00000100
,
00000001
00000000
00000000
00000010
00000000
00000000
00000001
00000000
00000100
00000000
00000001
00000000
,
00000100
00000000
00000010
00000000
00000100
00000000
00000010
00000000
00010000
00000000
00001000
00000000
,
01000000
00000000
00010000
00000000
01000000
00000000
00010000
00000000
10000000
00000000
01000000
00000000
,
10000000
00000000
00010000
00000000
10000000
00000000
00010000
00000000
00100000
00000000
00010000
00000000
,
10000000
00000000
00100000
00000000
10000000
00000000
00010000
00000000
01000000
00000000
00001000
00000000
,
00100000
00001000
00100000
00001000
00010000
00001000
00010000
00001000
,
00010000
00000100
00010000
00000100
00000010
00000100
00000010
00000100
,
00000010
00000001
00000010
00000001
00000100
00000010
00000100
00000010
,
00010000
00001000
00010000
00001000
01000000
00100000
10000000
01000000
,
00100000
00000000
00000000
00010000
00000000
00000000
01000000
00000000
00000000
00100000
00000000
00000000
10000000
00000000
00100000
00000000
01000000
00000000
00100000
00000000
10000000
00000000
00010000
00000000
,
00100000
01000000
00100000
00001000
00010000
00001000
00010000
00000100
00000010
00000001
00001000
00000010
,
00000100
00000010
00010000
00001000
00100000
01000000
00100000
00010000
10000000
00100000
01000000
00001000
,
00010000
00000100
00000010
00000001
00001000
00000010
00010000
00001000
01000000
00100000
10000000
00010000
,
10000000
00010000
01000000
00000000
00001000
00010000
00000100
00000000
00001000
00000001
00001000
00000000
00000010
00000000
00000000
00000000
,
00022000
00000000
00000000
00000000
,
00000000
00000000
00000000
00000000
,
00000000
00000000
00000000
00000000
,
00000000
00000000
00000000
00000000
,
00000000
00000000
00033000
00000000
;

//---------------dance-double - ----------------
#NOTEDATA:;
#CHARTNAME:;
#STEPSTYPE:dance-double;
#DESCRIPTION:;
#CHARTSTYLE:;
#DIFFICULTY:Hard;
#METER:15;
#RADARVALUES:0.576945,0.923463,0.105539,0.189970,0.436226,574.000000,559.000000,15.000000,27.000000,0.000000,0.000000,0.000000,0.000000,0.000000,0.576945,0.923463,0.105539,0.189970,0.436226,574.000000,559.000000,15.000000,27.000000,0.000000,0.000000,0.000000,0.000000,0.000000;
#CREDIT:Karl with a K;
#NOTES:
00000000
00000000
00000000
00000000
,
00000000
00000000
00000000
00000000
,
00000000
00000000
00000000
00000000
,
00000000
00000000
00000000
00000000
,
00000000
00000000
00000000
00000000
,
00000000
00000000
00000000
00000000
,
00000000
00000000
00000000
00000000
,
11000000
00000000
01000000
00020000
00000000
01030000
20000000
00000000
,
31000000
00020000
00000000
00031000
00000100
00000000
00000101
00000000
,
00000100
00002000
00000000
00003100
00000002
00000000
00000103
00002000
,
00000000
00013000
01000000
00000000
11000000
00000000
00010000
00100000
,
00001000
00000000
00100000
00000000
00001000
00000000
00010000
00000000
00000010
00000000
00001000
00000000
00000001
00001000
00000001
00000000
,
00000010
00000100
00000010
00000000
00000110
00000000
00000000
00000000
00000000
00000000
00000000
00000000
00000000
00000000
00000000
00000000
,
10020000
00000000
00000000
00000000
10030000
01000000
10000000
00000000
01000000
00000000
00100000
00000000
00010000
00000000
01000000
00000000
,
00001000
00010000
00000100
00001000
00000010
00000000
00002001
00000000
,
00003001
00000100
00000001
00000000
00000100
00000000
00000010
00000000
00001000
00000000
00000100
00000000
00010000
00000000
00001000
00000000
,
01000000
00000000
00010000
00000000
00100000
00000000
00000000
00000000
10020000
00000000
00000000
00000000
10030000
00100000
10000000
00000000
,
00100000
01000000
00010000
00100000
00001000
00010000
00000010
00001000
,
00000100
00000000
00000000
00000000
00002001
00000000
00000000
00000000
00003001
00000010
00000001
00000000
00000010
00000000
00000100
00000000
,
00001000
00000100
00010000
00001000
01000000
00010000
00100000
01000000
,
10010000
00000000
00010000
10000000
00100000
01000000
00010000
00100000
,
01000000
00100000
00001000
00010000
00000010
00001000
00000001
00000000
,
00001000
00000001
00000010
00000100
00001000
00000010
00000100
00000010
,
00010000
00001000
00100000
00010000
10000000
00000000
00010000
10000000
,
01000000
00100000
00010000
01000000
00100000
01000000
00001000
00010000
,
00000100
00001000
00000001
00000000
00001000
00000001
00000100
00000010
,
00001000
00000100
00000010
00000100
00010000
00001000
01000000
00010000
,
10000000
00000000
00000000
01000000
01000000
00000000
00100000
00001000
00000000
00010000
00001000
00010000
00000010
00001000
00000001
00000000
,
00000000
00000100
00000100
00000000
00000010
00010000
00000000
00001000
00010000
00001000
00100000
00010000
10000000
00000000
00000000
00100000
,
00100000
00000000
01000000
00001000
00000000
00010000
00001000
00010000
00000100
00001000
00000001
00000000
00000000
00000010
00000010
00000000
,
00000100
00000000
00010000
00000000
00000000
00000000
00001000
00000000
00010000
00000000
00100000
00000000
10000000
00000000
00000000
00000000
20000000
00000000
00000000
00000000
00000000
00000000
30010000
01000000
00010000
00000000
00100000
00000000
00001000
00000000
00100000
00000000
,
00000000
00000000
00100000
00000000
00001000
00000000
00010000
00000000
00000100
00000000
00000010
00000000
00000002
00000000
00000000
00000000
00000000
00000000
00001003
00000100
00001000
00000000
00000010
00000000
00010000
00000000
00000010
00000000
00000000
00000000
00000010
00000000
,
00010000
00000000
00001000
00000000
01000000
00000000
00100000
00000000
20000000
00000000
00000000
00000000
00000000
00000000
30010000
00100000
00010000
00000000
01000000
00000000
00001000
00000000
01000000
00000000
00000000
00000000
01000000
00000000
00001000
00000000
00010000
00000000
,
00000010
00000000
00000000
00000000
00000000
00000000
00000000
00000000
00000000
00000000
00000000
00000000
00000100
00000000
00000000
00000000
00000000
00000000
00000000
00000000
00000000
00000000
00000000
00000000
00000002
00000000
00000000
00000000
00000000
00000000
00000000
00000000
00000000
00000000
00000000
00000000
00000000
00000000
00000000
00000000
00000000
00000000
00000000
00000000
00000000
00000000
00000000
00000000
00000000
00000000
00000000
00000000
00000000
00000000
00000000
00000000
00000000
00000000
00000000
00000000
00001003
00000000
00000000
00000000
00000000
00000000
00000010
00000000
00000000
00000000
00000000
00000000
00001000
00000000
00000000
00000000
00000000
00000000
00000000
00000000
00000000
00000000
00000000
00000000
00000100
00000000
00000000
00000000
00000000
00000000
00000000
00000000
00000000
00000000
00000000
00000000
00010000
00000000
00000000
00000000
00000000
00000000
00000000
00000000
00000000
00000000
00000000
00000000
00000100
00000000
00000000
00000000
00000000
00000000
00000000
00000000
00000000
00000000
00000000
00000000
00000000
00000000
00000000
00000000
00000000
00000000
00000000
00000000
00000000
00000000
00000000
00000000
00000100
00000000
00000000
00000000
00000000
00000000
00000000
00000000
00000000
00000000
00000000
00000000
00010000
00000000
00000000
00000000
00000000
00000000
00000000
00000000
00001000
00000000
00000000
00000000
00000000
00000000
00000000
00000000
00010000
00000000
00000000
00000000
00000000
00000000
00000000
00000000
00001000
00000000
00000000
00000000
00000000
00000000
00000000
00000000
00000000
00000000
00000000
00000000
00000000
00000000
00000000
00000000
00000000
00000000
00000000
00000000
00000000
00000000
00000000
00000000
,
01000000
00010000
01000000
00100000
10000000
00100000
01000000
00001000
,
00010000
00000100
00000010
00000001
00001000
00001000
00000100
00001000
,
00000100
00000010
00000001
00000010
00000100
00010000
00001000
01000000
,
00100000
10000000
00010000
00010000
00100000
00010000
00100000
01000000
,
10000000
01000000
00100000
00001000
00010000
00000010
00000100
00000001
,
00001000
00001000
00000010
00001000
00000010
00000100
00000001
00000100
,
00000010
00010000
00001000
00100000
01000000
10000000
00010000
00010000
,
00100000
00000000
10000000
00100000
00010000
01000000
10000000
01000000
,
00100000
00010000
00001000
00010000
00000100
00001000
00000010
00000000
,
00000001
00000010
00001000
00000100
00000001
00000100
00000010
00001000
,
00010000
00000000
00000000
00001000
00000000
00000000
01000000
00000000
00000000
00010000
00000000
00000000
00100000
00000000
00000000
00000000
00100000
00000000
01000000
00000000
00000000
00000000
01000000
00000000
,
10000000
00000000
10000000
00100000
00000000
00100000
00010000
00000000
00010000
00001000
00000000
00001000
,
00000010
00000000
00000010
00000001
00000010
00000001
00000010
00000000
00000000
00000100
00001000
00000100
,
00001000
00000000
00000000
00010000
00100000
00010000
01000000
00100000
01000000
00010000
01000000
00100000
,
20000000
00010000
00100000
00010000
,
00100000
00010000
00100000
00010000
,
01000000
00010000
01000000
00010000
,
01000000
00010000
01000000
00010000
,
31000000
00100000
00010000
00001000
00000100
00000010
00000001
00000100
,
00000010
00001000
00010000
01000000
00100000
10000000
01000000
00100000
,
00010000
00010000
00001000
00001000
00000010
00000010
00000100
00000100
,
00001001
00000000
00000000
00000000
,
21000000
00000000
00000000
00000000
00000000
00000000
30010000
01000000
00010000
00000000
00100000
00010000
00001000
00000000
00000100
00000000
,
00000000
00000100
00000010
00000001
00001000
00000010
00020000
00000000
,
00031000
00000000
00000000
00000000
00000000
00000000
01000000
00000000
00000000
00000000
00000000
00000000
01020000
00000000
00000000
00000000
00000000
00000000
00000000
00000000
00000000
00000000
00000000
00000000
00000000
00000000
00000000
10030000
00000000
00000000
01000000
00000000
00000000
10000000
00000000
00000000
00010000
00000000
00000000
00000000
00000000
00000000
01000000
00000000
00010000
00000000
01000000
00000000
,
00010000
00000000
00000000
00000000
00000000
00000000
00001000
00000000
00000000
00000000
00000000
00000000
00000000
00000000
00000000
00000000
00000000
00000000
00000100
00000000
00000000
00000000
00000010
00000000
00000000
00000000
00000001
00000000
00000000
00000000
00000100
00000000
00000000
00000000
00000000
00000000
00001000
00000000
00000000
00010000
00000000
00000000
00001000
00000000
00010000
00000000
00001000
00000000
,
00200000
00000000
00000000
00000000
00000000
00000000
00000000
00000000
00000000
00000000
00000000
00000000
00310000
00000000
00000000
00000000
01000000
00000000
00000000
00000000
00100000
00000000
00000000
00000000
01200000
00000000
00000000
00000000
00000000
00000000
00000000
00000000
00000000
00000000
00000000
00000000
00000000
00000000
00000000
20000000
00300000
00000000
00000000
00000000
00000000
00000000
00000000
00000000
,
31000000
00000000
00000000
00010000
00000000
00000000
00001000
00000000
00000000
00000100
00000000
00000000
00000000
00000000
00000010
00001000
00000000
00000100
00000000
00000001
00000000
00001000
00000000
00000000
,
00000010
00000100
00020000
00000000
00031000
00100000
10020000
00000000
,
00000000
00000000
00000000
20030000
00000000
00000000
00000000
00000000
00000000
30010000
00000000
00000000
10000000
00000000
00000000
00100000
00000000
00000000
00010000
00000000
00000000
00000000
00000000
00000000
00001000
00000000
00000000
00000000
00000000
00000000
00000100
00000000
00000000
00000000
00000000
00000000
00000000
00000000
00000000
00000001
00000000
00000000
00001000
00000000
00000000
00000000
00000010
00000000
,
00000000
00000000
00001000
00000000
00000000
00000000
00010000
00000000
00000000
01000000
00000000
00000000
00200000
00000000
00000000
00000000
00000000
00000000
00000000
00000000
00000000
00000000
00000000
00000000
10300000
00000000
00010000
00000000
10000000
00000000
00010000
00000000
00000000
00000000
00000000
00000000
10000000
00000000
00000000
00000000
00000000
00000000
00000000
00000000
00000000
00000000
00000000
00000000
,
00010000
01000000
00100000
10000000
,
00100000
01000000
00001000
00010000
,
00000100
00010000
00001000
00100000
,
00001000
00010000
00000010
00000100
,
00000001
00000000
00000000
00000010
00000000
00000000
00000001
00000000
00000100
00000000
00000010
00000000
,
00001000
00000000
00000010
00000000
00000100
00000000
00000001
00000000
00000010
00000000
00000100
00000000
,
00010000
00000000
00001000
00000000
00010000
00000000
00001000
00000000
00100000
00000000
01000000
00000000
,
10000000
00000000
01000000
00000000
10000000
00000000
00100000
00000000
01000000
00000000
00010000
00000000
,
01000000
00000000
00100000
00000000
10000000
00000000
00100000
00000000
01000000
00000000
00010000
00000000
,
10000000
01000000
10000000
00000000
01000000
00100000
01000000
00000000
,
00010000
00001000
00010000
00000000
00001000
00010000
00001000
00000000
,
00000100
00000010
00000100
00000000
00000001
00000100
00000001
00000000
,
00000100
00000010
00000100
00000000
00001000
00010000
00001000
00000000
,
00100000
00000000
00000000
01000000
00000000
00000000
00100000
00000000
00000000
00000000
00000000
00000000
00010000
00000000
00100000
00000000
00010000
00000000
00100000
00000000
00000000
00000000
00000000
00000000
,
00010000
00000000
00000000
01000000
00100000
01000000
00100000
00000000
00000000
01000000
00000000
00000000
,
00001000
00010000
00001000
00010000
00000000
00000000
00001000
00000000
00000000
00010000
00000100
00010000
,
00000100
00000000
00000000
00000010
00000000
00000000
00000001
00001000
00000001
00001000
00000000
00000000
,
00000001
00000100
00001000
00010000
00001000
00100000
00001000
00000000
,
00022000
00000000
00000000
00000000
,
00000000
00000000
00000000
00000000
,
00000000
00000000
00000000
00000000
,
00000000
00000000
00000000
00000000
,
00000000
00000000
00033000
00000000
;

//---------------dance-double - ----------------
#NOTEDATA:;
#CHARTNAME:;
#STEPSTYPE:dance-double;
#DESCRIPTION:;
#CHARTSTYLE:;
#DIFFICULTY:Medium;
#METER:13;
#RADARVALUES:0.475427,0.769553,0.154790,0.119610,0.161826,473.000000,451.000000,22.000000,17.000000,0.000000,0.000000,0.000000,0.000000,0.000000,0.475427,0.769553,0.154790,0.119610,0.161826,473.000000,451.000000,22.000000,17.000000,0.000000,0.000000,0.000000,0.000000,0.000000;
#CREDIT:Karl with a K;
#NOTES:
00000000
00000000
00000000
00000000
,
00000000
00000000
00000000
00000000
,
00000000
00000000
00000000
00000000
,
00000000
00000000
00000000
00000000
,
00000000
00000000
00000000
00000000
,
00000000
00000000
00000000
00000000
,
00000000
00000000
00000000
00000000
,
10010000
00000000
10000000
01000000
00000000
10000000
00010000
00000000
,
01000000
00001000
00000000
00010000
00001000
00000000
00011000
00000000
,
00010000
00000010
00000000
00001000
00000010
00000000
00000100
00000010
,
00000000
00001000
00000001
00000000
00001001
00000000
00000001
00000000
,
00000010
00000000
00001000
00000000
00010000
00001000
01000000
00010000
,
10000000
20020000
00000000
30030000
,
10010000
00000000
10000000
00100000
01000000
00100000
10000000
00100000
,
01000000
00010000
00100000
00001000
00010000
00000000
00011000
00000000
,
00010000
00000100
00000010
00000100
00001000
00000100
00000010
00000001
,
00001000
00000010
00000100
00000000
00001001
00000000
00000001
00000100
,
00000010
00000100
00000001
00000100
00000010
00001000
00000100
00010000
,
00001000
00000000
00011000
00000000
00001000
00100000
01000000
00100000
,
00010000
00100000
01000000
10000000
00010000
01000000
00100000
00010000
,
00100000
00000000
10000000
01000000
00100000
01000000
00010000
01000000
,
00100000
01000000
00010000
00001000
00000100
00000001
00000010
00000000
,
00000001
00000100
00000010
00000100
00001000
00000100
00000010
00000100
,
00001000
00010000
01000000
10000000
01000000
00000000
10000000
00100000
,
01000000
00100000
00010000
00100000
01000000
00100000
00010000
00001000
,
00000010
00000001
00000100
00000000
00000001
00000010
00000100
00000010
,
00001000
00000010
00000100
00000010
00001000
00010000
00100000
10000000
,
01000000
00000000
00000000
00000000
10000000
01000000
10000000
00000000
00000000
00100000
10000000
00000000
00010000
00000000
00010000
00000000
,
00000000
00000000
00100000
00001000
00100000
00000000
00000000
00000000
00001000
00000000
00000010
00000000
00000001
00000000
00000000
00000000
,
00000001
00000100
00000001
00000000
00000000
00000010
00000001
00000000
00001000
00000000
00001000
00000000
00000000
00000000
00000010
00010000
,
00000010
00000000
00000000
00001000
00010000
00000000
00100000
00000000
10010000
00000000
00000000
00000000
00010000
01000000
00010000
01000000
,
00000000
00100000
10000000
00010000
00100000
00000000
00011000
00000000
00000000
00000000
00010000
00001000
00010000
00001000
00000000
00010000
,
00000100
00000010
00000001
00000000
00001001
00000000
00000000
00000000
00001000
00000100
00001000
00000100
00000000
00000010
00000001
00001000
,
00000010
00000000
00011000
00000000
00000000
00000000
00001000
00010000
00001000
00010000
00000000
00001000
01000000
00000000
00100000
00000000
,
10000000
00000000
01000000
00100000
10000000
00100000
01000000
00100000
,
00001000
00010000
00001000
00010000
00000010
00000000
00001000
00000000
,
00000010
00000100
00000001
00000100
00000010
00000100
00001000
00010000
,
00001000
00010000
00100000
00000000
10000000
00000000
00100000
01000000
,
10000000
01000000
00100000
01000000
00001000
00010000
00001000
00010000
,
00000100
00000000
00001000
00000000
00000100
00000010
00000001
00000010
,
00000100
00000010
00001000
00010000
00001000
00010000
01000000
00000000
,
10000000
00100000
01000000
00100000
00010000
00100000
01000000
00100000
,
10000000
01000000
00010000
00001000
00000100
00000000
00000001
00000010
,
00000100
00000010
00001000
00000010
00000100
00000010
00000001
00000100
,
00001000
00000000
00000000
00010000
00000000
00000000
01000000
00000000
00000000
00000000
00000000
00000000
10000000
00000000
00000000
00000000
10000000
00000000
01000000
00000000
00000000
00000000
01000000
00000000
,
10000000
00000000
00000000
00010000
00000000
00010000
01000000
00000000
01000000
00001000
00000000
00001000
,
00010000
00000000
00010000
00000100
00000000
00000100
00001000
00000000
00001000
00000100
00000000
00000100
,
00001000
00000000
00001000
00000010
00000000
00000010
00001000
00000000
00001000
00000100
00000000
00000000
,
00001200
00001000
00001000
00001000
,
00001000
00001000
00001000
00001000
,
00001000
00001000
00001000
00001000
,
00001000
00001000
00001000
00001300
,
00000002
00000203
00000320
00020030
,
00032000
00203000
02300000
23000000
,
30100000
01000000
00001000
00010000
00001000
00010000
00001000
00010000
,
00011000
00000000
00000000
00000000
,
10020000
00000000
00000000
00130000
00001000
00000000
00010000
00000100
,
00000000
00001000
00000010
00000100
00000010
00000000
00000110
00000000
,
00001001
00000000
00000000
00000000
00001002
00000000
00000000
00000000
00000000
00000103
00000000
00000000
00000100
00000000
00000000
00000000
,
00001000
00000000
00000000
00010000
00000000
00000000
00000000
00000000
00000000
01000000
00000000
00100000
00000000
01000000
00000000
00100000
00000000
00000000
00010000
00000000
00000000
00000000
00000000
00000000
,
10010000
00000000
00000000
00000000
00000000
00000000
00000000
00000000
00000000
00000000
00000000
00000000
10000000
00000000
00000000
00000000
00100000
00000000
00000000
00000000
10000000
00000000
00000000
00000000
00020000
00000000
00000000
00000000
00000000
00000000
00000000
00000000
00000000
00000000
00000000
00000000
00000000
00000000
00000000
10000000
00000000
00000000
00000000
00000000
00000000
00000000
00000000
00000000
,
10030000
00000000
00000000
00000000
00000000
00000000
01000000
00000000
00000000
00000000
00000000
00000000
00010000
00000000
00000000
00000000
00000000
00000000
00001000
00000000
00000000
00000000
00000000
00000000
00000000
00000000
00000000
00010000
00000000
00000000
00000010
00000000
00000000
00000000
00000100
00000000
00000000
00000000
00000010
00000000
00000000
00000000
00000100
00000000
00000000
00000000
00000000
00000000
,
00000001
00000000
00000011
00000000
00001100
00001000
00000002
00000000
,
00000000
00000000
00000000
00000100
00000000
00000000
00000000
00000000
00000000
00000000
00000000
00000000
00001003
00000000
00000000
00000000
00000000
00000000
00000100
00000000
00000000
00000000
00000000
00000000
00001000
00000000
00000000
00000000
00000000
00000000
00010000
00000000
00000000
00000000
00000000
00000000
00000000
00000000
00000000
00000000
00000000
00000000
01000000
00000000
00000000
00000000
00100000
00000000
,
00000000
01000000
00000000
00100000
00000000
00000000
10000000
00000000
00000000
00000000
00000000
00000000
10000000
00000000
00000000
01000000
00000000
00000000
10000000
00000000
00000000
00000000
00000000
00000000
,
00010000
01000000
00010000
01000000
,
00010000
01000000
00010000
10000000
,
00010000
10000000
00010000
10000000
,
01000000
10000000
01000000
10000000
,
01000000
10000000
01000000
00100000
,
01000000
00100000
01000000
00100000
,
00001000
00010000
00001000
00010000
,
00001000
00010000
00000010
00000100
,
00000010
00000100
00000010
00000100
,
00000001
00000001
00000010
00000010
,
00000100
00000100
00010000
00010000
,
00001000
00001000
00100000
00100000
,
01000000
01000000
10000000
10000000
,
00010000
00010000
00100000
10000000
,
00100000
00010000
01000000
10000000
,
01000000
00010000
00100000
00010000
,
00001000
00000010
00000100
00001000
,
00010000
01000000
00100000
00001000
,
00022000
00000000
00000000
00000000
,
00000000
00000000
00000000
00000000
,
00000000
00000000
00000000
00000000
,
00000000
00000000
00000000
00000000
,
00000000
00000000
00033000
00000000
;

//---------------dance-double - ----------------
#NOTEDATA:;
#CHARTNAME:;
#STEPSTYPE:dance-double;
#DESCRIPTION:;
#CHARTSTYLE:;
#DIFFICULTY:Easy;
#METER:10;
#RADARVALUES:0.290483,0.523296,0.049251,0.042215,0.017590,289.000000,282.000000,7.000000,6.000000,0.000000,0.000000,0.000000,0.000000,0.000000,0.290483,0.523296,0.049251,0.042215,0.017590,289.000000,282.000000,7.000000,6.000000,0.000000,0.000000,0.000000,0.000000,0.000000;
#CREDIT:Karl with a K;
#NOTES:
// measure 0
00000000
00000000
00000000
00000000
,  // measure 1
00000000
00000000
00000000
00000000
,  // measure 2
00000000
00000000
00000000
00000000
,  // measure 3
00000000
00000000
00000000
00000000
,  // measure 4
00000000
00000000
00000000
00000000
,  // measure 5
00000000
00000000
00000000
00000000
,  // measure 6
00000000
00000000
00000000
00000000
,  // measure 7
10000000
00100000
01000000
00010000
,  // measure 8
01000000
00100000
10000000
00010000
,  // measure 9
00100000
00001000
00010000
00000100
,  // measure 10
00000010
00000001
00000100
00000010
,  // measure 11
00001000
00010000
00100000
01000000
,  // measure 12
10000000
20020000
00000000
30030000
,  // measure 13
10000000
01000000
01000000
00100000
,  // measure 14
00100000
00001000
00001000
00010000
,  // measure 15
00000010
00000010
00000100
00000100
,  // measure 16
00000001
00000001
00000010
00000100
,  // measure 17
00000100
00010000
00010000
00001000
,  // measure 18
00001000
00010000
00001000
00001000
,  // measure 19
01000000
01000000
00100000
00100000
,  // measure 20
10000000
01000000
00100000
00001000
,  // measure 21
01000000
00100000
00010000
00001000
,  // measure 22
00000100
00000010
00001000
00000100
,  // measure 23
00000010
00000001
00000001
00000100
,  // measure 24
00000010
00010000
00000100
00000010
,  // measure 25
00001000
00010000
01000000
00100000
,  // measure 26
00010000
00000000
01000000
00000000
00100000
00000000
10000000
00010000
,  // measure 27
10000000
00000000
01000000
01000000
00000000
10000000
00100000
01000000
,  // measure 28
00000000
01000000
01000000
00000000
00001000
00010000
00000100
00000000
,  // measure 29
00000100
00000100
00000000
00000010
00000001
00000100
00000000
00000100
,  // measure 30
00000100
00000000
00001000
00010000
01000000
10000000
01000000
01000000
,  // measure 31
00010000
00001000
00000100
00000100
00000001
00000100
00000100
00001000
,  // measure 32
00010000
00100000
10000000
01000000
00010000
01000000
00010000
00001000
,  // measure 33
00000100
00000010
00001000
00000010
00000001
00001000
00000100
00000001
,  // measure 34
00000001
00000100
00000010
00010000
,  // measure 35
00001000
00000000
00100000
00010000
,  // measure 36
10000000
01000000
00100000
00001000
,  // measure 37
00000000
00100000
00010000
01000000
,  // measure 38
00100000
10000000
01000000
00000000
,  // measure 39
00100000
00001000
00010000
00001000
,  // measure 40
00010000
00000100
00000000
00000010
,  // measure 41
00000001
00000100
00001000
00000100
,  // measure 42
00000001
00000010
00001000
00010000
,  // measure 43
00010000
01000000
10000000
01000000
,  // measure 44
00010000
00001000
01000000
01000000
,  // measure 45
01000000
00100000
00100000
00100000
,  // measure 46
10000000
01000000
01000000
01000000
,  // measure 47
00010000
00010000
00010000
00001000
,  // measure 48
00022000
00000000
00000000
00000000
,  // measure 49
00000000
00000000
00000000
00000000
,  // measure 50
00000000
00000000
00000000
00000000
,  // measure 51
00000000
00000000
00000000
00033000
,  // measure 52
00010000
00000000
00001000
00000000
,  // measure 53
00010000
00000000
00001000
00000000
,  // measure 54
01000000
00100000
10000000
01000000
,  // measure 55
10000000
00000000
00000000
00000000
,  // measure 56
10010000
00000000
00000000
10000000
01000000
00000000
00100000
00010000
,  // measure 57
00000000
00010000
00001000
00000000
00000010
00000000
00000100
00000000
,  // measure 58
00000001
00000000
00001001
00000000
00000000
00000001
00000100
00000000
,  // measure 59
00000010
00000000
00000000
00001000
00000000
00000000
00000000
00000000
00000000
00010000
00000000
00000000
00000000
00100000
00000000
00000000
00000000
00000000
01000000
00000000
00000000
00000000
00000000
00000000
,  // measure 60
10000000
00000000
00010000
00000000
10010000
00000000
00000000
10000000
,  // measure 61
00100000
00000000
00000000
00000000
00000000
00000000
00000000
00000000
00000000
00000000
00000000
00000000
01000000
00000000
00000000
00000000
00000000
00000000
00010000
00000000
00000000
00000000
00000000
00000000
00000000
00000000
00000000
00001000
00000000
00000000
00000000
00000000
00000000
00000000
00000000
00000000
00000000
00000000
00000100
00000000
00000000
00000000
00000000
00000000
00000000
00000000
00000000
00000000
,  // measure 62
00000010
00000001
00000010
00000000
00000001
00000000
00001001
00000000
,  // measure 63
00000000
00000000
00000001
00000000
00000010
00000000
00000000
00000000
00000100
00000000
00001000
00000000
00000000
00010000
00000000
00000000
,  // measure 64
00000000
01000000
00000000
00000000
00000000
00000000
00100000
00000000
00000000
00000000
00000000
00000000
10000000
00000000
00000000
10000000
00000000
00000000
10000000
00000000
00000000
00000000
00000000
00000000
,  // measure 65
00010000
00000000
10000000
00000000
,  // measure 66
10000000
00000000
01000000
00000000
,  // measure 67
01000000
00000000
01000000
00000000
,  // measure 68
00010000
00000000
00010000
00000000
,  // measure 69
00010000
00000000
00001000
00000000
,  // measure 70
00001000
00000000
00001000
00000000
,  // measure 71
00000100
00000000
00000100
00000000
,  // measure 72
00000100
00000000
00000010
00000000
,  // measure 73
00000010
00000000
00000010
00000000
,  // measure 74
00000001
00000100
00000001
00000100
,  // measure 75
00000001
00000000
00001000
00000100
,  // measure 76
00001000
00000100
00001000
00000000
,  // measure 77
00000010
00010000
00000010
00010000
,  // measure 78
00000010
00000000
00010000
00001000
,  // measure 79
00100000
00010000
10000000
00100000
,  // measure 80
01000000
00010000
00100000
00001000
,  // measure 81
00010000
00000100
00000010
00000001
,  // measure 82
00000100
00001000
00010000
00000000
,  // measure 83
00022000
00000000
00000000
00000000
,  // measure 84
00000000
00000000
00000000
00000000
,  // measure 85
00000000
00000000
00000000
00000000
,  // measure 86
00000000
00000000
00000000
00000000
,  // measure 87
00000000
00000000
00033000
00000000
;
