#VERSION:0.83;
#TITLE:I Love Crowdsourcing;
#SUBTITLE:;
#ARTIST:Z-I-v Sound Team "Karl with a K" involving Z-I-v Step Team;
#TITLETRANSLIT:;
#SUBTITLETRANSLIT:;
#ARTISTTRANSLIT:;
#GENRE:JERSEY MICROTONAL FUNERAL THROAT BOUNCE JIAFEIGRIND WINDOWSXPSTEP;
#ORIGIN:;
#CREDIT:;
#BANNER:I Love Crowdsourcing banner.png;
#BACKGROUND:I Love Crowdsourcing bg.png;
#PREVIEWVID:;
#JACKET:I Love Crowdsourcing jk.png;
#CDIMAGE:;
#DISCIMAGE:SC2022-bg week9.png;
#LYRICSPATH:;
#CDTITLE:;
#MUSIC:I Love Crowdsourcing.ogg;
#OFFSET:-0.025000;
#SAMPLESTART:20.252525;
#SAMPLELENGTH:10.105263;
#SELECTABLE:YES;
#BPMS:0.000=190.000;
#STOPS:;
#DELAYS:;
#WARPS:;
#TIMESIGNATURES:0.000=4=4;
#TICKCOUNTS:0.000=4;
#COMBOS:0.000=1;
#SPEEDS:0.000=1.000=0.000=0;
#SCROLLS:0.000=1.000;
#FAKES:;
#LABELS:0.000=Song Start;
#BGCHANGES:;
#KEYSOUNDS:;
#ATTACKS:
;

//---------------dance-single - XO FS- DS JA RH- STR [1] JU-----------------
#NOTEDATA:;
#CHARTNAME:;
#STEPSTYPE:dance-single;
#DESCRIPTION:XO FS- DS JA RH- STR [1] JU-;
#CHARTSTYLE:;
#DIFFICULTY:Challenge;
#METER:16;
#RADARVALUES:0.696291,0.961980,0.074821,0.267217,0.438236,456.000000,449.000000,7.000000,25.000000,11.000000,0.000000,2.000000,0.000000,0.000000,0.696291,0.961980,0.074821,0.267217,0.438236,456.000000,449.000000,7.000000,25.000000,11.000000,0.000000,2.000000,0.000000,0.000000;
#CREDIT:Karl with a K;
#NOTES:
0000
0000
0000
0000
,
0000
0000
0000
0000
,
0000
0000
0000
0000
,
0000
0000
0000
0000
,
1000
0000
0000
0000
1001
0000
0000
0000
1000
0000
0000
0100
0000
0000
0010
0000
,
0001
0000
0000
0000
1001
0000
0000
0000
0001
0000
0000
0100
0000
0000
0010
0000
,
2000
0000
0000
0000
0100
0000
0000
0000
0010
0000
0000
0001
0000
0000
3100
0000
,
1000
0010
1000
0000
0001
0100
0001
0000
1000
0100
1000
0001
0000
0000
0001
0000
,
1000
0000
0100
0000
0010
0000
0100
0000
1000
0000
0000
0010
0100
0000
0010
0000
,
1000
0000
0001
0000
0100
0000
0010
0000
0100
0000
0000
0001
0010
0000
0100
0000
,
1000
0000
0010
0000
0100
0000
0010
0000
1000
0000
0000
0100
0010
0000
0100
0000
,
1000
0000
0001
0000
0010
0000
0100
0000
0001
0000
0100
0001
0000
0000
0100
0000
,
1000
0000
0010
0000
0100
0000
0010
0000
1000
0000
0000
0100
0010
0000
0100
0000
,
1000
0000
0001
0000
0010
0000
0100
0000
0010
0000
0000
0010
0001
0000
0100
0010
,
1000
0000
0100
0000
0010
0000
0100
0000
1000
0000
0000
0010
0100
0000
0010
0000
,
1000
0001
1000
0000
0100
0010
0001
0000
0100
0000
1000
0100
0000
0000
0001
0000
,
0001
0000
0010
0000
0010
0000
0001
0000
1000
0000
0010
0100
0010
0000
1000
0000
,
0001
0000
0100
0000
0100
0000
0001
0000
1000
0000
0100
0010
0100
0000
1000
0000
,
0001
0000
0010
0000
0010
0000
0001
0000
1000
0000
0100
0010
0100
0000
1000
0000
,
0001
0000
0100
0000
0100
0000
0001
0000
1000
0000
0010
0001
0000
0000
0010
0000
,
1000
0000
0010
0000
0010
0000
1000
0000
0001
0000
0010
0100
0010
0000
0001
0000
,
1000
0000
0100
0000
0100
0000
1000
0000
0001
0000
0100
0010
0100
0000
0001
0000
,
1000
0000
0010
0000
0010
0000
1000
0000
0001
0000
0010
0100
0010
0000
0001
0000
,
1000
0000
0100
0000
0100
0000
1000
0000
0001
0100
0010
0000
0001
0010
0100
0000
,
0001
0010
0110
0100
,
1000
0000
0010
0100
0010
0100
0001
0000
,
1000
0100
0110
0010
,
0001
0000
0000
0000
0010
0000
0100
0000
0001
0100
0010
0000
0001
0100
0010
0000
,
1000
0000
1000
0000
1000
0000
1000
0000
0001
0000
0100
1000
0100
0000
0010
0000
,
1000
0000
0001
0000
0001
0000
0001
0000
1000
0000
0100
0001
0100
0000
0010
0000
,
0001
0000
1000
0000
1000
0000
1000
0000
0001
0000
0010
1000
0010
0000
0100
0000
,
1000
0000
0001
0000
0001
0000
0001
0000
0100
0010
0000
1000
0100
0000
0010
0000
,
0220
0000
0030
0000
0010
0000
0310
0100
,
1000
0000
0000
1000
0000
0000
1000
0010
0000
2000
0000
0010
0000
0000
0000
0000
,
3001
0000
0000
0001
0000
0000
0002
0010
0000
0000
0000
0000
0000
0100
0000
0000
,
1003
0000
0000
1000
0000
0000
1000
0100
0000
2000
0000
0100
0000
0000
0000
0000
,
3001
0000
0000
0001
0000
0000
0002
0100
0000
0000
0000
0000
0000
0010
0000
0000
,
1003
0000
0000
1000
0000
0000
1000
0010
0000
2000
0000
0100
0000
0000
0000
0000
,
3001
0000
0000
0001
0000
0000
0002
0010
0000
0000
0000
0000
0000
0100
0000
0000
,
1003
0000
0000
1000
0000
0000
1000
0100
0000
2000
0000
0010
0000
0000
0000
0000
,
3001
0000
0000
0001
0000
0000
0002
0100
0000
0000
0000
0000
0000
0010
0000
0000
,
4003
0004
0000
0000
0000
0000
3000
0000
,
1003
0000
0100
0000
0010
0000
0001
0000
1000
0000
0000
0001
0010
0000
0100
0000
,
1000
0000
0010
0000
0100
0000
0001
0000
2000
0000
0000
0010
0000
0000
0010
0000
,
3001
0000
0100
0000
0010
0000
1000
0000
0001
0000
0000
1000
0010
0000
0100
0000
,
0001
0000
0010
0000
0100
0000
1000
0000
0002
0000
0000
0010
0000
0000
0010
0000
,
1003
0100
M100
0001
1000
0001
0010
001M
,
1000
0010
M010
0001
1000
0100
M100
0001
,
1000
0000
0100
0000
M100
0000
0001
0000
1000
0000
0000
1000
0010
0000
M010
0000
,
0001
0000
0010
0000
001M
0000
1000
0000
0002
0000
0000
0010
0000
0000
0010
0000
,
2003
0002
0000
0000
,
0000
0000
0000
3000
,
1003
0100
0010
0001
,
0100
0000
0010
0000
1000
0002
0000
0000
,
1003
0000
0000
0000
0010
0000
0000
0000
0100
0000
0000
0002
0000
0000
0000
0000
,
0013
0100
0220
0330
,
1000
0000
0000
0000
0010
0000
0000
0000
0100
0000
0000
0100
0000
0000
0001
0000
,
0010
0000
0100
1000
0001
1000
0001
1000
,
1000
0100
0010
0002
,
0100
0013
0220
0330
,
1000
0000
0100
0000
0001
0000
0100
0000
1000
0000
0100
0010
0100
0000
0010
0000
,
0001
0000
0100
0000
1000
0000
0100
0000
0001
0000
0100
0010
0100
0000
0010
0000
,
1000
0000
0010
0000
0001
0000
0010
0000
1000
0000
0010
0100
0010
0000
0100
0000
,
0001
0000
0010
0000
1000
0000
0010
0000
0001
0000
0100
1000
0100
0000
0001
0000
,
1000
1000
0100
0100
0001
0001
0100
0100
,
1000
1000
0010
0010
0001
0001
0010
0010
,
1000
0100
0001
1000
0010
0001
0100
1000
,
0100
0010
1000
0001
1000
0100
0010
0001
0100
0010
1000
0001
1000
0100
0010
0001
,
2000
0002
0000
0000
,
0000
0000
0000
0000
,
0000
0000
0000
0000
,
0000
0000
0000
3003
,
MMMM
0000
0000
0000
;

//---------------dance-single - XO DS- JA RH- JU-----------------
#NOTEDATA:;
#CHARTNAME:;
#STEPSTYPE:dance-single;
#DESCRIPTION:XO DS- JA RH- JU-;
#CHARTSTYLE:;
#DIFFICULTY:Hard;
#METER:13;
#RADARVALUES:0.574134,0.769584,0.085509,0.192396,0.144297,376.000000,368.000000,8.000000,18.000000,0.000000,0.000000,0.000000,0.000000,0.000000,0.574134,0.769584,0.085509,0.192396,0.144297,376.000000,368.000000,8.000000,18.000000,0.000000,0.000000,0.000000,0.000000,0.000000;
#CREDIT:Karl with a K;
#NOTES:
0000
0000
0000
0000
,
0000
0000
0000
0000
,
0000
0000
0000
0000
,
0000
0000
0000
0000
,
1000
0000
0000
0000
0100
0000
0000
0000
0010
0000
0000
0010
0000
0000
0010
0000
,
0001
0000
0000
0000
0100
0000
0000
0000
0010
0000
0000
0010
0000
0000
0010
0000
,
1000
0000
0000
0000
0001
0000
0000
0000
0010
0000
0000
0010
0000
0000
0010
0000
,
0001
0001
0100
0100
0010
0010
1000
1000
,
0001
0000
0000
0000
0010
0000
0100
0000
1000
0000
0000
1000
0000
0000
1000
0000
,
0001
0000
0000
0000
0100
0000
0010
0000
1000
0000
0000
1000
0000
0000
0001
0000
,
1000
0000
0000
0000
0010
0000
0100
0000
0001
0000
0000
0001
0000
0000
0001
0000
,
1000
0000
0000
0000
0100
0000
0010
0000
0002
0000
0000
1000
0000
0000
1000
0000
,
1003
0000
0000
0000
0010
0000
0100
0000
0001
0000
0000
0001
0000
0000
0001
0000
,
1000
0000
0000
0000
0100
0000
0010
0000
0001
0000
0000
0001
0000
0000
1000
0000
,
0001
0000
0000
0000
0010
0000
0100
0000
1000
0000
0000
1000
0000
0000
1000
0000
,
0001
0000
0001
0000
0100
0000
0010
0000
1000
0000
1000
0100
0000
0000
0010
0000
,
0001
0100
0010
0100
0001
0100
0010
0100
,
0001
1000
0100
0010
0100
1000
0100
0010
,
0001
0010
0100
0010
0001
0010
0100
0010
,
0001
1000
0010
0100
0010
1000
0010
0100
,
0010
1000
0001
1000
0100
1000
0001
1000
,
0100
0010
0001
1000
0001
1000
0010
1000
,
0001
0100
0001
1000
0001
0100
0001
1000
,
0001
0100
0010
0001
1000
0100
0010
1000
,
0001
1000
1001
1000
,
0100
0010
0110
0100
,
0001
0100
1000
0001
,
1000
0010
0001
0010
,
0100
0001
1000
0001
0100
0001
1000
0001
,
0100
0010
1000
0001
1000
0001
0010
0001
,
1000
0100
1000
0001
1000
0100
1000
0001
,
1000
0100
0010
1000
0001
0100
1000
0001
,
2000
0000
3001
0000
,
1200
0000
0000
0000
0000
0000
0000
0310
0000
0000
0000
0001
0000
0000
0000
0000
,
0100
0000
0000
0010
0000
1000
0000
0000
,
1020
0000
0000
0000
0000
0000
0000
0130
0000
0000
0000
0001
0000
0000
0000
0000
,
0010
0000
0000
0100
0000
1000
0000
0000
,
0021
0000
0000
0000
0000
0000
0000
0130
0000
0000
0000
1000
0000
0000
0000
0000
,
0010
0000
0000
0100
0000
0001
0000
0000
,
0201
0000
0000
0000
0000
0000
0000
0310
0000
0000
0000
1000
0000
0000
0000
0000
,
0100
0000
0000
0010
0000
0001
0000
0000
,
2000
0000
0002
3000
,
1003
0100
0010
0000
1000
0001
0100
0000
,
1000
0100
0010
0001
0002
0000
1003
0000
,
0001
0100
0010
0000
0001
1000
0100
0000
,
0001
0100
0010
1000
2000
0000
3001
0000
,
1000
0100
0010
0001
1000
0010
0100
0001
,
1000
0100
0010
0001
1000
0010
0100
0001
,
1000
0010
0001
0010
1000
0100
0001
0100
,
0001
0000
1000
0000
0010
0000
0001
0000
1000
0000
0000
0010
0000
0000
0001
0000
,
0020
0000
0000
0000
,
0000
0000
0000
0000
,
1030
1000
1000
1000
,
1000
0000
1000
0000
1000
0200
0000
0000
,
0310
0000
0000
0000
0002
0000
0000
0000
0000
0000
0000
2003
0000
0000
0000
0000
,
0000
3000
0220
0330
,
0001
0000
0000
0000
0100
0000
0000
0000
0010
0000
0000
1000
0000
0000
0100
0000
,
1000
0000
0000
0000
0100
0000
0000
0000
0010
0000
0000
0001
0000
0000
0100
0000
,
0001
0000
0000
0000
1000
0000
0000
0000
0001
0000
0000
1000
0000
0000
0001
0000
,
1000
0000
0000
0000
0100
0000
0000
0000
0100
0000
0000
0100
0000
0000
0100
0000
,
0010
0001
0010
0100
0010
0001
0010
1000
,
0010
0001
0010
0100
0010
0001
0010
0001
,
0100
0001
0100
0010
0100
0001
0100
1000
,
0100
0001
0100
0010
0100
0001
0100
1000
,
0100
0010
0100
0010
0100
0010
0100
0010
,
1000
0010
0100
0001
0010
0100
1000
0010
,
0100
0001
0010
0001
0100
0001
0010
0001
,
1000
0000
0010
0000
1000
0000
0100
0000
0010
0001
0010
0000
0100
1000
0100
0000
,
0220
0000
0000
0000
,
0000
0000
0000
0000
,
0000
0000
0000
0000
,
0000
0000
0000
0000
,
0330
0000
0000
0000
;

//---------------dance-single - ----------------
#NOTEDATA:;
#CHARTNAME:;
#STEPSTYPE:dance-single;
#DESCRIPTION:;
#CHARTSTYLE:;
#DIFFICULTY:Medium;
#METER:9;
#RADARVALUES:0.375630,0.577188,0.032066,0.106887,0.101542,246.000000,243.000000,3.000000,10.000000,0.000000,0.000000,0.000000,0.000000,0.000000,0.375630,0.577188,0.032066,0.106887,0.101542,246.000000,243.000000,3.000000,10.000000,0.000000,0.000000,0.000000,0.000000,0.000000;
#CREDIT:Karl with a K;
#NOTES:
// measure 0
0000
0000
0000
0000
,  // measure 1
0000
0000
0000
0000
,  // measure 2
0000
0000
0000
0000
,  // measure 3
0000
0000
0000
0000
,  // measure 4
0001
0000
0000
0000
0000
0000
0000
0000
0001
0000
0000
0100
0000
0000
0100
0000
,  // measure 5
0010
0000
0000
0000
0000
0000
0000
0000
1000
0000
0000
0100
0000
0000
0100
0000
,  // measure 6
0020
0000
0032
0000
,  // measure 7
0013
0001
0100
0000
0001
0000
0100
0000
,  // measure 8
0001
0000
0000
0000
0001
0000
0000
0000
1000
0000
0000
0100
0000
0000
0010
0000
,  // measure 9
0001
0000
0000
0000
0001
0000
0000
0000
0010
0000
0000
0010
0000
0000
0010
0000
,  // measure 10
0001
0000
0000
0000
0001
0000
0000
0000
1000
0000
0000
0010
0000
0000
0100
0000
,  // measure 11
0001
0000
0000
0000
0001
0000
0000
0000
0010
0000
0000
0010
0000
0000
0001
0000
,  // measure 12
1000
0000
0000
0000
1000
0000
0000
0000
0001
0000
0000
0100
0000
0000
0010
0000
,  // measure 13
1000
0000
0000
0000
1000
0000
0000
0000
0010
0000
0000
0010
0000
0000
0010
0000
,  // measure 14
1000
0000
0000
0000
1000
0000
0000
0000
0001
0000
0000
0010
0000
0000
0100
0000
,  // measure 15
1000
0000
0000
0000
1000
0000
0000
0000
0010
0000
0000
0010
0000
0000
1000
0000
,  // measure 16
0001
0100
0001
0000
1000
0000
0100
0000
,  // measure 17
1000
0100
1000
0000
0010
0000
0010
0000
,  // measure 18
1000
0100
1000
0000
0001
0000
0100
0000
,  // measure 19
0001
0100
0001
0000
0010
0000
0010
0000
,  // measure 20
0001
0100
0001
0000
1000
0000
0100
0000
,  // measure 21
1000
0001
1000
0000
0010
0000
0010
0000
,  // measure 22
1000
0100
1000
0000
0001
0000
0100
0000
,  // measure 23
0001
1000
0001
0000
0010
0000
0010
0000
,  // measure 24
0001
0000
0010
0000
,  // measure 25
0100
0000
0000
0100
1000
0000
0000
0000
,  // measure 26
0001
0000
0100
0000
,  // measure 27
0010
0000
0000
0010
1000
0000
0100
0000
,  // measure 28
1000
0100
0010
0000
0001
0000
0001
0000
,  // measure 29
1000
0010
0100
0000
0010
0000
0010
0000
,  // measure 30
1000
0010
0100
0000
0001
0000
0001
0000
,  // measure 31
1000
0000
0100
0000
0010
0000
0000
0000
0001
0000
0000
0001
0000
0000
0000
0000
,  // measure 32
1001
0000
1000
0000
,  // measure 33
0001
0000
0000
0000
0000
0000
0000
0010
0000
0000
0000
0010
0000
0000
0000
0000
,  // measure 34
0100
0000
0000
1000
0000
0000
0000
0000
,  // measure 35
0001
0000
0000
0000
0000
0000
0000
0100
0000
0000
0000
0100
0000
0000
0000
0000
,  // measure 36
0010
0000
0000
1000
0000
1000
0000
0000
,  // measure 37
1000
0000
0000
0000
0000
0000
0000
0100
0000
0000
0000
0100
0000
0000
0000
0000
,  // measure 38
0010
0000
0000
0001
0000
0000
0000
0000
,  // measure 39
1000
0000
0000
0000
0000
0000
0000
0010
0000
0000
0000
0010
0000
0000
0000
0000
,  // measure 40
0100
0000
0000
0001
0000
0001
0000
0000
,  // measure 41
2000
0000
0000
0000
,  // measure 42
3001
0001
0100
0100
,  // measure 43
0010
0010
1000
0000
,  // measure 44
1000
1000
0100
0100
,  // measure 45
0010
0010
0001
0000
,  // measure 46
1000
0010
0100
0001
,  // measure 47
0100
0010
1000
0000
,  // measure 48
0001
0010
0100
1000
,  // measure 49
0100
0010
0001
0000
,  // measure 50
2002
0000
0000
0000
,  // measure 51
0000
0000
0000
3003
,  // measure 52
1000
0100
0010
0001
,  // measure 53
1000
0100
0010
0000
,  // measure 54
0001
2000
0000
3002
,  // measure 55
0000
0000
0023
0000
,  // measure 56
0031
0010
0100
0000
,  // measure 57
1000
0100
0010
0000
,  // measure 58
0001
0100
0010
0000
,  // measure 59
1000
0010
0100
0000
,  // measure 60
0001
0100
0010
0100
,  // measure 61
0001
0100
0010
1000
,  // measure 62
1000
0100
0010
0100
,  // measure 63
1000
0100
0010
0001
,  // measure 64
1000
0001
1000
0000
0100
0000
0010
0000
,  // measure 65
0001
1000
0001
0000
0100
0000
0010
0000
,  // measure 66
1000
0100
0010
0000
0001
0100
0010
0000
,  // measure 67
1000
0001
1000
0001
1000
0001
1000
0000
,  // measure 68
2002
0000
0000
0000
,  // measure 69
0000
0000
0000
0000
,  // measure 70
0000
0000
0000
0000
,  // measure 71
0000
0000
0000
0000
,  // measure 72
3003
0000
0000
0000
;

//---------------dance-single - ----------------
#NOTEDATA:;
#CHARTNAME:;
#STEPSTYPE:dance-single;
#DESCRIPTION:;
#CHARTSTYLE:;
#DIFFICULTY:Beginner;
#METER:1;
#RADARVALUES:0.041228,0.109024,0.000000,0.000000,0.000000,27.000000,27.000000,0.000000,0.000000,0.000000,0.000000,0.000000,0.000000,0.000000,0.041228,0.109024,0.000000,0.000000,0.000000,27.000000,27.000000,0.000000,0.000000,0.000000,0.000000,0.000000,0.000000,0.000000;
#CREDIT:Karl with a K;
#NOTES:
// measure 0
0000
0000
0000
0000
,  // measure 1
0000
0000
0000
0000
,  // measure 2
0000
0000
0000
0000
,  // measure 3
0000
0000
0000
0000
,  // measure 4
0000
0000
0000
0000
,  // measure 5
0000
0000
0000
0000
,  // measure 6
0000
0000
0000
0000
,  // measure 7
0000
0000
0000
0000
,  // measure 8
1000
0000
0000
0000
,  // measure 9
0000
0000
0000
0000
,  // measure 10
0000
0000
0000
0000
,  // measure 11
0000
0000
0000
0000
,  // measure 12
1000
0000
0000
0000
,  // measure 13
0000
0000
0000
0000
,  // measure 14
0000
0000
0000
0000
,  // measure 15
0000
0000
0000
0000
,  // measure 16
0001
0000
0000
0000
,  // measure 17
0000
0000
0000
0000
,  // measure 18
0000
0000
0000
0000
,  // measure 19
0000
0000
0000
0000
,  // measure 20
0001
0000
0000
0000
,  // measure 21
0000
0000
0000
0000
,  // measure 22
0000
0000
0000
0000
,  // measure 23
0000
0000
0000
0000
,  // measure 24
1000
0000
0000
0000
,  // measure 25
0000
0000
0000
0000
,  // measure 26
0000
0000
0000
0000
,  // measure 27
0000
0000
0000
0000
,  // measure 28
1000
0000
0000
0000
,  // measure 29
0000
0000
0000
0000
,  // measure 30
0001
0000
0000
0000
,  // measure 31
0001
0000
0000
0000
,  // measure 32
0001
0000
0000
0000
,  // measure 33
0100
0000
0000
0000
,  // measure 34
0000
0000
0000
0000
,  // measure 35
0100
0000
0000
0000
,  // measure 36
0000
0000
0000
0000
,  // measure 37
0010
0000
0000
0000
,  // measure 38
0000
0000
0000
0000
,  // measure 39
0010
0000
0000
0000
,  // measure 40
0000
0000
0000
0000
,  // measure 41
0000
0000
0000
0000
,  // measure 42
1000
0000
0000
0000
,  // measure 43
1000
0000
0000
0000
,  // measure 44
1000
0000
0000
0000
,  // measure 45
1000
0000
0000
0000
,  // measure 46
0001
0000
0000
0000
,  // measure 47
0001
0000
0000
0000
,  // measure 48
0001
0000
0000
0000
,  // measure 49
0001
0000
0000
0000
,  // measure 50
1000
0000
0000
0000
,  // measure 51
0000
0000
0000
0000
,  // measure 52
0000
0000
0000
0000
,  // measure 53
0000
0000
0000
0000
,  // measure 54
0000
0000
0000
0000
,  // measure 55
0000
0000
0000
0000
,  // measure 56
0000
0000
0000
0000
,  // measure 57
0000
0000
0000
0000
,  // measure 58
0000
0000
0000
0000
,  // measure 59
0000
0000
0000
0000
,  // measure 60
1000
0000
0000
0000
,  // measure 61
0000
0000
0000
0000
,  // measure 62
0100
0000
0000
0000
,  // measure 63
0000
0000
0000
0000
,  // measure 64
0010
0000
0000
0000
,  // measure 65
0000
0000
0000
0000
,  // measure 66
0001
0000
0000
0000
,  // measure 67
0000
0000
0000
0000
,  // measure 68
1000
0000
0000
0000
;

//---------------dance-single - ----------------
#NOTEDATA:;
#CHARTNAME:;
#STEPSTYPE:dance-single;
#DESCRIPTION:;
#CHARTSTYLE:;
#DIFFICULTY:Easy;
#METER:5;
#RADARVALUES:0.279432,0.384792,0.032066,0.085509,0.000000,183.000000,180.000000,3.000000,8.000000,0.000000,0.000000,0.000000,0.000000,0.000000,0.279432,0.384792,0.032066,0.085509,0.000000,183.000000,180.000000,3.000000,8.000000,0.000000,0.000000,0.000000,0.000000,0.000000;
#CREDIT:Karl with a K;
#NOTES:
// measure 0
0000
0000
0000
0000
,  // measure 1
0000
0000
0000
0000
,  // measure 2
0000
0000
0000
0000
,  // measure 3
0000
0000
0000
0000
,  // measure 4
1000
0000
0000
0000
,  // measure 5
0100
0000
0000
0000
,  // measure 6
0100
0000
0000
0000
,  // measure 7
0010
0000
0000
0000
,  // measure 8
0001
0000
0100
0000
,  // measure 9
0001
0000
0100
0010
,  // measure 10
1000
0000
0100
0000
,  // measure 11
1000
0000
0100
0010
,  // measure 12
0001
0000
1000
0000
,  // measure 13
0001
0000
1000
0010
,  // measure 14
0100
0000
0010
0000
,  // measure 15
1000
0100
0010
0001
,  // measure 16
1000
1000
1000
0000
,  // measure 17
0001
0001
0001
0000
,  // measure 18
0010
0010
0010
0000
,  // measure 19
0100
0100
0100
0000
,  // measure 20
1000
1000
1000
0000
,  // measure 21
0010
0010
0010
0000
,  // measure 22
0100
0100
0100
0000
,  // measure 23
0001
0001
0001
0001
,  // measure 24
1000
0000
0000
0000
,  // measure 25
0010
0000
0000
0000
,  // measure 26
0010
0000
0000
0000
,  // measure 27
0100
0000
0000
0000
,  // measure 28
0001
0100
0010
1000
,  // measure 29
0001
0010
0100
1000
,  // measure 30
0001
1000
0100
0010
,  // measure 31
0001
1000
0010
0100
,  // measure 32
0110
0000
0000
0000
,  // measure 33
1000
0000
1000
0010
,  // measure 34
1000
0000
0010
0010
,  // measure 35
1000
0000
1000
0001
,  // measure 36
1000
0000
0001
0100
,  // measure 37
0001
0000
0001
0010
,  // measure 38
0001
0000
0010
0010
,  // measure 39
0001
0000
0001
1000
,  // measure 40
0001
0000
1000
0100
,  // measure 41
2000
0000
0000
0000
,  // measure 42
3001
0001
0001
0001
,  // measure 43
0001
0001
0020
0000
,  // measure 44
0130
0100
0100
0100
,  // measure 45
0100
0100
2000
0000
,  // measure 46
3001
0001
0100
0100
,  // measure 47
0010
0010
1000
1000
,  // measure 48
0001
0010
0100
1000
,  // measure 49
0010
0100
0001
0000
,  // measure 50
2002
0000
0000
0000
,  // measure 51
0000
0000
0000
3003
,  // measure 52
1000
0000
0100
0000
,  // measure 53
0010
0000
0001
0000
,  // measure 54
0001
0000
0100
0000
,  // measure 55
0010
0000
2000
0000
,  // measure 56
3001
0100
0001
0100
,  // measure 57
0001
0100
0001
0000
,  // measure 58
1000
0100
1000
0100
,  // measure 59
1000
0100
0010
0001
,  // measure 60
1000
1000
1000
1000
,  // measure 61
1000
1000
1000
0000
,  // measure 62
0001
0001
0001
0001
,  // measure 63
0001
0001
0001
0000
,  // measure 64
0100
0100
0100
0100
,  // measure 65
0010
0010
0010
0010
,  // measure 66
1000
1000
0100
0100
,  // measure 67
0010
0010
0001
1000
,  // measure 68
2002
0000
0000
0000
,  // measure 69
0000
0000
0000
0000
,  // measure 70
0000
0000
0000
0000
,  // measure 71
0000
0000
0000
0000
,  // measure 72
3003
0000
0000
0000
;
