#VERSION:0.83;
#TITLE:Holy Roller;
#SUBTITLE:;
#ARTIST:Spiritbox (feat. Ryo Kinoshita);
#TITLETRANSLIT:;
#SUBTITLETRANSLIT:;
#ARTISTTRANSLIT:;
#GENRE:;
#ORIGIN:;
#CREDIT:;
#BANNER:Holy Roller banner.png;
#BACKGROUND:Holy Roller bg.png;
#PREVIEWVID:;
#JACKET:;
#CDIMAGE:;
#DISCIMAGE:;
#LYRICSPATH:;
#CDTITLE:;
#MUSIC:Holy Roller.ogg;
#OFFSET:-0.025000;
#SAMPLESTART:29.800383;
#SAMPLELENGTH:11.972052;
#SELECTABLE:YES;
#BPMS:0.000=80.500,
20.000=161.000,
85.000=80.500,
89.000=161.000,
153.000=80.500,
174.000=161.000,
246.000=80.500,
261.000=40.250,
269.000=80.500,
277.000=161.000;
#STOPS:20.000=2.609,
173.000=2.236,
260.000=0.373,
260.500=0.373;
#DELAYS:;
#WARPS:;
#TIMESIGNATURES:0.000=4=4;
#TICKCOUNTS:0.000=4;
#COMBOS:0.000=1;
#SPEEDS:0.000=1.000=0.000=0;
#SCROLLS:0.000=1.000,
272.500=1.100,
273.000=1.200,
273.500=1.300,
274.000=1.400,
274.500=1.500,
275.000=1.600,
275.500=1.700,
276.000=1.800,
276.500=1.900,
277.000=1.000;
#FAKES:;
#LABELS:0.000=Song Start;
#BGCHANGES:;
#KEYSOUNDS:;
#ATTACKS:
;

//---------------dance-single - XO+ FS DS+ JA XMOD BU STR [1|1@161] JU+----------------
#NOTEDATA:;
#CHARTNAME:;
#STEPSTYPE:dance-single;
#DESCRIPTION:XO+ FS DS+ JA XMOD BU STR [1|1@161] JU+;
#CHARTSTYLE:;
#DIFFICULTY:Challenge;
#METER:16;
#RADARVALUES:0.574828,1.246574,0.268253,0.489853,0.390716,690.000000,644.000000,46.000000,84.000000,13.000000,0.000000,9.000000,0.000000,0.000000,0.574828,1.246574,0.268253,0.489853,0.390716,690.000000,644.000000,46.000000,84.000000,13.000000,0.000000,9.000000,0.000000,0.000000;
#CREDIT:;
#NOTES:
// measure 0
0000
0000
0000
0000
,  // measure 1
0000
0000
0000
0000
,  // measure 2
2000
0010
3001
1000
0002
0010
1003
0000
,  // measure 3
2000
0100
3001
1000
0002
0100
1003
0000
,  // measure 4
2000
0010
3200
0302
0203
0001
0010
2000
,  // measure 5
0000
3300
0000
0000
0000
0000
0000
0000
0000
0000
0000
0000
0000
0000
0000
0000
0000
0000
0000
0000
0000
0000
0000
0000
0000
0000
0000
0000
0000
0000
0000
0000
0000
0000
0000
0000
0000
0000
0000
0000
0000
0000
0000
0000
0000
0000
0000
0000
1000
0000
0000
0000
0000
0000
0000
0000
0000
0000
0000
0000
0000
0000
0000
0000
0000
0000
0000
0000
0000
0000
0000
0000
0200
0000
0000
0000
0000
0000
0000
0000
0000
0000
0000
0000
0000
0000
0000
0000
0000
0000
0000
0000
0000
0000
0000
0000
0001
0000
0000
0000
0000
0000
0000
0000
0000
0000
0000
0000
0000
0000
0000
0000
0000
0000
0000
0000
0000
0000
0000
0000
0000
0000
0000
0000
0000
0000
0000
0000
0000
0000
0000
0000
0000
0000
0000
0000
0000
0000
0000
0000
0000
0000
0000
0000
0010
0000
0000
0000
0000
0000
0000
0000
0000
0000
0000
0000
0000
0000
0000
0000
0000
0000
0000
0000
0000
0000
0000
0000
0000
0000
0000
0000
0000
0000
0000
0000
0000
0000
0000
0000
0000
0000
0000
0000
0000
0000
0000
0000
0000
0000
0000
0000
,  // measure 6
1300
0001
0020
0000
1000
0000
0130
2000
,  // measure 7
0000
3020
0000
0230
1000
0000
0010
0000
,  // measure 8
0301
1000
0020
0000
0001
0000
0130
0001
,  // measure 9
0100
0100
0001
0020
1000
0000
0100
0000
,  // measure 10
0031
1000
0200
0000
0001
0000
0310
0002
,  // measure 11
0000
0103
0110
0100
0010
1010
1000
0001
,  // measure 12
1001
1000
0100
1100
1000
0010
0100
0100
,  // measure 13
0010
1000
0010
1000
0010
0000
0200
0000
1000
0000
0000
0000
0010
0000
0000
0000
,  // measure 14
0301
1000
0020
0100
1000
0000
0130
0002
,  // measure 15
0000
0023
0000
0230
0001
0000
0010
0000
,  // measure 16
1300
0000
0001
0000
0010
0000
0100
0010
0100
0000
0010
0000
0100
0000
1000
0000
,  // measure 17
0100
0100
1000
0020
0001
0000
0100
0000
,  // measure 18
1030
0001
0200
0010
0001
0000
0310
2000
,  // measure 19
0000
3100
0110
0100
0010
0011
0001
1000
,  // measure 20
1001
0000
0001
0000
0100
0000
0101
0000
0001
0000
0010
0000
0100
1000
0100
1000
,  // measure 21
0001
0010
0001
0010
0000
0000
0000
0000
0000
0000
0000
0000
0000
0000
0000
0000
,  // measure 22
0000
0000
0000
0000
10M0
0100
1000
0000
0001
0000
0100
0000
1000
0000
0100
0000
,  // measure 23
0020
0000
1030
0200
0000
0301
0101
0000
,  // measure 24
0100
0000
010M
0000
0001
0100
0001
0000
1000
0000
0100
0000
0001
0000
0100
0000
,  // measure 25
0020
0000
0031
0200
0000
1300
1100
0000
,  // measure 26
0100
0000
M200
0000
0000
0000
0310
0001
0010
0000
0100
0000
0001
0000
0100
0000
,  // measure 27
0010
0000
0001
0200
0000
1300
1100
0000
,  // measure 28
0100
0000
M100
0000
1000
0010
1000
0000
0001
0000
0010
0000
1000
0000
0010
0000
,  // measure 29
0200
0000
1300
0040
0130
0040
0031
0040
,  // measure 30
0130
0000
0040
0000
1030
0010
1000
0000
0001
0000
0010
0000
1000
0000
0010
0000
,  // measure 31
0002
0000
1003
0020
0000
0031
0011
0000
,  // measure 32
0010
0000
001M
0000
0001
0010
0001
0000
1000
0000
0010
0000
0001
0000
0010
0000
,  // measure 33
2000
0000
3001
0020
0000
1030
1010
0000
,  // measure 34
0010
0000
M020
0000
0000
0000
0130
0001
0100
0000
0010
0000
0001
0000
0010
0000
,  // measure 35
1000
0000
0001
0020
0000
1030
1010
0000
,  // measure 36
0010
0000
M010
0000
1000
0100
1000
0000
0001
0000
0100
0000
1000
0000
0100
0000
,  // measure 37
0002
0000
1003
0400
0310
0400
0301
0400
,  // measure 38
0310
0400
2300
0000
0000
0000
0000
0000
,  // measure 39
0000
0000
0000
0000
,  // measure 40
0000
0000
0000
0000
3001
0100
0010
0100
0010
0000
1000
0100
0010
0001
0010
0000
,  // measure 41
0001
0100
0001
0000
1000
0100
0010
0100
0010
0000
0001
0100
0010
1000
0010
0000
,  // measure 42
1000
0100
1000
0000
0001
0010
001M
1000
1000
0000
1000
0100
M100
0010
1000
0000
,  // measure 43
0100
0010
1000
0010
0000
0000
1001
0000
0100
0000
0002
0000
0010
0000
0000
0000
,  // measure 44
1000
0000
0103
0010
2000
0000
0100
0000
,  // measure 45
3001
0200
0000
2300
0000
3002
0010
0000
,  // measure 46
1000
0000
0013
0100
2000
0000
0100
0000
,  // measure 47
3001
0010
1000
1000
0010
2000
0100
0000
,  // measure 48
0001
0000
3010
0100
0002
0000
0010
0000
,  // measure 49
1003
0020
0000
1030
1001
0001
1000
1100
,  // measure 50
0100
0010
0110
0100
0001
0101
0100
1000
,  // measure 51
0001
0000
1000
0000
0001
1000
0001
1000
0100
0000
2000
0000
0010
0000
0000
0000
,  // measure 52
0001
0000
3100
0010
0002
0000
0100
0000
,  // measure 53
1003
0200
0000
0302
0000
2003
0010
0000
,  // measure 54
0001
0000
0000
0000
3010
0000
0100
0000
0001
0000
0100
1000
0100
0000
0000
0000
,  // measure 55
1000
0000
0010
0000
1000
0000
0001
0000
0100
0000
1000
0000
0002
0000
0000
1003
,  // measure 56
0200
0000
1300
0100
0200
0010
0010
0000
,  // measure 57
13M0
0200
0000
1300
1001
0001
1000
1100
,  // measure 58
0100
0010
0110
0100
0001
0101
0100
0001
,  // measure 59
1000
0000
0001
0000
1000
0100
1000
0001
0010
0001
1000
0001
0100
0001
0100
0001
,  // measure 60
1000
0100
0010
0001
0010
0001
0100
0010
1000
0001
0100
0001
1000
0100
0010
0100
,  // measure 61
1000
0100
0M01
0000
2002
0000
0000
3003
,  // measure 62
0110
0000
0000
0000
0000
0000
0000
0000
0000
0000
0000
0000
0000
0000
0000
0000
1000
0100
1000
0100
0010
0100
1000
0000
0100
0000
1000
0000
0000
0000
0100
0000
,  // measure 63
0011
0000
0001
0020
0000
0130
1000
0000
2001
0000
0000
0000
0000
0000
3000
0000
,  // measure 64
1001
0000
0000
0000
0001
0000
0000
0000
0000
0000
0100
0000
0000
0000
0000
0000
0001
0100
0010
0100
0001
0100
0001
0000
0100
0000
0002
0000
0000
0000
0103
0000
,  // measure 65
0101
0000
0000
0000
0000
0000
0000
0000
1100
0000
0000
0000
0000
0000
0000
0000
0200
0000
0000
0000
0000
0000
0000
0000
0000
0000
0000
0000
0300
0000
0000
0000
0110
0000
0000
0000
0000
0000
0000
0000
0000
0000
0000
0000
0000
0000
0000
0000
0001
0100
0001
0100
0010
0100
0001
0000
0100
0000
0100
0000
0000
0000
0001
0000
,  // measure 66
1001
0000
0000
0000
M010
0000
0020
0000
0000
0000
0031
0000
0001
0000
0000
0000
1002
0000
0000
0000
0000
0000
0000
0000
0000
0000
0000
0000
0003
0000
0000
0000
1010
0000
0000
0000
1000
0000
0000
0000
0000
0000
0100
0000
0000
0000
0000
0000
1000
0100
0010
0100
1000
0100
1000
0000
0100
0000
0100
0000
0000
0000
1000
0000
,  // measure 67
1100
0000
0000
0000
0000
0000
0000
0000
0000
0000
0000
0000
0010
0000
0001
0000
0010
0000
0001
0000
0000
0000
0000
0000
0101
0000
0000
0000
0000
0000
0000
0000
0000
0000
0000
0000
0010
0000
1000
0000
0010
0000
1000
0000
0000
0000
0000
0000
2002
0000
0000
0000
0000
0000
0000
0000
0000
0000
0000
0000
0000
0000
0000
0000
0000
0000
0000
0000
0000
0000
0000
0000
0000
0000
0000
0000
0000
0000
0000
0000
0000
0000
0000
0000
0000
0000
0000
0000
0000
0000
0000
0000
0000
0000
0000
0000
0000
0000
0000
0000
0000
0000
0000
0000
0000
0000
0000
0000
0000
0000
0000
0000
0000
0000
0000
0000
0000
0000
0000
0000
0000
0000
0000
0000
0000
0000
0000
0000
0000
0000
0000
0000
0000
0000
0000
0000
0000
0000
0000
0000
0000
0000
0000
0000
0000
0000
0000
0000
0000
0000
0000
0000
0000
0000
0000
0000
0000
0000
0000
0000
0000
0000
0000
0000
0000
0000
0000
0000
0000
0000
0000
0000
0000
0000
0000
0000
0000
0000
0000
0000
0000
0000
0000
0000
0000
0000
0000
0000
0000
0000
0000
0000
,  // measure 68
0000
0000
0000
0000
3003
0000
0000
0000
1000
0100
1000
0100
1000
0100
1000
0100
0010
0001
0010
0001
0010
0001
0010
0001
1000
0010
1000
0010
0100
0001
0100
0001
,  // measure 69
1000
0100
0010
0001
0100
0000
0000
0000
0001
0000
0000
0000
0200
0000
0000
0000
1000
0000
0000
0000
0000
0000
0000
0000
0010
0000
0000
0000
0000
0000
0000
0000
,  // measure 70
0301
1000
0020
0000
0001
0000
0130
0002
,  // measure 71
0000
0023
0000
0230
0001
0000
0010
0000
,  // measure 72
1300
0001
0020
0000
1000
0000
0130
1000
,  // measure 73
0100
0100
1000
0020
0001
0000
0100
0000
,  // measure 74
1030
0001
0200
0000
1000
0000
0310
2000
,  // measure 75
0000
3100
0110
0100
0010
0011
0001
1000
,  // measure 76
1001
0001
0100
0101
0001
0010
0100
0100
,  // measure 77
0010
0001
0010
0001
0010
0000
0200
0000
0001
0000
0000
0000
0010
0000
0000
0000
,  // measure 78
1300
0001
0020
0100
1000
0000
0130
2000
,  // measure 79
0000
3020
0000
0230
1000
0000
0010
0000
,  // measure 80
0301
0000
1000
0000
0010
0000
0001
0010
0001
0000
0010
0000
0100
0000
0001
0000
,  // measure 81
0100
0100
0001
0010
0001
0000
0110
0000
,  // measure 82
1000
0001
0201
0000
1300
0000
0110
1M00
,  // measure 83
0100
1000
0100
1000
0100
1000
0010
0100
0010
1000
0010
1000
0100
1000
0010
1000
,  // measure 84
0010
1000
0100
1000
0001
0100
0010
1000
0100
0010
0100
0010
0100
0000
0001
0000
,  // measure 85
0101
0101
0400
0000
0000
0000
0000
0000
,  // measure 86
0000
0000
0000
0000
,  // measure 87
0000
0300
0000
0000
;

//---------------dance-single - ----------------
#NOTEDATA:;
#CHARTNAME:;
#STEPSTYPE:dance-single;
#DESCRIPTION:;
#CHARTSTYLE:;
#DIFFICULTY:Beginner;
#METER:4;
#RADARVALUES:0.184111,0.297411,0.087474,0.000000,0.000000,221.000000,206.000000,15.000000,0.000000,0.000000,0.000000,0.000000,0.000000,0.000000,0.184111,0.297411,0.087474,0.000000,0.000000,221.000000,206.000000,15.000000,0.000000,0.000000,0.000000,0.000000,0.000000,0.000000;
#CREDIT:;
#NOTES:
// measure 0
0000
0000
0000
0000
,  // measure 1
0000
0000
0000
0000
,  // measure 2
0000
0000
0000
0000
,  // measure 3
0000
0000
0000
0000
,  // measure 4
0000
0000
0000
0000
,  // measure 5
0000
1000
1000
1000
,  // measure 6
0000
0001
0001
0001
,  // measure 7
0000
0000
1000
1000
,  // measure 8
0000
0001
0001
0001
,  // measure 9
0100
0001
0001
0001
,  // measure 10
0000
1000
1000
1000
,  // measure 11
0000
0010
0000
0010
,  // measure 12
0000
0100
0000
0100
,  // measure 13
0100
0001
0001
0001
,  // measure 14
0000
1000
1000
1000
,  // measure 15
0000
0000
0001
0001
,  // measure 16
0000
1000
1000
1000
,  // measure 17
0100
1000
1000
1000
,  // measure 18
0000
0001
0001
0001
,  // measure 19
0000
0010
0000
0010
,  // measure 20
0000
0100
0000
0100
,  // measure 21
0100
0000
0000
0000
,  // measure 22
0000
0100
0100
0100
,  // measure 23
0100
0100
0000
0100
,  // measure 24
0000
0100
0100
0100
,  // measure 25
0100
0100
0000
0100
,  // measure 26
0000
0100
0100
0100
,  // measure 27
0100
0100
0000
0100
,  // measure 28
0000
0100
0100
0100
,  // measure 29
0100
1000
0010
0010
,  // measure 30
0010
0100
0100
0100
,  // measure 31
0100
0100
0000
0100
,  // measure 32
0000
0100
0100
0100
,  // measure 33
0100
0100
0000
0100
,  // measure 34
0000
0100
0100
0100
,  // measure 35
0100
0100
0000
0100
,  // measure 36
0000
0100
0100
0100
,  // measure 37
0100
0001
0010
0010
,  // measure 38
0010
0000
0000
0000
,  // measure 39
0000
0000
0000
0000
,  // measure 40
0000
0001
0000
1000
,  // measure 41
0000
0001
0000
1000
,  // measure 42
0000
0001
0000
1000
,  // measure 43
0000
0000
1000
1000
,  // measure 44
1000
0000
0001
0001
,  // measure 45
0100
0000
0000
0001
,  // measure 46
0001
0000
1000
1000
,  // measure 47
1000
0100
1000
1000
,  // measure 48
1000
0000
0001
0001
,  // measure 49
0100
0000
0001
0000
,  // measure 50
1000
0000
0001
0000
,  // measure 51
1000
0000
0001
0001
,  // measure 52
0001
0000
1000
1000
,  // measure 53
0100
0000
0000
1000
,  // measure 54
1000
0000
0001
0001
,  // measure 55
0001
0100
0001
0001
,  // measure 56
0001
0000
1000
1000
,  // measure 57
0100
0000
1000
0000
,  // measure 58
0001
0000
1000
0000
,  // measure 59
0001
0000
0010
0000
,  // measure 60
0100
0000
0010
0000
,  // measure 61
0100
0000
0110
0000
,  // measure 62
0000
0000
1001
0000
,  // measure 63
1001
0000
0110
0000
,  // measure 64
0000
0000
1001
0000
,  // measure 65
0000
0110
0000
1001
,  // measure 66
1001
0110
0000
1001
,  // measure 67
1001
0000
0000
0000
,  // measure 68
0000
0000
0000
0000
,  // measure 69
0000
0001
0001
0001
,  // measure 70
0000
1000
1000
1000
,  // measure 71
0000
0000
0001
0001
,  // measure 72
0000
1000
1000
1000
,  // measure 73
0100
1000
1000
1000
,  // measure 74
0000
0001
0001
0001
,  // measure 75
0000
0010
0000
0010
,  // measure 76
0000
0100
0000
0100
,  // measure 77
0100
1000
1000
1000
,  // measure 78
0000
0001
0001
0001
,  // measure 79
0000
0000
1000
1000
,  // measure 80
0000
0001
0001
0001
,  // measure 81
0000
1001
0000
1001
,  // measure 82
0000
0110
0000
0110
,  // measure 83
0000
0010
0000
1000
,  // measure 84
0000
0001
0000
0100
,  // measure 85
0100
0000
0000
0000
;

//---------------dance-single - ----------------
#NOTEDATA:;
#CHARTNAME:;
#STEPSTYPE:dance-single;
#DESCRIPTION:;
#CHARTSTYLE:;
#DIFFICULTY:Easy;
#METER:7;
#RADARVALUES:0.264087,0.495685,0.198274,0.099137,0.014579,317.000000,283.000000,34.000000,17.000000,2.000000,0.000000,0.000000,0.000000,0.000000,0.264087,0.495685,0.198274,0.099137,0.014579,317.000000,283.000000,34.000000,17.000000,2.000000,0.000000,0.000000,0.000000,0.000000;
#CREDIT:;
#NOTES:
// measure 0
0000
0000
0000
0000
,  // measure 1
0000
0000
0000
0000
,  // measure 2
1000
0000
1000
0000
,  // measure 3
0001
0000
0001
0000
,  // measure 4
0010
0000
0100
0000
,  // measure 5
0000
1000
0010
0010
,  // measure 6
0001
0010
0010
1000
,  // measure 7
0000
0001
0000
0000
0010
0000
0010
0000
,  // measure 8
1000
0010
0010
0001
,  // measure 9
0100
0001
0010
0010
,  // measure 10
1000
0010
0010
0001
,  // measure 11
0000
0000
0100
0000
0000
0010
0000
0000
,  // measure 12
1000
0000
0000
0100
0000
0000
1000
0000
,  // measure 13
0100
0M01
0010
0010
,  // measure 14
1000
0010
0010
0001
,  // measure 15
0000
1000
0000
0000
0010
0000
0010
0000
,  // measure 16
0001
0010
0010
1000
,  // measure 17
0100
1000
0010
0010
,  // measure 18
0001
0010
0010
1000
,  // measure 19
0000
0000
0100
0000
0000
0010
0000
0000
,  // measure 20
0001
0000
0000
0100
0000
0000
0001
0000
,  // measure 21
0010
0000
0000
0000
,  // measure 22
0000
0100
0100
1100
,  // measure 23
0100
0010
0001
0101
,  // measure 24
0100
0100
0100
0101
,  // measure 25
0100
0010
1000
1100
,  // measure 26
0100
0010
0100
0110
,  // measure 27
0100
0010
0001
1001
,  // measure 28
0001
0100
0100
0110
,  // measure 29
0100
0000
0000
0010
0000
0010
0000
0010
,  // measure 30
0000
0010
0010
1010
,  // measure 31
0010
0100
0001
0011
,  // measure 32
0010
0010
0010
0011
,  // measure 33
0010
0100
1000
1010
,  // measure 34
0010
0100
0010
0110
,  // measure 35
0010
0100
0001
1001
,  // measure 36
0001
0010
0010
0110
,  // measure 37
0010
0000
0000
0100
0000
0100
0000
0100
,  // measure 38
0000
2002
0000
0000
,  // measure 39
0000
0000
0000
0000
,  // measure 40
3003
0001
0001
0001
,  // measure 41
0000
1000
1000
1000
,  // measure 42
0000
0010
0010
0100
,  // measure 43
0200
0300
1000
0100
,  // measure 44
0001
0001
0100
1000
,  // measure 45
0100
0000
0000
1000
0000
0000
0100
0000
,  // measure 46
0001
0100
1000
0100
,  // measure 47
0001
1000
0010
0010
,  // measure 48
1000
0010
0001
0010
,  // measure 49
1000
0000
0000
0000
0010
0000
0000
0001
,  // measure 50
0000
0000
0100
0000
0000
1000
0000
0000
,  // measure 51
0100
0101
1000
0010
,  // measure 52
0001
0001
0010
1000
,  // measure 53
0010
0000
0000
1000
0000
0000
0010
0000
,  // measure 54
0001
0010
1000
0010
,  // measure 55
0001
1000
0100
0100
,  // measure 56
1000
0100
0001
0100
,  // measure 57
1000
0000
0000
0000
0100
0000
0000
0001
,  // measure 58
0000
0000
0010
0000
0000
1000
0000
0000
,  // measure 59
0010
0000
0001
0000
0002
0000
0000
0203
,  // measure 60
0000
0000
2300
0000
0000
3020
0000
0000
,  // measure 61
1030
0100
0220
0000
,  // measure 62
0330
0000
0000
0000
1000
1000
1000
0000
,  // measure 63
0001
0001
0000
0001
2002
0000
0000
0000
,  // measure 64
3003
0000
0000
0000
0010
0100
0010
0100
,  // measure 65
0010
0000
1001
0000
0220
0000
0000
0000
0330
0000
0000
0000
0100
0100
0100
0000
,  // measure 66
0010
0010
0000
0010
2002
0000
0000
0000
3003
0000
0000
0000
1000
0001
1000
0001
,  // measure 67
1001
0110
2002
0000
0000
0000
0000
0000
,  // measure 68
0000
0000
0000
0000
,  // measure 69
0000
3003
0001
0000
0010
0000
0010
0000
,  // measure 70
1000
0010
0010
0001
,  // measure 71
0000
1000
0000
0000
0010
0000
0010
0000
,  // measure 72
0001
0010
0010
1000
,  // measure 73
0100
1000
0010
0010
,  // measure 74
0001
0010
0010
1000
,  // measure 75
0000
0000
0100
0000
0000
0010
0000
0000
,  // measure 76
0001
0000
0000
0100
0000
0000
0001
0000
,  // measure 77
0100
1M00
0010
0010
,  // measure 78
0001
0010
0010
1000
,  // measure 79
0000
0001
0000
0000
0010
0000
0010
0000
,  // measure 80
1000
0010
0010
0001
,  // measure 81
0100
0101
0010
1010
,  // measure 82
1000
1100
0001
0011
,  // measure 83
0010
0000
0110
0000
0000
1100
0000
0000
,  // measure 84
1001
0000
0000
0110
0000
0000
0101
0000
,  // measure 85
0101
0000
0000
0000
;

//---------------dance-single - XO DS JA XMOD JU----------------
#NOTEDATA:;
#CHARTNAME:;
#STEPSTYPE:dance-single;
#DESCRIPTION:XO DS JA XMOD JU;
#CHARTSTYLE:;
#DIFFICULTY:Medium;
#METER:12;
#RADARVALUES:0.424873,0.737768,0.192442,0.075811,0.069979,510.000000,477.000000,33.000000,13.000000,3.000000,0.000000,0.000000,0.000000,0.000000,0.424873,0.737768,0.192442,0.075811,0.069979,510.000000,477.000000,33.000000,13.000000,3.000000,0.000000,0.000000,0.000000,0.000000;
#CREDIT:;
#NOTES:
// measure 0
0000
0000
0000
0000
,  // measure 1
0000
0000
0000
0000
,  // measure 2
1000
0100
1000
1000
,  // measure 3
0001
0100
0001
0001
,  // measure 4
1000
0010
1000
2000
,  // measure 5
3000
0000
1000
0100
0010
0000
0010
0000
,  // measure 6
0001
0100
0010
0000
0010
0000
1000
0100
,  // measure 7
0000
0010
0000
0001
0010
0000
0010
0000
,  // measure 8
0001
0100
0010
0000
0010
0000
1000
0001
,  // measure 9
0100
0100
0001
0100
0010
0000
0010
0000
,  // measure 10
1000
0100
0010
0000
0010
0000
0001
0100
,  // measure 11
0000
0100
0110
0000
0010
1010
0000
1000
,  // measure 12
1100
0000
0100
0110
0000
0010
0001
0100
,  // measure 13
0001
0010
0001
0100
0010
0000
0010
0000
,  // measure 14
1000
0100
0010
0000
0010
0000
0001
0100
,  // measure 15
0000
0010
0000
1000
0010
0000
0010
0000
,  // measure 16
1000
0100
0010
0000
0010
0000
0001
1000
,  // measure 17
0100
0100
1000
0100
0010
0000
0010
0000
,  // measure 18
0001
0100
0010
0000
0010
0000
1000
0100
,  // measure 19
0000
0100
0110
0000
0010
0011
0000
0001
,  // measure 20
0101
0000
0100
0110
0000
0010
1000
0100
,  // measure 21
1000
1000
0000
0000
0000
0000
0000
0000
,  // measure 22
0000
0000
0001
0100
0001
0100
0000
1000
,  // measure 23
0100
0000
0001
0100
0000
1000
0100
0000
,  // measure 24
0001
0100
1M00
0100
1000
0100
0000
0001
,  // measure 25
0100
0000
1000
0100
0000
0001
0100
0000
,  // measure 26
1000
0100
0000
0010
0100
1000
0100
1000
,  // measure 27
0010
0000
0100
0001
0000
0100
0010
0000
,  // measure 28
0100
0001
0100
0001
0100
0001
0000
0100
,  // measure 29
1000
0000
0100
0010
0000
1010
0000
0011
,  // measure 30
0000
0011
0001
0010
0001
0010
0000
1000
,  // measure 31
0010
0000
0001
0010
0000
1000
0010
0000
,  // measure 32
0001
0010
10M0
0010
1000
0010
0000
0001
,  // measure 33
0010
0000
1000
0010
0000
0001
0010
0000
,  // measure 34
1000
0010
0000
0100
0010
1000
0010
1000
,  // measure 35
0100
0000
0010
0001
0000
0010
0100
0000
,  // measure 36
0010
0001
0010
0001
0010
0001
0000
0010
,  // measure 37
1000
0000
0010
0100
0000
1100
0000
0011
,  // measure 38
0000
1000
2002
0000
0000
0000
0000
0000
,  // measure 39
0000
0000
0000
0000
,  // measure 40
3003
0000
1000
0010
1000
0001
0001
0010
,  // measure 41
0001
0000
1000
0100
1000
1000
0001
0100
,  // measure 42
0001
0000
1000
0010
0100
0001
0010
0100
,  // measure 43
2000
3002
0003
0000
0001
0100
1000
0000
,  // measure 44
0100
0000
0001
0100
1000
0000
0100
0000
,  // measure 45
0001
1000
0000
0100
0000
0100
0001
0000
,  // measure 46
0100
0000
1000
0100
0001
0000
0100
0000
,  // measure 47
1000
0010
0100
0100
0001
0100
1000
0000
,  // measure 48
0100
0000
0001
0100
1000
0000
0100
0000
,  // measure 49
0001
0100
0000
1M00
1100
0000
0010
0011
,  // measure 50
0000
0001
0101
0000
1000
1010
0000
0010
,  // measure 51
1000
0100
0001
0100
1000
0010
0001
0000
,  // measure 52
0010
0000
1000
0010
0001
0000
0010
0000
,  // measure 53
1000
0100
0000
0010
0000
0010
1000
0000
,  // measure 54
0010
0000
0001
0010
1000
0000
0010
0000
,  // measure 55
0001
0001
0100
0100
0001
0100
1000
0000
,  // measure 56
0100
0000
0001
1000
0100
0000
0001
0000
,  // measure 57
0100
1000
0000
0100
1100
0000
0010
0011
,  // measure 58
0000
1000
1010
0000
0100
0101
0000
0001
,  // measure 59
0010
0100
0010
0001
0100
0010
1000
0100
,  // measure 60
0010
0001
0100
0010
1000
0100
0010
0001
,  // measure 61
0100
1000
0200
0000
0320
0000
0000
0000
,  // measure 62
1030
0000
0000
0000
0000
0000
0000
0000
0001
0001
0001
0000
1000
0100
0000
0100
,  // measure 63
0010
0000
0001
1000
0000
1000
1000
0000
0200
0000
0000
0000
0000
0000
0000
0000
,  // measure 64
0310
0000
0001
0000
0000
1000
0000
0000
1000
1000
1000
0000
0001
0100
0000
0100
,  // measure 65
0010
0000
0000
0000
0010
0000
0000
0000
1002
0000
0000
0000
0000
0000
0000
0000
0013
0000
0000
0000
0000
0000
0000
0000
0100
0100
0100
0000
0010
0001
0000
0001
,  // measure 66
1000
0000
0100
0010
0000
0010
0100
0000
2000
0000
0000
0000
0000
0000
0000
0000
3010
0000
1000
0000
0000
0001
0000
0000
0100
0100
0100
0000
0010
1000
0000
1000
,  // measure 67
0010
0110
2002
0000
0000
0000
0000
0000
,  // measure 68
0000
3003
1000
0100
0010
0001
0001
0100
,  // measure 69
0010
1000
1001
0000
0001
0000
0100
0000
0010
0000
0000
0000
0010
0000
0000
0000
,  // measure 70
1000
0100
0010
0000
0010
0000
0001
0100
,  // measure 71
0000
0010
0000
1000
0010
0000
0010
0000
,  // measure 72
1000
0100
0010
0000
0010
0000
0001
1000
,  // measure 73
0100
0001
1000
0010
0001
0000
0010
0000
,  // measure 74
0001
0100
0010
0000
0010
0000
1000
0100
,  // measure 75
0000
0100
0110
0000
0010
0011
0000
0001
,  // measure 76
0101
0000
0100
0110
0000
0010
1000
0100
,  // measure 77
0001
0100
1000
0100
0010
0000
0010
0000
,  // measure 78
0001
0100
0010
0000
0010
0000
1000
0100
,  // measure 79
0000
0010
0000
0001
0010
0000
0010
0000
,  // measure 80
0001
0100
0010
0000
0010
0000
1000
0001
,  // measure 81
0100
1000
0100
0000
0010
0000
1010
0000
,  // measure 82
1000
0000
1100
0000
0010
0000
0011
0001
,  // measure 83
0000
0010
0010
0100
1000
0010
0100
0001
,  // measure 84
0010
0100
1000
0010
0100
0001
0010
1000
,  // measure 85
0010
0001
0200
0000
0000
0000
0000
0000
,  // measure 86
0000
0000
0000
0000
,  // measure 87
0000
0300
0000
0000
;

//---------------dance-single - XO+ FS JA XMOD BU JU+----------------
#NOTEDATA:;
#CHARTNAME:;
#STEPSTYPE:dance-single;
#DESCRIPTION:XO+ FS JA XMOD BU JU+;
#CHARTSTYLE:;
#DIFFICULTY:Hard;
#METER:14;
#RADARVALUES:0.534840,0.890410,0.414042,0.344063,0.183695,642.000000,571.000000,71.000000,59.000000,4.000000,0.000000,0.000000,0.000000,0.000000,0.534840,0.890410,0.414042,0.344063,0.183695,642.000000,571.000000,71.000000,59.000000,4.000000,0.000000,0.000000,0.000000,0.000000;
#CREDIT:;
#NOTES:
// measure 0
0000
0000
0000
0000
,  // measure 1
0000
0000
0000
0000
,  // measure 2
1000
0010
0010
0100
0001
1000
0001
0000
,  // measure 3
0001
0010
0010
0100
1000
0001
1000
0000
,  // measure 4
1000
0010
0100
0001
0010
0100
1000
0010
,  // measure 5
0000
0000
1000
0100
0010
0100
0110
0000
,  // measure 6
0001
0100
0010
0100
0010
0100
0001
0200
,  // measure 7
0000
2300
0000
3100
0010
0100
0110
0000
,  // measure 8
1000
0100
0010
0100
0010
0100
1100
1000
,  // measure 9
0100
M100
0001
0100
0010
0100
0110
0000
,  // measure 10
1000
0100
0010
0100
0010
0100
1000
0200
,  // measure 11
0000
0301
0101
0000
0100
0110
0000
0010
,  // measure 12
0011
0000
0001
0101
0000
0100
1000
0100
,  // measure 13
0010
0100
0010
0000
1000
0000
0010
0000
0100
0000
0010
0000
0110
0000
0000
0000
,  // measure 14
0001
0010
0100
0010
0100
0010
0001
0020
,  // measure 15
0000
2030
0000
3010
0100
0010
0110
0000
,  // measure 16
1000
0000
0010
0000
0100
0000
0010
0100
0010
0000
0100
0000
0101
0000
0001
0000
,  // measure 17
0010
0010
0001
0010
0100
0010
0110
0000
,  // measure 18
1000
0010
0100
0010
0100
0010
1000
0020
,  // measure 19
0000
0031
0011
0000
0010
0110
0000
0100
,  // measure 20
0101
0000
0000
0000
0001
0000
0011
0000
0000
0000
0001
0000
0100
0010
0100
0000
,  // measure 21
0010
1000
0010
1000
0000
0000
0000
0000
0000
0000
0000
0000
0000
0000
0000
0000
,  // measure 22
0000
0000
0000
0000
1000
0100
1000
0000
0100
0000
1000
0000
0100
0000
1000
0000
,  // measure 23
0200
0000
1300
2000
0000
3001
0002
0000
,  // measure 24
0103
0000
0100
0000
0001
0100
0001
0000
0100
0000
0001
0000
0100
0000
0001
0000
,  // measure 25
0200
0000
0301
0002
0000
1003
2000
0000
,  // measure 26
3100
0000
0200
0000
0000
0000
0310
0100
0010
0000
0100
0000
0010
0000
0100
0000
,  // measure 27
0200
0000
1300
0200
0000
0310
0200
0000
,  // measure 28
1300
0000
0010
0000
0010
0100
0010
0000
0100
0000
0200
0000
0000
0000
0310
0000
,  // measure 29
0200
0000
0301
0020
0000
1030
0000
2010
,  // measure 30
0000
0000
3010
0000
0001
0100
0001
0000
0100
0000
0001
0000
0100
0000
0001
0000
,  // measure 31
0200
0000
0301
0002
0000
1003
2000
0000
,  // measure 32
3100
0000
0100
0000
1000
0100
1000
0000
0100
0000
1000
0000
0100
0000
1000
0000
,  // measure 33
0200
0000
1300
2000
0000
3001
0002
0000
,  // measure 34
0103
0000
0200
0000
0000
0000
0310
0100
0010
0000
0100
0000
0010
0000
0100
0000
,  // measure 35
0200
0000
0301
0200
0000
0310
0200
0000
,  // measure 36
0301
0000
0010
0000
0010
0100
0010
0000
0100
0000
0200
0000
0000
0000
0310
0000
,  // measure 37
0200
0000
1300
0020
0000
0031
0000
0011
,  // measure 38
0010
1000
2002
0000
0000
0000
0000
0000
,  // measure 39
0000
0000
0000
0000
,  // measure 40
3003
0000
0000
0000
1000
0000
0100
0000
0010
0000
0100
0000
1000
0001
1000
0000
,  // measure 41
0001
0000
1001
0000
0001
0000
0100
0000
0010
0000
0100
0000
0001
1000
0001
0000
,  // measure 42
1000
1001
1000
0100
0001
0100
1000
0010
,  // measure 43
0001
0001
0010
0010
0000
0000
0110
0000
1000
0000
0100
0000
0001
0000
0000
0000
,  // measure 44
0101
0000
0100
1000
0010
0000
0001
0000
,  // measure 45
0011
0002
0000
0023
0000
0130
1000
0000
,  // measure 46
1100
0000
0100
0001
0010
0000
1000
0000
,  // measure 47
1010
0010
0001
0100
0001
0100
1000
0000
,  // measure 48
1100
0000
0100
0001
0010
0000
1000
0000
,  // measure 49
1010
0020
0000
1030
1001
0000
1000
1010
,  // measure 50
0000
0010
0011
0000
0001
0101
0000
0100
,  // measure 51
1000
0000
0100
0000
0010
0100
0010
0000
1000
0000
0010
0000
0001
0000
0000
0000
,  // measure 52
0011
0000
0010
1000
0100
0000
0001
0000
,  // measure 53
0101
0002
0000
0203
0000
0310
1000
0000
,  // measure 54
1010
0000
0010
0001
0100
1000
0100
0001
,  // measure 55
1001
0000
M100
0000
0001
0000
1000
0000
0001
0000
0100
0000
1000
0000
0000
0001
,  // measure 56
1000
0000
0100
0001
0010
1000
0001
0000
,  // measure 57
1001
0002
0000
0103
0110
0000
10M0
1010
,  // measure 58
0000
0001
0011
0000
1000
1100
0000
0001
,  // measure 59
0101
0000
0100
0000
0010
0100
0010
0000
1000
0000
0100
0000
0001
0000
1000
0000
,  // measure 60
0010
0001
0001
0100
1000
0001
0010
1000
,  // measure 61
1000
0100
0100
0000
0220
0000
0000
0330
,  // measure 62
1001
0000
0000
0000
0000
0000
0000
0000
0000
0000
0000
0000
0000
0000
0000
0000
1000
0010
1000
0000
0100
0000
1000
0000
0001
0000
0100
0000
0000
0000
0001
0000
,  // measure 63
0100
0000
0100
0010
0000
0010
1000
0000
2002
0000
0000
0000
0000
0000
3003
0000
,  // measure 64
0001
0000
0000
0000
0100
0000
0000
0000
0000
0000
0100
0000
0000
0000
0000
0000
0001
0010
0001
0000
0100
0000
0001
0000
0100
0000
1000
0000
0000
0000
0100
0000
,  // measure 65
0001
0000
0000
0000
0000
0000
0000
0000
1001
0000
0000
0000
0000
0000
0000
0000
0220
0000
0000
0000
0000
0000
0000
0000
0000
0000
0000
0000
0330
0000
0000
0000
1001
0000
0000
0000
0000
0000
0000
0000
0000
0000
0000
0000
0000
0000
0000
0000
1000
0100
1000
0000
0010
0000
1000
0000
0001
0000
0010
0000
0000
0000
0001
0000
,  // measure 66
0010
0000
0000
0000
0010
0000
0100
0000
0000
0000
0100
0000
1000
0000
0000
0000
2002
0000
0000
0000
0000
0000
0000
0000
0000
0000
0000
0000
3003
0000
0000
0000
0001
0000
0000
0000
0010
0000
0000
0000
0000
0000
0010
0000
0000
0000
0000
0000
0001
0100
0001
0000
0010
0000
0001
0000
0010
0000
1000
0000
0000
0000
0010
0000
,  // measure 67
0001
0200
1300
0200
0320
0000
0000
0000
0000
0000
0000
0000
0000
0000
0000
0000
,  // measure 68
0000
0000
0000
0000
0130
0001
0100
0001
1000
0010
1000
0001
0010
0100
0001
0100
,  // measure 69
1000
0001
1001
0000
0001
0000
0100
0000
0010
0000
0100
0000
0110
0000
0000
0000
,  // measure 70
1000
0100
0010
0100
0010
0100
1000
0200
,  // measure 71
0000
0302
0000
0103
0010
0100
0110
0000
,  // measure 72
0001
0100
0010
0100
0010
0100
0101
0001
,  // measure 73
0100
010M
1000
0100
0010
0100
0110
0000
,  // measure 74
0001
0100
0010
0100
0010
0100
0001
0200
,  // measure 75
0000
1300
1100
0000
0100
0110
0000
0010
,  // measure 76
1010
0000
1000
1100
0000
0100
0001
0100
,  // measure 77
0010
0100
0010
0000
0001
0000
0010
0000
0100
0000
0010
0000
0110
0000
0000
0000
,  // measure 78
1000
0010
0100
0010
0100
0010
1000
0020
,  // measure 79
0000
0032
0000
0013
0100
0010
0110
0000
,  // measure 80
0001
0000
0010
0000
0100
0000
0010
0100
0010
0000
0100
0000
1100
0000
1000
0000
,  // measure 81
0010
0000
1010
0010
0100
0000
0110
0000
,  // measure 82
0001
0010
0110
0000
0100
0000
0011
0020
,  // measure 83
0000
1030
1010
0010
0100
0110
0100
1000
,  // measure 84
1100
0000
1000
0000
0010
0000
1010
0000
0010
1000
0001
0000
0100
0000
0100
0000
,  // measure 85
0101
0101
0002
0000
0000
0000
0000
0000
,  // measure 86
0000
0000
0000
0000
,  // measure 87
0000
0003
0000
0000
;
