#VERSION:0.83;
#TITLE:HARD Glime;
#SUBTITLE:;
#ARTIST:seatrus;
#TITLETRANSLIT:;
#SUBTITLETRANSLIT:;
#ARTISTTRANSLIT:;
#GENRE:;
#ORIGIN:;
#CREDIT:;
#BANNER:hard glime banner.png;
#BACKGROUND:hard glime bg.png;
#PREVIEWVID:;
#JACKET:hard glime jk.png;
#CDIMAGE:;
#DISCIMAGE:;
#LYRICSPATH:;
#CDTITLE:;
#MUSIC:hard glime.ogg;
#OFFSET:-2.593000;
#SAMPLESTART:23.321999;
#SAMPLELENGTH:20.740999;
#SELECTABLE:YES;
#BPMS:0.000=162.000;
#STOPS:;
#DELAYS:;
#WARPS:;
#TIMESIGNATURES:0.000=7=4;
#TICKCOUNTS:0.000=4;
#COMBOS:0.000=1;
#SPEEDS:0.000=1.000=0.000=0;
#SCROLLS:0.000=1.000;
#FAKES:;
#LABELS:0.000=Song Start;
#BGCHANGES:;
#KEYSOUNDS:;
#ATTACKS:
;

//---------------dance-single - XO FS+ DS- JA- BU RH TS STR[6*|14] JU Mines----------------
#NOTEDATA:;
#CHARTNAME:;
#STEPSTYPE:dance-single;
#DESCRIPTION:XO FS+ DS- JA- BU RH TS STR[6*|14] JU Mines;
#CHARTSTYLE:;
#DIFFICULTY:Challenge;
#METER:19;
#RADARVALUES:0.983627,1.112850,0.321358,0.374917,1.460988,1157.000000,1103.000000,54.000000,63.000000,128.000000,0.000000,0.000000,0.000000,0.000000,0.983627,1.112850,0.321358,0.374917,1.460988,1157.000000,1103.000000,54.000000,63.000000,128.000000,0.000000,0.000000,0.000000,0.000000;
#CREDIT:Karl with a K;
#NOTES:
// measure 0
0000
0000
0000
0000
,  // measure 1
0000
0000
0000
0000
,  // measure 2
0000
0000
0000
0000
,  // measure 3
0000
0000
0000
0000
,  // measure 4
0000
0000
0000
0000
,  // measure 5
0000
0000
0000
0000
,  // measure 6
0000
0000
0000
0000
,  // measure 7
1000
0000
0100
1000
0200
0000
0310
0000
,  // measure 8
0001
0010
0001
0000
0200
0000
0301
0000
,  // measure 9
0100
0001
0200
0000
0310
0000
1000
0010
,  // measure 10
1000
0000
0000
0000
0100
1000
0100
0000
1000
0000
0100
0000
0010
0000
0100
0000
,  // measure 11
0001
0100
0010
0100
1000
0001
1000
0100
,  // measure 12
0002
0000
0000
0000
0203
0000
0000
0000
1300
0000
0100
0000
1000
0000
0100
0000
0010
0000
0001
0000
1000
0000
0001
0000
0010
0001
0010
0000
0001
0000
1000
0000
,  // measure 13
0020
0000
0001
0000
0130
1000
0110
MMMM
,  // measure 14
1002
0000
0103
0000
1002
0000
0013
0000
0001
1000
0000
1000
0002
0000
0103
0000
,  // measure 15
2001
3100
2001
3010
1010
1100
0011
0001
,  // measure 16
0100
0000
0001
0000
1000
0010
0000
0010
1000
0000
0100
0000
2000
0000
0100
0000
,  // measure 17
3002
0000
0000
0000
0013
0000
0100
0000
1000
0000
0000
0000
0001
0000
0010
000M
0010
0000
0000
0000
0110
0000
0000
0000
1002
0000
0000
0000
0103
0000
0000
0000
,  // measure 18
1002
0000
0000
0000
0013
0000
0000
0000
1001
0000
0000
0000
1000
0000
0100
M000
0200
0000
0000
0000
0301
0000
0000
0000
2001
0000
0000
0000
3010
0000
0000
0000
,  // measure 19
1001
0000
1001
0000
MM12
0000
0103
0000
1001
0000
0000
1M1M
0000
0000
1000
0002
,  // measure 20
0100
0000
0100
0000
0013
0000
0100
2000
0100
0000
3010
0000
0100
0010
0100
0010
,  // measure 21
0100
0000
0110
0000
1001
0000
0001
0100
0001
0000
1000
0100
1000
0000
0001
0100
,  // measure 22
0001
0000
1000
0100
0010
0000
0001
0100
0010
0000
0010
0001
0010
0000
0010
0100
,  // measure 23
0000
0100
0001
0010
0100
0000
1000
0010
0100
0000
0001
0010
0100
0000
1000
0010
,  // measure 24
0100
0000
0001
0010
0200
0000
0001
0000
0301
0000
0100
0010
0001
0000
0100
0010
,  // measure 25
1000
0000
0010
0100
1000
0000
0100
0010
1000
0000
0100
0010
0001
0000
0010
0000
,  // measure 26
0011
0000
0000
M1M1
0000
0000
1M1M
0000
1001
0000
0001
0000
MM11
0000
0000
0010
,  // measure 27
0001
1000
0000
1000
0010
1000
0000
1000
0100
0000
0100
0010
0000
0010
0001
0000
,  // measure 28
M1M2
0000
1003
0000
0001
0010
0100
0010
0001
1000
0010
0100
0001
1000
0010
1000
,  // measure 29
0001
0010
0100
1000
0001
1000
0001
0010
0001
1000
0100
1000
0001
0100
0010
0100
,  // measure 30
0001
1000
0001
0010
0100
1000
0001
0100
0001
1000
0001
0100
0010
1000
0001
1000
,  // measure 31
0100
1000
0001
0100
0010
1000
0001
0000
MM12
0000
1003
0000
0001
0100
0010
0100
,  // measure 32
0001
1000
0100
0010
0001
1000
0100
1000
0001
0100
0010
1000
0001
1000
0001
0100
,  // measure 33
0001
1000
0010
0000
2M1M
0000
3001
0010
0001
1000
0001
0100
0010
1000
0001
0010
,  // measure 34
0001
1000
0100
0000
0110
0000
0010
0100
0000
0000
1000
0001
0000
0001
0010
0000
,  // measure 35
2M1M
0000
0000
0000
0000
0000
0000
0000
0000
0000
0000
0000
3100
0000
0000
0000
1000
0000
0100
0000
M100
0000
0100
0000
1000
0000
0001
0000
0100
000M
0100
0000
,  // measure 36
1000
0000
0001
0000
0100
000M
0100
0000
1000
0000
0100
M000
0100
0000
0010
0000
0001
0000
0010
0000
0100
0000
0001
0000
0010
000M
0020
0000
1000
0000
0000
0000
,  // measure 37
0130
0010
0100
0000
1M1M
0000
M010
0001
0010
0000
001M
1000
0010
0000
M010
0001
,  // measure 38
0010
0000
001M
1000
0100
0010
0001
0000
MM12
0000
0000
0000
0000
0000
0103
0000
,  // measure 39
0001
0000
0100
0000
010M
0000
0100
0000
0001
0000
1000
0000
0100
M000
0100
0000
0001
0000
1000
0000
0100
0000
0100
0000
0001
0000
0100
000M
0100
0000
0010
0000
,  // measure 40
1000
0000
0010
0000
0100
0000
1000
0000
0010
M000
0010
0000
0000
0000
MM22
0000
0000
0000
0000
0000
0033
0000
0001
0000
0100
0000
0000
0000
2M2M
0000
0000
0000
,  // measure 41
3030
1000
0100
0000
0220
0000
0330
0000
0010
0001
0000
1M1M
0000
0010
1000
0100
,  // measure 42
0010
0000
0000
0000
0000
0000
0001
1000
0001
0000
0010
0000
001M
0000
0010
0000
0001
0000
0100
0000
0010
0000
0001
0000
0010
0000
0100
0000
0001
0000
1000
0000
,  // measure 43
0001
0000
0000
0010
0000
0000
0000
0000
0000
1000
0000
0000
0000
0010
0000
0000
0000
0001
0000
0000
0000
0100
0000
0000
0001
0000
1000
0000
0001
0000
1000
0000
0000
0100
0000
0000
0010
0000
0000
0001
0000
0000
0000
0000
0000
0100
0000
0000
,  // measure 44
0000
0000
0000
0000
0000
0000
0000
0000
0000
0000
0000
0000
1000
0000
0000
0000
0000
0000
0000
0000
0000
0000
0000
0000
0000
0000
0000
0000
0000
0000
0000
0000
0000
0000
0000
0000
0100
0000
0000
0000
0000
0000
0000
0000
0000
0000
0000
0000
0010
0000
0000
0000
0000
0000
0000
0000
0000
0000
0000
0000
0000
0000
0000
0000
0100
0000
0000
0000
0000
0000
0000
0000
0000
0000
0000
0000
0000
0000
0000
0000
0000
0000
0000
0000
0000
0000
0000
0000
0000
0000
0000
0000
0000
0000
0000
0000
0001
0000
0000
0000
0000
0000
0000
0000
0000
0000
0000
0000
0000
0000
0000
0000
0000
0000
0000
0000
0000
0000
0000
0000
0100
0000
0000
0000
0000
0000
0000
0000
0000
0000
0000
0000
0010
0000
0000
0000
0000
0000
0000
0000
0000
0000
0000
0000
1000
0000
0000
0000
0000
0000
0000
0000
0000
0000
0000
0000
0001
0000
0000
0000
0000
0000
0000
0000
0000
0000
0000
0000
1000
0000
0000
0000
0000
0000
0000
0000
0000
0000
0000
0000
0010
0000
0000
0000
0000
0000
0100
0000
0000
0000
0000
0000
,  // measure 45
0010
1000
0010
1000
0100
0010
0100
0000
0001
0100
0010
0100
1000
0001
0100
1000
,  // measure 46
0100
0010
1000
0100
0010
1000
0010
0100
0010
0001
0100
0010
0100
1000
0100
0010
,  // measure 47
1000
0000
0010
0100
0001
0000
0010
0000
0002
0000
0000
0000
0000
0000
0000
0000
0000
0000
0000
0000
0103
0000
0000
0000
0001
0000
0100
0000
010M
0000
0100
0000
,  // measure 48
0001
0000
1000
0000
0100
M000
0100
0000
0001
0000
1000
0000
0100
M000
0100
0000
0001
0000
0100
000M
0100
0000
0010
0000
0001
0000
0000
0000
2M2M
0000
0000
0000
,  // measure 49
3030
0000
0000
0000
1000
0000
0100
0000
M100
0000
0100
0000
1000
0000
0001
0000
0100
000M
0100
0000
1000
0000
0001
0000
1000
0000
0100
000M
0100
0000
0001
0000
,  // measure 50
0010
0000
0100
0000
1000
0000
0001
0000
0010
0000
0001
0000
1000
0000
0000
0000
M2M1
0000
0000
0000
0000
0000
0000
0000
0300
0000
0001
0000
0010
000M
0010
0000
,  // measure 51
1000
0000
0001
0000
0100
000M
0100
0000
1000
0100
1000
0000
0001
0000
1000
0000
0100
0000
1000
0000
0010
0000
0100
0000
0001
0000
1000
0000
0001
0000
0000
0000
,  // measure 52
22MM
0000
0000
0000
3300
0000
0000
0000
1000
0000
0010
M000
0010
0000
MM12
0000
0000
0000
0000
0000
0103
0000
0000
0000
2M1M
0000
0000
0000
3001
0000
0100
0000
,  // measure 53
0001
1000
0010
1000
0001
0010
0100
1000
0001
0010
0001
1000
0010
0100
0010
0100
,  // measure 54
0001
1000
0010
0000
2002
0000
0000
0000
0000
0000
0000
0000
0000
0000
0000
0000
,  // measure 55
0000
0000
0000
0000
,  // measure 56
0000
0000
0000
0000
,  // measure 57
0000
0000
0003
0100
,  // measure 58
0000
0100
0000
0000
0000
0000
0100
0001
,  // measure 59
0000
0100
3002
0000
0100
0000
0000
0100
,  // measure 60
0000
0000
0000
0000
0100
1000
0000
0100
,  // measure 61
1003
0100
0010
0001
1000
0000
0000
0000
0010
0000
1000
0000
0020
0000
0000
0000
,  // measure 62
0130
0000
0001
0100
0001
0000
0020
0000
,  // measure 63
0031
0000
0010
0001
0020
0000
0130
0000
,  // measure 64
1000
0000
0100
0000
1000
0000
0000
0000
0010
1000
0010
0000
1000
0000
0010
0000
,  // measure 65
0100
0010
0001
0010
0100
0010
1000
0001
,  // measure 66
1000
0000
0010
0000
0002
0000
0023
0000
1030
0010
1000
0010
0100
0001
1000
0001
,  // measure 67
0100
0001
0100
0001
1000
0001
1000
0000
0010
0000
1000
0000
0001
0000
1000
0000
0100
0000
0010
0000
0001
0000
0010
0000
0100
0000
0001
0000
1000
0000
0010
0000
,  // measure 68
0001
0000
MMMM
0000
1000
0010
0100
0010
0100
0001
1000
0001
1000
0001
0010
0100
,  // measure 69
0010
0100
1000
0001
0100
0010
1000
0001
1000
0100
0010
0100
1000
0001
0100
0001
,  // measure 70
1000
0010
0100
0001
1000
0010
1000
0001
1000
0100
0010
0001
0010
0001
1000
0010
,  // measure 71
0100
0001
0100
0010
0100
0010
1000
0001
1000
0010
1000
0001
1000
0001
0010
0100
,  // measure 72
0010
0100
1000
0001
1000
0001
1000
0010
0100
0010
0100
0001
1000
0100
0010
0001
,  // measure 73
1000
0001
0100
0010
0100
0001
1000
0100
1000
0001
0010
0100
1000
0001
0010
0001
,  // measure 74
1000
0001
0100
0010
1000
0010
1000
0001
0010
0100
1000
0100
0010
0100
0010
0001
,  // measure 75
1000
0000
0001
0000
1000
0001
1000
0000
0001
0000
0100
0000
0010
0000
0100
0000
0010
0000
1000
0000
0001
0000
1000
0000
0001
0000
1000
0000
0100
0000
0010
0000
,  // measure 76
0100
0010
0100
1000
0010
0100
0001
1000
0001
0010
0100
0010
0001
1000
0010
1000
,  // measure 77
0001
0100
0010
1000
0001
1000
0100
0010
0001
0010
0100
1000
0100
1000
0001
0100
,  // measure 78
0010
0100
0010
1000
0010
0100
0001
1000
0001
0100
0001
1000
0001
1000
0100
0010
,  // measure 79
0100
0010
0001
1000
0001
1000
0001
0100
0010
0100
0010
1000
0001
0010
0100
1000
,  // measure 80
0001
1000
0010
0100
0010
1000
0010
1000
0100
1000
0001
0100
0010
1000
0100
1000
,  // measure 81
0001
0000
0010
0000
0001
0000
0100
0000
0001
0000
1000
0000
0001
0000
0010
0000
0001
0000
0100
0000
0001
0000
0100
000M
0100
0000
1000
0000
0100
0000
1000
0000
,  // measure 82
0001
0000
1000
0000
0010
M000
0010
0000
0001
0000
0000
0000
0100
0000
0001
0000
1000
0000
0000
0000
0100
0000
1000
0000
0001
0000
0000
0000
0100
0000
0001
0000
,  // measure 83
1000
0000
0100
1000
0001
0000
0010
0001
1000
0000
0010
1000
0001
0000
0010
0001
,  // measure 84
1000
0000
0010
1000
0001
0000
0100
0010
1000
0000
0100
0010
0001
0000
0100
0010
,  // measure 85
1000
0000
0000
0000
0100
0000
0010
0000
0001
0000
0000
0000
0010
0000
0100
0000
1000
0000
0000
0000
0010
0000
0100
0000
0001
0000
0100
0001
0100
0000
010M
0000
,  // measure 86
0100
0000
0000
0000
0000
0000
0001
0000
0000
0100
0000
0000
0010
0000
0000
0000
0000
0000
0000
0000
0010
0000
0000
0000
0000
0000
0000
0000
1000
0000
0000
0000
0000
0000
0000
0000
0010
0000
0000
0000
0000
0000
0010
0000
1000
0000
0000
0000
,  // measure 87
0100
0000
M100
0000
0100
0000
1000
0000
0100
M000
0100
0000
0001
0000
1000
0100
0010
0000
0000
0000
0100
0000
1000
0000
0001
0000
0000
0000
0100
0000
0010
0000
,  // measure 88
1000
0000
0001
0010
0100
0000
1000
0000
M1M1
0000
0000
1M1M
0000
0000
0001
0010
,  // measure 89
0000
0000
0010
0000
0100
0000
1000
0000
0020
0000
0000
0000
0030
0000
0000
0000
1000
0000
0000
0000
0100
M000
0100
0000
0001
0000
0000
0000
0100
000M
0100
0000
,  // measure 90
1000
0000
0000
0000
0100
M000
0100
0000
0001
0000
0000
0000
0010
000M
0010
0000
1000
0000
0000
0000
0010
000M
0010
0000
0100
0000
0000
0000
0100
0000
0000
0000
,  // measure 91
1000
0000
0000
0000
0001
0000
0100
000M
0100
0000
0000
0000
1000
0000
0100
M000
0100
0000
0000
0000
0001
0000
0100
0000
010M
0000
0100
0000
0001
0100
0001
0100
,  // measure 92
0001
0000
0000
0000
1000
0000
0010
M000
0010
0000
0000
0000
0001
0000
0010
000M
0010
0000
0000
0000
1000
0000
0010
M000
0020
0000
0000
0000
0000
0000
0000
0000
,  // measure 93
0000
0000
0000
0000
0130
0000
0000
0000
1000
0000
0010
0000
M010
0000
0010
0000
1000
0000
0010
M000
0010
0000
0001
0000
0010
0001
0000
0000
0010
0000
001M
0000
,  // measure 94
0010
000M
0010
0000
0100
0000
0001
0000
0010
0000
001M
0000
0010
000M
0010
0000
0200
0000
0000
0000
0301
0000
0110
0000
0000
0000
0010
0000
1000
0000
0100
M000
,  // measure 95
0100
0000
0000
0000
M1M1
0000
0000
0000
0001
0000
0100
000M
0100
0000
0000
0000
11MM
0000
0000
0000
0100
0000
1000
0000
0010
M000
0010
0000
0000
0000
MM11
0000
,  // measure 96
0000
001M
0000
2000
0010
0000
0000
0000
0000
0000
3100
0000
1000
0100
M100
0100
,  // measure 97
1000
0000
0001
0000
0100
000M
0100
0000
1000
0000
0001
0000
0100
000M
0100
0000
1000
0000
0100
M000
0100
0000
0010
0000
1000
0000
0000
0000
MM22
0000
0000
0000
,  // measure 98
0033
0000
0000
0000
0001
0000
0100
0000
010M
0000
0100
0000
0001
0000
1000
0000
0100
M000
0100
0000
0001
0000
1000
0000
0001
0000
0100
M000
0100
0000
1000
0000
,  // measure 99
0010
0000
0100
0000
0001
0000
1000
0000
0010
0000
1000
0000
0001
0000
0000
0000
22MM
0000
0000
0000
0000
0000
0000
0000
3300
0000
1000
0000
0010
M000
0010
0000
,  // measure 100
0001
0000
1000
0000
0100
M000
0100
0000
0001
0100
0001
0000
1000
0000
0001
0000
0100
0000
0001
0000
0010
0000
0100
0000
1000
0000
0001
0000
1000
0000
0000
0000
,  // measure 101
M2M2
0000
0000
0000
0303
0000
0000
0000
0001
0000
0010
000M
0010
0000
2M1M
0000
0000
0000
0000
0000
3100
0000
0000
0000
MM12
0000
0000
0000
1003
0000
0100
0000
,  // measure 102
1000
0001
0010
0001
1000
0010
0100
0001
1000
0010
1000
0001
0010
0100
0010
0100
,  // measure 103
1000
0010
0100
0000
2002
0000
0000
0000
0000
0000
0000
0000
0000
0000
0000
0000
,  // measure 104
0000
0000
0000
0000
,  // measure 105
0000
0000
0000
0000
,  // measure 106
0000
0000
3003
0001
,  // measure 107
0000
1000
0000
0000
0000
0000
0000
0001
,  // measure 108
0000
0000
1000
0000
0100
0000
0000
0010
,  // measure 109
0000
0000
0000
0000
0000
0001
0000
0000
,  // measure 110
0100
0000
0000
0000
;

//---------------dance-single - XO JA RH- TS JU-----------------
#NOTEDATA:;
#CHARTNAME:;
#STEPSTYPE:dance-single;
#DESCRIPTION:XO JA RH- TS JU-;
#CHARTSTYLE:;
#DIFFICULTY:Hard;
#METER:17;
#RADARVALUES:0.729431,0.980811,0.166630,0.238043,0.729006,858.000000,830.000000,28.000000,40.000000,0.000000,0.000000,0.000000,0.000000,0.000000,0.729431,0.980811,0.166630,0.238043,0.729006,858.000000,830.000000,28.000000,40.000000,0.000000,0.000000,0.000000,0.000000,0.000000;
#CREDIT:Karl with a K;
#NOTES:
// measure 0
0000
0000
0000
0000
,  // measure 1
0000
0000
0000
0000
,  // measure 2
0000
0000
0000
0000
,  // measure 3
0000
0000
0000
0000
,  // measure 4
0000
0000
0000
0000
,  // measure 5
0000
0000
0000
0000
,  // measure 6
0000
0000
0000
0000
,  // measure 7
0001
0000
0100
0001
0200
0000
0310
0000
,  // measure 8
1000
0010
1000
0000
0200
0000
1300
0000
,  // measure 9
0100
1000
0200
0000
0310
0000
0001
0010
,  // measure 10
0001
0000
0100
0100
0001
0100
0010
0100
,  // measure 11
0001
0100
0010
0000
1000
0100
1000
0100
,  // measure 12
0020
0000
0030
0000
0001
0000
0001
0000
1000
0000
1000
0000
0010
1000
0001
0000
,  // measure 13
0020
0100
0130
1001
,  // measure 14
1001
0000
0000
0000
1000
0000
0100
0000
0010
0100
0000
0100
1000
0000
0100
0000
,  // measure 15
0010
0100
1000
0100
0010
0010
0001
0100
,  // measure 16
0010
0000
0100
0000
0001
0100
0000
0100
0010
0000
0100
0000
0001
0000
0100
0000
,  // measure 17
0010
0000
0100
0001
1000
0000
0001
1000
0001
0000
1001
0000
0001
0000
0100
0000
,  // measure 18
0010
0000
1000
0000
0001
0000
0010
0001
0010
0000
0000
0000
0001
0000
1000
0000
,  // measure 19
0010
0000
0010
0000
1000
0000
0000
0000
1010
0000
0000
1001
0000
0000
1000
0100
,  // measure 20
0010
0000
0010
0000
0001
0000
1000
0100
0010
0000
0001
0000
1000
0000
1000
0000
,  // measure 21
0001
0001
1000
0100
0010
0100
0001
0100
,  // measure 22
0010
0000
0100
0000
1000
0000
0100
0000
0010
0000
0001
0010
0001
0000
0001
0100
,  // measure 23
0000
0100
0010
0100
0010
0000
0100
0000
1000
0000
0100
0000
0010
0000
0100
0000
,  // measure 24
0001
0100
0010
0010
1000
0100
0001
0100
,  // measure 25
1000
0000
0001
0100
1000
0100
0001
0000
,  // measure 26
1000
0000
0000
0100
0000
0000
0001
0000
1000
0000
0010
0000
0001
0000
0000
0100
,  // measure 27
0010
0100
0000
0100
1000
0000
0001
0000
0010
0000
0010
1000
0000
1000
0001
0000
,  // measure 28
1001
0000
0000
0000
1000
0000
0010
0000
1000
0000
0001
1000
0000
1000
0010
0000
,  // measure 29
1000
0001
1000
0100
0010
0100
2000
0000
,  // measure 30
3001
0010
0001
1000
0001
0010
0001
1000
,  // measure 31
0001
0100
0010
1000
0002
0000
1003
0010
,  // measure 32
1000
0000
0100
0000
1000
0000
0010
1000
0001
0000
1000
0000
0100
0000
0010
0000
,  // measure 33
0001
0000
2000
0000
3001
0010
0001
0100
,  // measure 34
0001
0000
0010
0000
0100
0000
0000
1000
0001
0000
1000
0000
0000
0001
0010
0000
,  // measure 35
0220
0000
0000
0000
0330
0000
1000
0000
0010
1000
0010
1000
0000
0001
0100
0001
,  // measure 36
0000
1000
0100
1000
0100
1000
0000
0100
0010
0000
0010
0000
0001
1000
0010
0000
,  // measure 37
0010
0000
0010
0000
0010
0000
1000
0001
0010
0000
0001
1000
0010
0000
1000
0001
,  // measure 38
0010
0000
0010
0100
0010
0000
0100
0000
0220
0000
0000
0000
0330
0000
0001
0000
,  // measure 39
0010
0001
0010
0001
0000
1000
0100
1000
0000
0001
0100
0001
0100
0001
0000
0100
,  // measure 40
0010
0000
0010
0000
1000
0001
0000
0011
0000
0000
0000
0001
1000
0000
1010
0000
,  // measure 41
0000
0010
1000
0000
0110
0000
0000
0000
0100
0001
0000
1001
0000
0000
1000
0100
,  // measure 42
0010
0000
0000
0010
0100
0010
0100
1000
0010
0000
1000
0010
0100
0001
1000
0100
,  // measure 43
0010
0000
0000
0001
0000
0000
0000
0000
0000
0010
0000
0000
0000
0001
0000
0000
0000
0010
0000
0000
0000
0000
0000
0000
0002
0000
0000
0000
0000
0000
1003
0000
0000
0000
0000
0000
0100
0000
0000
0010
0000
0000
0000
0000
0000
0001
0000
0000
,  // measure 44
0000
0000
0000
1000
0000
0000
0000
0000
0000
0001
0000
0000
0100
0000
0000
0000
0010
0000
0000
0000
0000
0000
0000
0000
1000
0000
0000
0000
0000
0000
0000
0000
0000
1000
0000
0000
0001
0000
0000
1000
0000
0000
0000
0000
0000
0001
0000
0000
,  // measure 45
0100
0010
0100
0000
0010
0000
1000
0000
1010
0000
1000
0001
0010
0000
0000
0110
,  // measure 46
0000
0000
0000
0100
0000
1000
0010
0000
0000
0000
0100
0000
0000
1001
0000
0000
,  // measure 47
0001
1000
0001
0200
0020
0000
0000
0000
0330
0000
0100
0000
0001
0010
0001
1000
,  // measure 48
0001
0100
0001
1000
0010
0000
1000
0001
0010
0100
1000
0001
1000
0000
2002
0000
,  // measure 49
3003
0000
1000
0010
0100
0001
1000
0100
1000
0000
0100
0010
0001
1000
0001
1000
,  // measure 50
0000
0000
1000
0100
0010
0000
0010
0001
2000
0000
3000
0000
0000
0000
1000
0010
,  // measure 51
0100
0010
0000
1000
0001
1000
0010
1000
0001
0010
0001
0000
0010
0100
1000
0100
,  // measure 52
0020
0000
0030
0000
0001
0100
0010
2000
0000
3000
0100
0000
0002
0000
0000
0000
,  // measure 53
0103
0000
0000
0100
0010
0000
0001
1000
0001
0000
0100
0010
0001
0000
0010
0100
,  // measure 54
0010
1000
2002
0000
0000
0000
0000
0000
,  // measure 55
0000
0000
0000
0000
,  // measure 56
3003
0000
0000
0000
,  // measure 57
0000
0000
0000
0001
,  // measure 58
0000
0001
0000
0000
0000
0000
1000
0000
,  // measure 59
0000
0001
0000
0000
1000
0000
0000
1000
,  // measure 60
0000
0000
0000
0000
1000
0000
0000
0001
,  // measure 61
0010
0100
1000
0000
0100
1000
0200
0000
,  // measure 62
0310
0000
0001
0010
0001
0000
0200
0000
,  // measure 63
0301
0000
0100
0001
0200
0000
0310
0000
,  // measure 64
1000
0010
1000
0000
0100
0100
1000
0100
,  // measure 65
0010
0100
1000
0100
0010
0000
0001
0100
,  // measure 66
0001
0100
0020
0030
1000
1000
0001
0001
,  // measure 67
0010
0001
1000
0000
0020
0000
0000
0000
0100
0000
0000
0000
0130
0000
0000
0000
,  // measure 68
1001
0000
0000
0000
1000
0000
0100
0010
0000
0010
0001
0000
1000
0000
0100
0010
,  // measure 69
0000
0010
0001
0000
0100
0010
1000
0010
1000
0000
0010
0000
0100
0001
0100
0001
,  // measure 70
1000
0000
0010
0100
0000
0100
0001
0000
1000
0000
0100
0010
0100
1000
0000
0010
,  // measure 71
0000
1000
0000
0001
0000
0010
0001
1000
0001
0000
0001
0000
0001
0000
0010
0100
,  // measure 72
0000
0100
1000
0000
0001
0000
0010
0100
0000
0100
1000
0000
0010
0100
0001
0100
,  // measure 73
0001
0100
0010
0000
1000
0010
1000
0010
1000
0000
0100
0010
0000
0010
0001
0000
,  // measure 74
1000
0010
0100
0010
0000
0010
1000
0001
0010
0100
1000
0001
0100
0010
1000
0001
,  // measure 75
0010
0001
0100
0010
1000
0100
0010
0001
0000
1000
0000
0001
1000
0010
0100
0001
,  // measure 76
0000
0010
0000
0001
0100
0010
1000
0000
0100
0010
0001
0010
0100
1000
0001
0000
,  // measure 77
0001
0000
0100
0010
0000
0010
1000
0000
0001
0010
0100
1000
0000
1000
0001
0000
,  // measure 78
0010
0001
1000
0001
0000
0001
1000
0010
0100
0010
1000
0000
0001
0010
0100
1000
,  // measure 79
0000
0000
1000
0001
1000
0010
0100
0001
0000
0001
1000
0000
0100
0010
0001
0010
,  // measure 80
0001
0010
0100
0000
1000
0100
0010
0000
0110
0000
0001
0100
0010
0000
0110
0000
,  // measure 81
1000
0100
0010
0000
0110
0000
0010
0001
0100
0010
1000
0100
0010
0001
1000
0001
,  // measure 82
0100
0010
0100
0010
1000
0000
0010
0000
0100
0000
0010
0000
0001
0000
0010
0000
,  // measure 83
0100
0010
1000
0100
0010
0100
0001
0100
,  // measure 84
1000
0010
0001
0010
1000
0010
0001
0010
,  // measure 85
1000
0000
0100
0000
0001
0000
0100
0000
0001
0000
0100
0000
1000
0000
0100
0010
,  // measure 86
0100
0000
0000
0010
0000
0000
0001
0000
0000
0000
0100
0000
0000
0000
0010
0000
0000
0000
1000
0000
0000
0000
1000
0000
,  // measure 87
0001
0010
0001
0000
1000
0010
0000
0010
1000
0000
0100
0000
0001
0000
0100
0000
,  // measure 88
0010
0000
0100
0000
1000
0000
0100
0000
1000
0000
0000
0010
0000
0000
0001
0000
,  // measure 89
0000
0010
1000
0001
2000
0000
0000
0000
3100
0000
0001
0000
0100
0000
1000
0000
,  // measure 90
0100
0001
0100
1000
0010
0001
0010
0010
,  // measure 91
0010
0000
1000
0000
0100
0000
0001
0000
1000
0000
0010
0000
0001
0000
0100
0010
,  // measure 92
0100
1000
0001
0010
1000
0000
2001
0000
,  // measure 93
0000
0000
3001
0000
0100
0010
0100
0010
0100
0000
0010
1000
0001
0000
0001
0010
,  // measure 94
0100
0010
0100
1000
0001
1000
0001
1000
0100
0010
0000
0110
0000
0000
0000
0010
,  // measure 95
0001
0000
1001
0000
0000
0001
0100
0000
0110
0000
0000
0000
0010
1000
0000
1200
,  // measure 96
0000
0310
0000
0001
0200
0000
0000
0000
0300
0000
0010
0000
1000
0100
1000
0001
,  // measure 97
1000
0010
1000
0001
0100
0000
0001
1000
0100
0010
0001
1000
0001
0000
2002
0000
,  // measure 98
3003
0000
0001
0100
0010
1000
0001
0010
0001
0000
0010
0100
1000
0001
1000
0001
,  // measure 99
0000
0000
0001
0010
0100
0000
0100
1000
0002
0000
0003
0000
0000
0000
0001
0100
,  // measure 100
0010
0100
0000
0001
1000
0001
0100
0001
1000
0100
1000
0000
0100
0010
0001
0010
,  // measure 101
0200
0000
0300
0000
1000
0010
0100
0002
0000
0003
0100
0000
2000
0000
0000
0000
,  // measure 102
3100
0000
0000
0100
0010
0000
1000
0001
1000
0000
0010
0100
1000
0000
0100
0001
,  // measure 103
0010
0100
0220
0000
0000
0000
0000
0000
,  // measure 104
0000
0000
0000
0000
,  // measure 105
0000
0000
0000
0000
,  // measure 106
0000
0000
0330
1000
,  // measure 107
0000
0001
0000
0000
0000
0000
1000
0000
,  // measure 108
0000
0001
0000
0000
1000
0000
0000
0001
,  // measure 109
0000
0000
0000
0000
1000
0000
0000
0001
;

//---------------dance-single - XO- JA+ RH- TS JU-----------------
#NOTEDATA:;
#CHARTNAME:;
#STEPSTYPE:dance-single;
#DESCRIPTION:XO- JA+ RH- TS JU-;
#CHARTSTYLE:;
#DIFFICULTY:Medium;
#METER:13;
#RADARVALUES:0.496489,0.571749,0.130924,0.136875,0.124972,584.000000,562.000000,22.000000,23.000000,0.000000,0.000000,0.000000,0.000000,0.000000,0.496489,0.571749,0.130924,0.136875,0.124972,584.000000,562.000000,22.000000,23.000000,0.000000,0.000000,0.000000,0.000000,0.000000;
#CREDIT:Karl with a K;
#NOTES:
// measure 0
0000
0000
0000
0000
,  // measure 1
0000
0000
0000
0000
,  // measure 2
0000
0000
0000
0000
,  // measure 3
0000
0000
0000
0000
,  // measure 4
0000
0000
0000
0000
,  // measure 5
0000
0000
0000
0000
,  // measure 6
0000
0000
0000
0000
,  // measure 7
1000
0100
0010
0100
,  // measure 8
1000
0100
0020
0031
,  // measure 9
0100
0010
0100
0001
,  // measure 10
0100
0000
0020
0000
1030
0100
0010
0100
,  // measure 11
1000
0100
0010
0000
0001
0100
0010
0100
,  // measure 12
0001
0000
1000
0100
0010
0001
0100
0010
,  // measure 13
0100
0010
0100
0110
,  // measure 14
1001
0000
0000
0000
0001
0000
0100
0000
0010
0000
0000
0010
0100
0000
0001
0000
,  // measure 15
1000
0000
0100
0010
0100
0100
1000
0000
,  // measure 16
1000
0000
0100
0000
0010
0000
0000
0010
0100
0000
1000
0000
0001
0000
0000
0000
,  // measure 17
0100
0010
0100
0100
0010
1010
1001
0001
,  // measure 18
0100
0000
0010
1000
0001
0000
0010
0100
,  // measure 19
0010
0000
0010
0000
0010
0000
0000
0000
0001
0000
0000
0010
0000
0000
0100
0000
,  // measure 20
0100
0010
0001
0100
0100
0010
0000
0010
,  // measure 21
1000
1000
1000
0000
0001
0010
0100
1000
,  // measure 22
0001
0000
0100
0000
0010
0000
1000
0000
0001
0000
0001
0000
1000
0000
0000
1000
,  // measure 23
0000
0001
0001
0000
1000
0010
0100
0001
,  // measure 24
1000
0100
0010
0010
0001
0000
0100
0000
,  // measure 25
1000
1000
0100
0001
,  // measure 26
1000
0000
0000
0100
0000
0000
0001
0000
0001
0000
0100
0000
1000
0000
0000
1000
,  // measure 27
0001
0000
0000
0001
0100
0000
0000
0100
0010
0000
0000
1000
0000
0000
1000
0000
,  // measure 28
0200
0000
0310
0100
1000
0000
0001
0000
,  // measure 29
0100
0010
0100
0000
0001
0000
0200
0000
,  // measure 30
0310
0100
0001
0000
1000
0000
0100
0010
,  // measure 31
0100
0000
1000
0000
1001
0000
0001
0100
,  // measure 32
0010
1000
0100
0000
1000
0100
0010
0001
,  // measure 33
0100
0000
1001
0000
0001
0010
0100
1000
,  // measure 34
0010
0000
0000
0000
1000
0000
0000
0010
0000
0000
0100
0000
0000
0001
1000
0000
,  // measure 35
2002
0000
3003
0000
1000
1000
1000
0001
,  // measure 36
0001
1000
1000
0100
0100
1000
1000
0010
,  // measure 37
0010
0010
0010
0100
0010
0100
0010
0010
,  // measure 38
0010
0010
1000
0001
2002
0000
3003
0000
,  // measure 39
0001
0001
0001
1000
1000
0001
0001
0100
,  // measure 40
0100
0000
0000
0000
0001
0000
0000
0010
0000
0000
0000
0100
0000
0000
0010
0000
,  // measure 41
0000
0100
0000
0000
0010
0000
0000
0000
0100
0000
0000
1000
0000
0010
0000
0000
,  // measure 42
0100
0000
0000
0100
0010
0000
1000
0000
1000
0000
0010
0000
0100
0000
0001
0000
,  // measure 43
0010
0000
0000
0000
0000
0000
0000
0000
0000
0100
0000
0000
0000
1000
0000
0000
0000
0000
0000
0000
0000
0000
0000
0000
0020
0000
0000
0000
0000
0000
0000
0000
0000
0000
0000
0000
0130
0000
0000
0000
0000
0000
0000
0000
0000
0010
0000
0000
,  // measure 44
0000
0000
0000
0000
1000
0000
0000
0000
0010
0000
0000
0000
1000
0000
0000
1000
,  // measure 45
0000
0000
0000
0000
0100
0000
0000
0000
0010
0000
0001
0000
1000
0000
0000
0010
,  // measure 46
0000
1000
0000
0001
0000
0000
0010
0000
0001
0000
0100
0000
0000
0010
0000
0000
,  // measure 47
0000
1000
0000
0000
0200
0000
0000
0000
0300
0000
0100
0000
1000
0000
0010
0000
,  // measure 48
0100
0001
0100
0010
1000
0100
0010
1001
,  // measure 49
0000
0001
0100
0010
1000
0010
0100
0001
,  // measure 50
0010
0100
1000
0000
1001
0000
0000
1000
,  // measure 51
0100
0000
0010
0000
0001
0000
0010
0000
0100
0000
1000
0001
0000
0000
0100
0000
,  // measure 52
0010
0000
0000
0000
0100
0000
0000
1000
0000
0000
0100
0000
0010
0000
1000
0000
,  // measure 53
0100
0001
0100
0010
,  // measure 54
0001
2002
0000
0000
,  // measure 55
0000
0000
0000
0000
,  // measure 56
3003
0000
0000
0000
,  // measure 57
0000
0000
0000
1000
,  // measure 58
0000
1000
0000
0000
0000
0000
0001
0000
,  // measure 59
0000
1000
0000
0000
0001
0000
0000
0001
,  // measure 60
0000
0000
0000
0000
0001
0000
0000
1000
,  // measure 61
0100
0010
0001
0000
0100
0000
0010
0000
,  // measure 62
0100
0001
0100
0020
,  // measure 63
1030
0100
0010
0100
,  // measure 64
1000
0000
0100
0000
0020
0000
0031
0100
,  // measure 65
0010
0100
0001
0100
0010
0000
1000
0100
,  // measure 66
0010
0100
1000
0000
0001
0100
0010
1000
,  // measure 67
0100
0010
0100
0000
0010
0000
0100
0000
,  // measure 68
0110
0000
1000
0100
0010
0100
1000
0100
,  // measure 69
0010
0100
1000
0100
0010
0001
0100
0010
,  // measure 70
1000
0010
0100
0010
1000
0010
0100
0010
,  // measure 71
0100
0001
0100
0001
0010
0010
0001
0010
,  // measure 72
0100
0010
0001
0010
0100
0010
0001
0010
,  // measure 73
0100
1000
0010
0100
0001
0100
0010
0100
,  // measure 74
0001
0100
0010
0100
0010
1000
0010
1000
,  // measure 75
0100
0100
1000
0010
0100
0001
1000
0100
,  // measure 76
0010
0001
0100
0010
0100
0001
0100
0010
,  // measure 77
1000
0100
0010
0001
1000
0010
0100
0001
,  // measure 78
0010
0100
0010
0001
0100
0100
0001
0100
,  // measure 79
0010
1000
0001
0010
0100
1000
0010
0100
,  // measure 80
0010
1000
0010
0100
0001
0010
0100
0001
,  // measure 81
0100
0010
0001
0100
0010
0001
1000
0100
,  // measure 82
0010
1000
0020
0000
0130
0010
1000
0000
,  // measure 83
0001
0000
0010
0100
0010
0000
0001
0000
,  // measure 84
0020
0000
0130
0010
0001
0000
1000
0000
,  // measure 85
0010
0100
0010
0000
1000
0000
2002
0000
,  // measure 86
3003
0001
0000
0000
0010
0000
0100
0000
0000
0000
1000
0000
0000
0000
0001
0000
,  // measure 87
0000
0000
0000
0100
0010
0000
0000
0000
1001
0000
0000
0000
1000
0000
0100
0000
,  // measure 88
1000
0000
0000
0000
0001
0000
0000
0000
0100
0000
0000
0100
0000
0000
0100
0000
,  // measure 89
0000
0100
0000
0000
0100
0000
0000
0000
0001
0000
0010
0000
0001
0000
0000
0000
,  // measure 90
0100
0000
0001
0000
1000
0100
1000
1000
,  // measure 91
0100
0000
0100
1000
0001
0000
0100
0001
,  // measure 92
1000
0000
0100
0010
0100
0000
0220
0000
,  // measure 93
0330
0000
0001
0000
1000
0000
0000
0001
0000
0010
0000
0100
0000
0000
1000
0000
,  // measure 94
0001
0000
0100
0000
0010
0000
0000
0000
0100
0000
0000
0110
0000
0000
0000
0010
,  // measure 95
0000
0000
1010
0000
0000
1000
0000
0000
1001
0000
0000
0000
0001
0000
0000
0011
,  // measure 96
0000
0000
0000
0001
0200
0000
0000
0000
0300
0000
0100
0000
0001
0000
0010
0000
,  // measure 97
0100
1000
0100
0010
0001
0100
0010
1001
,  // measure 98
0000
1000
0100
0010
0001
0010
0100
1000
,  // measure 99
0010
0100
0001
0000
1001
0000
0000
0001
,  // measure 100
0100
0000
0010
0000
1000
0000
0010
0000
0100
0000
0001
1000
0000
0000
0100
0000
,  // measure 101
0010
0000
0000
0000
0100
0000
0000
0001
0000
0000
0100
0000
0010
0000
0001
0000
,  // measure 102
0100
1000
0100
0010
,  // measure 103
1000
2002
0000
0000
,  // measure 104
0000
0000
0000
0000
,  // measure 105
0000
0000
0000
0000
,  // measure 106
0000
0000
0000
3003
;

//---------------dance-single - ----------------
#NOTEDATA:;
#CHARTNAME:;
#STEPSTYPE:dance-single;
#DESCRIPTION:;
#CHARTSTYLE:;
#DIFFICULTY:Easy;
#METER:8;
#RADARVALUES:0.295853,0.349402,0.107119,0.071413,0.086291,348.000000,330.000000,18.000000,12.000000,0.000000,0.000000,0.000000,0.000000,0.000000,0.295853,0.349402,0.107119,0.071413,0.086291,348.000000,330.000000,18.000000,12.000000,0.000000,0.000000,0.000000,0.000000,0.000000;
#CREDIT:Karl with a K;
#NOTES:
0000
0000
0000
0000
,
0000
0000
0000
0000
,
0000
0000
0000
0000
,
0000
0000
0000
0000
,
0000
0000
0000
0000
,
0000
0000
0000
0000
,
0000
0000
0000
0000
,
1000
0100
0010
0000
,
0001
0100
0010
1000
,
0010
0100
0000
0001
,
0010
0100
1000
0100
,
0010
0001
1000
0100
,
0010
0001
0100
0010
,
1000
0001
0100
0110
,
1001
1000
0100
0100
,
1000
0100
1000
0001
,
0001
0100
0100
0001
,
0100
0001
1000
0001
,
0010
0010
0001
0010
,
0001
0000
0000
0000
1000
0000
0000
0000
1000
0000
0000
0010
0000
0000
0000
0000
,
0010
1000
0010
1000
,
0100
0100
0100
0100
,
0010
0000
0000
0000
0100
0000
0000
0000
0010
0000
0000
0000
0001
0000
0000
0001
,
0000
0100
0100
0010
,
0100
0010
1000
0010
,
0100
0001
0010
0100
,
1000
0000
0000
0001
0000
0000
0000
0000
1000
0000
0000
0000
1000
0000
0000
0000
,
0001
0100
0010
0010
,
1000
1000
0100
0100
,
1000
0001
0100
0001
,
0001
0100
0100
0001
,
1000
0100
0010
0001
,
0010
0001
1000
0010
,
1000
0010
0100
0010
,
1000
0000
0000
0000
0001
0000
0000
0001
0000
0000
0010
0000
0000
0010
0000
0000
,
0200
0000
0000
0000
0300
0000
0000
0000
0100
0000
0000
0000
0000
0100
0000
0000
,
0000
0100
0000
0000
0000
0000
0000
0000
0010
0000
0000
0000
0001
0000
0000
0000
,
1000
1000
1000
0010
,
0100
0010
0200
0300
,
0010
0000
0000
0000
0000
0010
0000
0000
0000
0010
0000
0000
0000
0000
0000
0000
,
1000
0000
0000
0000
0000
0000
0000
0010
0000
0000
0000
0000
0000
0000
1000
0000
,
0000
0000
0000
0000
0100
0000
0000
0000
0000
0000
0000
0010
0000
0000
0000
0000
,
0001
0000
0000
0000
0000
0000
0000
0000
1001
0000
0000
0000
0000
0001
0000
0000
,
0000
0100
0000
0000
0000
0000
0000
0000
0010
0000
0000
0000
1000
0000
0000
0000
,
0000
0100
0000
0000
0100
0000
0000
0000
0000
0000
0010
0000
0000
0000
0100
0000
,
0000
0000
0000
0000
0010
0000
0000
0000
0001
0000
0000
0000
0000
0000
0000
1001
,
0000
0000
0000
0000
0000
0000
1000
0000
0000
0000
0000
0000
0000
1001
0000
0000
,
0000
0220
0330
1000
,
0100
0000
0010
0000
0100
0000
1000
0001
,
0000
0001
0000
0000
0100
0000
0010
0000
,
0100
0000
0001
0000
1001
0000
0000
0011
,
0000
0000
0000
0010
0000
0000
0000
0000
0000
0000
0001
0000
0000
0000
0100
0000
,
0010
0000
0000
0000
0100
0000
0000
0010
0000
0000
0000
0000
1010
0000
0000
0000
,
0000
0000
0000
0000
,
0000
2002
0000
0000
,
0000
0000
0000
0000
,
0000
0000
0000
0000
,
0000
0000
0000
0000
,
0000
0000
0000
0000
,
0000
0000
0000
0000
,
0000
0000
0000
0000
,
3003
0001
0100
0010
,
0000
1000
0100
0010
,
0001
0010
0100
0000
,
1000
0010
0100
0001
,
0100
0010
1000
0001
,
0100
0010
1000
0100
,
0010
0001
1000
0100
,
0110
1001
0001
0100
,
0001
1000
0100
0010
,
0001
1000
0100
1000
,
0001
0000
0100
0000
0001
1000
0001
0000
,
1000
0100
0010
0001
,
0100
0010
1000
0010
,
0100
0001
0010
0010
,
0010
0100
1000
0000
0010
0000
0001
0000
,
0010
1000
0001
0010
,
0001
0010
1000
0010
,
0001
0000
1000
0000
0001
0100
0001
0000
,
0100
1000
0100
0010
,
1000
0000
0100
0000
0001
0000
0000
1000
,
0000
0000
0000
0000
0010
0000
0000
0000
0000
0001
0000
0000
0010
0000
0000
0100
,
0000
1000
1001
0000
0001
0000
0010
0000
,
0010
0001
0010
0001
,
1000
1000
0010
0010
,
1000
0010
0100
0002
,
0003
0000
0100
0000
0000
0100
0000
0100
,
0000
0010
1000
0100
,
0010
0000
0000
0000
0010
0000
0000
0000
0001
0000
0000
0001
0000
0000
0001
0000
,
0000
0001
0000
0000
0000
0000
0000
0000
1000
0000
0000
0000
0010
0000
0000
0000
,
0010
0000
0100
0000
0001
0000
1000
0100
,
0010
0001
0010
0100
,
0100
0100
1000
2000
,
3000
0000
0000
0000
0100
0000
0000
0000
0000
0100
0000
0000
0000
0100
0000
0000
,
0000
0000
0000
0000
0010
0000
0000
0000
0001
0000
0000
1000
0000
0000
0000
1000
,
0000
0000
0001
0000
0000
0000
0001
0000
1000
0000
0000
0000
1000
0000
0000
0001
,
0000
0220
0330
0001
,
0100
0000
0010
0000
0100
0000
0001
1000
,
0000
1000
0000
0000
0100
0000
0010
0000
,
0100
0000
1000
0000
1001
0000
0000
0101
,
0000
0000
0000
0100
0000
0000
0000
0000
0000
0000
0001
0000
0000
0000
0010
0000
,
0100
0000
0000
0000
0010
0000
0000
0100
0000
0000
0000
0000
1100
0000
0000
0000
,
0000
0000
0000
0000
,
0000
2002
0000
0000
,
0000
0000
0000
0000
,
0000
0000
0000
0000
,
0000
0000
0000
3003
;

//---------------dance-single - ----------------
#NOTEDATA:;
#CHARTNAME:;
#STEPSTYPE:dance-single;
#DESCRIPTION:;
#CHARTSTYLE:;
#DIFFICULTY:Beginner;
#METER:1;
#RADARVALUES:0.118171,0.184334,0.113070,0.000000,0.000000,139.000000,120.000000,19.000000,0.000000,0.000000,0.000000,0.000000,0.000000,0.000000,0.118171,0.184334,0.113070,0.000000,0.000000,139.000000,120.000000,19.000000,0.000000,0.000000,0.000000,0.000000,0.000000,0.000000;
#CREDIT:Karl with a K;
#NOTES:
0000
0000
0000
0000
,
0000
0000
0000
0000
,
0000
0000
0000
0000
,
0000
0000
0000
0000
,
0000
0000
0000
0000
,
0000
0000
0000
0000
,
0000
0000
0000
0000
,
1000
0000
0000
0000
,
0000
0000
0000
0001
,
0000
0000
0000
0000
,
0000
0000
1000
0000
,
0000
0000
0001
0000
,
0000
1000
0000
1000
,
0000
0000
0000
0000
,
0001
0000
0001
0000
,
0001
0000
0000
1000
,
0000
1000
0000
1000
,
0000
0000
0001
0000
,
0001
0000
1000
0000
,
0000
1000
0000
0000
,
1000
0000
0001
0000
,
0001
0000
0010
0000
,
0100
0000
0000
1000
,
0000
0010
0000
0100
,
0000
0000
0001
0000
,
0001
0000
0001
0000
,
1000
0000
0000
1000
,
0000
0000
1000
0000
,
0001
0000
0100
0000
,
0010
0000
1000
0000
,
0100
0000
0010
0000
,
0001
0000
1000
0000
,
0100
0000
0010
0000
,
0000
0001
0000
0100
,
0000
0010
0000
0000
,
1001
0000
0000
0000
,
0000
0000
0000
0100
,
0000
0000
0000
0000
,
0000
0000
1001
0000
,
0000
0000
0000
0000
,
0000
0000
0010
0000
,
0000
0000
0000
0000
,
0000
0000
0110
0000
,
0000
0000
0000
0001
,
0000
0000
0000
0000
,
0000
0000
0110
0000
,
0000
0000
0000
0000
,
0000
1001
0000
0100
,
0000
1000
0000
0001
,
0000
0000
0100
0000
,
0001
0000
1001
0000
,
0000
0000
0000
0000
,
0110
0000
0000
0110
,
0000
0000
0000
0000
,
0000
1001
0000
0000
,
0000
0000
0000
0000
,
0000
0000
0000
0000
,
0000
0000
0000
0000
,
0000
0000
0000
0000
,
0000
0000
0000
0000
,
0000
0000
0000
0000
,
0000
1000
0000
0000
,
0000
0000
0000
0000
,
0001
0000
0000
0000
,
0000
0000
0000
1000
,
0000
0000
0000
0001
,
0000
0000
1000
0000
,
1000
0000
0000
0000
,
0000
0001
0000
0001
,
0000
0001
0000
0001
,
0000
0100
0000
0100
,
0000
0100
0000
0010
,
0000
0010
0000
0010
,
0000
0010
0000
1000
,
0000
1000
0000
1000
,
0000
0001
0000
0010
,
0000
0001
0000
0010
,
0000
0100
0000
1000
,
0000
0100
0000
1000
,
0000
0010
0000
0100
,
0000
0000
1001
0000
,
0000
1001
0000
0000
,
0000
1000
0000
1000
,
0000
1000
0000
0000
,
0001
0000
0001
0000
,
0001
0000
0000
1001
,
0000
0000
0000
0000
,
0000
0000
0110
0000
,
0000
0000
0010
0000
,
0000
0100
0000
0010
,
0000
0100
0000
0000
,
0010
0000
0100
0000
,
0010
0000
0000
1001
,
0000
0000
0000
0000
,
0000
0000
0100
0000
,
0000
0000
0010
0000
,
0000
1001
0000
0010
,
0000
0001
0000
1000
,
0000
0000
0010
0000
,
1000
0000
1001
0000
,
0000
0000
0000
0000
,
0110
0000
0000
0110
,
0000
0000
0000
0000
,
0000
1001
0000
0000
;
