#VERSION:0.83;
#TITLE:Got noir forever.;
#SUBTITLE:;
#ARTIST:E.G.G.;
#TITLETRANSLIT:;
#SUBTITLETRANSLIT:;
#ARTISTTRANSLIT:;
#GENRE:;
#ORIGIN:GROOVE COASTER;
#CREDIT:;
#BANNER:Got noir forever banner.png;
#BACKGROUND:Got noir forever bg.png;
#PREVIEWVID:;
#JACKET:;
#CDIMAGE:;
#DISCIMAGE:;
#LYRICSPATH:;
#CDTITLE:;
#MUSIC:Got-noir-forever.ogg;
#OFFSET:-0.125000;
#SAMPLESTART:118.289703;
#SAMPLELENGTH:12.352936;
#SELECTABLE:YES;
#BPMS:0.000=136.000;
#STOPS:;
#DELAYS:;
#WARPS:;
#TIMESIGNATURES:0.000=4=4;
#TICKCOUNTS:0.000=4;
#COMBOS:0.000=1;
#SPEEDS:0.000=1.000=0.000=0;
#SCROLLS:0.000=1.000;
#FAKES:;
#LABELS:0.000=Song Start;
#BGCHANGES:;
#KEYSOUNDS:;
#ATTACKS:
;

//---------------dance-single - XO+ JA BU RH TS JU+----------------
#NOTEDATA:;
#CHARTNAME:2023 KWAK;
#STEPSTYPE:dance-single;
#DESCRIPTION:XO+ JA BU RH TS JU+;
#CHARTSTYLE:;
#DIFFICULTY:Challenge;
#METER:18;
#RADARVALUES:0.978057,1.021494,0.732475,0.201804,1.408893,916.000000,818.000000,98.000000,27.000000,0.000000,0.000000,0.000000,0.000000,0.000000,0.978057,1.021494,0.732475,0.201804,1.408893,916.000000,818.000000,98.000000,27.000000,0.000000,0.000000,0.000000,0.000000,0.000000;
#CREDIT:Karl with a K;
#NOTES:
0000
0000
0000
0000
,
0000
0000
0000
0000
,
0000
0000
0000
0000
,
2000
0000
0000
0000
0000
0000
0000
3010
0100
2000
0000
0000
,
3200
0000
0000
0320
0000
0000
1030
0100
1000
0001
0010
0100
,
1000
0000
0000
0000
0010
0000
0000
0000
0100
0000
0000
0000
0001
0000
0000
0000
0010
0000
0000
0000
1000
0000
0000
0000
0001
0000
0000
0000
0100
0000
0000
0000
1000
0000
0000
0000
1001
0000
0000
0000
0000
0000
0000
0000
0000
1001
0000
0000
,
0000
0000
1000
0100
0010
0001
0000
0100
0010
0100
1000
0100
0010
0100
0001
1000
,
1001
1100
0011
0101
,
0001
0000
0000
0100
0000
0000
0010
0000
0000
1000
0000
0000
0000
0000
0000
0100
0000
0000
0010
0000
0000
0001
0000
0000
0010
0000
0000
0100
0000
0000
0001
0000
0000
0100
0000
0000
2000
0000
0000
0000
0000
0000
0000
0000
3020
0000
0000
0000
,
0000
0000
0000
0000
0032
0000
0000
0000
0000
0000
0000
0000
2003
0000
0000
0000
0000
0000
0000
0000
3200
0000
0000
0000
0000
0000
0000
0000
0302
0000
0000
0000
0000
0000
0000
0000
1003
0000
0000
0010
0000
0000
0100
0000
0000
0001
0000
0000
,
0000
0010
0100
0010
1000
0010
0100
0010
0001
1000
1001
0000
0000
0000
1010
0000
,
0000
0000
0101
0000
0000
0000
0011
0000
0000
0000
0001
0010
0100
1000
0000
0010
,
0100
0001
0100
0010
0001
0010
0000
0000
1000
0000
0001
1000
0000
1010
0000
1001
,
0000
0001
0000
1001
0000
1000
0001
0000
0011
0000
1001
0000
1000
0000
0001
0000
,
0011
0000
0001
0100
0010
0001
0010
0100
1000
0001
0010
2000
0000
0000
3010
0000
,
1000
0100
0010
0001
0010
0100
1000
0001
0200
0000
0301
0000
0011
0000
0000
0011
,
0000
0000
1100
0000
1010
0000
0000
1010
0000
0000
0101
0000
1002
0000
0000
2003
,
0000
0000
3010
0000
0100
0000
0010
0000
0100
0000
2000
0000
0000
3200
0000
0000
,
0310
0000
0100
0000
0001
0000
0100
0000
0000
0000
0002
0000
0000
2003
0000
0000
,
3100
0000
0010
0000
0100
0000
0010
0000
2000
0000
0000
3020
0000
0000
0130
0000
,
0010
0000
0001
0000
0010
0000
0000
0000
0001
0010
0100
0010
0100
1000
0100
0001
,
0000
0100
1000
0010
0000
1000
0001
0100
0010
0100
1000
0100
0000
0100
0001
1000
,
0010
0000
0001
0010
0001
0010
1000
0100
0010
0100
0000
0001
0000
0100
0010
0000
,
0001
0000
0010
0100
0001
0100
0010
0001
1000
0010
0001
0010
0100
0000
0100
0010
,
0100
0000
0000
0000
0000
0000
0100
0000
0000
0001
0000
0000
0010
0000
0000
0001
0000
0000
1000
0000
0000
0010
0000
0000
0100
0000
0000
0001
0000
0000
1000
0000
0000
0100
0000
0000
0010
0000
0001
0000
0010
0000
0001
0000
0000
0000
0100
0000
,
0000
0000
1000
0000
0000
0000
0001
0000
0000
0010
0000
0000
1000
0000
0000
0001
0000
0000
1000
0000
0000
0100
0000
0000
0010
0000
0001
0000
0010
0000
0001
0000
0000
0000
0100
0000
0000
0000
1000
0000
0000
0000
0001
0000
0000
1000
0000
0000
,
0100
0000
0000
0010
0000
0000
1000
0000
0000
0010
0000
0000
0100
0000
0000
0001
0000
0000
0000
0000
0000
0010
0000
0000
0000
0000
0000
0001
0000
0000
1000
0000
0100
0000
1000
0000
0100
0000
0000
0000
0010
0000
0000
0000
0001
0000
0000
0000
,
0100
0000
0000
0001
0000
0000
1000
0000
0000
0010
0000
0000
1000
0000
0000
0100
0000
0000
0001
0000
0000
0100
0000
0000
0010
0000
0100
0000
0010
0000
0100
0000
0010
0000
0000
0000
0001
0000
0000
0010
0000
0000
0100
0000
0000
1000
0000
0000
,
1100
0000
0000
1100
0000
0000
1001
0000
0010
0000
1010
0000
0001
0100
0010
1000
,
0100
0010
0001
1000
0100
0000
0100
0000
0101
0000
0000
0101
0000
0000
1001
0000
,
0001
0000
0011
0000
1000
0100
0010
0001
1000
0002
0000
0013
0001
1000
0001
0100
,
0101
0000
0000
0101
0000
0000
1001
0000
0010
0000
1010
0000
0001
0100
0010
1000
,
0100
0010
0001
0010
0100
1000
0100
0000
1100
0000
0000
1100
0000
0000
1001
0000
,
1000
0000
1010
0000
1000
0010
0100
0001
0010
1000
0010
0000
0120
0000
0000
0000
,
0031
0010
0100
1000
0000
0010
0100
0010
0001
0010
0100
0010
1000
0001
1001
0000
,
0000
0000
0011
0000
0000
0000
1100
0000
0000
0000
1010
0000
0000
0000
1000
0010
,
0100
0001
0000
0010
0100
1000
0100
0010
1000
0010
0000
0000
0001
0000
1000
0001
,
0000
0011
0000
1001
0000
1000
0000
1001
0000
0001
1000
0000
1010
0000
1001
0000
,
0001
0000
1000
0000
1010
0000
0010
0000
1000
0000
1010
0000
0001
0010
0100
1000
,
0001
0010
0001
0020
0000
0031
2000
0000
3001
0100
1000
0100
0001
1000
0010
0100
,
0001
1000
0010
0100
1000
0100
0001
0100
0001
0000
0010
0001
1000
0100
0010
0001
,
0100
0001
1000
0010
1000
0000
0100
0001
1000
0001
0100
0010
1000
0010
0001
1000
,
0001
0000
0000
0100
0000
0000
0010
0000
0000
1000
0000
0000
0001
0000
0000
0100
0000
0000
1000
0000
0000
0000
0000
0000
0001
0000
0000
0010
0000
0000
0100
0000
0000
0001
0000
0000
0100
0000
0000
0000
0001
0000
1000
0000
0000
0000
0010
0000
,
1000
0000
0000
0001
0000
0000
1000
0000
0100
0000
1000
0000
0100
0000
1000
0000
0100
0000
1000
0000
0000
0100
0000
0000
1000
0000
0000
0001
0000
0000
0100
0000
0010
0000
0100
0000
0010
0000
0000
0001
0000
0000
0010
0000
0000
0100
0000
0000
,
0010
0000
0000
0000
0000
0000
0000
0000
1000
0000
0000
0000
0000
0000
0000
0000
0010
0000
0000
0000
0000
0000
0000
0000
1000
0000
0000
0000
0000
0000
0000
0000
0000
0000
0000
0000
0001
0000
0000
0000
0000
0000
0000
0000
0000
0000
0000
0000
0000
0000
0000
0000
0000
0000
0010
0000
0000
0000
0000
0000
0000
0000
0000
0000
0000
0000
0000
0000
0000
0000
0000
0000
0100
0000
0000
0000
0000
0000
0000
0000
0000
0000
0000
0000
1000
0000
0000
0000
0000
0000
0000
0000
0000
0000
0000
0000
0001
0000
0000
0000
0000
0000
0000
0000
0000
0000
0000
0000
0100
0000
0000
0000
0000
0000
0000
0000
0000
0000
0000
0000
0001
0000
0000
0000
0000
0000
0000
0000
0010
0000
0000
0000
0000
0000
0000
0000
0001
0000
0000
0000
0000
0000
0000
0000
0010
0000
0000
0000
0000
0000
0000
0000
0000
0000
0000
0000
0001
0000
0000
0000
0000
0000
0000
0000
0000
0000
0000
0000
0100
0000
0000
0000
0000
0000
0000
0000
0000
0000
0000
0000
0001
0000
0000
0000
0000
0000
0000
0000
0000
0000
0000
0000
,
0000
0000
0000
0000
0000
0000
0010
0000
0000
0000
0000
0000
0000
0000
0000
0000
0000
0000
0000
0000
0000
0000
0000
0000
1000
0000
0000
0000
0000
0000
0000
0000
0000
0000
0000
0000
0010
0000
0000
0000
0000
0000
0000
0000
0000
0000
0000
0000
0001
0000
0000
0000
0000
0000
0000
0000
0100
0000
0000
0000
0000
0000
0000
0000
0001
0000
0000
0000
0000
0000
0000
0000
0100
0000
0000
0000
0000
0000
0000
0000
0000
0000
0000
0000
0001
0000
0000
0000
0000
0000
0000
0000
0000
0000
0000
0000
1000
0000
0000
0000
0000
0000
0000
0000
0000
0000
0000
0000
0001
0000
0000
0000
0000
0000
0000
0000
0000
0000
0000
0000
0100
0000
0000
0000
0000
0000
0000
0000
0000
0000
0000
0000
0001
0000
0000
0000
0000
0000
0000
0000
0000
0000
0000
0000
0010
0000
0000
0000
0000
0000
0000
0000
0001
0000
0000
0000
0000
0000
0000
0000
0010
0000
0000
0000
0000
0000
0000
0000
0001
0000
0000
0000
0000
0000
0000
0000
0010
0000
0000
0000
0000
0000
0000
0000
0001
0000
0000
0000
0000
0000
0000
0000
,
0010
0000
0000
0000
0100
0000
0000
0000
0001
0000
0000
0000
0100
0000
0000
0010
0000
0000
0001
0000
0000
1000
0000
0000
0001
0000
0000
0010
0000
0000
0100
0000
0010
0000
0100
0000
0010
0000
0100
0000
0010
0000
0100
0000
0000
0000
0010
0000
,
0000
0000
0001
0000
0000
0000
1000
0000
0010
0000
1000
0000
0010
0000
1000
0000
0010
0000
1000
0000
0000
0000
0001
0000
0000
0000
0100
0000
0000
0000
1000
0000
0000
0001
0000
0000
0010
0000
0000
1000
0000
0000
0100
0000
0000
0010
0000
0000
,
0001
0000
0000
0000
0000
0000
0001
0000
0100
0000
0001
0000
0100
0000
0000
0001
0000
0000
1000
0000
0010
0000
1000
0000
0010
0000
0000
0000
0000
0000
1000
0000
0000
0000
0100
0000
0000
0000
0010
0000
0000
0000
1000
0000
0000
0000
0000
0000
,
0010
0000
0000
0001
0000
0000
1000
0000
0000
0010
0000
0000
0100
0000
0000
0010
0000
0000
0001
0000
0000
0010
0000
0000
1000
0000
0000
0001
0000
0000
1000
0000
0100
0000
1000
0000
0100
0000
1000
0000
0100
0000
1000
0000
0100
0000
1000
0000
,
0100
0000
1000
0001
0000
1010
0000
1001
0000
0001
0000
1001
0000
1000
0001
0000
,
0011
0000
0001
0000
0011
0000
0011
0000
0110
0000
1000
0100
0010
0100
1000
0100
,
0010
0100
1000
0100
0010
0100
0001
0100
0010
0100
1000
0100
0010
0100
0010
0000
,
0001
0100
0010
0100
0001
0100
0010
0100
0001
0000
1001
0000
0001
0100
0010
0100
,
0001
0000
0100
0000
1001
0000
1000
0100
0010
1000
0010
0001
1000
0000
1000
0010
,
0100
0010
0100
0010
1000
0010
0001
0010
1000
0000
1001
0000
0001
0010
1000
0010
,
1000
0010
0001
0000
1001
0000
1000
0100
1000
0000
0001
0100
0001
0100
0010
0100
,
1000
0000
0100
0010
1000
0100
0010
0100
0010
0000
1000
0010
0100
0010
0001
0010
,
0001
0010
0100
0000
1001
0000
1000
0001
1000
0001
1000
0001
1000
0000
0110
0000
,
0001
1000
0001
0100
1000
0100
0001
0000
0001
0100
0010
0100
0010
0100
0001
0100
,
1000
0100
0001
0000
1000
0100
0001
1000
0000
1000
0010
0001
0100
0001
0101
0000
,
0000
1100
0000
0000
1001
0000
0010
0000
0011
0000
0001
0100
0010
1000
0100
0010
,
0001
0010
0100
1000
0100
0000
1100
0000
0000
1100
0000
0000
1001
0000
0001
0000
,
0011
0000
1000
0100
0000
0010
0001
1000
0001
0010
0001
1000
0001
0100
0101
0000
,
0000
0101
0000
0000
1001
0000
0010
0000
1010
0000
0001
0100
0010
1000
0100
0010
,
0001
0010
0100
1000
0100
0000
1100
0000
0000
1100
0000
0000
1001
0000
1000
0000
,
1010
0000
1000
0010
0100
0001
1000
0001
0000
0000
2001
0000
0000
0000
3001
0100
,
0010
1000
0000
0100
0010
0100
0001
0100
0010
0100
1000
0001
1001
0000
0000
0000
,
0101
0000
0000
0000
1010
0000
0000
0000
1100
0000
0000
0000
1000
0100
0010
0001
,
0000
0100
0010
1000
0010
0100
1000
0100
0000
0000
0001
0000
1000
0001
0000
0101
,
0000
1001
0000
1000
0000
1001
0000
0001
1000
0000
1100
0000
1001
0000
0001
0000
,
1000
0000
1100
0000
1000
0100
0010
1000
0010
0100
0001
1000
0010
0002
0000
0000
,
0013
0000
0001
0100
0010
0001
0010
0100
1000
0001
0020
0000
1030
0000
1010
0000
,
0000
1010
0000
0000
0101
0000
0011
0000
0000
0011
0000
0000
1100
0000
1001
0000
;

//---------------dance-single - JA RH- TS JU----------------
#NOTEDATA:;
#CHARTNAME:;
#STEPSTYPE:dance-single;
#DESCRIPTION:JA RH- TS JU;
#CHARTSTYLE:;
#DIFFICULTY:Hard;
#METER:15;
#RADARVALUES:0.696171,0.745415,0.538145,0.059794,0.556830,652.000000,580.000000,72.000000,8.000000,0.000000,0.000000,5.000000,0.000000,0.000000,0.696171,0.745415,0.538145,0.059794,0.556830,652.000000,580.000000,72.000000,8.000000,0.000000,0.000000,5.000000,0.000000,0.000000;
#CREDIT:Karl with a K;
#NOTES:
0000
0000
0000
0000
,
0000
0000
0000
0000
,
0000
0000
0000
0000
,
2000
0000
0000
0000
0000
0000
0000
3100
0010
0002
0000
0000
,
0203
0000
0000
0310
0000
0000
1000
0001
1000
0100
1000
0001
,
0010
0000
0000
0000
0000
0000
0000
0000
0000
0000
0000
0000
0010
0000
0000
0000
0001
0000
0000
0000
1000
0000
0000
0000
0100
0000
0000
0000
0000
0000
0000
0000
0000
0000
0000
0000
1001
0000
0000
0000
0000
0000
0000
0000
0000
1001
0000
0000
,
0000
0000
1000
0000
0001
0100
0000
0100
0001
0000
0100
0000
0010
0000
0100
0000
,
1010
0011
0101
1100
,
0100
0000
0000
0000
0000
0000
1000
0000
0000
0100
0000
0000
0000
0000
0000
0100
0000
0000
1000
0000
0000
0000
0000
0000
0100
0000
0000
0000
0000
0000
0010
0000
0000
0000
0000
0000
0001
0000
0000
0000
0000
0000
0000
0000
1000
0000
0000
0000
,
0000
0000
0000
0000
0010
0000
0000
0000
0000
0000
0000
0000
0100
0000
0000
0000
0000
0000
0000
0000
0001
0000
0000
0000
0000
0000
0000
0000
1000
0000
0000
0000
0000
0000
0000
0000
0100
0000
0000
0000
0000
0000
0010
0000
0000
0001
0000
0000
,
0000
0001
0010
0000
0100
0000
1000
0000
0001
0000
0011
0000
0000
0000
1010
0000
,
0000
0000
0101
0000
0000
0000
1100
0000
0000
0000
0100
0000
1000
0010
0000
0010
,
1000
0000
0100
0000
0010
0100
0000
0000
0110
0000
0010
0100
0000
1000
0000
0010
,
0000
0100
0000
0010
0000
0100
0001
0000
0101
0000
0100
0000
0010
0000
0100
0000
,
0101
0000
0100
0001
0100
0001
1000
0000
0010
0000
1000
0020
0000
0000
1030
0000
,
0100
0010
0100
0010
0001
0000
0100
0000
0010
0000
1000
0000
1001
0000
0000
1000
,
0000
0000
0100
0000
1100
0000
0000
0100
0000
0000
0010
0000
0110
0000
0000
0100
,
0000
0000
1000
0000
0001
0000
0010
0000
0001
0000
1000
0000
0000
0100
0000
0000
,
1000
0000
0100
0000
0010
0000
0100
0000
0000
0000
0100
0000
0000
0010
0000
0000
,
0001
0000
1000
0000
0010
0000
1000
0000
0001
0000
0000
0100
0000
0000
0001
0000
,
0100
0000
0010
0000
1000
0000
0000
0000
0100
0000
1000
0000
0100
0000
1000
0001
,
0000
0001
0000
0010
0000
0001
0000
1000
0001
1000
0001
1000
0000
1000
0100
0000
,
1000
0000
0100
0010
0100
0000
1000
0010
0100
0001
0000
1000
0000
0100
0010
0000
,
0100
0000
0010
0001
0010
0000
0100
0000
1000
0000
0001
0010
0001
0000
0010
0001
,
0010
0000
0000
0001
0000
0000
1000
0000
0000
0010
0000
0000
0100
0000
0000
0001
0000
0000
0100
0000
0000
0010
0000
1000
,
0000
0000
0010
0000
0000
0000
1000
0000
0000
0000
0000
0000
0000
0000
0000
0010
0000
0000
0000
0000
0000
0000
0000
0000
1000
0000
0000
0000
0000
0000
0100
0000
0000
0000
0010
0000
0000
0000
0001
0000
0000
0000
0010
0000
0000
0000
0000
0000
,
0010
0000
0000
0000
0000
0000
0100
0000
0000
1000
0000
0000
0100
0000
0000
1000
0000
0000
0000
0000
0000
0001
0000
0000
0000
0000
0000
0100
0000
0000
0010
0000
0000
0000
0000
0000
1000
0000
0000
0000
0001
0000
0000
0000
0100
0000
0000
0000
,
0001
0000
0000
0100
0000
0000
0010
0000
0000
0100
0000
0000
0040
4000
0000
0000
0000
0000
0000
0000
0000
3030
0000
0000
,
1100
0000
0000
0100
0000
0000
0010
0000
0001
0000
0011
0000
0010
0000
0001
0000
,
1000
0000
0100
0000
1000
0000
0001
0000
1001
0000
0000
1000
0000
0000
0010
0000
,
0100
0000
0101
0000
0100
0000
0001
0000
1000
0010
0000
0010
1000
0000
0100
0000
,
1100
0000
0000
0100
0000
0000
0010
0000
0001
0000
0011
0000
0010
0000
0001
0000
,
1000
0000
0100
1000
0100
0000
1000
0000
1001
0000
0000
1000
0000
0000
0010
0000
,
0100
0000
0101
0000
0100
0000
0001
0000
1000
0010
1000
0000
0110
0000
0000
0000
,
0010
0000
1000
0010
0000
0010
1000
0000
0100
0000
1000
0000
0001
0000
0101
0000
,
0000
1100
0000
1010
0000
0011
0000
0010
,
0100
1000
0000
1000
0100
0000
1000
0000
0100
0010
0000
0000
0110
0000
0010
0100
,
0000
1000
0000
0001
0000
0100
0000
0001
0000
0010
0100
0000
1100
0000
0100
0000
,
0010
0001
0101
0001
0100
0001
0100
0001
,
1000
0010
1000
0010
0000
0100
0001
0000
1000
0000
0100
0000
1000
0000
0001
0000
,
0100
0010
1000
0010
0100
0001
0010
0001
,
1000
0000
0010
0100
0010
0000
0100
0000
0001
0000
0100
0000
0010
0000
1000
0000
,
0001
0000
0100
0000
0010
1000
0010
0000
0100
0000
0001
0000
1000
0000
0001
0000
,
0010
0004
0000
0010
0103
0001
1000
0001
,
1000
0000
0000
0100
0000
0000
1000
0000
0001
0000
0010
0000
0100
0000
0000
0010
,
0000
0100
1000
0100
0010
0001
2000
3010
,
0010
0000
1000
0000
0010
0000
1000
0000
0000
0010
0000
0000
1000
0000
0000
0200
0000
0000
1300
0000
0000
0001
0000
0100
,
0000
0001
0000
0200
0000
0000
0310
0000
0000
1000
0000
0010
0000
1000
0000
0010
0000
0000
1000
0000
0000
0001
0000
0000
,
0100
0000
0000
0101
0000
0000
0001
0000
0000
1000
0000
0000
0010
0000
0000
1000
0000
0001
0000
1000
0000
0010
0000
0000
,
1000
0000
0000
0001
0000
0000
1000
0000
0000
0100
0000
0000
1000
0000
0000
0400
4000
0000
0000
0000
0000
0000
0000
3300
,
0101
0000
0001
0100
0000
0010
0000
1000
0000
0001
0000
1000
0000
0010
1000
0000
,
1010
0010
1000
0001
1001
0100
1000
0001
,
1000
0100
1000
1001
1000
0100
1000
0001
,
0011
0001
1000
0001
0100
0110
0100
0001
,
0100
0000
0010
0000
0110
0000
0010
0000
0100
0001
0100
0001
0100
0000
0110
0000
,
1000
0000
0001
0000
0100
0010
0100
0010
0100
0000
0110
0000
0100
0000
0101
0000
,
0001
0011
0010
0100
0010
0001
0010
0001
,
1001
1000
0001
0100
0010
1010
0010
1000
,
0001
1000
1010
0010
1000
0001
1000
1001
,
0001
0000
0100
0001
0100
0001
0100
0000
0101
0000
0001
0000
1000
0000
1000
0010
,
1000
0010
1000
0000
0001
0010
0001
0010
0100
0000
0100
1000
0100
0000
1100
0000
,
0000
1000
0000
0000
0001
0000
0100
0000
0101
0000
0100
0000
0001
0000
1000
0000
,
0010
1000
0010
1000
0010
0000
1010
0000
0000
1000
0000
0000
0010
0000
0100
0000
,
0101
0000
0100
0010
0000
0010
0100
0000
0001
0000
1000
0000
0100
0000
1100
0000
,
0000
0100
0000
0000
0010
0000
0001
0000
0011
0000
0010
0000
0001
0000
1000
0000
,
0010
0100
0010
0100
0001
0000
0101
0000
0000
0001
0000
0000
0010
0000
0100
0000
,
0110
0000
0100
0000
0010
0000
0001
0000
0010
0000
0011
0000
0000
0000
1000
0010
,
1000
0010
0000
0010
0100
0000
0001
0000
0100
0000
0010
0000
1010
0000
0000
0000
,
0011
0000
0000
0000
0101
0000
0000
0000
1100
0000
0000
0000
0100
1000
0100
1000
,
0000
1000
0001
0000
0100
0000
0010
1000
0000
0000
0011
0000
0010
0100
0000
0010
,
0000
0001
0000
1000
0000
0001
0000
0010
0001
0000
0011
0000
0010
0000
0100
0000
,
0010
0000
0110
0000
0010
0001
0010
0001
1000
0000
0010
0000
1000
0200
0000
0000
,
0310
0000
0001
0010
0001
0010
0001
0000
1000
0000
0010
0000
0100
0000
0110
0000
,
0000
0110
0000
0000
1001
0000
1010
0000
0000
1010
0000
0000
1001
0000
0110
0000
;

//---------------dance-single - JA- RH- TS JU----------------
#NOTEDATA:;
#CHARTNAME:;
#STEPSTYPE:dance-single;
#DESCRIPTION:JA- RH- TS JU;
#CHARTSTYLE:;
#DIFFICULTY:Medium;
#METER:13;
#RADARVALUES:0.589397,0.552159,0.366237,0.052320,0.328866,552.000000,503.000000,49.000000,7.000000,0.000000,0.000000,0.000000,0.000000,0.000000,0.589397,0.552159,0.366237,0.052320,0.328866,552.000000,503.000000,49.000000,7.000000,0.000000,0.000000,0.000000,0.000000,0.000000;
#CREDIT:Karl with a K;
#NOTES:
0000
0000
0000
0000
,
0000
0000
0000
0000
,
0000
0000
0000
0000
,
0002
0000
0000
0000
0000
0000
0000
1003
0000
0200
0000
0000
,
2300
3001
0010
0001
,
1000
0000
0000
0000
0001
0000
0000
0000
1000
0000
0000
0000
1100
0000
0000
1100
,
0000
1000
0010
0000
0010
1000
0001
1000
,
1010
0101
0011
1100
,
1000
0000
0000
0100
0000
0000
0000
0000
0000
0100
0000
0000
1000
0000
0000
0001
0000
0000
0100
0000
0000
0000
0010
0000
,
0000
0000
1000
0000
0000
0000
0001
0000
0000
0000
0010
0000
0000
0000
0100
0000
0000
0000
1000
0000
0000
0001
0000
0000
,
0000
0001
1000
0010
0100
0101
0000
0011
,
0000
1100
0000
1010
0000
1000
0010
0000
,
0010
0000
1000
0000
0000
0001
0000
0000
1001
0000
0000
1000
0000
0010
0000
1000
,
0000
0001
0000
1000
0000
0000
0010
0000
1000
0000
1000
0000
0001
0000
1000
0000
,
0010
0000
1000
0000
0010
0000
1000
0000
0000
0001
0000
2000
0000
0000
3010
0000
,
1000
0000
0100
0000
0010
0000
0001
0000
0100
0000
0010
0000
0110
0000
0000
0010
,
0000
0000
1000
0000
1010
0000
0000
1000
0000
0000
0001
0000
1001
0000
0000
1000
,
0000
0000
0010
0000
0100
0000
0001
0000
0100
0000
0010
0000
0000
1000
0000
0000
,
0010
0000
1000
0000
0001
0000
1000
0000
0000
0000
1000
0000
0000
0001
0000
0000
,
0010
0000
0100
0000
1000
0000
0010
0000
0100
0000
0000
0001
0000
0000
0010
0000
,
0001
0000
1000
0000
0100
0000
0000
0000
1000
0000
0010
0000
1000
0000
0000
0010
,
0000
0100
0000
0001
0000
0100
0000
0000
0010
0000
0000
0100
0000
0010
0000
0000
,
1000
0000
0100
0000
1000
0000
0010
0000
0000
0100
0000
0010
0000
1000
0001
0000
,
1000
0000
0001
0000
0100
0000
0001
0000
0010
0000
0100
1000
0100
0000
1000
0100
,
1000
0000
0000
0010
0000
0000
0100
0000
0000
0001
0000
0000
1000
0000
0000
0100
0000
0000
1000
0000
0000
0001
0000
0010
,
0000
0000
0001
0000
0000
0000
0010
0000
0000
0000
0000
0000
0000
0000
0000
0001
0000
0000
0000
0000
0000
0000
0000
0000
0010
0000
0000
0000
0000
0000
0001
0000
0000
0000
1000
0000
0000
0000
0100
0000
0000
0000
1000
0000
0000
0000
0000
0000
,
0001
0000
0000
0000
0000
0000
1000
0000
0000
0000
0000
0000
0000
0000
0000
0010
0000
0000
0000
0000
0000
0100
0000
0000
0000
0000
0000
0001
0000
0000
1000
0000
0000
0000
0000
0000
0010
0000
0000
0000
0100
0000
0000
0000
0001
0000
0000
0000
,
0010
0100
1000
0001
2002
0000
0000
3003
,
1010
0000
0000
1000
0000
0000
0001
0000
0100
0000
0101
0000
0001
0000
0100
0000
,
0010
0000
1000
0000
0010
0000
0100
0000
0110
0000
0000
0010
0000
0000
1000
0000
,
0001
0000
1001
0000
1000
0000
0100
0000
0010
0001
0000
0000
1000
0000
0010
0000
,
1010
0000
0000
1000
0000
0000
0001
0000
0100
0000
0101
0000
0001
0000
0100
0000
,
0010
0000
1000
0000
1000
0000
0010
0000
0110
0000
0000
0010
0000
0000
1000
0000
,
0001
1100
1000
0100
0010
0001
1001
0000
,
0001
0010
0000
0010
0001
0100
0010
1010
,
0000
1100
0000
0011
0000
0101
0000
0001
,
1000
0000
0000
0000
1000
0000
0010
0000
0000
1000
0000
0000
1001
0000
0000
0001
,
0000
0010
0000
0100
0000
1000
0000
0100
0000
0000
1000
0000
1010
0000
1000
0000
,
0001
0100
0001
1000
1000
0100
1000
0100
,
0010
0000
0000
0001
0000
1000
0100
0000
0010
0000
0001
0000
0100
0000
0010
0000
,
1000
0001
0010
0001
1000
0100
0010
0001
,
0100
0001
0001
1000
0100
1000
0001
0100
,
0010
0000
1000
0000
0001
0010
0001
0000
1000
0000
0100
0000
0010
0000
0001
0000
,
0100
0010
0100
0001
1000
0100
0010
0100
,
0010
0000
0000
0001
0000
0000
0100
0000
0010
0000
1000
0000
0001
0000
0000
1000
,
0000
0001
0010
0001
1000
0100
0010
0001
,
1000
0000
0010
0000
1000
0000
0010
0000
0000
0100
0000
0000
0001
0000
0000
1000
0000
0000
0010
0000
0000
0100
0000
0001
,
0000
0100
0000
0001
0000
0000
1000
0000
0000
0010
0000
1000
0000
0010
0000
1000
0000
0000
0010
0000
0000
0100
0000
0000
,
0001
0000
0000
0001
0000
0000
0100
0000
0000
0010
0000
0000
1000
0000
0000
0100
0000
0010
0000
0100
0000
1000
0000
0000
,
0100
0010
0001
1000
0010
1000
0100
1000
,
1100
0000
0000
1000
0000
0001
0000
0100
0000
0010
0000
0100
0000
0000
0001
0000
,
0010
0001
0010
0100
0010
0001
0010
0100
,
0010
0001
0100
0010
1000
0001
0010
0100
,
1000
0100
0010
0100
1000
0001
1000
0010
,
1000
0001
1000
0001
1000
1000
1000
1000
,
0010
0100
0001
0001
0001
1000
1000
1000
,
1000
1001
0001
1000
0001
0100
0001
0100
,
0010
0100
0010
1000
0001
0010
0001
0010
,
0100
0010
0100
1000
0010
0100
0001
0010
,
0100
1000
1000
1000
1000
0100
0010
0001
,
0001
0001
0100
0100
0010
1000
1000
1001
,
0000
0001
0000
0000
1000
0000
0100
0000
1100
0000
1000
0000
0100
0000
0010
0000
,
0001
0000
0001
0000
0001
0000
0101
0000
0000
0100
0000
0000
0001
0000
1000
0000
,
1010
0010
0000
1000
0100
0010
0001
0011
,
0000
0001
0000
0000
1000
0000
0100
0000
1100
0000
1000
0000
0010
0000
0100
0000
,
0001
0000
0001
0000
0100
0000
0101
0000
0000
0100
0000
0000
0001
0000
1000
0000
,
1001
1000
0001
0010
0001
0101
0000
0010
,
0000
0001
0000
0001
1000
0000
0100
0000
1000
0000
0001
0000
0011
0000
0000
0000
,
0101
0000
0000
0000
1100
0000
0000
0000
1010
0000
0000
0000
1000
0000
0000
0010
,
0000
0010
0100
0000
0001
0000
0000
1000
0000
0000
1001
0000
0000
0001
0000
0010
,
0000
0100
0000
1000
0000
0001
0000
0000
0100
0000
0001
0000
0001
0000
1000
0000
,
0001
0000
1000
0000
0001
0000
0100
0000
0010
0000
0000
0010
0000
2000
0000
0000
,
3001
0100
0010
0100
0010
1000
0001
1001
,
0000
1000
0000
0000
0100
0000
0110
0000
0000
0010
0000
0000
0001
0000
1001
0000
;

//---------------dance-single - ----------------
#NOTEDATA:;
#CHARTNAME:;
#STEPSTYPE:dance-single;
#DESCRIPTION:;
#CHARTSTYLE:;
#DIFFICULTY:Easy;
#METER:11;
#RADARVALUES:0.393999,0.414119,0.029897,0.067268,0.183119,369.000000,365.000000,4.000000,9.000000,0.000000,0.000000,7.000000,0.000000,0.000000,0.393999,0.414119,0.029897,0.067268,0.183119,369.000000,365.000000,4.000000,9.000000,0.000000,0.000000,7.000000,0.000000,0.000000;
#CREDIT:Karl with a K;
#NOTES:
0000
0000
0000
0000
,
0000
0000
0000
0000
,
0000
0000
0000
0000
,
0002
0000
0000
2003
,
0000
3000
0010
1000
,
0001
0000
0000
0000
0010
0000
0000
0000
0100
0000
0000
0000
0010
0000
0000
0010
,
0000
0001
1000
0010
,
0100
0001
1000
0010
,
1000
0000
0000
0001
1000
0000
0001
0000
,
0000
0010
0000
0000
0000
0001
0000
0001
0000
0001
0000
0000
,
0000
0100
0010
0000
1000
0100
0000
0010
,
0000
0001
0000
0100
0000
0010
0000
0000
,
1000
0000
0010
0000
0000
0010
0000
0000
0110
0000
0000
0000
0000
0000
0000
0010
,
0000
0000
0000
1000
0010
1000
0000
0010
,
0100
0000
0010
0000
0000
0000
0100
0000
0000
0000
0000
0020
0000
0000
1030
0000
,
0001
0000
0000
0000
0001
0000
0000
0000
1000
0000
0000
0000
0001
0000
0000
0001
,
0000
0000
0001
0000
0010
0000
0000
0010
0000
0000
0010
0000
0100
0000
0000
0000
,
0010
0000
0001
0100
0001
1000
0000
0001
,
0000
0010
0100
0010
0000
0100
0000
0010
,
0000
0001
0010
0001
1000
0000
0010
0000
,
0100
0000
0010
0000
1000
0000
0000
0000
0010
0000
0000
0000
0100
0000
0000
0001
,
0000
0000
0000
0100
0000
0000
0000
0000
0001
0000
0000
1000
0000
0000
0000
0000
,
0100
0000
0000
0000
0010
0000
0001
0000
0000
1000
0000
0001
0000
0000
0100
0000
,
0010
0100
0000
0001
1000
0001
1000
0001
,
1000
0001
1000
0000
0010
0000
0010
0100
,
0000
0000
0001
0000
0000
0001
0000
0000
0001
0000
1000
0000
0000
0000
0010
0000
,
0100
0000
0010
0000
0000
1000
0000
1000
0000
0000
0010
0000
1000
0000
0000
0000
,
0001
1000
0001
0000
2002
0000
3003
0000
,
0001
0000
0000
0001
0000
0000
0001
0000
1000
0000
0100
0000
0000
0000
1000
0000
,
0000
0000
0001
0000
0000
0000
0000
0000
1000
0000
0000
1000
0000
0000
1000
0000
,
0100
0000
0010
0000
0000
0000
0001
0000
0000
0001
0000
0000
0001
0000
0000
0000
,
0010
0000
0000
0010
0000
0000
0010
0000
0100
0000
1000
0000
0000
0000
0010
0000
,
0000
0000
0100
0000
0000
0000
0000
0000
0001
0000
0000
0001
0000
0000
0001
0000
,
0100
0001
0100
0001
0000
0010
0001
0000
,
0100
0000
0000
0001
0100
0000
0001
0010
,
0000
0001
0000
1000
0000
0100
0000
0010
,
0000
0000
0000
0000
0010
0000
0001
0000
0000
0001
0000
0000
1001
0000
0000
1000
,
0000
0000
0000
1000
0000
0010
0000
1000
0000
0000
0000
0000
0001
0000
0100
0000
,
0010
1000
0000
0100
0000
0010
0100
1000
,
0100
0000
0000
0010
0000
0000
0001
0000
0000
0000
0100
0000
0000
0000
0001
0000
,
0010
0100
0000
0100
0010
0001
0010
0100
,
0000
1000
0010
0010
1000
0010
1000
0000
,
0010
0100
0010
0000
0001
1000
0001
0000
,
1000
0001
1000
0100
0010
0100
0000
1000
,
0001
0000
0000
1000
0000
0000
0001
0000
0010
0000
0001
0000
0100
0000
0000
0010
,
0000
0100
0001
0100
0001
0000
0001
0100
,
0002
0000
1003
0000
0100
0010
0001
2000
,
0000
3100
0010
0002
0000
0013
0001
1000
,
0010
0100
0001
0100
0000
2000
0000
3010
,
1000
0001
1000
0000
0001
0010
0001
0000
,
0100
0000
0000
0100
0000
0000
0000
0001
0000
1000
0000
1000
0000
0000
0100
0000
,
1000
0100
0000
1000
0001
1000
0000
0001
,
0000
0100
0000
0001
0000
1000
0000
0001
,
0010
0000
0001
0000
1000
0010
0000
1000
,
0000
0100
0010
0000
0040
0000
0000
0031
,
0000
1000
0400
0000
0000
0310
0040
0000
,
0000
0031
0000
0100
0000
0010
0000
1000
,
0001
0000
0100
0000
0010
1000
0000
0001
,
0000
1000
0010
0000
1000
0000
0100
0010
,
0000
0040
0000
0000
0031
0000
0100
0400
,
0000
0000
0301
1000
0001
0100
0010
0100
,
0000
0100
0000
0000
0100
0000
0001
0000
0010
0000
0000
0000
0100
0000
0000
0000
,
4000
0000
0000
0000
0000
0000
3001
0000
0000
0001
0000
0000
0001
0000
0010
0000
,
0001
1000
0000
0000
1000
0001
0100
0001
,
0000
0001
0000
0000
0001
0000
1000
0000
0010
0000
0000
0000
1000
0000
0000
0000
,
0400
0000
0000
0000
0000
0000
1300
0000
0000
1000
0000
0000
1000
0000
0001
0000
,
1000
0010
1000
0000
0010
0100
0000
0001
,
0000
0001
0000
0000
0001
0000
0100
0000
0001
0000
0100
0000
0001
0000
0000
0000
,
1000
0000
0000
0000
0010
0000
0000
0000
0100
0000
0000
0000
0010
0000
0000
0010
,
0000
0000
0010
0000
0100
0000
0000
0100
0000
0000
0100
0000
0000
0100
0000
0000
,
0000
0001
0000
1000
0000
0001
0000
0000
1000
0000
0100
0000
1000
0000
0100
0000
,
1000
0000
0000
0000
0100
0000
0000
0000
1000
0000
0000
0001
0000
0010
0000
0000
,
0100
1000
0001
1000
0000
0010
0100
0010
,
0000
0010
0000
0000
0100
0000
0001
0000
0000
0001
0000
0000
1000
0000
1001
0000
;

//---------------dance-single - ----------------
#NOTEDATA:;
#CHARTNAME:;
#STEPSTYPE:dance-single;
#DESCRIPTION:;
#CHARTSTYLE:;
#DIFFICULTY:Beginner;
#METER:5;
#RADARVALUES:0.188991,0.248472,0.164433,0.007474,0.022423,177.000000,155.000000,22.000000,1.000000,0.000000,0.000000,0.000000,0.000000,0.000000,0.188991,0.248472,0.164433,0.007474,0.022423,177.000000,155.000000,22.000000,1.000000,0.000000,0.000000,0.000000,0.000000,0.000000;
#CREDIT:Karl with a K;
#NOTES:
// measure 0
0000
0000
0000
0000
,  // measure 1
0000
0000
0000
0000
,  // measure 2
0000
0000
0000
0000
,  // measure 3
1000
0000
0000
0001
,  // measure 4
0000
0000
0100
0000
,  // measure 5
0000
0010
0000
1001
,  // measure 6
0000
0000
0000
0000
,  // measure 7
0010
0010
0010
0010
,  // measure 8
0010
0000
0000
0100
,  // measure 9
0000
0000
0000
0000
0000
0100
0000
0000
0000
1001
0000
0000
,  // measure 10
0000
0000
0000
0000
0000
0100
0000
0100
,  // measure 11
0000
0100
0000
0100
0000
0100
0000
0000
,  // measure 12
0000
0000
0001
0000
0000
0000
0000
0000
1001
0000
0000
0000
0000
0000
0000
0001
,  // measure 13
0000
0000
0000
0000
0000
1000
0000
1000
,  // measure 14
0000
1000
0000
0000
0000
0000
0000
0000
,  // measure 15
0100
0000
0000
1001
,  // measure 16
0000
1001
0000
1001
,  // measure 17
0000
0000
0100
0000
0000
0010
0000
0000
,  // measure 18
0000
0100
0000
0000
0000
1001
0000
0000
,  // measure 19
0000
0010
0000
0000
0100
0000
0000
0000
,  // measure 20
0010
0000
1000
0000
,  // measure 21
0100
0000
0100
0000
,  // measure 22
0010
0000
0000
0001
0000
0000
0000
0010
,  // measure 23
0000
0010
0000
0100
,  // measure 24
0000
1000
0000
0001
,  // measure 25
0000
0100
0000
0000
0000
0010
0000
0000
,  // measure 26
0000
1000
0000
0000
0000
0001
0000
0000
,  // measure 27
0010
0000
0100
0000
,  // measure 28
1001
0000
0000
0000
0000
0110
0000
0000
,  // measure 29
0000
0100
0000
0000
0110
0000
0000
0000
,  // measure 30
0000
1001
0000
0000
0000
0001
0000
0000
,  // measure 31
1001
0000
0000
0000
0000
0110
0000
0000
,  // measure 32
0000
0010
0000
0000
0110
0000
0000
0000
,  // measure 33
0000
1001
0000
0000
0000
0000
1000
0000
,  // measure 34
1000
0000
0000
0000
1000
0000
0000
0001
,  // measure 35
0000
0001
0000
0001
0000
0001
0000
0001
,  // measure 36
0000
0000
0000
1000
0000
0000
0110
0000
,  // measure 37
0000
0000
0000
1001
0000
0000
0000
0000
0000
0000
0000
0000
0000
0000
0010
0000
,  // measure 38
0000
0010
0000
0010
0000
0000
1000
0000
,  // measure 39
0000
0000
0001
0000
0000
1000
0000
0000
,  // measure 40
0000
0001
0000
0000
0000
0100
0000
0000
,  // measure 41
0000
0010
0000
0000
0100
0000
0000
0000
,  // measure 42
0010
0000
0010
0000
,  // measure 43
0010
0000
0000
0100
0000
0000
0000
0100
,  // measure 44
0000
0000
0000
0001
0000
0000
0001
0000
,  // measure 45
0000
1000
0000
1000
,  // measure 46
0000
0001
0000
0100
,  // measure 47
0000
0010
0000
0000
0000
1000
0000
0000
,  // measure 48
0000
1000
0000
0000
0000
0100
0000
0000
,  // measure 49
0010
0000
0001
0001
,  // measure 50
0001
0000
0000
0000
0000
0000
0000
1000
0000
0000
0000
0000
0000
0000
0000
0000
,  // measure 51
0000
0010
0000
0010
0000
0010
0000
0000
,  // measure 52
0000
0000
0000
0100
0000
0000
0000
0000
,  // measure 53
0001
0000
0000
0000
0000
1000
0000
0000
,  // measure 54
0000
0000
0001
0000
0000
0000
0000
0100
,  // measure 55
0000
0000
0000
0000
0000
0010
0010
0000
,  // measure 56
0000
1000
0000
0000
0000
0000
0000
0000
,  // measure 57
0100
0000
0000
0000
0000
0010
0000
0000
,  // measure 58
0000
0000
0001
0000
0000
0000
0000
0001
,  // measure 59
0000
0000
0100
0000
,  // measure 60
0000
0000
0020
0000
0000
0000
0030
1000
,  // measure 61
0000
0001
0001
0000
,  // measure 62
0010
0000
0000
0100
0000
0000
0010
0000
,  // measure 63
0010
0000
0000
0000
0001
0000
0000
0100
,  // measure 64
0000
0001
0001
0000
,  // measure 65
1000
0000
0000
0010
0000
0000
0100
0000
,  // measure 66
0100
0000
0000
0000
0000
0001
0000
0001
,  // measure 67
0000
0000
0000
0100
,  // measure 68
0100
0100
0100
0100
,  // measure 69
0000
0000
0010
0000
0000
1001
0000
0000
,  // measure 70
0000
0110
0000
0000
0000
0000
0000
0000
0010
0000
0000
0000
0010
0000
0000
0000
,  // measure 71
0010
0000
0000
0000
0010
0000
0000
0000
0000
0000
0000
0000
0000
1000
0000
0000
,  // measure 72
0000
0001
0000
0000
0000
1000
0000
1001
,  // measure 73
0000
0000
0000
0110
0000
0000
0000
1001
;

//---------------dance-single - JA BU RH TS JU+----------------
#NOTEDATA:;
#CHARTNAME:2021 KWAK;
#STEPSTYPE:dance-single;
#DESCRIPTION:JA BU RH TS JU+;
#CHARTSTYLE:;
#DIFFICULTY:Edit;
#METER:17;
#RADARVALUES:0.980192,1.021494,0.762372,0.156959,1.397681,918.000000,816.000000,102.000000,21.000000,0.000000,0.000000,0.000000,0.000000,0.000000,0.980192,1.021494,0.762372,0.156959,1.397681,918.000000,816.000000,102.000000,21.000000,0.000000,0.000000,0.000000,0.000000,0.000000;
#CREDIT:Karl with a K;
#NOTES:
0000
0000
0000
0000
,
0000
0000
0000
0000
,
0000
0000
0000
0000
,
2000
0000
0000
0000
0000
0000
0000
3001
0100
0020
0000
0000
,
2030
0000
0000
3002
0000
0000
0013
0100
1000
0001
0010
0100
,
1000
0000
0000
0000
0010
0000
0000
0000
0100
0000
0000
0000
0001
0000
0000
0000
0100
0000
0000
0000
0010
0000
0000
0000
0100
0000
0000
0000
0010
0000
0000
0000
1000
0000
0000
0000
1010
0000
0000
0000
0000
0000
0000
0000
0000
1010
0000
0000
,
0000
0000
0100
0001
1000
0010
0000
0100
0010
1000
0010
1000
0001
1000
0010
1000
,
1010
1100
0011
0101
,
0100
0000
0001
0000
1000
0000
0010
0000
0000
0000
0100
0000
0010
0000
1000
0000
0010
0000
1000
0000
0001
0000
1000
0000
0002
0000
0000
0000
0000
0023
0000
0000
,
0000
0000
0032
0000
0000
0000
0000
2003
0000
0000
0000
0000
3200
0000
0000
0000
0000
0000
1300
0000
0000
0000
0000
0000
0100
0000
1000
0000
0001
0000
0010
0000
,
0000
0010
0100
1000
0010
1000
0001
1000
0010
1000
1010
0000
0000
0000
1100
0000
,
0000
0000
0011
0000
0000
0000
0101
0000
0000
0000
0100
0001
1000
0010
0000
1000
,
0100
1000
0100
1000
0001
1000
0000
0000
1001
0000
0001
1000
0000
1010
0000
1001
,
0000
0001
0000
1001
0000
1000
0001
0000
0011
0000
1001
0000
1000
0000
0001
0000
,
0011
0000
0001
0010
0100
1000
0100
1000
0100
0010
0100
2000
0000
0000
3010
0000
,
0010
1000
0001
0100
0001
0100
0001
1000
0001
0000
0010
0000
0011
0000
0000
0011
,
0000
0000
1100
0000
1010
0000
0000
1010
0000
0000
0101
0000
1002
0000
0000
2003
,
0000
0000
3010
0000
0100
0000
0001
0000
0100
0000
0002
0000
0000
2003
0000
0000
,
3100
0000
0100
0000
1000
0000
0001
0000
0000
0000
0002
0000
0000
2003
0000
0000
,
3010
0000
0100
0000
0001
0000
0100
0000
0002
0000
0000
2003
0000
0000
3100
0000
,
0100
0000
1000
0000
0001
0000
0000
0000
0001
0010
0100
0010
0100
1000
0100
1000
,
0000
0001
1000
0010
0000
1000
0001
0100
0001
0100
0010
1000
0000
0100
1000
0001
,
1000
0000
0001
0100
0001
1000
0010
1000
0001
0100
0000
0010
0000
1000
0010
0000
,
1000
0000
1000
0001
0100
0001
1000
0010
1000
0010
0100
0001
0100
0000
0100
0010
,
0100
0000
0000
0000
0000
0000
0100
0000
0000
0001
0000
0000
0010
0000
0000
0001
0000
0000
1000
0000
0000
0100
0000
0000
0010
0000
0000
0001
0000
0000
1000
0000
0000
0100
0000
0000
0010
0000
0001
0000
0010
0000
0001
0000
0000
0000
0100
0000
,
0000
0000
0001
0000
0000
0000
0010
0000
0000
0100
0000
0000
1000
0000
0000
0001
0000
0000
1000
0000
0000
0010
0000
0000
0100
0000
0001
0000
0100
0000
0001
0000
0000
0000
1000
0000
0000
0000
0010
0000
0000
0000
1000
0000
0000
0100
0000
0000
,
1000
0000
0000
0010
0000
0000
1000
0000
0000
0010
0000
0000
0100
0000
0000
0001
0000
0000
0000
0000
0000
0010
0000
0000
0000
0000
0000
0001
0000
0000
1000
0000
0100
0000
1000
0000
0100
0000
0000
0000
0010
0000
0000
0000
0001
0000
0000
0000
,
0100
0000
0000
0001
0000
0000
1000
0000
0000
0010
0000
0000
1000
0000
0000
0001
0000
0000
1000
0000
0000
0001
0000
0000
0010
0000
0100
0000
0010
0000
0100
0000
0010
0000
0000
0000
0001
0000
0000
0010
0000
0000
0100
0000
0000
1000
0000
0000
,
1100
0000
0000
1100
0000
0000
1001
0000
0010
0000
1010
0000
0001
0100
0010
1000
,
0100
0010
0001
0000
0100
0000
0100
0000
0101
0000
0000
0101
0000
0000
1001
0000
,
0001
0000
0011
0000
1000
0100
0010
0001
1000
0001
0000
0010
0001
1000
0001
0100
,
0101
0000
0000
0101
0000
0000
1001
0000
0010
0000
1010
0000
0001
0100
0010
1000
,
0100
0010
0001
0010
0100
1000
0100
0000
1100
0000
0000
1100
0000
0000
1001
0000
,
1000
0000
1010
0000
1000
0010
0100
0000
0001
1000
0001
0000
1001
0000
0000
0000
,
1000
0100
0010
0001
0000
0100
0001
0010
0100
1000
0001
1000
0001
0100
0101
0000
,
0000
0000
0011
0000
0000
0000
1100
0000
0000
0000
1010
0000
0000
0000
1000
0010
,
0100
0001
0000
0100
0001
0010
0100
1000
0001
0010
0000
0000
1001
0000
0001
1000
,
0000
1100
0000
1001
0000
0001
0000
1001
0000
1000
0001
0000
0101
0000
1001
0000
,
1000
0000
0001
0000
0011
0000
0010
0000
0001
0000
0011
0000
0001
0010
0100
1000
,
0001
0010
0001
0020
0000
0031
2000
0000
3001
0100
0001
0100
0001
1000
0010
0100
,
0001
1000
0010
1000
0010
1000
0001
0100
0001
0000
0010
0001
1000
0100
0010
0001
,
0100
0001
1000
0010
1000
0000
0001
1000
0010
1000
0001
0100
0001
0010
0100
1000
,
0001
0000
0000
0010
0000
0000
0001
0000
0000
1000
0000
0000
0001
0000
0000
1000
0000
0000
0100
0000
0000
0000
0000
0000
1000
0000
0000
0010
0000
0000
0100
0000
0000
0001
0000
0000
0100
0000
0000
0000
0001
0000
1000
0000
0000
0000
0010
0000
,
1000
0000
0000
0001
0000
0000
1000
0000
0100
0000
1000
0000
0100
0000
1000
0000
0100
0000
1000
0000
0000
0100
0000
0000
1000
0000
0000
0001
0000
0000
0100
0000
0000
0010
0000
0000
1000
0000
0000
0001
0000
0000
0100
0000
0000
0001
0000
0000
,
0010
0000
0000
0000
0000
0000
0000
0000
0001
0000
0000
0000
0000
0000
0000
0000
0010
0000
0000
0000
0000
0000
0000
0000
0001
0000
0000
0000
0000
0000
0000
0000
0000
0000
0000
0000
1000
0000
0000
0000
0000
0000
0000
0000
0000
0000
0000
0000
0000
0000
0000
0000
0000
0000
0100
0000
0000
0000
0000
0000
0000
0000
0000
0000
0000
0000
0000
0000
0000
0000
0000
0000
0010
0000
0000
0000
0000
0000
0000
0000
0000
0000
0000
0000
0001
0000
0000
0000
0000
0000
0000
0000
0000
0000
0000
0000
1000
0000
0000
0000
0000
0000
0000
0000
0000
0000
0000
0000
0100
0000
0000
0000
0000
0000
0000
0000
0000
0000
0000
0000
0010
0000
0000
0000
0000
0000
0000
0000
0001
0000
0000
0000
0000
0000
0000
0000
0010
0000
0000
0000
0000
0000
0000
0000
0001
0000
0000
0000
0000
0000
0000
0000
0000
0000
0000
0000
1000
0000
0000
0000
0000
0000
0000
0000
0000
0000
0000
0000
0100
0000
0000
0000
0000
0000
0000
0000
0000
0000
0000
0000
1000
0000
0000
0000
0000
0000
0000
0000
0000
0000
0000
0000
,
0000
0000
0000
0000
0000
0000
0010
0000
0000
0000
0000
0000
0000
0000
0000
0000
0000
0000
0000
0000
0000
0000
0000
0000
1000
0000
0000
0000
0000
0000
0000
0000
0000
0000
0000
0000
0010
0000
0000
0000
0000
0000
0000
0000
0000
0000
0000
0000
0100
0000
0000
0000
0000
0000
0000
0000
0001
0000
0000
0000
0000
0000
0000
0000
0100
0000
0000
0000
0000
0000
0000
0000
0001
0000
0000
0000
0000
0000
0000
0000
0000
0000
0000
0000
0100
0000
0000
0000
0000
0000
0000
0000
0000
0000
0000
0000
0001
0000
0000
0000
0000
0000
0000
0000
0000
0000
0000
0000
1000
0000
0000
0000
0000
0000
0000
0000
0000
0000
0000
0000
0001
0000
0000
0000
0000
0000
0000
0000
0000
0000
0000
0000
0100
0000
0000
0000
0000
0000
0000
0000
0000
0000
0000
0000
0010
0000
0000
0000
0000
0000
0000
0000
1000
0000
0000
0000
0000
0000
0000
0000
0010
0000
0000
0000
0000
0000
0000
0000
1000
0000
0000
0000
0000
0000
0000
0000
0010
0000
0000
0000
0000
0000
0000
0000
1000
0000
0000
0000
0000
0000
0000
0000
,
0010
0000
0000
0000
0100
0000
0000
0000
0001
0000
0000
0000
0100
0000
0000
0010
0000
0000
1000
0000
0000
0100
0000
0000
1000
0000
0000
0100
0000
0000
0010
0000
0001
0000
0010
0000
0001
0000
0010
0000
0001
0000
0010
0000
0000
0000
0100
0000
,
0000
0000
1000
0000
0000
0000
0001
0000
0010
0000
0001
0000
0010
0000
0001
0000
0010
0000
0001
0000
0000
0000
1000
0000
0000
0000
0100
0000
0000
0000
1000
0000
0000
0001
0000
0000
0010
0000
0000
0001
0000
0000
0100
0000
0000
0010
0000
0000
,
1000
0000
0000
0000
0000
0000
0001
0000
0100
0000
0001
0000
0100
0000
0000
0001
0000
0000
1000
0000
0010
0000
1000
0000
0010
0000
0000
0000
0000
0000
1000
0000
0000
0000
0100
0000
0000
0000
0010
0000
0000
0000
0001
0000
0000
0000
0000
0000
,
0100
0000
0000
0001
0000
0000
1000
0000
0000
0010
0000
0000
0100
0000
0000
0001
0000
0000
1000
0000
0000
0001
0000
0000
1000
0000
0000
0001
0000
0000
1000
0000
0100
0000
1000
0000
0100
0000
1000
0000
0100
0000
1000
0000
0100
0000
1000
0000
,
0100
0000
1000
0001
0000
0011
0000
1001
0000
1000
0000
1001
0000
0001
1000
0000
,
1010
0000
1000
0000
1010
0000
1010
0000
0110
0000
0001
0100
0010
0100
0001
0100
,
0010
0100
0001
0100
0010
0100
0001
1000
0010
0100
0001
0100
0010
0100
0001
0000
,
1000
0100
0010
0100
1000
0100
0010
0100
1000
0000
1001
0000
0001
0100
0010
0100
,
0001
0000
1000
0000
1001
0000
1000
0100
0010
0001
0010
0001
1000
0000
1000
0010
,
0100
0010
0100
0010
1000
0001
1000
0001
1000
0000
1001
0000
0001
0010
0001
0010
,
0001
0010
0001
0000
1001
0000
0001
1000
0010
0000
1000
0010
1000
0100
0010
0001
,
0010
0000
0001
0010
0001
0010
0100
0010
0001
0000
0100
0010
1000
0010
0100
0010
,
1000
0010
0100
0000
0101
0000
1000
0001
0010
0001
1000
0001
0100
0000
0110
0000
,
0010
0000
0000
1000
0000
0000
0001
0000
0000
1000
0000
0000
0001
0000
0100
0000
0001
0000
0100
0000
0000
0001
0000
0000
1000
0000
0000
0001
0000
0000
0100
0000
0000
0001
0000
0000
0100
0000
0000
0001
0000
0000
1000
0000
0000
0010
0000
0000
,
1000
0000
0010
0000
1000
0000
0010
0000
0000
0000
0000
0000
1010
0000
0000
0000
0000
0000
0010
0000
0000
1000
0000
0000
0001
0000
0000
1000
0000
0000
0001
0000
0000
1000
0000
0000
0100
0000
0000
0000
0000
0000
1100
0000
0000
0000
0000
0000
,
0000
1100
0000
0000
1001
0000
0010
0000
0011
0000
0001
0100
0010
1000
0100
0010
,
0001
0010
0100
1000
0100
0000
1100
0000
0000
1100
0000
0000
1001
0000
0001
0000
,
0011
0000
1000
0100
0000
0010
0001
1000
0001
0010
0001
1000
0001
0100
0101
0000
,
0000
0101
0000
0000
1001
0000
0010
0000
1010
0000
0001
0100
0010
1000
0100
0010
,
0001
0010
0100
1000
0100
0000
1100
0000
0000
1100
0000
0000
1001
0000
1000
0000
,
1010
0000
1000
0010
0100
0001
1000
0001
0000
0000
1001
0000
0000
0000
0100
1000
,
0001
0010
0000
0100
0010
0001
0010
0001
1000
0001
0010
0000
0011
0000
0000
0000
,
0101
0000
0000
0000
1010
0000
0000
0000
1100
0000
0000
0000
0100
1000
0001
0010
,
0000
0100
0010
0001
0010
0001
1000
0001
0000
0000
1001
0000
1000
0001
0000
0011
,
0000
1001
0000
1000
0000
1001
0000
0001
1000
0000
1010
0000
1001
0000
0001
0000
,
1000
0000
1010
0000
1000
0010
0100
0001
0100
0001
0100
0010
0100
0002
0000
0000
,
0013
0000
0010
0001
1000
0100
1000
0100
1000
0001
1000
0000
0010
0000
1010
0000
,
0000
1010
0000
0000
0101
0000
0011
0000
0000
0011
0000
0000
0101
0000
1001
0000
;
