#VERSION:0.83;
#TITLE:Gorgetech;
#SUBTITLE:;
#ARTIST:Shiron;
#TITLETRANSLIT:;
#SUBTITLETRANSLIT:;
#ARTISTTRANSLIT:;
#GENRE:;
#ORIGIN:SOUND VOLTEX IV HEAVENLY HAVEN;
#CREDIT:;
#BANNER:Gorgetech.png;
#BACKGROUND:Gorgetech-bg.png;
#PREVIEWVID:;
#JACKET:Gorgetech-jacket.png;
#CDIMAGE:;
#DISCIMAGE:;
#LYRICSPATH:;
#CDTITLE:;
#MUSIC:Gorgetech.ogg;
#OFFSET:-1.520000;
#SAMPLESTART:71.988045;
#SAMPLELENGTH:12.000000;
#SELECTABLE:YES;
#BPMS:0.000=160.000;
#STOPS:27.750=1.500;
#DELAYS:;
#WARPS:;
#TIMESIGNATURES:0.000=4=4;
#TICKCOUNTS:0.000=4;
#COMBOS:0.000=1;
#SPEEDS:0.000=1.000=0.000=0;
#SCROLLS:0.000=1.000;
#FAKES:;
#LABELS:0.000=Song Start;
#BGCHANGES:;
#KEYSOUNDS:;
#ATTACKS:
;

//---------------dance-single - XO+ DS- JA XMOD BU- JU- HS-----------------
#NOTEDATA:;
#CHARTNAME:;
#STEPSTYPE:dance-single;
#DESCRIPTION:XO+ DS- JA XMOD BU- JU- HS-;
#CHARTSTYLE:;
#DIFFICULTY:Challenge;
#METER:17;
#RADARVALUES:0.897436,0.963782,0.256410,0.521368,0.987179,735.000000,705.000000,30.000000,61.000000,0.000000,0.000000,0.000000,0.000000,0.000000,0.897436,0.963782,0.256410,0.521368,0.987179,735.000000,705.000000,30.000000,61.000000,0.000000,0.000000,0.000000,0.000000,0.000000;
#CREDIT:Karl with a K as amongsurprise;
#NOTES:
// measure 0
0000
0000
0000
0000
,  // measure 1
0000
0000
0000
0000
,  // measure 2
0000
0000
0000
0000
,  // measure 3
0000
0000
0000
0000
,  // measure 4
1001
0000
1000
0100
0010
0100
1000
0000
0010
1000
0001
0100
0010
0000
0100
0000
,  // measure 5
0110
0000
0001
0100
0010
0100
0001
0000
0010
0001
1000
0100
0010
0000
0100
0000
,  // measure 6
0110
0000
0010
0001
0100
0001
0010
0001
0010
0100
0010
0001
0100
0010
1000
0010
,  // measure 7
1010
0000
1000
0001
0010
0000
0010
0001
0010
0100
0010
0001
0010
0000
0100
0000
,  // measure 8
0011
0000
0001
1000
0010
0000
0010
1000
0010
0100
0010
1000
0010
0000
0100
0000
,  // measure 9
1010
0000
1000
0001
0010
0000
0010
0001
1000
0100
0010
0001
0010
0000
0100
0000
,  // measure 10
0011
0000
0001
1000
0010
0000
0010
1000
0001
0100
0010
1000
0010
0000
0100
0000
,  // measure 11
1010
0000
0001
1000
0000
1000
0001
1000
0100
0010
0000
0001
0010
0000
0100
0000
,  // measure 12
0011
0000
1000
0001
0000
0001
1000
0001
0100
0010
0000
1000
0010
0000
0100
0000
,  // measure 13
1010
0000
0001
0100
0000
0100
0001
1000
0001
0010
0000
0100
0010
0000
0001
0000
,  // measure 14
0011
0000
0000
0000
0000
0000
0001
0000
0000
1000
0000
0000
0001
0000
0000
0010
0000
0000
0000
0000
0000
0010
0000
0000
0001
0000
0000
0000
0010
0000
0000
0000
1000
0000
0000
0000
0010
0000
0000
0000
0000
0000
0001
0000
0000
0000
0000
0000
,  // measure 15
0101
0000
0100
0010
0001
0000
0001
0010
0100
0001
1000
0001
0010
0000
0100
0000
,  // measure 16
1100
0000
0100
0010
1000
0000
1000
0010
0100
1000
0001
1000
0010
0000
0100
0000
,  // measure 17
0101
0000
0100
0010
0001
0000
0001
0010
0100
0001
1000
0001
0010
0000
0100
0000
,  // measure 18
1000
0000
0000
0100
0000
0000
0010
0000
0000
0100
0000
0000
0000
0000
0000
0100
0000
0000
0000
0000
0000
0010
0000
0000
0000
0000
0000
0010
0000
0000
0000
0000
0000
0010
0000
0000
0001
0000
1000
0000
0001
0000
1000
0000
0000
0000
0000
0000
,  // measure 19
0110
0000
0001
1000
0100
1000
0001
1000
0010
0100
1000
0100
0010
0000
1000
0000
,  // measure 20
0110
0000
1000
0001
0100
0001
1000
0001
0010
0100
0001
0100
0010
0000
0001
0000
,  // measure 21
0110
0000
0001
0010
0000
1000
0010
0000
0001
0010
0000
0100
0010
0000
0001
0000
,  // measure 22
0100
0000
0010
1000
0001
0100
0001
1000
0010
0100
0010
0000
1010
0000
0000
0000
,  // measure 23
1100
0100
1000
0010
0010
0000
1000
1000
,  // measure 24
0010
0010
0010
0000
0000
0000
0000
0000
,  // measure 25
0101
0100
0001
0010
0010
0000
0001
0001
,  // measure 26
0010
0010
0010
0000
0000
0000
0000
0000
,  // measure 27
1100
1000
0001
0010
0010
0000
0001
0100
,  // measure 28
0010
0001
0010
0000
0000
0000
0000
0000
,  // measure 29
0101
0001
1000
0010
0010
0000
1000
0100
,  // measure 30
0010
1000
0010
0000
0001
0001
0001
0000
,  // measure 31
0110
0000
0001
0100
0001
1000
0010
0000
0010
1000
0001
0010
0001
0000
0100
0001
,  // measure 32
0010
0001
0010
0100
0010
0100
1000
0000
0010
0000
1000
0010
0100
0000
0010
0000
,  // measure 33
0110
0000
1000
0100
1000
0001
0010
0000
0010
0001
1000
0100
1000
0000
0100
1000
,  // measure 34
0010
1000
0010
0100
0010
0100
0001
0000
0010
0001
1000
0001
0100
0000
0010
0000
,  // measure 35
0110
0000
0010
1000
0100
1000
0010
0000
1000
0100
1000
0010
1000
0000
0001
0100
,  // measure 36
0010
0100
0001
0010
0001
0000
1000
0000
0010
0000
1000
0000
0100
0000
0010
0100
,  // measure 37
0001
0000
0100
0010
0100
1000
0001
0000
1000
0100
0010
0100
1000
0000
0010
0100
,  // measure 38
0002
0000
0000
0023
0002
0000
0030
0000
,  // measure 39
0103
0000
0010
0000
0010
0000
0010
0000
0010
0000
0010
0000
0001
0000
0010
0001
,  // measure 40
0010
0010
1000
1000
0100
0100
0001
0001
,  // measure 41
0100
0000
0010
0000
0010
0000
0010
0000
0010
0000
0010
0000
1000
0000
0010
1000
,  // measure 42
0010
0010
0001
0001
0100
0100
2000
3100
,  // measure 43
0010
0000
0010
1000
0010
1000
0010
0000
0010
1000
0010
1000
0010
0100
0010
0100
,  // measure 44
0010
1000
0010
0000
1000
0100
1000
0000
0100
0010
0100
0010
1000
0000
0010
0000
,  // measure 45
0100
0000
0010
0001
0010
0001
0010
0000
0010
0001
0010
0001
0010
1000
0010
1000
,  // measure 46
0010
0100
0010
0100
0000
0000
1000
0000
0000
1000
0000
0000
0200
0000
0000
0000
0000
0000
1300
0000
0000
0000
0000
0000
,  // measure 47
0020
0000
1000
0001
0000
0000
0001
1000
0000
0000
1030
0010
0002
0000
0013
1000
,  // measure 48
0020
0000
1030
0100
2000
0000
3100
0010
0200
0000
0301
0100
0002
0000
0103
0000
,  // measure 49
0020
0000
0001
1000
0000
0000
1000
0001
0000
0000
0031
0010
2000
0000
3010
0001
,  // measure 50
0020
0000
0031
0100
0002
0000
0103
0010
0200
0000
1300
0100
0002
0000
1003
0000
,  // measure 51
0020
0000
1000
0100
0000
0000
0100
1000
0000
0000
1030
0100
0002
0000
0103
1000
,  // measure 52
0020
0000
0031
0010
2000
0000
3010
1000
0200
0000
1300
0100
0002
0000
0103
1000
,  // measure 53
0010
0000
0000
0000
0000
0000
0100
0000
0001
0000
0100
0000
0001
0000
0000
0010
0000
0000
0001
0000
0000
0010
0000
0000
0001
0000
0000
0000
0000
0000
0010
0000
0000
0000
0000
0000
1000
0000
0000
0010
0000
0000
1000
0000
0000
0010
0000
0000
,  // measure 54
0001
0000
0001
0000
0100
0000
0010
0000
0100
1000
0100
0001
0020
0000
0000
0000
,  // measure 55
0230
0000
1000
0001
0000
0000
0301
0001
0000
1000
1000
0100
1000
0000
0001
0000
,  // measure 56
0010
0000
0001
1000
0001
0010
0001
0010
0001
0100
0001
0000
0200
0000
0310
0000
,  // measure 57
0200
0000
0001
1000
0000
0000
1000
0001
0000
0301
1000
0100
0002
0000
0103
1000
,  // measure 58
0020
0000
0000
0000
0000
0000
0031
0000
0000
0010
0000
0000
1000
0000
0000
0001
0000
0000
0010
0000
0000
0001
0000
0000
0000
0000
0000
0001
0000
0000
1000
0000
0000
0000
0000
0000
0100
0000
0000
0000
0000
0000
1000
0000
0100
0000
1000
0000
,  // measure 59
0100
0000
0100
0010
0000
0010
0001
0000
1000
0001
0010
1000
0010
0001
0100
0000
,  // measure 60
0100
0000
0010
1000
0000
0010
0001
0000
1000
0000
0001
0010
0000
1000
0010
0000
,  // measure 61
0200
0000
0301
0010
0200
0310
0001
0200
0301
0010
0200
0310
0001
0010
1000
0000
,  // measure 62
0001
0000
0001
0000
0001
0100
1000
0100
0020
0000
0032
0000
0203
0000
0300
0000
,  // measure 63
0101
0000
1000
0010
2000
0000
3010
1000
0010
0100
0010
0001
0020
0000
0230
0000
,  // measure 64
0301
0000
0000
0100
0002
0000
0023
0000
0230
0000
2300
0000
3001
0000
0001
0000
,  // measure 65
0100
0000
0001
0010
0002
0000
0013
0001
0010
0100
0010
1000
0020
0000
0130
0000
,  // measure 66
2001
0000
3000
0002
0100
0000
1003
0000
0012
0000
0000
0000
0103
0000
0001
0000
,  // measure 67
1100
0000
0100
1000
0020
0000
0130
0001
0100
1000
0100
0010
2000
0000
3100
0000
,  // measure 68
2000
3020
0032
2003
3002
0023
2030
3000
,  // measure 69
0101
0000
0100
0001
0020
0000
0130
1000
0100
0001
0100
0010
0002
0000
0103
0000
,  // measure 70
0001
0100
0010
1000
0010
0100
0001
0000
1000
0100
0010
0100
1000
0000
0100
2000
,  // measure 71
0002
0000
0000
0000
,  // measure 72
0000
0000
0000
3003
;

//---------------dance-single - ----------------
#NOTEDATA:;
#CHARTNAME:;
#STEPSTYPE:dance-single;
#DESCRIPTION:;
#CHARTSTYLE:;
#DIFFICULTY:Easy;
#METER:9;
#RADARVALUES:0.312576,0.485470,0.179487,0.042735,0.004274,256.000000,235.000000,21.000000,5.000000,0.000000,0.000000,0.000000,0.000000,0.000000,0.312576,0.485470,0.179487,0.042735,0.004274,256.000000,235.000000,21.000000,5.000000,0.000000,0.000000,0.000000,0.000000,0.000000;
#CREDIT:Karl with a K as amongsurprise;
#NOTES:
// measure 0
0000
0000
0000
0000
,  // measure 1
0000
0000
0000
0000
,  // measure 2
0000
0000
0000
0000
,  // measure 3
0000
0000
0000
0000
,  // measure 4
1000
0100
0010
0001
,  // measure 5
0001
0100
0010
1000
,  // measure 6
0001
0010
1000
0010
,  // measure 7
0001
0100
0010
0010
,  // measure 8
1000
0100
0010
0010
,  // measure 9
0001
0100
0010
0001
,  // measure 10
0010
0100
1000
0100
,  // measure 11
0001
0001
0010
0010
,  // measure 12
0100
0100
0010
0010
,  // measure 13
0001
1000
0010
0010
,  // measure 14
0100
0100
0100
0000
0001
0000
1001
0000
,  // measure 15
1000
0010
0001
0010
,  // measure 16
1000
0100
0001
0100
,  // measure 17
1000
0001
0010
1000
,  // measure 18
0010
0000
0001
0000
0100
0000
0010
0010
,  // measure 19
0010
0100
0001
0100
,  // measure 20
0010
1000
0100
1000
,  // measure 21
1001
0000
0000
0110
0000
0000
1001
0000
,  // measure 22
0100
0000
0010
0010
0010
0010
0000
0000
,  // measure 23
0110
0000
0000
0000
,  // measure 24
0000
0000
0000
0000
,  // measure 25
1001
0000
0000
0000
,  // measure 26
0000
0000
0000
0000
,  // measure 27
0110
0001
0010
0000
,  // measure 28
0010
0000
0000
0000
,  // measure 29
0110
1000
0010
0000
,  // measure 30
0010
0000
0100
0000
,  // measure 31
0001
0010
0010
0010
,  // measure 32
0010
0100
1000
0100
,  // measure 33
1000
0010
0010
0010
,  // measure 34
0010
0100
0001
0100
,  // measure 35
0001
0010
1000
0010
,  // measure 36
0001
0010
0100
1000
,  // measure 37
1000
0010
0001
0010
,  // measure 38
2000
0000
0000
0000
,  // measure 39
3001
0010
0010
0010
,  // measure 40
1000
0010
0001
0100
,  // measure 41
0001
0010
0010
0010
,  // measure 42
1000
0010
0100
1000
,  // measure 43
1000
0010
0010
0010
,  // measure 44
0001
0010
1000
0100
,  // measure 45
1000
0000
0010
0000
0010
1000
0010
0000
,  // measure 46
0001
0010
0100
0000
,  // measure 47
0101
0100
0001
0010
,  // measure 48
0001
0100
0001
1000
,  // measure 49
1100
0100
1000
0010
,  // measure 50
1000
0100
0001
0100
,  // measure 51
0110
0001
0100
1000
,  // measure 52
1000
0100
0001
0100
,  // measure 53
0110
0001
0001
0001
,  // measure 54
0010
0010
0010
0010
0020
0000
0030
0000
,  // measure 55
1001
0000
0000
0000
1010
0000
0000
1010
0000
0000
1010
0000
1010
0000
0000
0000
,  // measure 56
0010
1000
0100
0001
,  // measure 57
0100
0000
0010
0000
0100
0010
0100
0000
,  // measure 58
0001
1000
0001
0100
,  // measure 59
0100
0000
0110
0000
,  // measure 60
0001
0010
1000
0100
,  // measure 61
1000
0010
0001
0100
,  // measure 62
1000
0100
0200
0300
,  // measure 63
0001
0000
0010
0000
,  // measure 64
0100
0100
0010
0001
,  // measure 65
1000
0000
0010
0000
,  // measure 66
0020
0030
0200
0300
,  // measure 67
0001
0000
0010
0000
,  // measure 68
0100
0010
0001
0001
,  // measure 69
1000
0000
0010
0000
,  // measure 70
0110
0000
0110
0000
,  // measure 71
1001
0000
0000
0000
;

//---------------dance-single - XO JA XMOD JU-----------------
#NOTEDATA:;
#CHARTNAME:;
#STEPSTYPE:dance-single;
#DESCRIPTION:XO JA XMOD JU-;
#CHARTSTYLE:;
#DIFFICULTY:Medium;
#METER:13;
#RADARVALUES:0.567766,0.758547,0.393162,0.119658,0.119658,465.000000,419.000000,46.000000,14.000000,0.000000,0.000000,0.000000,0.000000,0.000000,0.567766,0.758547,0.393162,0.119658,0.119658,465.000000,419.000000,46.000000,14.000000,0.000000,0.000000,0.000000,0.000000,0.000000;
#CREDIT:Karl with a K as amongsurprise;
#NOTES:
// measure 0
0000
0000
0000
0000
,  // measure 1
0000
0000
0000
0000
,  // measure 2
0000
0000
0000
0000
,  // measure 3
0000
0000
0000
0000
,  // measure 4
0001
0010
0001
0000
1000
0100
1000
0000
,  // measure 5
0010
1000
0010
0000
1000
0001
1000
0000
,  // measure 6
0001
0100
0010
0010
1000
0100
0010
0010
,  // measure 7
0001
0100
0001
0010
0001
0100
0001
0010
,  // measure 8
0100
1000
0010
1000
0100
1000
0010
0000
,  // measure 9
1000
0100
0010
0100
1000
0100
0010
0100
,  // measure 10
0010
0001
0100
0001
0010
0001
0010
0000
,  // measure 11
0001
0100
1000
0100
0001
0010
0001
0000
,  // measure 12
1000
0100
0001
0100
1000
0010
1000
0000
,  // measure 13
0001
0100
1000
0100
0010
1000
0010
1000
,  // measure 14
0100
0000
0100
0000
0100
0000
0000
0110
0000
0000
0000
0000
0110
0000
0000
0000
,  // measure 15
0001
0100
0010
0000
0010
1000
0100
0100
,  // measure 16
1000
0100
0010
0000
0010
0001
0100
0100
,  // measure 17
0001
1000
0010
0000
1000
0010
0100
0100
,  // measure 18
0001
0000
0000
0011
0000
0110
0000
0000
0000
1100
0000
0000
2002
0000
3003
0000
,  // measure 19
1000
0100
0010
1000
0010
0001
1000
0000
,  // measure 20
0001
0100
0010
0001
0010
1000
0001
0000
,  // measure 21
1010
0000
0000
0110
0000
0000
0101
0000
0000
0110
0000
0000
1001
0000
0000
0000
,  // measure 22
0000
0000
0010
0001
0000
0100
0000
0000
1000
0000
0100
0000
0110
0000
0000
0000
,  // measure 23
1001
1000
1000
1000
,  // measure 24
0100
0100
0000
0000
,  // measure 25
0110
0001
0001
0001
,  // measure 26
0100
0100
0000
0000
,  // measure 27
0110
0010
0010
0010
,  // measure 28
1000
0100
0000
0000
,  // measure 29
0110
0010
0010
0010
,  // measure 30
0001
0000
0100
0000
0010
0001
0010
0000
,  // measure 31
1010
1000
0010
1000
0010
0000
1000
0010
,  // measure 32
1000
0000
0001
0100
1000
0100
0001
0000
,  // measure 33
0011
0001
0010
0001
0010
0000
0001
0010
,  // measure 34
0001
0000
1000
0100
0001
0100
1000
0010
,  // measure 35
0101
1000
0010
0010
0010
0000
0100
0100
,  // measure 36
0110
0010
1000
0010
1000
0100
0100
0010
,  // measure 37
1100
0001
0010
0010
0010
0001
0100
0010
,  // measure 38
2000
0000
0000
0000
,  // measure 39
3100
0010
0001
0000
0001
0010
1000
0010
,  // measure 40
0001
0100
0010
0100
0001
0100
1000
1000
,  // measure 41
0100
0010
1000
0000
1000
0010
0001
0010
,  // measure 42
1000
0100
0010
0100
1000
0001
0200
0000
,  // measure 43
0301
0010
0010
0000
0001
0010
1000
0010
,  // measure 44
0001
0100
0010
0100
0001
0001
1000
0010
,  // measure 45
0100
0010
0010
0010
1000
0010
0001
0010
,  // measure 46
2000
3200
0302
0103
,  // measure 47
1000
0000
0100
0000
0010
0000
0001
0010
0001
0000
0100
0000
0010
0000
0001
0000
,  // measure 48
0010
1000
0100
1000
0100
0001
0100
1000
,  // measure 49
0001
0000
0100
0000
0010
0000
1000
0010
1000
0000
0100
0000
0010
0000
1000
0000
,  // measure 50
0010
0001
0100
1000
0100
0001
1001
0000
,  // measure 51
1000
0000
1000
0010
0000
0000
0010
0000
0100
0000
0010
0000
0001
0000
0010
0000
,  // measure 52
1000
0000
0001
0010
0000
0000
0010
0000
0100
0000
0010
0000
1000
0000
0010
0000
,  // measure 53
0001
0000
0010
0001
0010
0001
0010
0001
0010
0000
1000
0000
0001
0000
0100
0000
,  // measure 54
1000
0010
0001
1000
0100
0010
0110
0000
,  // measure 55
1001
0000
0001
0010
0000
0000
1000
0010
0000
0001
0010
0000
0011
0000
0001
0000
,  // measure 56
0010
0001
0100
1000
0001
1000
0100
0000
,  // measure 57
0001
1000
0010
0001
0010
1000
0010
0001
,  // measure 58
0010
1000
0100
0001
1000
0001
0100
0000
,  // measure 59
1001
0000
0000
0011
0000
0000
0011
0000
1001
0000
0000
1010
0000
0000
1010
0000
,  // measure 60
1001
0000
0000
0101
0000
0000
0101
0000
1001
0000
0000
1100
0000
0000
1100
0000
,  // measure 61
1000
0000
1000
0010
0000
0010
0001
0000
0001
0010
0000
0010
1000
0000
1000
0000
,  // measure 62
0001
0000
0001
0000
0100
0001
0100
0000
1000
0000
1000
0000
0200
0000
0000
0000
,  // measure 63
0301
0000
0011
0000
,  // measure 64
0001
0000
0000
0100
0000
0000
0010
0000
1010
0000
0000
0000
0011
0000
0000
0000
,  // measure 65
1000
0000
1010
0000
,  // measure 66
0021
0130
0210
0301
,  // measure 67
0100
0000
1100
0000
,  // measure 68
2000
3002
0203
2300
,  // measure 69
3100
0000
0101
0000
,  // measure 70
0001
0010
1000
0001
0100
1000
0001
0000
,  // measure 71
1001
0000
0000
0000
;

//---------------dance-single - XO JA XMOD JU-----------------
#NOTEDATA:;
#CHARTNAME:;
#STEPSTYPE:dance-single;
#DESCRIPTION:XO JA XMOD JU-;
#CHARTSTYLE:;
#DIFFICULTY:Hard;
#METER:15;
#RADARVALUES:0.772894,0.808333,0.239316,0.239316,0.683761,633.000000,605.000000,28.000000,28.000000,0.000000,0.000000,0.000000,0.000000,0.000000,0.772894,0.808333,0.239316,0.239316,0.683761,633.000000,605.000000,28.000000,28.000000,0.000000,0.000000,0.000000,0.000000,0.000000;
#CREDIT:Karl with a K as amongsurprise;
#NOTES:
// measure 0
0000
0000
0000
0000
,  // measure 1
0000
0000
0000
0000
,  // measure 2
0000
0000
0000
0000
,  // measure 3
0000
0000
0000
0000
,  // measure 4
1001
0000
0001
0100
0000
0000
0100
0000
0010
0000
0010
1000
0000
0000
0001
1000
,  // measure 5
0001
0000
1000
0100
1000
0000
0100
0000
0010
0001
0000
0001
0010
0000
0001
0000
,  // measure 6
1000
0010
1000
0000
0001
0100
0001
0000
1000
0000
1000
0001
0000
0001
0010
0000
,  // measure 7
1001
0000
1000
0001
0000
0000
0100
0000
0010
1000
0000
0010
1000
0000
0100
0000
,  // measure 8
0110
0000
0001
1000
0000
0000
0100
0000
0010
0001
0000
0010
0001
0000
0100
0000
,  // measure 9
0110
0000
1000
0010
0000
0000
0100
0000
0010
1000
0000
0010
1000
0000
0100
0000
,  // measure 10
0110
0000
0001
0010
0000
0000
0100
0000
0010
0001
0000
0010
0001
0000
0100
0000
,  // measure 11
1010
0000
0000
0110
0000
0000
0101
0000
1000
0010
0000
0010
1000
0000
0100
0000
,  // measure 12
0011
0000
0000
0110
0000
0000
1100
0000
0001
0010
0000
0010
0001
0000
0100
0000
,  // measure 13
0110
0000
0000
1001
0000
0000
1100
0000
0100
0010
0000
0010
0100
0000
1000
0000
,  // measure 14
0010
0000
0000
0000
0000
0000
0010
0000
0000
0100
0000
0000
0010
0000
0000
1000
0000
0000
0000
0000
0000
1000
0000
0000
0001
0000
0000
0000
0010
0000
0000
0000
0001
0000
0000
0000
0010
0000
0000
0000
0000
0000
0000
0000
0000
0000
0000
0000
,  // measure 15
1001
0000
0001
0100
0020
0000
0130
0000
1000
0100
0000
0100
0001
0000
0100
0000
,  // measure 16
1001
0000
1000
0100
0020
0000
0130
0000
0001
0100
0000
0100
1000
0000
0100
0000
,  // measure 17
1001
0000
0001
0010
0200
0000
0310
0000
1000
0010
0000
0010
0001
0000
0010
0000
,  // measure 18
0001
0010
0001
0010
0000
0100
0000
1000
0000
0010
0000
0001
0020
0000
1030
0000
,  // measure 19
1001
0000
1000
0010
0200
0000
0310
0000
0001
0010
0000
0010
1000
0000
0010
0000
,  // measure 20
1001
0000
1000
0100
0020
0000
0130
0000
1000
0010
0000
0010
0002
0000
0013
0000
,  // measure 21
1010
0000
0010
0100
0000
0100
0001
0000
0001
0010
0000
0010
1000
0000
0010
0000
,  // measure 22
0100
0000
0010
0100
0010
0100
0010
0100
0010
0100
0010
0000
0110
0000
0000
0000
,  // measure 23
1000
0000
0100
0010
0001
0000
0001
0100
,  // measure 24
0010
1000
0010
0000
0000
0000
0000
0000
,  // measure 25
0101
0000
0100
0010
1000
0000
1000
0100
,  // measure 26
0010
0001
0010
0000
0000
0000
0000
0000
,  // measure 27
1100
0000
0001
0010
1000
0000
0001
0100
,  // measure 28
1000
0010
1000
0000
0000
0000
0000
0000
,  // measure 29
0101
0000
1000
0010
0001
0000
1000
0100
,  // measure 30
0001
0010
0001
0000
0010
0000
0010
0000
,  // measure 31
0100
0000
1000
0010
1000
0010
1000
0000
0001
0010
0001
0010
0001
0000
1000
0010
,  // measure 32
0100
0001
0100
0001
0100
0000
0001
0000
0010
0000
0001
0000
0100
0000
1000
0000
,  // measure 33
0100
0000
0001
0010
0001
0010
0001
0000
1000
0010
1000
0010
1000
0000
0001
0010
,  // measure 34
0100
1000
0100
1000
0100
0000
1000
0000
0010
0000
1000
0000
0100
0000
0001
0000
,  // measure 35
0100
0000
1000
0010
0100
0010
1000
0000
0001
0010
0100
0010
0001
0000
1000
0100
,  // measure 36
0010
0001
0010
0001
1000
0000
0100
0000
0010
0000
0001
0000
0100
0000
1000
0000
,  // measure 37
0100
0000
0001
0010
0100
0010
0001
0000
1000
0010
0100
0010
1000
0000
0001
1000
,  // measure 38
0020
0000
0200
0330
,  // measure 39
0001
0000
0010
0000
0010
0000
0010
0000
0001
0000
0010
0000
1000
0000
0010
0001
,  // measure 40
0010
0001
0100
0001
1000
0100
0001
0100
,  // measure 41
1000
0000
0010
0000
0010
0000
0010
0000
1000
0000
0010
0000
0001
0000
0010
1000
,  // measure 42
0010
1000
0100
1000
0001
0100
2000
0000
,  // measure 43
3100
0000
0010
0100
0000
0000
0010
0000
0100
0000
0010
0001
0000
0000
0010
0100
,  // measure 44
0010
1000
0010
0000
0010
1000
0100
0000
1000
0000
0100
0001
0000
0000
0100
0000
,  // measure 45
0100
0000
0010
0100
0010
0100
0010
0000
0100
0000
0010
0001
0010
0000
0010
0100
,  // measure 46
1000
1000
0010
0010
0001
0000
0110
0000
,  // measure 47
1001
0000
0100
0000
0010
0000
0001
1000
0001
0000
1000
0010
1000
0000
0001
0010
,  // measure 48
0001
1000
0100
0010
0001
0100
1000
0100
,  // measure 49
0001
0000
0100
0000
0010
0000
1000
0001
1000
0000
0001
0010
0001
0000
1000
0010
,  // measure 50
1000
0001
0100
0010
1000
0100
0002
0103
,  // measure 51
1000
0000
0100
0010
0000
0000
0001
0100
0001
1000
0010
1000
0010
0000
0001
0010
,  // measure 52
0001
0000
0010
1000
0010
0000
1000
0000
0001
0010
0001
0010
0001
0000
0001
0100
,  // measure 53
0001
0000
0200
0000
0310
1000
0010
1000
0010
0000
0001
0010
0001
0000
0010
1000
,  // measure 54
0010
0010
1000
0010
2000
3200
0301
0000
,  // measure 55
0100
0000
1000
0010
0000
0000
1000
0010
0000
1000
0010
0000
0001
0000
0010
0000
,  // measure 56
1000
0100
0010
0001
0100
1000
0100
0001
,  // measure 57
1000
0000
0001
0000
0010
0000
0001
0010
0001
0000
1000
0010
1000
0000
0001
0010
,  // measure 58
0001
0000
0100
0000
0010
1000
0010
0000
1000
0000
0100
0000
0001
0000
0200
0000
,  // measure 59
0300
0000
1000
0010
0000
0000
0001
0010
0000
1000
0010
0000
0001
0000
0010
0000
,  // measure 60
1000
0000
0010
0100
0000
0000
0001
0000
0100
0000
0001
0010
0000
0000
0001
0000
,  // measure 61
1000
0000
0001
0010
0000
0000
0010
0001
1000
0000
1000
0001
0010
0000
0001
0010
,  // measure 62
0001
0000
0010
0000
0100
1000
0100
0010
0002
0000
0203
0000
0302
0000
0000
0000
,  // measure 63
0103
0000
0001
0010
0001
0000
0000
0000
1000
0010
1000
0010
1000
0000
0100
0000
,  // measure 64
1000
0000
0000
1000
0010
0000
0010
0000
0001
0000
0100
0000
0001
0000
0010
0000
,  // measure 65
1000
0000
1000
0010
1000
0000
0000
0000
0001
0010
0001
0010
0001
0000
0100
0000
,  // measure 66
0220
0330
0010
0100
2002
3003
0001
0100
,  // measure 67
0001
0000
0001
0010
0001
0000
0000
0000
1000
0010
0100
0010
1000
0000
0100
0000
,  // measure 68
0020
0032
1003
0010
0001
1000
0002
0023
,  // measure 69
1030
0000
1000
0010
1000
0000
0100
0010
0001
0010
0001
0010
0001
0000
0100
0000
,  // measure 70
0001
0100
0010
1000
0100
0010
0001
0000
1000
0100
0010
0001
0000
0000
0100
0020
,  // measure 71
0200
0000
0000
0000
,  // measure 72
0000
0000
0000
0330
;

//---------------dance-single - ----------------
#NOTEDATA:;
#CHARTNAME:;
#STEPSTYPE:dance-single;
#DESCRIPTION:;
#CHARTSTYLE:;
#DIFFICULTY:Beginner;
#METER:6;
#RADARVALUES:0.177045,0.273077,0.042735,0.008547,0.000000,145.000000,140.000000,5.000000,1.000000,0.000000,0.000000,0.000000,0.000000,0.000000,0.177045,0.273077,0.042735,0.008547,0.000000,145.000000,140.000000,5.000000,1.000000,0.000000,0.000000,0.000000,0.000000,0.000000;
#CREDIT:Karl with a K;
#NOTES:
// measure 0
0000
0000
0000
0000
,  // measure 1
0000
0000
0000
0000
,  // measure 2
0000
0000
0000
0000
,  // measure 3
0000
0000
0000
0000
,  // measure 4
1000
0000
1000
0000
,  // measure 5
1000
0000
0000
0000
,  // measure 6
0001
0000
0001
0000
,  // measure 7
1000
0000
0100
0000
,  // measure 8
1000
0000
0000
0000
,  // measure 9
0001
0000
0100
0000
,  // measure 10
0001
0000
1000
0000
,  // measure 11
0001
0000
0010
0000
,  // measure 12
0001
0000
0010
0000
,  // measure 13
0001
0000
1000
0000
,  // measure 14
0010
0000
1000
0000
,  // measure 15
1000
1000
1000
0000
,  // measure 16
0010
0010
0010
0000
,  // measure 17
1000
1000
1000
0000
,  // measure 18
0001
0001
0001
0000
,  // measure 19
0010
0010
0010
0000
,  // measure 20
0001
0001
0001
0000
,  // measure 21
1000
0000
0001
0000
,  // measure 22
0000
0000
0000
0000
,  // measure 23
1001
0000
0000
0000
,  // measure 24
0000
0000
0000
0000
,  // measure 25
1001
0000
0000
0000
,  // measure 26
0000
0000
0000
0000
,  // measure 27
1001
0000
0000
0000
,  // measure 28
0000
0000
0000
0000
,  // measure 29
0110
0000
0000
0000
,  // measure 30
0000
0000
0000
0000
,  // measure 31
1000
1000
1000
0000
,  // measure 32
0100
0100
0000
0000
,  // measure 33
0010
0010
0010
0000
,  // measure 34
0001
0001
0000
0000
,  // measure 35
0001
0001
0001
0000
,  // measure 36
0100
0100
0000
0000
,  // measure 37
0010
0010
0010
0000
,  // measure 38
2000
0000
0000
0000
,  // measure 39
0000
0000
0000
0000
,  // measure 40
0000
0000
3000
0000
,  // measure 41
0000
0000
0000
0000
,  // measure 42
0000
0000
0000
0000
,  // measure 43
1000
0000
0010
0000
,  // measure 44
0100
0000
0001
0000
,  // measure 45
0010
0000
0100
0000
,  // measure 46
0000
0000
0000
0010
,  // measure 47
1000
0100
1000
0000
,  // measure 48
0001
0100
0001
0000
,  // measure 49
1000
0010
1000
0000
,  // measure 50
0001
0010
0001
0000
,  // measure 51
1000
0001
1000
0000
,  // measure 52
0100
0010
0100
0000
,  // measure 53
1000
0001
1000
0000
,  // measure 54
0010
0100
0010
0010
,  // measure 55
1000
0000
0000
1000
0000
0000
1000
0000
,  // measure 56
0001
0001
0001
0001
,  // measure 57
1000
0100
0010
0000
,  // measure 58
0001
0100
0010
0000
,  // measure 59
1000
0100
0010
0001
,  // measure 60
0010
0100
1000
0000
,  // measure 61
0001
0100
0010
1000
,  // measure 62
0010
0010
0100
0100
,  // measure 63
0001
0000
0100
0000
,  // measure 64
0010
0000
0100
0000
,  // measure 65
0001
0000
0100
0000
,  // measure 66
0010
0000
1000
0000
,  // measure 67
1000
0000
0100
0000
,  // measure 68
0010
0000
0100
0000
,  // measure 69
1000
0000
0100
0000
,  // measure 70
0010
0000
0001
0000
,  // measure 71
1001
0000
0000
0000
;
