#VERSION:0.83;
#TITLE:GHOST;
#SUBTITLE:;
#ARTIST:星街すいせい;
#TITLETRANSLIT:;
#SUBTITLETRANSLIT:;
#ARTISTTRANSLIT:Hoshimachi Suisei;
#GENRE:;
#ORIGIN:;
#CREDIT:;
#BANNER:GHOST banner.png;
#BACKGROUND:GHOST bg.png;
#PREVIEWVID:;
#JACKET:GHOST jk.png;
#CDIMAGE:;
#DISCIMAGE:;
#LYRICSPATH:;
#CDTITLE:;
#MUSIC:GHOST.ogg;
#OFFSET:0.000000;
#SAMPLESTART:67.252747;
#SAMPLELENGTH:15.000000;
#SELECTABLE:YES;
#BPMS:0.000=91.000,
34.000=182.000,
146.000=91.000,
150.000=182.000,
162.000=91.000,
163.000=182.000;
#STOPS:163.000=0.330;
#DELAYS:;
#WARPS:;
#TIMESIGNATURES:0.000=4=4;
#TICKCOUNTS:0.000=4;
#COMBOS:0.000=1;
#SPEEDS:0.000=1.000=0.000=0;
#SCROLLS:0.000=1.000;
#FAKES:;
#LABELS:0.000=Song Start;
#BGCHANGES:;
#KEYSOUNDS:;
#ATTACKS:
;

//---------------dance-single - XO+ DS JA XMOD JU+----------------
#NOTEDATA:;
#CHARTNAME:;
#STEPSTYPE:dance-single;
#DESCRIPTION:XO+ DS JA XMOD JU+;
#CHARTSTYLE:;
#DIFFICULTY:Challenge;
#METER:17;
#RADARVALUES:0.741484,0.911266,0.648798,0.269630,0.353890,616.000000,539.000000,77.000000,32.000000,0.000000,0.000000,0.000000,0.000000,0.000000,0.741484,0.911266,0.648798,0.269630,0.353890,616.000000,539.000000,77.000000,32.000000,0.000000,0.000000,0.000000,0.000000,0.000000;
#CREDIT:Karl with a K;
#NOTES:
// measure 0
0000
0000
0000
0000
,  // measure 1
0000
0000
0000
0000
,  // measure 2
0000
0000
0000
0000
,  // measure 3
0000
0000
0000
0000
,  // measure 4
0000
0000
0000
0000
0000
0000
0000
0000
1000
0100
0000
0010
0000
0100
0000
2000
,  // measure 5
0000
0000
0000
0000
0010
0000
0000
0000
3001
0100
0000
0010
0000
0100
0000
0002
,  // measure 6
2000
0000
0000
0000
0003
0000
0000
0000
3001
1000
0000
0010
0000
1000
0002
0000
,  // measure 7
0010
0000
0000
0000
1000
0000
0000
0000
1003
0001
0000
0010
0000
0001
1000
0000
,  // measure 8
0001
1000
0000
0010
0100
0010
0100
0000
1010
0000
0010
0000
1000
0000
1001
0000
,  // measure 9
1000
0001
0011
0001
0010
0110
0010
0100
,  // measure 10
1100
0000
0101
0000
1001
1000
0001
0011
,  // measure 11
0010
0001
0101
0100
0010
1010
1000
0001
,  // measure 12
1000
0010
0100
0001
1001
0001
0010
0011
,  // measure 13
0010
0001
0101
0001
0100
0110
0010
0001
,  // measure 14
0011
0010
1000
0100
1100
1000
0001
0101
,  // measure 15
0100
0001
0011
0001
1000
1100
0100
0001
,  // measure 16
0101
0100
0000
0000
0110
0000
1000
0000
,  // measure 17
1000
0000
0001
0010
0001
0000
1000
0000
,  // measure 18
0100
0000
1000
0000
1000
0000
0001
0100
,  // measure 19
0010
0000
0002
0000
0023
0000
0000
2030
,  // measure 20
0000
0000
3001
1000
0001
0000
0010
0001
,  // measure 21
0000
1000
0010
0000
0010
0000
1000
0000
,  // measure 22
0100
0000
0010
0002
1000
0000
0000
0100
,  // measure 23
0000
0000
0013
0100
0002
0000
0103
0010
,  // measure 24
0001
1000
0001
0000
1000
0001
1000
0000
0001
0000
0000
0000
0001
0000
0000
1000
,  // measure 25
0001
0000
1000
0000
0001
0000
0010
0000
0000
0000
0010
0000
0100
0000
0000
1000
,  // measure 26
0001
0000
1000
0000
0001
0000
1000
0010
1000
0000
0000
0000
1000
0000
0100
0000
,  // measure 27
0010
0001
0000
0100
0000
0001
0100
0000
,  // measure 28
0010
0000
1000
0000
0001
0000
0010
0001
0010
0000
0100
0000
0000
0000
1000
0001
,  // measure 29
1000
0001
0100
0010
0000
0100
0001
0000
,  // measure 30
0001
0000
1000
0000
0100
0000
1000
0100
1000
0000
0020
0000
1000
0000
0000
0000
,  // measure 31
0130
0000
0100
0000
0000
0000
0020
0000
0000
0000
1030
0000
0010
0000
0100
0001
,  // measure 32
1000
0001
0010
0000
0100
1000
0100
0000
1002
0000
0000
0000
0013
0000
0001
0000
,  // measure 33
1000
0000
1000
0000
0010
0000
1000
0001
0010
0000
0100
0000
0010
0000
0001
0000
,  // measure 34
0000
0000
0010
0000
0001
0000
0100
0000
2001
0000
0000
0000
3010
0000
1000
0001
,  // measure 35
1000
0001
0010
0001
0100
0100
0020
0000
,  // measure 36
1030
0100
1000
0000
0100
0000
0010
0000
0002
0000
0000
0100
0000
0000
1003
0000
,  // measure 37
2000
0100
0001
3001
0011
0001
0100
0101
,  // measure 38
0001
0010
0011
0001
1001
1000
0100
1000
,  // measure 39
1010
0000
0010
0100
0010
0000
0100
0000
0201
0000
0000
0000
0010
0000
0000
0000
,  // measure 40
1000
0000
0310
1000
1200
0000
0301
0000
,  // measure 41
0101
0000
0001
0100
0010
0000
0110
0000
0000
0000
0010
0100
1000
0001
0100
0000
,  // measure 42
0010
0100
0001
0100
0010
1000
0010
0100
1000
0100
0010
0000
0100
0010
0001
0000
,  // measure 43
0011
0000
0001
0010
0100
0000
0110
0000
0000
0000
0100
0010
1000
0001
0010
0000
,  // measure 44
0100
0010
0001
0010
0100
1000
0100
0010
1000
0010
0100
0000
0010
1000
0010
0000
,  // measure 45
1010
0000
1000
0010
0100
0000
0110
0000
0000
0000
0100
0010
0001
1000
0010
0000
,  // measure 46
0100
0010
1000
0010
0100
0001
0100
0010
0001
0010
0100
0000
0010
0100
1000
0000
,  // measure 47
1100
0000
1000
0100
0010
0000
0110
0000
0000
0000
0010
0100
0001
1000
0100
0000
,  // measure 48
0110
0000
0000
1100
0000
0000
0110
0000
0000
0000
0011
0000
0001
0100
0010
0000
,  // measure 49
1020
0000
0000
0000
1030
0000
0100
0010
0001
0000
0010
0000
0001
0000
0100
0000
,  // measure 50
0001
0001
0100
0100
0010
0010
2000
0000
,  // measure 51
3100
0000
0000
0000
0110
0000
0000
0010
0100
0000
1000
0000
2001
0000
0000
0000
,  // measure 52
3100
1000
1002
0000
0013
0010
0001
0100
,  // measure 53
0010
0000
0010
0000
0100
0000
0001
1000
0100
0000
0100
0000
0010
0000
2000
0000
,  // measure 54
0010
0000
3010
0000
0100
0000
0000
0100
1000
0000
0001
0100
0010
0100
0002
0000
,  // measure 55
0013
0000
0100
0001
0100
0000
0010
0000
0001
0100
0010
0000
0001
0000
0010
0100
,  // measure 56
0010
0000
1000
0000
0100
1000
0100
1000
0010
0000
1000
0000
0100
0000
0010
0000
,  // measure 57
0210
0000
1300
0100
0001
0000
0100
0010
,  // measure 58
0100
1000
0001
0100
0110
0010
1000
0010
,  // measure 59
0210
0000
0301
0100
1000
0100
0001
0100
,  // measure 60
0010
0000
0100
0000
1000
0000
0100
0000
0010
1000
0001
0000
0010
0000
0100
0000
,  // measure 61
0120
0000
0031
0010
1000
0000
0001
1000
,  // measure 62
0010
0001
1000
0010
0110
0100
0001
0100
,  // measure 63
0120
0000
0000
0000
1030
0010
0200
0000
0000
0000
0310
1000
0010
0100
0001
1000
,  // measure 64
0200
0000
0000
0000
0000
0000
0000
0000
0310
0000
0100
0010
0100
0000
0000
0000
,  // measure 65
0011
0010
0001
1001
0001
1000
1010
1000
,  // measure 66
0010
0110
0010
0100
0101
0000
1100
0000
,  // measure 67
1001
0001
1000
1010
0010
1000
0011
0010
,  // measure 68
0001
1001
0001
1000
0001
0100
0010
0100
,  // measure 69
0110
0100
0010
1010
0010
1000
1100
1000
,  // measure 70
0100
0110
0010
0001
0011
0010
0001
1000
,  // measure 71
1001
0001
1000
1100
0100
1000
1001
1000
,  // measure 72
0011
0000
0000
1100
0000
0000
1001
0000
0101
0000
0000
1001
0000
0000
0110
0000
,  // measure 73
0000
0000
2001
0000
0000
0100
0000
0000
,  // measure 74
0010
0000
0000
0100
0000
0000
0001
0000
,  // measure 75
0100
0000
3002
0000
0000
0010
0000
0000
,  // measure 76
1000
0000
0000
0100
0000
0000
1000
0000
,  // measure 77
0000
0003
0000
0000
;

//---------------dance-single - DS- JA- XMOD JU----------------
#NOTEDATA:;
#CHARTNAME:;
#STEPSTYPE:dance-single;
#DESCRIPTION:DS- JA- XMOD JU;
#CHARTSTYLE:;
#DIFFICULTY:Hard;
#METER:13;
#RADARVALUES:0.523613,0.683450,0.690928,0.328612,0.071621,435.000000,353.000000,82.000000,39.000000,0.000000,0.000000,0.000000,0.000000,0.000000,0.523613,0.683450,0.690928,0.328612,0.071621,435.000000,353.000000,82.000000,39.000000,0.000000,0.000000,0.000000,0.000000,0.000000;
#CREDIT:Karl with a K;
#NOTES:
0000
0000
0000
0000
,
0000
0000
0000
0000
,
0000
0000
0000
0000
,
0000
0000
0000
0000
,
0000
0000
0000
0000
0000
0000
0000
0000
1000
0000
0000
0010
0000
1000
0000
0200
,
0000
0000
0000
0000
2300
0000
0000
0000
3001
0000
0000
0010
0000
0001
0000
0200
,
0000
0000
0000
0000
0302
0000
0000
0000
1003
0000
0000
0010
0000
1000
0000
0020
,
0000
0000
0000
0000
0230
0000
0000
0000
0301
0000
0000
0010
0000
0001
0000
0020
,
0000
0001
0000
0100
0000
0000
0130
0000
0011
0000
0000
0000
0001
0000
1000
0000
,
0000
0000
1010
0000
1000
0001
0000
0000
,
0101
0000
0011
0000
1100
0000
1000
0001
,
0000
0000
0101
0000
0100
0001
0000
0000
,
1001
0000
1100
0000
1010
0000
1000
0001
,
0000
0000
0011
0000
0001
1000
0000
0000
,
1001
0000
1010
0000
0101
0000
0001
1000
,
0000
0000
1100
0000
0100
1000
0000
1000
,
0010
0010
0000
0000
1000
0000
0001
0000
,
1000
0000
0001
0010
0001
0000
0001
0000
,
0100
0000
0001
0000
0001
0000
0100
0001
,
0010
0000
0100
0010
0002
0000
0000
0203
,
0000
0000
0310
0000
1000
0000
0010
1000
,
0000
0001
0001
0000
0010
0000
0100
0000
,
1000
0000
0001
0001
0020
0000
0000
0032
,
0000
2003
3020
2030
,
3100
1000
0100
1000
0001
0000
1000
0000
,
0001
1000
0000
0010
0000
1000
1000
0000
,
0100
0000
1000
0000
1000
0000
0100
1000
,
0010
0100
0000
0010
0000
1000
0100
0000
,
0010
0001
0010
0100
0000
0010
0000
0001
,
0000
1000
0000
0010
0000
0100
0100
0000
,
0001
0000
1000
0020
0000
2030
0000
0000
,
0001
0000
0000
3020
0000
1030
0100
0000
,
0010
0100
0010
0000
1001
0000
0001
0100
,
0001
0000
1000
0100
1000
0000
0010
0100
,
0000
0001
1000
0000
1001
0000
1000
0100
,
1000
0000
0001
0100
0001
0000
1000
0100
,
0010
0001
1000
0001
2000
0000
0000
0000
,
3200
0000
0000
0000
0310
0000
0001
0010
,
0001
1000
0010
1000
0001
0100
0001
1000
,
0100
1000
0100
0000
0110
0000
0001
0000
,
0100
0010
0220
0330
,
1010
1000
0100
0110
0010
0001
0101
0100
,
0010
1010
1000
0001
2001
0000
3100
0000
,
0011
0001
0100
0110
0010
1000
1100
0100
,
0010
0011
0001
1000
2001
0000
3100
0000
,
0101
0001
0010
0110
0100
1000
1010
0010
,
0100
0101
0001
1000
1002
0000
0013
0000
,
1100
1000
0010
0110
0100
0001
0011
0000
,
0101
0000
0000
0100
0000
0000
0002
0000
0000
0000
0013
0000
0001
0000
0100
0000
,
1010
0000
0010
1000
0100
1000
0001
1000
,
0000
0001
1000
0000
0011
0000
1001
0000
,
0011
0000
0010
0001
0100
0001
1000
0001
,
0000
1000
0001
0000
1010
0000
1100
0000
,
0110
0000
0100
1000
0001
0100
0001
0100
,
0010
0010
2000
0000
3100
0100
0010
0001
,
0010
0100
0010
0110
0000
0010
0001
0100
,
0010
0110
0000
0010
1000
0100
1000
0010
,
0201
0310
2010
3100
,
1200
0310
0012
0203
,
0301
0000
0100
0001
1000
0100
1000
0001
,
0100
0001
0010
0100
0010
0001
1000
0010
,
1020
0130
0102
0013
,
0021
0130
2100
3010
,
1001
0000
1000
1010
0000
0001
0011
0000
,
2002
0000
3003
0000
,
1100
0000
1000
1001
0000
0000
0101
0000
,
0001
1001
0000
0000
1010
0000
1100
0000
,
0011
0000
0001
1001
0000
0000
1010
0000
,
0010
1010
0000
0000
1001
0000
0011
0000
,
0101
0000
0001
1001
0000
0000
1100
0000
,
1000
1100
0000
0000
0110
0000
0011
0000
,
1010
1000
0010
1000
0000
0000
0011
0000
,
0011
0000
0000
0001
0000
0000
1000
0000
1010
0000
0000
0001
0000
0000
1001
0000
,
0000
0220
0000
0000
,
0000
0000
0000
0000
,
0000
0000
0000
0000
,
0000
0000
0000
0000
,
0000
0330
0000
0000
;

//---------------dance-single - ----------------
#NOTEDATA:;
#CHARTNAME:;
#STEPSTYPE:dance-single;
#DESCRIPTION:;
#CHARTSTYLE:;
#DIFFICULTY:Medium;
#METER:10;
#RADARVALUES:0.358705,0.455633,0.328612,0.202223,0.029491,298.000000,259.000000,39.000000,24.000000,0.000000,0.000000,0.000000,0.000000,0.000000,0.358705,0.455633,0.328612,0.202223,0.029491,298.000000,259.000000,39.000000,24.000000,0.000000,0.000000,0.000000,0.000000,0.000000;
#CREDIT:Karl with a K;
#NOTES:
0000
0000
0000
0000
,
0000
0000
0000
0000
,
0000
0000
0000
0000
,
0000
0000
0000
0000
,
0000
0000
0000
0000
0000
0000
0000
0000
2000
0000
0000
0000
0000
0000
0000
3200
,
0000
0000
0000
0000
0000
0000
0000
0000
0320
0000
0000
0000
0000
0000
0000
0032
,
0000
0000
0000
0000
0000
0000
0000
0000
2003
0000
0000
0000
0000
0000
0000
3020
,
0000
0000
0000
0000
0000
0000
0000
0000
0230
0000
0000
0000
0000
0000
0000
0302
,
0000
0000
0000
1003
1001
0000
0000
1100
,
0000
0000
1001
0000
0000
0101
0000
0000
,
1001
0000
0010
0000
1001
0000
0000
0101
,
0000
0000
1001
0000
0000
1100
0000
0000
,
1001
0000
0100
0000
0110
0000
0000
0001
,
0000
0000
0110
0000
0000
1000
0000
0000
,
0110
0000
0010
0000
1001
0000
0000
1010
,
0000
0000
0011
0000
0000
1001
0000
0000
,
1001
0000
1000
0100
,
1000
0001
0100
0000
,
0100
0000
0001
0000
1000
0000
0000
0100
,
0020
0000
0000
0000
0032
0000
0000
0203
,
0000
0001
0301
1000
,
0100
0010
0010
0001
,
0100
0000
0010
0000
0020
0000
0000
2030
,
0000
3002
0010
0000
,
1003
1000
0001
0100
,
0001
1000
0100
0000
,
0100
0000
1000
0000
0001
0000
0000
0100
,
0020
0000
0000
1030
0000
0000
0100
0000
,
0100
1000
0010
1000
,
0100
0010
0010
0001
,
0100
0000
0001
0000
0020
0000
0000
0032
,
0000
0000
1003
0010
0000
0010
0000
1000
,
0000
0001
0000
0000
1001
0000
0000
1000
,
0100
0000
0000
0100
0010
0000
0010
0001
,
0000
1000
0000
1000
0001
0000
0000
0001
,
0100
0000
0100
0010
0100
0000
0100
0000
,
0001
0010
0002
0000
,
2003
0000
3001
0001
,
0010
0010
0100
0100
,
1000
1000
0010
0010
,
0100
0100
0002
1003
,
1001
0000
1000
0100
0000
0100
1000
0000
,
0001
1000
0000
1000
0010
0000
0100
0000
,
1001
0000
0001
0100
0000
0100
0001
0000
,
1000
0001
0000
0001
0010
0000
0100
0000
,
0110
0000
0010
0100
0000
0100
0010
0000
,
0001
1000
0000
1000
0001
0000
0101
0000
,
0110
0000
0010
0100
0000
0100
0010
0000
,
1000
0000
0000
0001
0000
0000
1000
0000
0000
0000
0001
0000
0000
0000
0000
0000
,
1010
0000
1000
0100
0000
0100
0000
1000
,
0000
0001
0100
0000
0010
0000
1000
0000
,
0001
0000
0001
0100
0000
0100
0001
0000
,
1000
0100
0010
0001
,
0010
0000
0010
0001
0000
0001
0100
0000
,
0010
1000
0100
1000
,
1001
0000
0000
0110
0000
0000
1001
0000
,
0000
0110
0000
0000
1001
0000
1000
0100
,
1000
0010
0000
0100
,
0001
0010
0000
0100
,
1000
0000
0100
1000
0000
1000
0000
0010
,
0000
0100
0000
0002
0000
0000
1003
0000
,
1000
0100
0000
0010
,
0001
0100
0000
0010
,
1000
0000
0010
1000
0000
1000
0100
0000
,
0020
0000
0030
0000
,
1001
0000
0001
0100
0000
0000
1001
0000
,
1000
0100
0000
0000
1000
0100
0010
0000
,
1001
0000
1000
0100
0000
0000
1001
0000
,
0001
0100
0000
0000
0001
0010
0100
0000
,
0110
0000
0010
0001
0000
0000
0110
0000
,
0100
1000
0000
0000
0110
0000
0010
0000
,
1001
0000
1000
0010
0000
0010
0100
0000
,
0010
0000
0000
0010
0000
0000
0010
0000
0100
0000
0000
0100
0000
0000
0100
0000
,
0000
2002
0000
0000
,
0000
0000
0000
0000
,
0000
0000
0000
0000
,
0000
0000
0000
0000
,
0000
3003
0000
0000
;

//---------------dance-single - ----------------
#NOTEDATA:;
#CHARTNAME:;
#STEPSTYPE:dance-single;
#DESCRIPTION:;
#CHARTSTYLE:;
#DIFFICULTY:Easy;
#METER:7;
#RADARVALUES:0.231112,0.325452,0.075834,0.126389,0.000000,192.000000,183.000000,9.000000,15.000000,0.000000,0.000000,0.000000,0.000000,0.000000,0.231112,0.325452,0.075834,0.126389,0.000000,192.000000,183.000000,9.000000,15.000000,0.000000,0.000000,0.000000,0.000000,0.000000;
#CREDIT:Karl with a K;
#NOTES:
0000
0000
0000
0000
,
0000
0000
0000
0000
,
0000
0000
0000
0000
,
0000
0000
0000
0000
,
0000
0000
2000
0000
,
0000
3000
0002
0000
,
0000
0003
0200
0000
,
0000
0300
0020
0000
,
0000
0000
0030
0000
1000
0000
0000
0100
,
0000
0000
1000
0000
0000
0100
0000
0000
,
1000
0000
0000
0000
0001
0000
0000
0100
,
0000
0000
0001
0000
0000
0100
0000
0000
,
0001
0000
0000
0000
0010
0000
0000
0100
,
0000
0000
1000
0000
0000
0010
0000
0000
,
0010
0000
0000
0000
0100
0000
0000
0001
,
0000
0000
0001
0000
0000
0010
0000
0000
,
0010
0000
0001
0100
,
0001
0000
1000
0000
,
0100
0000
0100
0000
,
0010
0000
0001
0000
,
1000
0000
0001
1000
,
0001
0010
0010
0000
,
0001
0000
0001
0000
,
0100
0000
0010
0000
,
1000
0001
1000
0100
,
1000
0000
0001
0000
,
0100
0000
0010
0000
,
1000
0000
1000
0000
,
0001
0000
0010
0001
,
1000
0010
0010
0000
,
1000
0000
1000
0000
,
0001
0000
0010
0000
,
0001
0001
0010
0000
,
0010
0000
0010
0000
,
0100
0010
0001
0000
,
1000
0000
1000
0000
,
1000
0010
2000
0000
,
3000
0000
1001
0000
,
0110
0000
1001
0000
,
0110
0000
1001
0000
,
0110
0000
2002
3003
,
1000
0000
0000
0100
0000
0000
0010
0000
,
0000
0001
0000
0000
1000
0000
0001
0000
,
1000
0000
0000
0010
0000
0000
0100
0000
,
0000
0001
0000
0000
1000
0000
0001
0000
,
0010
0000
0000
0100
0000
0000
1000
0000
,
0000
0001
0000
0000
1000
0000
0001
0000
,
1000
0000
0000
0010
0000
0000
0100
0000
,
0001
0000
0000
0001
0000
0001
0000
0000
,
1000
0100
1000
0100
,
1000
0100
0010
0001
,
0100
0001
0100
0010
,
1000
0001
0100
0001
,
0010
0100
1000
0100
,
0010
0001
1000
0001
,
0100
0000
0100
0010
0000
0000
1000
0000
,
1000
0100
0000
0000
0010
0000
0010
0000
,
0200
0310
0000
0200
,
1300
0010
0000
0200
,
0301
0100
0001
1000
,
0001
1000
0001
0100
,
0020
0130
0000
0020
,
1030
0100
0000
0100
,
0010
0000
0000
0100
0000
0000
0100
0000
,
0020
0000
0030
0000
,
0001
0000
0000
0010
0000
0000
0001
0000
,
0000
0010
0000
0000
0001
0000
0000
0000
,
1000
0000
0000
0010
0000
0000
1000
0000
,
0000
0010
0000
0000
1000
0000
0000
0000
,
0100
0000
0000
0010
0000
0000
0001
0000
,
0000
0100
0000
0000
0100
0000
0000
0000
,
0010
0000
0000
1000
0000
0000
1000
0000
,
0100
0000
0110
0000
,
0000
2002
0000
0000
,
0000
0000
0000
0000
,
0000
0000
0000
0000
,
0000
0000
0000
0000
,
0000
3003
0000
0000
;

//---------------dance-single - ----------------
#NOTEDATA:;
#CHARTNAME:;
#STEPSTYPE:dance-single;
#DESCRIPTION:;
#CHARTSTYLE:;
#DIFFICULTY:Beginner;
#METER:4;
#RADARVALUES:0.145649,0.216020,0.008426,0.025278,0.000000,121.000000,120.000000,1.000000,3.000000,0.000000,0.000000,0.000000,0.000000,0.000000,0.145649,0.216020,0.008426,0.025278,0.000000,121.000000,120.000000,1.000000,3.000000,0.000000,0.000000,0.000000,0.000000,0.000000;
#CREDIT:Karl with a K;
#NOTES:
0000
0000
0000
0000
,
0000
0000
0000
0000
,
0000
0000
0000
0000
,
0000
0000
0000
0000
,
0000
0000
1000
0000
,
0000
0000
0001
0000
,
0000
0000
1000
0000
,
0000
0000
0001
0000
,
0000
0000
1000
0000
,
0000
1000
0000
0000
,
1000
0000
0001
0000
,
0000
0001
0000
0000
,
0001
0000
0010
0000
,
0000
0010
0000
0000
,
0010
0000
0100
0000
,
0000
0100
0000
0000
,
0100
0000
1000
0000
,
0000
0000
1000
0000
,
0000
0000
0001
0000
,
0000
0000
0001
0000
,
0000
0000
0100
0000
,
0000
0000
0100
0000
,
0000
0000
0010
0000
,
0000
0000
0010
0000
,
0000
0000
1000
0000
,
1000
0000
1000
0000
,
0000
0000
0001
0000
,
0001
0000
0001
0000
,
0000
0000
0010
0000
,
0010
0000
0010
0000
,
0000
0000
0100
0000
,
0100
0000
0100
0000
,
0000
0000
1000
0000
,
1000
0000
1000
0000
,
0100
0000
0010
0000
,
0001
0000
0001
0000
,
0001
0000
0100
0000
,
0000
0000
0002
0000
,
0003
0000
2000
0000
,
3000
0000
0001
0000
,
0001
0000
1000
0000
,
1000
1000
1000
1000
,
1000
0000
0010
0000
,
1000
1000
1000
1000
,
1000
0000
1000
0000
,
0001
0001
0001
0001
,
0001
0000
0010
0000
,
0001
0001
0001
0001
,
0001
0000
0001
0000
,
1000
0000
0100
0000
,
1000
0000
0100
0000
,
0010
0000
0001
0000
,
1000
0000
0001
0000
,
0001
0000
0100
0000
,
0010
0000
0100
0000
,
0001
0001
0001
0000
,
1000
1000
1000
0000
,
0100
0000
0010
0000
,
0100
0000
0010
0000
,
0100
0000
0010
0000
,
0001
0000
0001
0000
,
0100
0000
0010
0000
,
0100
0000
0010
0000
,
0100
0000
0100
0000
,
0020
0000
0030
0000
,
0001
0000
0000
0001
,
0000
0000
0001
0000
,
1000
0000
0000
1000
,
0000
0000
1000
0000
,
0010
0000
0000
0010
,
0000
0000
0010
0000
,
0100
0000
0000
0100
,
0000
0000
0100
0000
,
0000
1001
0000
0000
;
