#VERSION:0.83;
#TITLE:Fortunae Funk;
#SUBTITLE:;
#ARTIST:Z-I-v Sound Team "Karl with a K";
#TITLETRANSLIT:;
#SUBTITLETRANSLIT:;
#ARTISTTRANSLIT:;
#GENRE:;
#ORIGIN:;
#CREDIT:;
#BANNER:Fortunae Funk banner.png;
#BACKGROUND:Fortunae Funk bg.png;
#PREVIEWVID:;
#JACKET:Fortunae Funk jk.png;
#CDIMAGE:Fortunae Funk jk for release.png;
#DISCIMAGE:Fortunae Funk file graphic.png;
#LYRICSPATH:;
#CDTITLE:;
#MUSIC:Fortunae Funk.ogg;
#OFFSET:0.000000;
#SAMPLESTART:29.423077;
#SAMPLELENGTH:15.000000;
#SELECTABLE:YES;
#BPMS:0.000=104.000,
166.000=208.000,
289.000=104.000;
#STOPS:51.000=0.144,
51.500=0.144,
52.000=0.144,
52.500=0.144,
164.000=0.288,
164.500=0.288,
165.000=0.288,
165.500=0.288,
299.250=0.288,
299.750=0.288,
300.250=0.144;
#DELAYS:;
#WARPS:;
#TIMESIGNATURES:0.000=4=4;
#TICKCOUNTS:0.000=4;
#COMBOS:0.000=1;
#SPEEDS:0.000=1.000=0.000=0;
#SCROLLS:0.000=1.000;
#FAKES:;
#LABELS:0.000=Song Start;
#BGCHANGES:;
#KEYSOUNDS:;
#ATTACKS:
;

//---------------dance-double - ----------------
#NOTEDATA:;
#CHARTNAME:;
#STEPSTYPE:dance-double;
#DESCRIPTION:;
#CHARTSTYLE:;
#DIFFICULTY:Challenge;
#METER:16;
#RADARVALUES:0.638572,0.755632,0.422090,0.249102,0.460147,646.000000,585.000000,61.000000,36.000000,0.000000,0.000000,0.000000,0.000000,0.000000,0.638572,0.755632,0.422090,0.249102,0.460147,646.000000,585.000000,61.000000,36.000000,0.000000,0.000000,0.000000,0.000000,0.000000;
#CREDIT:Karl with a K;
#NOTES:
// measure 0
00000000
00000000
00000000
00000000
,  // measure 1
00000000
00000000
00000000
00000000
,  // measure 2
00000000
00000000
00000000
00000000
,  // measure 3
00000000
00000000
00000000
00000000
00000000
00000000
10000000
00000000
00100000
10000000
00100000
00000000
01000000
00000000
10000000
00000000
,  // measure 4
01000000
00100000
00000000
10000000
01000000
00000000
00100000
01000000
00100000
00000000
00010000
00000000
00001000
00000000
00000100
00000010
,  // measure 5
00000000
00000011
00000000
00000010
00000001
00000010
00000000
00000100
00000000
00000001
00000000
00000100
00000010
00000000
00000001
00000100
,  // measure 6
00000000
00000010
00000100
00000010
00000000
00001000
00000000
00010000
00000000
01000000
00100000
00000000
10100000
00000000
10000000
00000000
,  // measure 7
01000000
01000000
00100000
00100000
00010000
00001000
00001000
00000010
,  // measure 8
00000010
00000100
00000100
00001000
00010000
00010000
00100000
00100000
,  // measure 9
10000000
10000000
01000000
00010000
00010000
00001000
00001000
00000010
,  // measure 10
00000001
00000000
00000012
00000000
00000100
00000000
00001000
00000000
00000100
00000000
00002003
00000000
00003100
00002000
00000010
00000000
,  // measure 11
00003020
00000000
00010000
00000000
00001000
00000000
00000100
00000000
00002030
00000000
00000100
00000000
00023000
00000000
00130000
00010000
,  // measure 12
01000000
00001000
00010000
00000100
00001000
00000010
00000100
00001000
00010000
00100000
10000000
01000000
00020000
00030000
02000000
03000000
,  // measure 13
20000000
30000000
00200000
00300000
01200000
00000000
10300000
00000000
11000000
00000000
01000000
00000000
00100000
00000000
00010000
00001000
,  // measure 14
00000000
00000010
00000200
00000000
00000301
00000000
00000101
00000000
00000100
00000000
00000010
00000000
00010000
00001000
00100000
01000000
,  // measure 15
00000000
00100000
00000000
10010000
00000000
10000000
00000000
00100000
00000000
00010000
00001000
00000000
00000100
00000001
00000000
00000010
,  // measure 16
00000000
00001001
00000000
00000001
00000000
00000010
00000000
00001000
00010000
01000000
10000000
00000000
00100000
00000000
00100000
00010000
,  // measure 17
00001000
00000000
00000010
00000000
00000001
00000100
00000000
00000100
00000001
00000000
00000010
00000000
00000010
00001000
00010000
00000000
,  // measure 18
00100000
00000000
00100000
10000000
01000000
10000000
00000000
01000000
00000000
01000000
00010000
00001000
00000000
00000100
00000000
00000001
,  // measure 19
00000010
00000000
00000010
00000001
00000000
00000100
00000000
00000100
00001000
00010000
00000000
01000000
00000000
01000000
10000000
00100000
,  // measure 20
10000000
01000000
10000000
00000000
00010000
01000000
00010000
00000000
00100000
01000000
00100000
10000000
00100000
00000000
00010000
01000000
,  // measure 21
00010000
00000000
00110000
00000000
00002000
00000000
00013000
00000010
00000100
00000001
00000010
00000002
00000000
00000103
00000001
00001000
,  // measure 22
00000000
00001000
00000000
00000010
00000000
00010000
00001000
00000000
00001000
00100000
00000000
00010000
00100000
00010000
00100000
00010000
,  // measure 23
00000000
00100000
00000000
00010000
01000000
00000000
00100000
00000000
00100000
10000000
00100000
00000000
00100000
10000000
01000000
00100000
,  // measure 24
00010000
01000000
00100000
00010000
00001000
00000000
00001000
00010000
00001000
00000000
00001000
00010000
00000010
00000100
00000000
00000100
,  // measure 25
00000000
00000001
00000000
00000001
00000100
00000001
00000000
00000001
00000100
00000001
00000100
00000001
00001000
00000001
00000000
00000001
,  // measure 26
00001000
00000010
00010000
00001000
00010000
00001000
00000000
00100000
00000000
01000000
00100000
00000000
00020000
00000000
00000000
00000000
,  // measure 27
01000000
10000000
10000000
01030000
,  // measure 28
00010000
00000000
00100000
00010000
00100000
01000000
00000000
01000000
10000000
00000000
00020000
00000000
10000000
00000000
00000000
00000000
,  // measure 29
01030000
00000000
00001000
00020000
00001000
00000000
00000000
00000000
00000100
00000000
00000000
00000000
00031000
00000000
00010000
00000000
,  // measure 30
00010000
00000000
00010000
00000000
00010000
00000000
00010000
00000000
00010000
00000000
00010000
00000000
00010000
00000020
00000000
00000000
,  // measure 31
00001000
00000000
00000000
00000000
00010000
00000000
00000000
00000000
00001030
00000000
00000100
00000010
00000000
00000010
00000000
00000000
,  // measure 32
00000002
00000000
00000000
00000000
00001003
00000000
00000000
00000100
00000000
00000000
00020000
00000000
00001000
00000000
00000000
00000000
,  // measure 33
00230000
02000000
00000000
03000000
,  // measure 34
10300000
10000000
00100000
00100000
01000000
01000000
00010000
00010000
,  // measure 35
00001000
00001000
00000100
00000100
00000010
00000010
00000001
00000001
,  // measure 36
00000100
00000100
00001000
00001000
00010000
00010000
00100000
00100000
,  // measure 37
10000000
10000000
01000000
01000000
00010000
00010000
00001000
00001000
,  // measure 38
00000010
00000001
00000100
00001000
00010000
00100000
10000000
01000000
,  // measure 39
00010000
00001000
00000100
00000001
00000010
00001000
00010000
01000000
,  // measure 40
10000000
00100000
10000000
00100000
01000000
00010000
01000000
00010000
00100000
00001000
00100000
00001000
00010000
00001000
00010000
00001000
,  // measure 41
00000200
00000300
00000220
00000330
00002020
00003030
00000022
00000033
00000101
00000000
00000000
00000000
00000001
00000000
00000100
00000000
,  // measure 42
00000010
00000100
00001000
00010000
00001000
01000000
00010000
01000000
,  // measure 43
00100000
00010000
00000000
01100000
00000000
01000000
10000000
01000000
,  // measure 44
00100000
01000000
00010000
01000000
00001000
00010000
00000100
00001000
,  // measure 45
00000100
00000010
00000000
00000011
00000000
00000010
00000001
00000010
,  // measure 46
00000100
00000010
00001000
00010000
00001000
00100000
00010000
00100000
,  // measure 47
01000000
00010000
00000000
01100000
00000000
00100000
10000000
00100000
,  // measure 48
01000000
00100000
00010000
00100000
00001000
00010000
00000000
00010010
,  // measure 49
00000000
00001010
00000000
00000001
00000010
00000110
00000000
00001100
,  // measure 50
00000000
00010100
00000000
00011000
00000000
01001000
00000000
01010000
,  // measure 51
00000000
01100000
00000000
10100000
00000000
11000000
00000000
01100000
,  // measure 52
00000000
00110000
00000000
00101000
00000000
00011000
00000000
00010010
,  // measure 53
00000000
00001010
00000000
00000101
00000000
00001001
00000000
00001010
,  // measure 54
00000000
00010010
00000000
00011000
00000000
00101000
00000000
00110000
,  // measure 55
00000000
10010000
00000000
01010000
00000000
01001000
00000000
00011000
,  // measure 56
00000000
00010100
00000000
00001100
00000000
00000110
00000000
00000011
,  // measure 57
00000000
00000101
00000000
00000001
00001000
00000100
00000010
00000001
,  // measure 58
00000100
00000010
00010000
00001000
00100000
01000000
10000000
00100000
,  // measure 59
01000000
00001000
00010000
00000100
00000010
00000001
00000100
00000010
,  // measure 60
00010000
00001000
00100000
01000000
10000000
00100000
01000000
00001000
,  // measure 61
00010000
00000100
00000010
00000001
00000100
00000010
00001000
00010000
,  // measure 62
00100000
01000000
00010000
00001000
00000100
00000010
00001000
00010000
,  // measure 63
00100000
01000000
00010000
00001000
00000010
00000100
00001000
00010000
,  // measure 64
01000000
00100000
00010000
00001000
00000010
00000100
00001000
00010000
,  // measure 65
01000000
00100000
00010000
00000000
00000100
00000010
00000100
00000010
,  // measure 66
00000100
00000010
00000100
00000010
00000001
00000010
00000001
00000010
,  // measure 67
00000001
00000010
00000001
00000100
00000001
00000100
00000010
00001000
,  // measure 68
00000010
00001000
00000100
00010000
00000100
00010000
00001000
00010000
,  // measure 69
01000000
10000000
00100000
01000000
00010000
00100000
00001000
00010000
,  // measure 70
00000010
00001000
00000100
00000010
00000001
00000100
00000110
00000000
,  // measure 71
00010000
00001000
00010000
00000000
00000000
00000000
00001000
00010000
00001000
00000000
00000000
00000000
00010000
00001000
00010000
00000000
,  // measure 72
00000000
00000000
01000000
00000000
02100000
00000000
13000000
00000000
10100000
00000000
00100000
00000000
01000000
00000000
00010000
00001000
,  // measure 73
00000000
00000100
00000020
00000000
00000031
00000000
00000011
00000000
00000010
00000000
00000100
00000000
00010000
00001000
01000000
00100000
,  // measure 74
00000000
01100000
00000000
10100000
00000000
01010000
00000000
00101000
00000000
00001000
00010000
00000000
00000010
00000200
00000300
00000202
,  // measure 75
00000303
00000022
00000033
00000110
00000000
00010100
00000000
00000000
00000000
00000000
00000000
00000000
00000000
00000000
00000000
00000000
;

//---------------dance-double - ----------------
#NOTEDATA:;
#CHARTNAME:;
#STEPSTYPE:dance-double;
#DESCRIPTION:;
#CHARTSTYLE:;
#DIFFICULTY:Hard;
#METER:14;
#RADARVALUES:0.499193,0.547181,0.096873,0.186827,0.297539,505.000000,491.000000,14.000000,27.000000,0.000000,0.000000,0.000000,0.000000,0.000000,0.499193,0.547181,0.096873,0.186827,0.297539,505.000000,491.000000,14.000000,27.000000,0.000000,0.000000,0.000000,0.000000,0.000000;
#CREDIT:Karl with a K;
#NOTES:
// measure 0
00000000
00000000
00000000
00000000
,  // measure 1
00000000
00000000
00000000
00000000
,  // measure 2
00000000
00000000
00000000
00000000
,  // measure 3
00000000
00000000
00000000
10000000
00000000
00100000
00000000
01000000
,  // measure 4
01000000
00001000
00000000
00000000
00010000
00000000
00000000
00000000
00000100
00000000
00000000
00000000
00000010
00000000
00000010
00000001
,  // measure 5
00000000
00000001
00000000
00000000
00000000
00000010
00000000
00000000
00000000
00000100
00000000
00000100
00010000
00000000
00000000
00001000
,  // measure 6
00000000
00000000
00000000
01000000
00000000
00000000
00000000
00100000
00000000
00100000
10000000
00000000
10000000
00000000
01000000
00000000
,  // measure 7
10000000
00000000
00010000
01000000
00010000
00100000
10000000
00100000
,  // measure 8
00000000
00010000
01000000
10000000
01000000
00100000
00010000
00001000
,  // measure 9
00000010
00000100
00010000
00001000
00000000
01000000
00100000
00010000
,  // measure 10
00100000
01000000
01000000
00001000
00001000
00010000
00010000
00000100
,  // measure 11
00000010
00000010
00000001
00000001
00000100
00000100
00000010
00000010
,  // measure 12
00010000
00000000
00001000
00000000
00100000
00000000
00001000
00000000
00010000
00000000
00000010
00000000
00020000
00030000
00002000
00003000
,  // measure 13
00020000
00030000
02000000
03000000
10000000
00000000
00010000
00000000
01010000
00000000
00000000
00000000
00001000
00000000
00010000
00000100
,  // measure 14
00000000
00000010
00000001
00000000
00001000
00000000
00001100
00000000
00000000
00000000
00010000
00000000
00001000
01000000
00000000
00100000
,  // measure 15
00000000
10000000
00000000
00110000
00000000
00000000
00000000
00001000
00000000
00010000
00000100
00000000
00000010
00000001
00000000
00000100
,  // measure 16
00000000
00001010
00000000
00000000
00000000
00010000
00000000
00001000
01000000
00000000
10010000
00000000
10000000
00000000
01000000
00000000
,  // measure 17
00100000
00000000
00001000
00000000
00001000
00010000
00000000
00000000
00001000
00000000
00010000
00000000
00000100
00000000
00000010
00000000
,  // measure 18
00000001
00000000
00000100
00000001
00000000
00001001
00000000
00000001
00000000
00000100
00000000
00000010
00000000
00010000
00000000
00010000
,  // measure 19
00001000
00000000
00000000
00010000
00000000
00001000
00000000
01000000
00000000
00100000
00000000
10000000
00000000
01000000
00100000
01000000
,  // measure 20
10000000
01000000
00100000
01000000
10000000
00010000
01000000
00001000
,  // measure 21
00100000
00000000
00010000
00000000
00100000
00000000
00001000
00000000
00010000
00000100
00000000
00000100
00000000
00001000
00000000
00000010
,  // measure 22
00000000
00000100
00000000
00000010
00000000
00001000
00000000
00000100
00000000
00000010
00000000
00000001
00000000
00000100
00000000
00000010
,  // measure 23
00000000
00000100
00000000
00001000
00000000
00010000
00100000
00000000
01000000
00000000
00100000
00000000
01000000
00000000
00010000
00000000
,  // measure 24
00100000
00000000
01000000
00000000
10000000
00000000
00100000
00000000
10000000
00000000
00100000
00000000
01000000
00000000
00001000
00010000
,  // measure 25
00000000
00010000
00000000
00001000
00000000
00010000
00000000
00001000
00000000
00010000
00000000
00000010
00000000
00000100
00000000
00000001
,  // measure 26
00000000
00000010
00000000
00000001
00000000
00000010
00000000
00000100
00000000
00000000
00010000
00000000
00022000
00000000
00000000
00000000
,  // measure 27
00033000
00010000
00002000
00003000
,  // measure 28
00000000
00000000
01000000
00000000
00100000
10000000
00000000
00200000
00000000
00000000
20300000
00000000
00000000
00000000
00000000
00000000
,  // measure 29
30000000
00000000
01000000
20000000
00000000
00000000
00000000
00000000
00000000
00000000
00000000
00000000
30000000
00000000
00010000
00000000
,  // measure 30
00010000
00000000
01000000
00000000
00010000
00000000
00000000
00000000
00010000
00000000
00000000
00000000
00010000
02000000
00000000
00000000
,  // measure 31
00000000
00000000
00000000
00000000
00000000
00000000
00000000
00000000
03000000
00000000
00001000
00000000
00000000
00010000
00000000
00000000
,  // measure 32
00000100
00000000
00000000
00000000
00001000
00000000
00000000
00000100
00000000
00000000
00000020
00000000
00000000
00000000
00000000
00000000
,  // measure 33
00000000
00000001
00000000
00000000
,  // measure 34
00000031
00000100
00000010
00000100
,  // measure 35
00001000
00010000
01000000
00100000
,  // measure 36
10000000
00100000
00010000
01000000
,  // measure 37
10000000
00000000
01000000
00000000
00100000
00000000
00010000
00100000
,  // measure 38
01000000
00001000
00010000
00001000
00010000
00000100
00010000
00000100
,  // measure 39
00000010
00000001
00000010
00000001
00000100
00000010
00000100
00000010
,  // measure 40
00010000
00010000
00001000
00001000
00010000
00010000
00001000
00001000
,  // measure 41
00020000
00030000
00002000
00003000
00020000
00030000
00022000
00033000
10010000
00000000
00000000
00000000
10000000
00000000
00100000
00000000
,  // measure 42
01000000
00010000
00100000
01000000
10000000
00000000
00100000
01000000
,  // measure 43
00001000
00010000
00000000
00000010
00001000
00000000
00000001
00000010
,  // measure 44
00000100
00001000
00000010
00000100
00000001
00000000
00000010
00000100
,  // measure 45
00010000
00001000
00000000
00100000
00010000
00000000
10000000
01000000
,  // measure 46
00100000
00010000
01000000
00100000
10000000
00000000
01000000
00100000
,  // measure 47
00001000
00010000
00000000
00000100
00001000
00000000
00000001
00000100
,  // measure 48
00000010
00001000
00000100
00000010
00000001
00000100
00000000
00000010
,  // measure 49
00000000
00001000
00000000
00000100
00000010
00000001
00000010
00000001
,  // measure 50
00001000
00000010
00001000
00000010
00001000
00000001
00001000
00000001
,  // measure 51
00000100
00000001
00000100
00000001
00001000
00000010
00001000
00000010
,  // measure 52
00010000
00001000
00010000
00001000
00100000
00010000
00100000
00010000
,  // measure 53
10000000
00010000
10000000
00010000
10000000
00100000
10000000
00100000
,  // measure 54
01000000
00100000
01000000
00100000
01000000
00010000
01000000
00010000
,  // measure 55
01000000
00001000
01000000
00001000
00010000
00000100
00010000
00000100
,  // measure 56
00000010
00000100
00000010
00000100
00000010
00000001
00000100
00000010
,  // measure 57
00001000
00000100
00010000
00001000
00100000
00010000
10000000
00100000
,  // measure 58
10000000
00010000
00100000
00010000
10000000
00100000
10000000
00010000
,  // measure 59
00100000
00010000
10000000
00100000
10000000
01000000
10000000
00010000
,  // measure 60
01000000
00010000
10000000
01000000
10000000
00010000
01000000
00010000
,  // measure 61
10000000
01000000
10000000
00010000
01000000
00001000
01000000
00001000
,  // measure 62
00010000
00001000
00010000
00000100
00010000
00000100
00000010
00000100
,  // measure 63
00000010
00000001
00000100
00000010
00001000
00000100
00010000
00001000
,  // measure 64
01000000
00001000
00010000
00000100
00010000
00001000
01000000
00001000
,  // measure 65
00010000
00000100
00000010
00000000
00000012
00000000
00000103
00001000
,  // measure 66
00010000
00000000
00020000
00000000
00130000
10000000
01000000
00000000
,  // measure 67
02000000
00000000
03010000
00001000
00000100
00000000
00000200
00000000
,  // measure 68
00000301
00000010
00001000
00000000
00002000
00000000
00013000
01000000
,  // measure 69
10000000
00000000
20000000
00000000
30100000
00010000
00001000
00000000
,  // measure 70
00002000
00000000
00103000
00001000
00010000
00001000
00010000
00010000
,  // measure 71
00000000
00000100
00001000
00000000
00010000
00100000
00000000
00010000
,  // measure 72
10000000
00000000
00000000
00000000
10000000
00000000
00010000
00000000
00110000
00000000
00100000
00000000
00001000
00000000
00010000
00000010
,  // measure 73
00000000
00000100
00000001
00000000
00001000
00000000
00001010
00000000
00000010
00000000
00010000
00000000
00001000
00100000
00000000
00010000
,  // measure 74
00000000
10000000
00000000
01010000
00000000
01000000
00000000
00001000
00000000
00010000
00000100
00000000
00000010
00000002
00000003
00002000
,  // measure 75
00003000
00020000
00030000
10000000
00000000
10010000
00000000
00000000
00000000
00000000
00000000
00000000
00000000
00000000
00000000
00000000
;

//---------------dance-double - ----------------
#NOTEDATA:;
#CHARTNAME:;
#STEPSTYPE:dance-double;
#DESCRIPTION:;
#CHARTSTYLE:;
#DIFFICULTY:Medium;
#METER:11;
#RADARVALUES:0.332136,0.442956,0.124551,0.110712,0.176447,336.000000,318.000000,18.000000,16.000000,0.000000,0.000000,0.000000,0.000000,0.000000,0.332136,0.442956,0.124551,0.110712,0.176447,336.000000,318.000000,18.000000,16.000000,0.000000,0.000000,0.000000,0.000000,0.000000;
#CREDIT:Karl with a K;
#NOTES:
// measure 0
00000000
00000000
00000000
00000000
,  // measure 1
00000000
00000000
00000000
00000000
,  // measure 2
00000000
00000000
00000000
00000000
,  // measure 3
00000000
00000000
00000000
10000000
00000000
01000000
00000000
00100000
,  // measure 4
00000000
00001000
00000000
00000000
00010000
00000000
00000000
00000000
00000100
00000000
00000000
00000000
00000010
00000000
00000000
00000010
,  // measure 5
00000000
00000001
00000000
00000000
00000000
00000100
00000000
00000000
00000000
00000010
00000000
00000000
00010000
00000000
00000000
00001000
,  // measure 6
00000000
00000000
00000000
01000000
00000000
00000000
00000000
00100000
00000000
00000000
00100000
00000000
10000000
00000000
00000000
00000000
,  // measure 7
01000000
00000000
00100000
00000000
00001000
00010000
00000000
00000100
,  // measure 8
00000000
00000010
00000000
00000001
00000100
00000000
00000010
00000000
,  // measure 9
00010000
00000000
00001000
00100000
00000000
01000000
00000000
10000000
,  // measure 10
00000000
00100000
01000000
01000000
00000000
00100000
00010000
00010000
,  // measure 11
00001000
00010000
00010000
00000000
00000100
00000010
00000010
00000010
,  // measure 12
00000001
00000100
00000001
00000100
00000001
00000100
00001000
00001000
,  // measure 13
00001000
00000000
00000100
00000000
00000001
00000000
00000000
00000000
00000011
00000000
00000000
00000000
00000010
00000000
00000000
00001000
,  // measure 14
00000000
00000000
00010000
00000000
00000000
00000000
00011000
00000000
00000000
00000000
00010000
00000000
00000000
00100000
00000000
10000000
,  // measure 15
00000000
00000000
00000000
10100000
00000000
00000000
00000000
00100000
00000000
00000000
00010000
00000000
00000000
00001000
00000000
00000000
,  // measure 16
00000000
00011000
00000000
00000000
00000000
00001000
00000000
00000000
00000010
00000000
00000001
00000000
00000000
00000000
00000101
00000000
,  // measure 17
00000000
00000000
00000100
00000000
00000000
00001000
00000000
00000000
00010000
00000000
00000000
00000000
00011000
00000000
00000000
00000000
,  // measure 18
00010000
00000000
00000000
01000000
00000000
10000000
00000000
00000000
00000000
11000000
00000000
00000000
00000000
01000000
00000000
00000000
,  // measure 19
00010000
00000000
00000000
00001000
00000000
00000000
00000000
00011000
00000000
00000000
00000000
00001000
00000000
00000000
00000100
00000000
,  // measure 20
00000001
00000000
00000010
00000000
00000100
00000000
00000010
00000001
,  // measure 21
00000000
00000000
00000100
00000000
00000000
00000000
00000010
00000000
00000000
00010000
00000000
00001000
00000000
00000000
00000000
01000000
,  // measure 22
00000000
00000000
00000000
00100000
00000000
00000000
00000000
01000000
00000000
00010000
00000000
00000000
00000000
00100000
00000000
00000000
,  // measure 23
00000000
01000000
00000000
00000000
10000000
00000000
10000000
00000000
00000000
00000000
00100000
00000000
00000000
00000000
00010000
00000000
,  // measure 24
00000000
00000000
00001000
00000000
00010000
00000000
00000000
00000000
00000100
00000000
00000000
00000000
00000010
00000000
00000000
00000001
,  // measure 25
00000000
00000001
00000000
00000000
00000000
00000010
00000000
00000000
00000000
00001000
00000000
00000000
00000000
00010000
00000000
00001000
,  // measure 26
00000000
00000000
00000000
01000000
00000000
00000000
00000000
00100000
00000000
00000000
10000000
00000000
20000000
00000000
00000000
00000000
,  // measure 27
00000000
31000000
00200000
00300000
,  // measure 28
00000000
00001000
00002000
00000000
00023000
00000000
00030200
00000000
,  // measure 29
00000300
00000200
00000000
00000000
00000000
00000000
00000300
00000010
,  // measure 30
00000001
00000001
00000001
00000200
,  // measure 31
00000000
00000000
00000000
00000000
00000300
00000010
00000000
00000000
,  // measure 32
00000000
00000000
00000000
00000000
00010000
00000000
00000000
00001000
00000000
00000000
00200000
00000000
00000000
00000000
00000000
00000000
,  // measure 33
00000000
02300000
00000000
00000000
,  // measure 34
13000000
00100000
10000000
00100000
,  // measure 35
01000000
00100000
01000000
00100000
,  // measure 36
01000000
00010000
01000000
00001000
,  // measure 37
00010000
00001000
00010000
00000100
,  // measure 38
00000010
00000010
00000001
00000001
,  // measure 39
00000100
00000100
00001000
00001000
,  // measure 40
00010000
00010000
00100000
00100000
,  // measure 41
20000000
30000000
02000000
03000000
00200000
00300000
02000000
03000000
10000000
00000000
00000000
00000000
01000000
00000000
00000000
00000000
,  // measure 42
00100000
01000000
10000000
00100000
,  // measure 43
01000000
00001000
00010000
00000100
,  // measure 44
00000010
00000100
00001000
00000010
,  // measure 45
00000100
00000001
00000010
00000100
,  // measure 46
00000010
00000001
00000010
00000100
,  // measure 47
00010000
00001000
01000000
00100000
,  // measure 48
01000000
00010000
00100000
01000000
,  // measure 49
10000000
00000000
00100000
00000000
10000000
00010000
00000000
10000000
,  // measure 50
00000000
00010000
00000000
10000000
00000000
01000000
00000000
00100000
,  // measure 51
00000000
00001000
00000000
00010000
00000000
00000010
00000000
00000100
,  // measure 52
00000000
00000001
00000000
00000010
00000000
00000100
00000000
00010000
,  // measure 53
00000000
00001000
00000000
01000000
00000000
00001000
00000000
00010000
,  // measure 54
00000000
00000100
00000000
00010000
00000000
00001000
00000000
01000000
,  // measure 55
00000000
00001000
00000000
00010000
00000000
00000010
00000000
00010000
,  // measure 56
00000000
00001000
00000000
00100000
00000000
00001000
00000000
00010000
,  // measure 57
00000000
01000000
00000000
00000000
10000000
00000000
10000000
00000000
,  // measure 58
01000000
01000000
00100000
00100000
,  // measure 59
01000000
01000000
10000000
00100000
,  // measure 60
01000000
00001000
00010000
00000100
,  // measure 61
00000010
00000001
00000100
00000100
,  // measure 62
00000001
00000001
00000010
00000010
,  // measure 63
00000001
00000001
00000100
00001000
,  // measure 64
00010000
00100000
10000000
01000000
,  // measure 65
00100000
00000000
01000000
00000000
10000000
00100000
10000000
00000000
,  // measure 66
10000000
00100000
10000000
00000000
00010000
00100000
00010000
00000000
,  // measure 67
00010000
00000000
00100000
00001000
00100000
00000000
00001000
00010000
,  // measure 68
00001000
00000000
00010000
00000010
00010000
00000000
00000010
00000100
,  // measure 69
00000001
00001000
00000001
00001000
00000001
00001000
00000001
00000000
,  // measure 70
00001000
00000100
00001000
00000100
00010000
00000000
00011000
00000000
,  // measure 71
00000000
00011000
00000000
00000000
00011000
00000000
00000000
00011000
,  // measure 72
00000000
00000000
00000000
00000000
10010000
00000000
00000000
00000000
11000000
00000000
00000000
00000000
01000000
00000000
00000000
00010000
,  // measure 73
00000000
00000000
00001000
00000000
00000000
00000000
00011000
00000000
00000000
00000000
00001000
00000000
00000000
00000100
00000000
00000001
,  // measure 74
00000000
00000000
00000000
00000110
00000000
00000000
00000000
00010010
00000000
00000000
00011000
00000000
00000000
00002000
00003000
00020000
,  // measure 75
00030000
00002000
00003000
00010000
00000000
00001000
00000000
00000000
00000000
00000000
00000000
00000000
00000000
00000000
00000000
00000000
;

//---------------dance-double - ----------------
#NOTEDATA:;
#CHARTNAME:;
#STEPSTYPE:dance-double;
#DESCRIPTION:;
#CHARTSTYLE:;
#DIFFICULTY:Easy;
#METER:8;
#RADARVALUES:0.213516,0.234506,0.013839,0.055356,0.100333,216.000000,214.000000,2.000000,8.000000,0.000000,0.000000,0.000000,0.000000,0.000000,0.213516,0.234506,0.013839,0.055356,0.100333,216.000000,214.000000,2.000000,8.000000,0.000000,0.000000,0.000000,0.000000,0.000000;
#CREDIT:Karl with a K;
#NOTES:
// measure 0
00000000
00000000
00000000
00000000
,  // measure 1
00000000
00000000
00000000
00000000
,  // measure 2
00000000
00000000
00000000
00000000
,  // measure 3
00000000
00000000
00000000
20000000
00000000
30000000
00000000
00200000
,  // measure 4
00000000
00300000
02000000
00000000
03000000
00000000
00001000
00000000
,  // measure 5
00000000
00020000
00000000
00000000
00000000
00030000
00000000
00000000
00000000
00000200
00000000
00000000
00000000
00000300
00000000
00000020
,  // measure 6
00000000
00000000
00000000
00000030
00000000
00000000
00000000
00000001
00000000
00000000
00000000
00000000
00000001
00000000
00000000
00000000
,  // measure 7
00000001
00000000
00000100
00000000
00000000
00000010
00000000
00000010
,  // measure 8
00000000
00010000
00000000
00000000
00001000
00000000
00001000
00000000
,  // measure 9
00100000
00000000
00000000
01000000
00000000
01000000
00000000
10000000
,  // measure 10
00000000
10000000
00000000
01000000
00000000
00010000
00000000
00001000
,  // measure 11
00000000
00000100
00000000
00000001
00000000
00000100
00000000
00001000
,  // measure 12
00000000
00010000
00000000
02000000
00000000
00000000
13000000
00000000
,  // measure 13
00000000
10000000
00100000
10000000
,  // measure 14
00000000
00000000
01000000
00000000
00000000
00000000
00100000
00000000
00000000
00000000
01000000
00000000
00000000
00000000
00000000
00100000
,  // measure 15
00000000
00000000
00000000
00001000
00000000
00000000
00000000
00010000
00000000
00000000
00000000
00000000
00000000
00001000
00000000
00000000
,  // measure 16
00000000
00000100
00000000
00000000
00000000
00000001
00000000
00000000
00000000
00000000
00000001
00000000
00000000
00000000
00000010
00000000
,  // measure 17
00000000
00000001
00000000
00000000
00000100
00000000
00000010
00000000
,  // measure 18
00000100
00000000
00000000
00000000
00000000
00000010
00000000
00000000
00000000
00010000
00000000
00000000
00000000
00001000
00000000
00000000
,  // measure 19
00000000
00000000
00000000
00010000
00000000
00000000
00000000
01000000
00000000
00000000
00000000
10000000
00000000
00000000
00000000
00000000
,  // measure 20
10000000
00000000
00000000
00000000
10000000
00000000
00000000
01000000
,  // measure 21
00000000
00000000
00000000
00000000
00000000
00000000
01000000
00000000
00000000
00000000
00000000
00100000
00000000
00000000
00000000
00000000
,  // measure 22
00000000
00000000
00000000
00100000
00000000
00000000
00000000
00000000
00000000
00001000
00000000
00000000
00000000
00000000
00000000
00000000
,  // measure 23
00000000
00010000
00000000
00000000
00000000
00000000
00000010
00000000
00000000
00000000
00000000
00000000
00000000
00000000
00000100
00000000
,  // measure 24
00000000
00000001
00000000
00000010
,  // measure 25
00000000
00000100
00000000
00000000
00000000
00000000
00000000
00000000
00000000
00010000
00000000
00000000
00000000
00000000
00000000
00001000
,  // measure 26
00000000
00000000
00000000
00000000
00000000
00000000
00000000
01000000
00000000
00000000
00000000
00000000
10010000
00000000
00000000
00000000
,  // measure 27
00000000
10000000
00000000
01000000
,  // measure 28
00000000
10000000
00000000
00010000
,  // measure 29
00000000
01000000
00000000
00001000
,  // measure 30
00000000
00010000
00000000
00000100
,  // measure 31
00000000
00000100
00000000
00000010
,  // measure 32
00000000
00000010
00000000
00000001
,  // measure 33
00000002
00000000
00000000
00000003
,  // measure 34
00000001
00000001
00000001
00000000
,  // measure 35
00000100
00000100
00000100
00000000
,  // measure 36
00001000
00001000
00001000
00000000
,  // measure 37
00010000
00010000
00010000
00000000
,  // measure 38
01000000
10000000
01000000
00000000
,  // measure 39
10000000
01000000
10000000
00000000
,  // measure 40
00100000
00100000
01000000
00100000
,  // measure 41
10000000
00000000
10000000
00000000
,  // measure 42
10000000
00000000
00010000
01000000
,  // measure 43
00010000
00000000
01000000
00000000
,  // measure 44
01000000
00000000
00001000
00010000
,  // measure 45
00000100
00000000
00000010
00000000
,  // measure 46
00000010
00000000
00000001
00000100
,  // measure 47
00000001
00000000
00000010
00000000
,  // measure 48
00000010
00000000
00000100
00010000
,  // measure 49
00001000
00000000
00010000
00001000
,  // measure 50
00010000
00000000
00000100
00000010
,  // measure 51
00000001
00000000
00000100
00000010
,  // measure 52
00010000
00000000
00001000
01000000
,  // measure 53
00100000
00000000
10000000
01000000
,  // measure 54
00100000
00000000
01000000
00100000
,  // measure 55
00010000
00000000
00100000
00001000
,  // measure 56
00010000
00000000
00001000
00010000
,  // measure 57
01000000
00000000
10000000
01000000
,  // measure 58
10000000
01000000
10000000
01000000
,  // measure 59
10000000
00000000
00010000
01000000
,  // measure 60
00010000
01000000
00001000
01000000
,  // measure 61
00001000
00000000
00010000
00000100
,  // measure 62
00010000
00000100
00010000
00000100
,  // measure 63
00010000
00000000
00000100
00001000
,  // measure 64
00000100
00001000
00000100
00001000
,  // measure 65
00000100
00000010
00000001
00000001
,  // measure 66
00000001
00000000
00000010
00000010
,  // measure 67
00000010
00000001
00000001
00000001
,  // measure 68
00000000
00000100
00000100
00000100
,  // measure 69
00000010
00000010
00000010
00000000
,  // measure 70
00010000
00010000
00010000
00001000
,  // measure 71
00000000
01000000
00000000
00000000
00100000
00000000
00000000
10000000
,  // measure 72
00000000
10000000
01000000
10000000
,  // measure 73
00000000
00000000
00100000
00000000
00000000
00000000
01000000
00000000
00000000
00000000
00100000
00000000
00000000
00000000
00000000
01000000
,  // measure 74
00000000
00000000
00000000
00001000
00000000
00000000
00000000
00010000
00000000
00000000
00000000
00000000
00000000
00001000
00000000
00000000
,  // measure 75
00000000
00000000
00000000
00000000
00000000
00011000
00000000
00000000
00000000
00000000
00000000
00000000
00000000
00000000
00000000
00000000
;
