#VERSION:0.83;
#TITLE:Djentleman;
#SUBTITLE:;
#ARTIST:Boyinaband feat. Cookiebreed;
#TITLETRANSLIT:;
#SUBTITLETRANSLIT:;
#ARTISTTRANSLIT:;
#GENRE:;
#ORIGIN:;
#CREDIT:;
#BANNER:Djentleman banner.png;
#BACKGROUND:Djenteman bg.png;
#PREVIEWVID:;
#JACKET:;
#CDIMAGE:;
#DISCIMAGE:;
#LYRICSPATH:;
#CDTITLE:;
#MUSIC:Djentleman cut.ogg;
#OFFSET:-0.025000;
#SAMPLESTART:60.935383;
#SAMPLELENGTH:15.238102;
#SELECTABLE:YES;
#DISPLAYBPM:25.000000:126.000000;
#BPMS:0.000=126.000,
19.000=63.000,
19.500=126.000,
22.500=63.000,
23.000=126.000,
26.000=63.000,
26.500=126.000,
29.500=63.000,
30.000=126.000,
33.000=63.000,
33.500=126.000,
40.500=63.000,
41.000=126.000,
48.000=63.000,
48.500=126.000,
54.500=252.000,
55.500=63.000,
56.000=126.000,
59.000=63.000,
59.500=126.000,
62.500=63.000,
63.000=126.000,
70.000=63.000,
70.500=126.000,
77.500=63.000,
78.000=126.000,
80.500=252.000,
81.500=126.000,
85.000=63.000,
85.500=252.000,
86.500=126.000,
87.000=252.000,
88.000=126.000,
89.500=63.000,
90.000=126.000,
118.000=63.000,
120.000=126.000,
123.000=63.000,
123.500=126.000,
126.500=63.000,
127.000=126.000,
130.000=63.000,
130.500=126.000,
133.500=63.000,
134.000=126.000,
137.000=63.000,
137.500=126.000,
140.500=63.000,
141.000=126.000,
144.000=63.000,
144.500=126.000,
147.500=63.000,
148.000=126.000,
192.000=200.000,
194.500=100.000,
196.000=50.000,
197.500=25.000,
197.750=50.000,
199.250=25.000,
199.500=50.000,
201.000=25.000,
201.250=50.000,
202.750=25.000,
203.000=50.000,
204.500=25.000,
204.750=50.000,
206.250=25.000,
206.500=50.000,
208.000=25.000,
208.250=50.000,
209.750=25.000,
210.000=100.000,
210.500=50.000,
212.000=100.000,
212.500=50.000,
214.000=100.000,
214.500=50.000,
218.000=100.000,
218.500=50.000,
220.000=100.000,
220.500=50.000,
222.000=100.000,
222.500=50.000;
#STOPS:54.500=0.119,
55.000=0.119,
80.500=0.060,
80.750=0.060,
81.000=0.060,
81.250=0.060,
192.000=0.050,
192.167=0.050,
192.333=0.050,
192.500=0.050,
192.667=0.050,
192.833=0.050,
193.000=0.050,
193.167=0.050,
193.333=0.050,
193.500=0.050,
193.667=0.050,
193.833=0.050,
194.000=0.050,
194.167=0.050,
194.333=0.050,
210.000=0.300,
212.000=0.150,
212.250=0.150,
214.000=0.300,
218.000=0.300,
220.000=0.150,
220.250=0.150,
222.000=0.300;
#DELAYS:;
#WARPS:;
#TIMESIGNATURES:0.000=4=4;
#TICKCOUNTS:0.000=4;
#COMBOS:0.000=1;
#SPEEDS:0.000=1.000=0.000=0;
#SCROLLS:0.000=1.000;
#FAKES:;
#LABELS:0.000=Song Start;
#BGCHANGES:;
#KEYSOUNDS:;
#ATTACKS:
;

//---------------dance-single - XO DS JA XMOD JU----------------
#NOTEDATA:;
#CHARTNAME:;
#STEPSTYPE:dance-single;
#DESCRIPTION:XO DS JA XMOD JU;
#CHARTSTYLE:;
#DIFFICULTY:Challenge;
#METER:16;
#RADARVALUES:0.712569,1.510407,0.378302,0.574459,1.026320,712.000000,658.000000,54.000000,82.000000,0.000000,0.000000,0.000000,0.000000,0.000000,0.712569,1.510407,0.378302,0.574459,1.026320,712.000000,658.000000,54.000000,82.000000,0.000000,0.000000,0.000000,0.000000,0.000000;
#CREDIT:K0rl w0th 0 K;
#DISPLAYBPM:25.000000:126.000000;
#NOTES:
0000
0000
0000
0000
,
0000
0000
0000
0000
,
0000
0000
0000
0000
,
0000
0000
0000
0000
,
2000
0000
0000
0000
3100
0000
0100
1000
0000
1000
0001
0000
0200
0001
0000
0000
,
0301
0000
0001
0000
0100
0001
0000
0001
1000
0000
0200
1000
2300
0000
0000
0000
,
3100
0000
0000
0000
0000
0000
0100
0000
0000
0010
0000
0000
0000
0000
0000
0010
0000
0000
0001
0000
0000
0000
0000
0000
0200
0000
0000
0001
0000
0000
0310
0000
0000
0000
0000
0000
1000
0000
0010
0000
1000
0000
0010
0000
0000
0000
0000
0000
,
0100
0000
0001
0000
0100
0000
0001
0000
0000
0000
0000
0000
1000
0000
0100
0000
0010
0000
0002
0000
0000
0103
0000
0000
0120
0000
0000
0000
0000
0000
0000
0000
0000
0000
0000
0000
1030
0000
0000
0000
0000
0000
0100
0000
0000
0010
0000
0000
,
0000
0000
0010
0000
0100
0000
0000
0000
2000
0000
0100
0000
3000
0000
0000
0000
0001
0000
0000
0000
0100
0000
0000
0000
0010
0100
0010
0100
0010
0000
0000
0000
,
1000
0000
0100
0000
0010
0000
0120
0000
0000
0000
0031
0000
0100
0010
0000
0010
,
0100
0000
0000
0000
0000
0000
0002
0000
0000
0100
0000
0000
1003
0000
0000
0000
0000
0000
0010
0000
0100
0000
0010
0000
0100
0000
0000
0000
0000
0000
0001
0000
1000
0000
0001
0000
1000
0000
0000
0000
0000
0000
0100
0000
0000
0000
0000
0000
,
0010
0000
0001
0000
0120
0000
0000
0000
0031
0000
0010
0100
0000
0100
0010
0000
,
0002
0000
0010
0000
0003
0000
0000
0000
1000
0000
0000
0000
0010
0000
0000
0000
0100
0010
0100
0010
0100
0000
0000
0000
0001
0000
0000
0000
0010
0000
0000
0000
,
0100
0000
0210
0000
0000
0000
1300
0000
0010
0100
0010
0000
0010
0000
0210
0010
,
0301
0000
0000
0100
0010
0100
0010
0000
0000
1000
0001
1000
0001
0000
0000
0010
0000
0000
0120
0000
0000
0031
0000
0000
,
0002
0000
0103
0000
0100
0010
0000
0010
1000
0000
0200
0010
0300
0000
1000
0000
,
0001
0000
0100
0010
0000
0010
1000
0000
0002
0000
0103
0000
0001
0000
0002
0000
,
1003
0000
0000
0000
0000
0000
0100
0000
0000
0010
0000
0000
0000
0000
0000
0010
0000
0000
0001
0000
0000
0000
0000
0000
0200
0000
0000
0010
0000
0000
0301
0000
0000
0000
0000
0000
1000
0000
0010
0000
1000
0000
0010
0000
0000
0000
0000
0000
,
0100
0000
0001
0000
0100
0000
0001
0000
0000
0010
0000
0000
0100
0000
0000
1000
0000
0000
0020
0000
0000
0000
0000
0000
0000
0000
0000
0000
0000
0000
1030
0000
0000
0000
0000
0000
2000
0000
0000
0000
0000
0000
3100
0000
0000
0000
0000
0000
,
0100
0010
0100
0010
0001
0000
0200
0010
0300
0000
0001
0000
1000
0000
0100
0010
,
0000
0010
0001
0010
0001
0010
0001
0000
1002
0000
0103
0000
0001
0000
0100
0010
,
0000
0000
0000
0010
0000
0000
1000
0000
0000
0000
0000
0000
0200
0000
0000
0010
0000
0000
2300
0000
0000
0000
0000
0000
0000
0000
0000
0000
0000
0000
3001
0000
0010
0000
0001
0000
0020
0000
0000
0000
0000
0000
0000
0000
0000
0000
0000
0000
,
0130
0000
1000
0000
0100
0000
1000
0000
0000
0010
0000
0000
0000
0000
0000
0100
0000
0000
0020
0000
0000
0000
0000
0000
1030
0000
0000
0000
0000
0000
0000
0000
0000
1000
0000
0000
0100
0000
0000
0000
0000
0000
1000
0000
0000
0000
0000
0000
,
0001
0000
0100
0000
0001
0000
0100
0000
0010
0000
0000
0010
0100
0000
0001
0000
,
1000
0000
0100
0000
1000
0000
0100
0000
0010
0000
0000
0010
0100
0000
1000
0000
,
0001
0000
0100
0000
0001
0000
0100
0000
0001
0000
0000
0001
0100
0000
0001
0000
,
1000
0000
0100
0000
1000
0000
0100
0000
0010
0000
0000
0010
0001
0010
0100
0010
,
0002
0000
1003
0000
1000
0010
0100
0010
1000
0000
1000
0001
0100
0010
1000
0001
,
0000
0001
0010
0000
0001
0000
0010
0001
1000
0100
0010
0100
1000
0100
0010
0001
,
0100
0000
0000
0000
0000
0000
0000
0000
0010
0000
0000
0000
0000
0000
0000
0000
1000
0000
0000
0000
0000
0000
0000
0000
0001
0000
0000
0000
0000
0000
0000
0000
0010
0000
0000
0000
0000
0000
0000
0000
0100
0000
0000
0000
0000
0000
0000
0000
2000
0000
0000
0000
0000
0000
0000
0000
0000
0000
0000
0000
0000
0000
0000
0000
0000
0000
0000
0000
0000
0000
0000
0000
0100
0000
0000
0000
0000
0000
0000
0000
0000
0000
0000
0000
0000
0000
0000
0000
0000
0000
0000
0000
0000
0000
0000
0000
3010
0000
0000
0000
0000
0000
0000
0000
0000
0000
0000
0000
0001
0000
0000
0000
0000
0000
0000
0000
0000
0000
0000
0000
0010
0000
0000
0000
0000
0000
0000
0000
0000
0000
0000
0000
1000
0000
0000
0000
0000
0000
0000
0000
0000
0000
0000
0000
0010
0000
0000
0000
0000
0000
0000
0000
0000
0000
0000
0000
0100
0000
0000
0000
0010
0000
0000
0000
0100
0000
0000
0000
0020
0000
0000
0000
0000
0000
0000
0000
0000
0000
0000
0000
0000
0000
0000
0000
0000
0000
0030
0000
0000
0000
0000
0000
,
2010
0000
0000
0000
3010
0000
0010
1000
0000
1000
0001
0000
0021
0100
0000
0000
,
0031
0000
0001
0000
0010
0001
0000
0001
1000
0000
0020
0100
2030
0000
0000
0000
,
3010
0000
0000
0000
0000
0000
0010
0000
0000
0100
0000
0000
0000
0000
0000
0100
0000
0000
0001
0000
0000
0000
0000
0000
0021
0000
0000
0230
0000
0000
0310
0000
0000
0000
0000
0000
1000
0000
0010
0000
1000
0000
0010
0000
0000
0000
0000
0000
,
0100
0000
0010
0000
0100
0000
0010
0000
0000
0001
0000
0000
0100
0000
0000
0010
0000
0000
0110
0000
0000
0000
0000
0000
0102
0000
0000
0000
0000
0000
0000
0000
0000
0000
0000
0000
0013
0000
0000
0000
0000
0000
0010
0000
0000
0001
0000
0000
,
0000
0001
1000
0000
1020
0100
0000
0000
1030
0000
1000
0000
0010
1000
0000
1000
,
0001
0000
0020
0100
0032
0000
0000
0000
0013
0000
0010
0100
0000
0100
1000
0000
,
1020
0000
0000
0230
0000
0000
0310
0000
0000
0000
0000
0000
0001
0000
0010
0000
0001
0000
0010
0000
0000
0000
0000
0000
0100
0000
0010
0000
0100
0000
0010
0000
0000
1000
0000
0000
0100
0000
0000
0010
0000
0000
0110
0000
0000
0000
0000
0000
,
0011
0000
0000
0010
0001
0000
1000
0000
2002
0000
3003
0000
1000
0000
0010
0000
,
1010
0000
0000
0010
1000
0000
0001
0000
2002
0000
3003
0000
0001
0000
1000
0000
,
1100
0100
1000
0001
2002
3003
0001
0100
,
0101
0000
0000
0100
0001
0000
1000
0000
2002
0000
3003
0000
1000
0000
0100
0000
,
1100
0000
1000
0100
1000
0000
0001
0000
0110
0000
1000
0000
0001
0000
0100
0000
,
0101
0000
0001
0100
0001
0000
1000
0000
0110
0000
0001
0000
1000
0000
0001
0000
,
0010
0001
0010
0000
0001
0000
1000
0000
0110
0000
0001
0000
1000
0000
0010
0000
,
1010
0020
2030
3100
0110
0010
0001
0010
,
0011
1000
0020
2030
3100
1000
0010
1000
,
1010
0000
0001
0000
0010
0001
0010
0000
0110
0000
0001
0000
1000
0010
1000
0000
,
0010
1000
0010
1000
0001
0010
0001
0010
0100
1000
0010
0100
0001
0010
0100
1000
,
0200
0000
0000
0302
0000
0000
0203
0000
0000
2300
0000
0000
3020
0000
0000
0031
0010
0100
1001
0000
0000
0000
0000
0000
,
0021
0000
0000
0000
0100
0000
0001
0031
0200
0010
0310
0000
1020
0200
0300
0000
1000
0000
0100
0000
1000
1030
0200
0010
0320
0001
0001
0130
1200
0000
0000
0000
,
0010
0000
0000
0000
0000
0000
0000
0000
0000
0000
0000
0000
1000
0000
0000
0000
0000
0000
1300
0000
0000
0000
0000
0000
0020
0000
0000
0000
0000
0000
0100
0000
0000
0000
0000
0000
0130
0000
0000
0000
0000
0000
0000
0000
0000
0000
0000
0000
0201
0000
0000
0000
0000
0000
0310
0000
0000
0000
0000
0000
0110
0000
0000
0000
0000
0000
0000
0000
0000
0000
0000
0000
0010
0000
0000
0000
1000
0000
0000
0000
0100
0000
0000
0000
0020
0000
0000
0000
0000
0000
0000
0000
0000
0000
0000
0000
0031
0000
0000
0000
0010
0000
0000
0000
0001
0000
0000
0000
0010
0000
0000
0000
0000
0000
1000
0000
0000
0000
0000
0000
0010
0000
0000
0000
0000
0000
0001
0000
0000
0000
0000
0000
1001
0000
0000
0000
0000
0000
0000
0000
0000
0000
0000
0000
1020
0000
0000
0000
0000
0000
0000
0000
0000
0000
0000
0000
0000
0000
0000
0000
0000
0000
0000
0000
0000
0000
0000
0000
0100
0000
0000
0000
0000
0000
0000
0000
0000
0000
0000
0000
1000
0000
0000
0000
0000
0000
1030
0000
0000
0000
0000
0000
,
0200
0010
0310
0000
0021
0200
0300
0000
0001
0000
0100
0000
0001
0031
0200
0010
0320
1000
1000
0130
0201
0000
0000
0000
0010
0000
0001
0301
0020
0100
0130
0000
,
1200
0000
0000
0000
0000
0000
0310
0000
0000
0000
0000
0000
0110
0000
0000
0000
0000
0000
0000
0000
0000
0000
0000
0000
0010
0000
0000
0000
0001
0000
0000
0000
0100
0000
0000
0000
0020
0000
0000
0000
0000
0000
0000
0000
0000
0000
0000
0000
1030
0000
0000
0000
0010
0000
0000
0000
1000
0000
0000
0000
0010
0000
0000
0000
0000
0000
0001
0000
0000
0000
0000
0000
0010
0000
0000
0000
0000
0000
1000
0000
0000
0000
0000
0000
1001
0000
0000
0000
0000
0000
0000
0000
0000
0000
0000
0000
0110
0000
0000
0000
0000
0000
0000
0000
0000
0000
0000
0000
0000
0000
0000
0000
0000
0000
0000
0000
0000
0000
0000
0000
1001
0000
0000
0000
0000
0000
0000
0000
0000
0000
0000
0000
1000
0000
0000
0000
0000
0000
0001
0000
0000
0100
0000
0000
0001
0000
0000
0000
0000
0000
0010
0000
0000
0000
0000
0000
0000
0000
0000
0000
0000
0000
0100
0000
0000
0000
0000
0000
1000
0000
0000
0001
0000
0000
1000
0000
0000
0001
0000
0000
1000
0000
0000
0001
0000
0000
1000
0000
0000
0001
0000
0000
,
1000
0000
0000
0000
0110
0000
0000
0000
1000
0001
1000
0000
0001
0000
1000
0000
1000
0000
0010
0000
0000
0000
1000
0001
1000
0001
1000
0001
1000
0001
1000
0001
0010
0000
0000
0000
0000
0000
0000
0000
0210
0000
0000
0000
1300
0100
0010
0100
1000
0000
0010
0000
0000
0000
0100
0000
0010
0100
0010
0100
0010
0000
0000
0000
,
0010
0000
0000
0000
0000
0000
0000
0000
0000
0000
0000
0000
1000
0000
0000
0100
0000
0000
1000
0000
0000
0100
0000
0000
0010
0000
0000
0000
0000
0000
0010
0000
0000
0000
0000
0000
0001
0000
0000
0000
0100
0000
0000
0000
0010
0000
0000
0000
0100
0000
0000
0000
0000
0000
1000
0000
0000
0000
0000
0000
0100
0000
0000
0000
0010
0000
0000
0000
0100
0000
0000
0000
0001
0000
0000
0010
0000
0000
0001
0000
0000
0010
0000
0000
0001
0000
0000
0010
0000
0000
0001
0000
0000
0010
0000
0000
0100
0000
0000
0000
0000
0000
0000
0000
0000
0000
0000
0000
0000
0000
0000
0000
0000
0000
0000
0000
0000
0000
0000
0000
1001
0000
0000
0000
0000
0000
0000
0000
0000
0000
0000
0000
1000
0000
0000
0000
0000
0000
0001
0000
0000
0010
0000
0000
0001
0000
0000
0000
0000
0000
0100
0000
0000
0000
0000
0000
0000
0000
0000
0000
0000
0000
0010
0000
0000
0000
0000
0000
1000
0000
0000
0001
0000
0000
1000
0000
0000
0001
0000
0000
1000
0000
0000
0001
0000
0000
1000
0000
0000
0001
0000
0000
,
1000
0000
0000
0000
0110
0000
0000
0000
1000
0001
1000
0000
0001
0000
1000
0000
1000
0000
0100
0000
0000
0000
1000
0001
1000
0001
1000
0001
1000
0001
1000
0001
0100
0000
0000
0000
0000
0000
0000
0000
0120
0000
0000
0000
1030
0010
0100
0010
1000
0000
0100
0000
0000
0000
0010
0000
0100
0001
0100
0001
0100
0000
0000
0000
,
0110
0000
0000
0000
;

//---------------dance-single - XO DS JA XMOD JU----------------
#NOTEDATA:;
#CHARTNAME:;
#STEPSTYPE:dance-single;
#DESCRIPTION:XO DS JA XMOD JU;
#CHARTSTYLE:;
#DIFFICULTY:Hard;
#METER:14;
#RADARVALUES:0.511409,1.078862,0.385308,0.294235,0.518414,511.000000,456.000000,55.000000,42.000000,0.000000,0.000000,0.000000,0.000000,0.000000,0.511409,1.078862,0.385308,0.294235,0.518414,511.000000,456.000000,55.000000,42.000000,0.000000,0.000000,0.000000,0.000000,0.000000;
#CREDIT:Karl with a K;
#DISPLAYBPM:25.000000:126.000000;
#NOTES:
0000
0000
0000
0000
,
0000
0000
0000
0000
,
0000
0000
0000
0000
,
0000
0000
0000
0000
,
1000
0000
0000
0000
1000
0000
0001
0100
0000
0100
0010
0000
2000
0000
0000
0000
,
3001
0000
0001
0000
1000
0100
0000
0100
0010
0000
0002
0000
1003
0000
0000
0000
,
1000
0000
0001
0010
0000
0010
0100
0000
2000
0000
3001
0000
0010
0000
0110
0000
,
0000
0000
1000
0000
0010
0000
0220
0330
1001
0000
0000
0000
1000
0000
0010
0100
,
0000
0001
0100
0000
0002
0000
0000
0000
1003
0000
0100
0000
0010
0100
0000
0010
,
0001
0000
0100
0000
0000
0000
1001
0000
0000
0000
0001
0000
0010
0100
0000
1000
,
0100
2000
3001
0100
0110
0000
1000
0100
,
0110
0000
0000
0000
1001
0000
0000
0000
1000
0000
0100
0010
0000
0001
0010
0000
,
0002
0000
0000
0000
1003
0000
0010
0000
0100
0010
0000
0100
0001
0000
0010
0000
,
0000
1001
0000
0001
0010
0100
0100
0200
,
1300
0010
0001
0010
1000
0100
0002
0103
,
0000
0000
0110
0000
0001
0100
0000
0010
0100
0000
2000
0000
0000
0000
3100
0000
,
0010
0000
0100
0001
0000
1000
0100
0000
0010
0000
0000
0000
0110
0000
0000
0000
,
0010
0000
0001
0010
0000
0100
0010
0000
2000
0000
3010
0000
0001
0000
0100
0000
,
1000
0100
0001
1001
0000
0110
0000
1000
,
0010
0100
0000
0010
0001
0000
2000
0000
0000
0000
3100
0000
0001
0000
1000
0100
,
0000
0000
0010
0000
0010
0000
0010
0000
0110
0000
0000
0000
1000
0000
0100
0010
,
0000
0100
0001
0000
2000
0000
3020
0000
0000
0000
0030
0000
0002
0000
0000
0000
,
0003
0000
0100
0000
0010
0000
0220
0330
1001
0000
0000
0000
0001
0000
0000
0000
,
0001
0001
0110
0010
,
0010
0010
0110
0100
,
0100
0100
1001
1000
,
1000
0000
0000
0000
1000
0000
0000
0000
1010
0000
0000
0010
0100
0000
0000
0100
,
0001
0000
0000
0001
1000
0000
0000
1000
0100
0000
0000
0100
0010
0000
0000
0010
,
0001
0000
0000
0001
1000
0000
0000
1000
0001
0000
0001
0000
0100
0000
0100
0000
,
0001
0010
0100
1000
0001
0000
0000
0000
2000
0000
0000
0000
3000
0000
2002
3003
,
0001
0000
0000
0000
0001
0000
1000
0010
0000
0010
0100
0000
0002
1000
0000
0000
,
1003
0000
1000
0000
0001
0010
0000
0010
0100
0000
2000
0001
3001
0000
0000
0000
,
0001
0000
1000
0100
0000
0100
0010
0000
0002
1000
1003
0000
0100
0000
0110
0000
,
0001
0000
0100
0000
0010
0000
0220
0330
1001
0000
0000
0000
0001
0000
1000
0100
,
0000
0100
0010
0000
0002
0100
0000
0000
1003
0000
1000
0000
0001
0100
0000
0100
,
0010
0000
2000
0100
3001
0000
0000
0000
0001
0000
1000
0010
0000
0010
0100
0000
,
0002
0100
1003
0000
0010
0000
0110
0000
0001
0000
0010
0000
0100
0000
0220
0330
,
1001
1000
1000
1000
,
0110
0100
0100
0100
,
0110
0010
0010
0010
,
1001
0001
0001
0001
,
1001
0000
0000
1000
0100
0000
0010
0000
0100
0000
1000
0000
0100
0000
0010
0000
,
0001
0000
0000
0001
0100
0000
0010
0000
1000
0000
0010
0000
0100
0000
0001
0000
,
0010
0000
0000
0010
0100
0000
1000
0000
0010
0000
1000
0000
0100
0000
1000
0000
,
0010
0000
0000
0010
0100
0000
0001
0000
0010
0000
0001
0000
0100
0000
0001
0000
,
0010
0001
0100
0010
1000
0100
0010
0001
,
0100
1000
0100
0001
0010
1000
0010
0001
,
0100
1000
0001
0010
1000
0100
0001
1000
,
0020
0000
0030
0110
,
1001
0000
0000
0000
1000
0000
0100
0001
0000
0100
1000
0000
1020
0100
0000
0000
1030
0000
1001
0000
0001
0010
0000
1000
0010
0000
0002
0103
1001
0000
0000
0000
,
1000
0000
0010
0001
0000
0010
1000
0000
1200
0310
0001
0000
0100
0000
1000
0000
0001
0000
0010
0000
1000
0000
2002
3003
1001
0000
0000
0000
0001
0000
0100
1000
,
0000
0100
0001
0000
0021
0100
0000
0000
0031
0000
1001
0000
1000
0010
0000
0001
0010
0000
2000
3100
1001
0000
0000
0000
0001
0000
0010
1000
0000
0010
0001
0000
,
0201
0310
1000
0000
0100
0000
0001
0000
1000
0000
0010
0000
0001
0000
2002
3003
1001
0000
0000
0000
1000
0000
0100
0001
1000
0010
0000
0001
0100
0100
0100
0100
,
0100
0000
0110
0000
1001
0000
1000
0010
0001
1000
0000
0100
0100
0100
0100
0100
0001
0000
0000
0000
1001
0000
0001
0010
1000
0001
0000
0001
0100
0100
0100
0000
,
0110
0000
1000
0000
1001
0000
0001
0100
0010
1000
0100
0010
0110
0100
0100
0100
1000
0000
0000
0000
0101
0000
0100
1000
0001
0010
0000
1000
0100
0100
0100
0100
,
0100
0000
0110
0000
1001
0000
0001
0010
1000
0001
0000
0100
0100
0100
0100
0100
1000
0000
0000
0000
1001
0000
1000
0010
0001
1000
0000
1000
0100
0100
0100
0000
,
0110
0000
0000
0000
;

//---------------dance-single - ----------------
#NOTEDATA:;
#CHARTNAME:;
#STEPSTYPE:dance-single;
#DESCRIPTION:;
#CHARTSTYLE:;
#DIFFICULTY:Medium;
#METER:10;
#RADARVALUES:0.316253,0.686549,0.224179,0.308246,0.171637,316.000000,284.000000,32.000000,44.000000,0.000000,0.000000,0.000000,0.000000,0.000000,0.316253,0.686549,0.224179,0.308246,0.171637,316.000000,284.000000,32.000000,44.000000,0.000000,0.000000,0.000000,0.000000,0.000000;
#CREDIT:Karl with a K;
#DISPLAYBPM:25.000000:126.000000;
#NOTES:
0000
0000
0000
0000
,
0000
0000
0000
0000
,
0000
0000
0000
0000
,
0000
0000
0000
0000
,
1000
0000
0100
0000
1000
0000
2000
3000
,
0000
0001
0000
0100
0000
0002
1003
0000
,
0010
0000
1000
0000
2000
3001
0010
0001
,
0000
0010
0100
2000
3001
0000
0100
0000
,
0010
0100
0020
0030
0000
1000
0000
0100
,
0000
0010
0000
0100
0000
0100
0000
0010
,
0100
0020
0031
0000
1001
0000
0011
0000
,
0110
0000
1100
0000
0100
0000
0010
0100
,
0020
0030
0000
0001
0000
0100
0000
0010
,
0000
0100
0000
0100
0000
0010
0000
0020
,
1030
0000
0000
0000
1001
0000
0000
0000
1010
0000
0000
0000
0020
0030
0101
0000
,
0000
0001
0000
0010
0100
0020
0030
0000
,
0100
1000
0010
0110
,
0100
0000
0001
0000
0200
0310
0000
1000
,
0000
0100
0010
0100
0000
0110
0000
0010
,
0000
0010
0000
0002
0003
0000
0100
0000
,
0100
0000
0010
0000
0110
0000
0000
1000
,
0000
0001
2000
3002
0000
0003
0002
0000
,
0003
0000
1000
0000
0000
0000
2002
3003
1001
0000
0000
0000
1000
0000
0000
0000
,
0100
0000
1001
0001
,
0100
0000
1001
1000
,
0010
0000
1001
0001
,
0010
0000
0000
0000
0000
0000
0000
0000
0001
0000
0000
0001
0000
0000
0001
0000
,
0000
0000
0100
0000
0010
0000
0000
0000
1000
0000
0000
1000
0000
0000
1000
0000
,
0000
0100
0010
0000
0002
0000
0023
0000
,
0230
0000
0000
0000
1300
0000
0000
0000
0000
0000
0000
0000
0000
0000
0020
0030
,
1001
0000
1000
0000
0010
0000
2000
3000
,
0000
0001
0000
0010
0000
0002
1003
0000
,
0100
0000
1000
0000
2000
3001
0100
0001
,
0000
0000
0100
0000
0010
0000
2000
3000
1001
0000
0000
0000
1000
0000
0000
0000
,
0100
0000
2000
3000
0000
0001
0000
0100
,
0000
0002
1003
0000
0010
0000
1000
0000
,
2000
3001
0010
0100
0000
0010
0100
2000
,
3001
0001
0001
0000
,
1000
1000
1000
0000
,
0100
0100
0100
0000
,
0010
0010
0010
0000
,
0001
0001
0001
0000
,
1000
1000
1000
0000
,
0010
0010
0010
0000
,
0010
0200
0000
0300
0100
0000
0001
0000
,
0001
0020
0130
1000
,
1000
0020
0130
0200
,
0301
0010
0100
0010
0001
0010
0100
1000
,
0020
0000
0030
0110
,
1001
0000
0000
0000
1000
0000
0100
0000
0010
0100
0000
0000
0020
0000
0030
0000
0001
0000
0001
0000
0100
0000
0010
0100
0000
0000
0020
0000
1030
0000
0000
0000
,
1000
0000
1000
0000
0010
0100
0000
0000
0200
0000
0301
0000
0001
0000
1000
0000
1000
0000
0100
0000
0010
0000
0220
0330
1001
0000
0000
0000
0001
0000
0100
0000
,
0010
0100
0000
0000
0020
0000
0030
0000
1000
0000
1000
0000
0100
0000
0010
0100
0000
0000
0020
0000
0031
0000
0000
0000
0001
0000
0001
0000
0010
0100
0000
0000
,
0200
0000
1300
0000
1000
0000
0001
0000
0001
0000
0100
0000
0010
0000
0220
0330
1001
0000
0000
0000
1001
0000
0001
0000
0100
0000
0010
0000
1000
0000
1000
0000
,
0000
0000
0001
0000
0001
0000
0010
0000
0100
0000
0000
1000
0000
1000
0000
0000
1001
0000
0000
0000
1001
0000
0001
0000
0100
0000
0010
0000
1000
0000
1000
0000
,
0100
0010
0100
0010
0100
0010
0110
0000
1001
0000
1001
1000
0100
0010
0001
0001
,
0000
0000
1000
0000
1000
0000
0010
0000
0100
0000
0000
0001
0000
0001
0000
0000
1001
0000
0000
0000
1001
0000
1000
0000
0100
0000
0010
0000
0001
0000
0001
0000
,
0110
0000
0000
0000
;

//---------------dance-single - ----------------
#NOTEDATA:;
#CHARTNAME:;
#STEPSTYPE:dance-single;
#DESCRIPTION:;
#CHARTSTYLE:;
#DIFFICULTY:Easy;
#METER:7;
#RADARVALUES:0.214171,0.431545,0.063050,0.224179,0.070056,214.000000,205.000000,9.000000,32.000000,0.000000,0.000000,0.000000,0.000000,0.000000,0.214171,0.431545,0.063050,0.224179,0.070056,214.000000,205.000000,9.000000,32.000000,0.000000,0.000000,0.000000,0.000000,0.000000;
#CREDIT:Karl with a K;
#DISPLAYBPM:25.000000:126.000000;
#NOTES:
0000
0000
0000
0000
,
0000
0000
0000
0000
,
0000
0000
0000
0000
,
0000
0000
0000
0000
,
1000
0000
0000
0000
1000
0000
0200
0300
,
0000
1000
0000
0001
0000
0200
0301
0000
,
0000
0000
0001
0000
0200
0310
0000
1000
,
0000
0100
0000
0200
1300
0000
1000
0000
,
1000
0000
0200
0300
0000
0010
0000
0010
,
0000
0010
0000
0001
0000
0001
0000
0001
,
0000
0200
0310
0000
0100
0000
0010
0000
,
0010
1000
0001
0001
,
0200
0300
0000
0010
0000
0010
0000
0010
,
0000
1000
0000
1000
0000
1000
0000
2000
,
3100
0000
0100
0000
0100
0000
0020
0031
,
0000
0000
0000
1000
0000
0200
0300
0000
,
1000
0010
0100
0001
,
0000
0000
1000
0000
0020
1030
0000
0100
,
0000
0010
0000
0001
0000
1000
0000
0000
,
0000
0001
0000
0200
0300
0000
0001
0000
,
0010
0100
1000
0000
,
0001
0000
0020
0032
0003
0000
0002
0003
,
0000
0001
0000
2000
3001
0000
0000
0000
,
0001
0000
1000
0000
,
1000
0000
0100
0000
,
0100
0000
0010
0000
,
0010
0000
0001
0000
,
0100
0000
0010
0000
,
1000
0000
0100
0010
,
0100
0110
0000
0000
,
0001
0000
0100
0000
0001
0000
0020
0030
,
0000
0001
0000
0100
0000
0020
1030
0000
,
0100
0000
1000
0000
0020
0130
0000
0001
,
0000
0010
0000
0020
0031
0000
0010
0000
,
0001
0000
0200
0300
0000
0001
0000
0010
,
0000
0200
1300
0000
0010
0000
1000
0000
,
0200
0310
0000
0001
0000
0100
0000
0200
,
0301
0000
0001
0000
,
1000
0000
1000
0000
,
0001
0000
0001
0000
,
1000
0100
0010
0000
,
0001
0000
1000
0000
,
0001
0000
1000
0000
,
0001
0000
1000
0000
,
0000
0001
0000
0000
0100
0000
0010
0000
,
1000
0100
0010
0001
,
0100
0010
1000
0100
,
0010
0010
0010
0010
,
0000
0000
0000
1001
,
1001
0000
1000
0000
0100
0000
0002
0003
0000
0100
0000
1000
0000
2000
3001
0000
,
0001
0000
0100
0000
2000
3001
0000
0010
0000
1000
0000
0002
1003
0000
1000
0000
,
0010
0000
0002
0003
0000
0010
0000
1000
0000
2000
3001
0000
0001
0000
0010
0000
,
2000
3001
0000
0100
0000
1000
0000
0002
1003
0000
0000
0000
1000
0000
1001
0001
,
0000
0000
1000
0000
0001
0000
1000
1000
0001
0000
0000
0000
0001
0000
1001
0000
,
0001
0010
0100
0000
1000
0010
0100
0000
0110
0000
0000
0000
0100
0000
0101
0001
,
0000
0000
0010
0000
0100
0000
0010
0000
0110
0000
0000
0000
0100
0000
1100
1000
,
0010
0000
0000
0000
;

//---------------dance-single - ----------------
#NOTEDATA:;
#CHARTNAME:;
#STEPSTYPE:dance-single;
#DESCRIPTION:;
#CHARTSTYLE:;
#DIFFICULTY:Beginner;
#METER:4;
#RADARVALUES:0.159127,0.281625,0.182146,0.000000,0.000000,159.000000,133.000000,26.000000,0.000000,0.000000,0.000000,0.000000,0.000000,0.000000,0.159127,0.281625,0.182146,0.000000,0.000000,159.000000,133.000000,26.000000,0.000000,0.000000,0.000000,0.000000,0.000000,0.000000;
#CREDIT:Karl with a K;
#OFFSET:-0.025000;
#BPMS:0.000000=125.999992
,204.000000=100.000000
;
#STOPS:;
#DELAYS:;
#WARPS:;
#TIMESIGNATURES:0.000000=4=4
;
#TICKCOUNTS:0.000000=4
;
#COMBOS:0.000000=1
;
#SPEEDS:0.000000=1.000000=0.000000=0
;
#SCROLLS:0.000000=1.000000
;
#FAKES:;
#LABELS:0.000000=Song Start
;
#NOTES:
// measure 0
0000
0000
0000
0000
,  // measure 1
0000
0000
0000
0000
,  // measure 2
0000
0000
0000
0000
,  // measure 3
0000
0000
0000
0000
,  // measure 4
1000
0000
0000
0100
,  // measure 5
0000
1000
0000
0001
,  // measure 6
0001
0000
0000
0100
,  // measure 7
0100
0100
0100
0000
,  // measure 8
1001
0000
0000
1000
,  // measure 9
0000
0100
0000
0010
,  // measure 10
0010
0000
0000
0001
,  // measure 11
0001
0001
0001
0000
,  // measure 12
1001
0000
0000
1000
,  // measure 13
0000
0010
0000
0100
,  // measure 14
0100
0000
0001
0001
,  // measure 15
0001
0001
0001
0001
,  // measure 16
0001
0000
0000
0001
,  // measure 17
0000
0010
0000
0100
,  // measure 18
0100
0000
0000
1000
,  // measure 19
1000
1000
1000
0000
,  // measure 20
1001
0000
0000
0001
,  // measure 21
0000
0100
0000
0010
,  // measure 22
0010
0000
1000
0000
,  // measure 23
1000
1000
0000
0001
,  // measure 24
1000
0000
0000
0000
,  // measure 25
1000
0000
0000
0000
,  // measure 26
1000
0000
0000
0000
,  // measure 27
1000
0000
0000
0000
,  // measure 28
0001
0000
0001
0000
,  // measure 29
0001
0000
0001
0000
,  // measure 30
1000
0000
0001
0000
,  // measure 31
0000
0000
0000
1000
,  // measure 32
1000
0000
0000
0010
,  // measure 33
0000
1000
0000
0001
,  // measure 34
0001
0000
0000
0010
,  // measure 35
0010
0010
0010
0000
,  // measure 36
0001
0000
0000
0010
,  // measure 37
0000
0001
0000
1000
,  // measure 38
1000
0000
0000
0010
,  // measure 39
0010
0010
0010
0000
,  // measure 40
1000
0000
0000
0000
,  // measure 41
0001
0000
0000
0000
,  // measure 42
0001
0000
0000
0000
,  // measure 43
0001
0000
0001
0000
,  // measure 44
1000
0000
0000
0000
,  // measure 45
1000
0000
0000
0000
,  // measure 46
1000
0000
0000
0000
,  // measure 47
1000
0000
1000
0000
,  // measure 48
0001
0000
1000
0000
,  // measure 49
0001
0000
1000
0000
,  // measure 50
0100
0000
0010
0000
,  // measure 51
0001
0000
0100
0000
,  // measure 52
0110
0000
0001
0001
,  // measure 53
0000
1000
1000
0000
,  // measure 54
0110
0000
1000
0000
,  // measure 55
0001
0001
0001
0000
,  // measure 56
0110
0000
1000
1000
,  // measure 57
0000
0001
0001
0000
,  // measure 58
0110
0000
0001
0000
,  // measure 59
1000
1000
1000
0000
,  // measure 60
1001
0000
0110
0110
,  // measure 61
0000
1001
1001
0000
,  // measure 62
0110
0000
1001
1001
,  // measure 63
1001
0000
0110
0000
,  // measure 64
1001
0000
0110
0110
,  // measure 65
0000
1001
1001
0000
,  // measure 66
0110
0000
1001
1001
,  // measure 67
1001
0000
0000
0000
;
