#VERSION:0.83;
#TITLE:Dethsupport;
#SUBTITLE:;
#ARTIST:Dethklok;
#TITLETRANSLIT:;
#SUBTITLETRANSLIT:;
#ARTISTTRANSLIT:;
#GENRE:;
#ORIGIN:;
#CREDIT:;
#BANNER:Dethsupport banner.png;
#BACKGROUND:Dethsupport bg.png;
#PREVIEWVID:;
#JACKET:Dethsupport jk.png;
#CDIMAGE:;
#DISCIMAGE:;
#LYRICSPATH:;
#CDTITLE:;
#MUSIC:Dethsupport.ogg;
#OFFSET:0.000000;
#SAMPLESTART:44.571430;
#SAMPLELENGTH:15.000000;
#SELECTABLE:YES;
#BPMS:0.000=210.000,
156.000=105.000,
188.000=52.500,
190.000=210.000;
#STOPS:;
#DELAYS:;
#WARPS:;
#TIMESIGNATURES:0.000=4=4;
#TICKCOUNTS:0.000=4;
#COMBOS:0.000=1;
#SPEEDS:0.000=1.000=0.000=0;
#SCROLLS:0.000=1.000;
#FAKES:;
#LABELS:0.000=Song Start;
#BGCHANGES:;
#KEYSOUNDS:;
#ATTACKS:
;

//---------------dance-single - XO+ DS+ JA XMOD RH- TS STR[(1-2)@210-4@157.5|5@210] JU+----------------
#NOTEDATA:;
#CHARTNAME:Cafe Cursed's health insurance policy does not cover any injuries sustained by playing this chart.;
#STEPSTYPE:dance-single;
#DESCRIPTION:XO+ DS+ JA XMOD RH- TS STR[(1-2)@210-4@157.5|5@210] JU+;
#CHARTSTYLE:;
#DIFFICULTY:Challenge;
#METER:19;
#RADARVALUES:1.096904,1.474533,1.092059,0.156008,0.654557,1132.000000,971.000000,161.000000,23.000000,0.000000,0.000000,0.000000,0.000000,2.000000,1.096904,1.474533,1.092059,0.156008,0.654557,1132.000000,971.000000,161.000000,23.000000,0.000000,0.000000,0.000000,0.000000,2.000000;
#CREDIT:Karl with a K;
#OFFSET:0.000000;
#BPMS:0.000000=210.000000
,156.000000=105.000000
,188.000000=52.500000
,190.000000=210.000000
;
#STOPS:;
#DELAYS:;
#WARPS:462.979156=64.000000
;
#TIMESIGNATURES:0.000000=4=4
;
#TICKCOUNTS:0.000000=4
;
#COMBOS:0.000000=1
;
#SPEEDS:0.000000=1.000000=0.000000=0
;
#SCROLLS:0.000000=1.000000
;
#FAKES:;
#LABELS:0.000000=Song Start
;
#NOTES:
0000
0000
0000
0000
,
0000
0000
0000
0000
,
0000
0000
0000
0000
,
0000
0000
0000
0000
,
0000
0000
0000
0000
,
0000
0000
0000
0000
,
0000
0000
0000
0000
,
0000
0000
0000
0000
,
0000
0000
0000
0000
0000
0000
1000
0100
0010
0001
0010
0100
,
1000
0001
0100
0100
0001
0001
1000
1000
,
0001
0000
0100
0000
0010
0000
1000
0000
0010
0000
0100
0000
0001
0000
0000
1000
0000
0000
0010
0000
0000
0010
0000
0000
,
0100
0000
0000
0100
0000
0000
0001
0000
0000
0001
0000
0000
1000
0000
0000
1000
0000
0000
0001
0000
0010
0000
0100
0000
,
1000
0000
0000
0000
0100
0000
0000
0000
0010
0000
0000
0000
0001
0000
0000
0000
0000
0000
1000
0000
0000
0000
0000
0000
0010
0000
0000
0100
0000
0000
0010
0000
0000
0000
0000
0000
1000
0000
0000
0001
0000
0000
1000
0000
0000
0000
0000
0000
,
0001
0000
0000
0010
0000
0000
0001
0000
0000
0000
0000
0000
1000
0000
0000
0000
0010
0000
0000
0000
0100
0000
0000
0000
0001
0000
0000
0000
0100
0000
0000
0000
0010
0000
0000
0000
1000
0000
0000
0000
0000
0000
0000
0000
0000
0000
0000
0000
,
0011
1001
1100
0110
,
1001
1000
0010
1010
1000
1010
0010
1000
,
1001
0001
0011
0000
1001
0001
0010
0011
,
0001
0011
0010
0001
1001
1000
1010
0000
,
1001
0001
0100
0101
0001
0101
0100
0001
,
1001
1000
1100
0000
1001
1000
0100
1100
,
1000
1100
0100
1000
1001
0001
0101
0000
,
1000
0100
0010
1000
0010
1000
0010
0100
,
1000
0010
0110
0000
0001
0100
0010
0001
,
0010
0001
0010
0100
0001
0010
0110
0000
,
0001
0010
0100
0001
0100
0001
0100
0010
,
0001
0100
0110
0000
1000
0010
0100
1000
,
0100
1000
0100
0010
1000
0100
0110
0000
,
1100
1000
0010
1010
1000
1010
0010
1000
,
1100
0100
1001
0001
0101
0001
0010
0011
,
0001
0011
0010
0001
0101
0100
1001
1000
,
0011
0001
0100
0101
0001
0101
0100
0001
,
0011
0010
1001
1000
1010
1000
0100
1100
,
1000
0000
1100
0000
0100
0000
1000
0000
0010
0100
0001
0000
1000
0100
0010
0001
,
0100
0010
1000
1010
1000
0011
0001
0100
,
0110
0010
1001
1000
1100
0100
0010
0011
,
0001
1010
1000
0100
0110
0010
1001
0001
,
0011
0001
0100
0101
0001
1100
1000
0010
,
0110
0100
1001
0001
0011
0010
0100
1100
,
1000
0000
0101
0000
0001
0000
0010
0000
0100
0010
0100
0010
0001
0100
0010
1000
,
0001
0001
1000
1000
0001
0001
1000
1000
,
0100
0100
1000
1000
0001
0001
0100
0100
,
0010
0010
0010
0010
1000
1000
0100
0010
,
0001
0001
0001
0001
1000
1000
1000
1000
,
0020
1000
1000
1000
1000
1000
1000
1000
,
2030
0001
0001
0001
0100
0100
0100
3200
,
0320
0001
0001
0001
0001
0001
0100
0031
,
1001
1001
1010
1010
0110
0110
0110
0110
,
0000
0000
0000
0000
0000
0000
0000
0000
0000
0000
0000
0000
1010
0000
0000
0101
0000
0000
0011
0000
0000
1100
0000
0000
1000
0000
0000
0000
0100
0000
0000
0000
0010
0000
0000
0000
0001
0000
0000
0000
0100
0000
0000
0000
0010
0000
0000
0000
,
1000
0010
0100
0100
1000
1000
0100
0100
,
0001
0000
0100
0000
0010
0000
1000
0000
0100
0000
0010
0000
0001
0000
0000
1000
0000
0000
0010
0000
0000
0010
0000
0000
,
0001
0000
0000
0001
0000
0000
0010
0000
0000
0010
0000
0000
1000
0000
0000
1000
0000
0000
0001
0000
0010
0000
0100
0000
,
1000
0000
0000
0000
0010
0000
0000
0000
0100
0000
0000
0000
0001
0000
0000
0000
0000
0000
1000
0000
0000
0000
0000
0000
0010
0000
0000
0100
0000
0000
0010
0000
0000
0000
0000
0000
1000
0000
0000
0100
0000
0000
0010
0000
0000
0000
0000
0000
,
1000
0000
0000
0010
0000
0000
0100
0000
0000
0000
0000
0000
1000
0000
0000
0000
0010
0000
0000
0000
0100
0000
0000
0000
0001
0000
0000
0000
0010
0000
0000
0000
0100
0000
0000
0000
1000
0000
0000
0000
0000
0000
0000
0000
0000
0000
0000
0000
,
0001
0010
0001
0010
0001
1000
0001
1000
0010
1000
0010
1000
0010
0100
0010
0100
,
0001
0000
0010
0000
0100
0000
0001
0000
0100
0000
0010
0000
0001
0000
0000
1000
0000
0000
0100
0000
0000
0100
0000
0000
,
0001
0000
0000
0001
0000
0000
0100
0000
0000
0100
0000
0000
1000
0000
0010
0000
0100
0000
1000
0000
0100
0000
0010
0000
,
1000
0001
0010
0010
1000
1000
0001
0001
,
0100
0000
0000
0100
0000
0000
1000
0000
0100
0000
0010
0000
1000
0000
0001
0000
0100
0000
0010
0000
0000
0001
0000
0000
,
0100
0000
0000
0010
0000
0000
0100
0000
0000
0000
0000
0000
1000
0000
0000
0100
0000
0000
1000
0000
0000
0000
0000
0000
0100
0000
0000
0010
0000
0000
1000
0000
0000
0000
0000
0000
0001
0000
0000
0000
0100
0000
0000
0000
0010
0000
0000
0000
,
0001
1000
0100
0010
1000
0000
1100
0000
0000
0110
0000
0000
,
0101
0000
0000
0000
0110
0000
0000
0000
1000
0100
0010
0001
1000
0100
0010
0001
,
1000
0001
0100
0010
1000
0001
0100
0010
1000
0010
0100
0001
1000
0100
0010
0001
,
1000
0010
0100
0001
0100
0010
1000
0000
0001
0010
0100
1000
0100
0010
0100
0000
,
1000
0020
0000
0000
0100
0000
0000
0000
0031
0000
0010
0000
1000
0000
0001
0000
,
0010
1000
0010
0100
0001
0100
1000
0001
,
0100
0000
1000
0000
0100
0000
0001
0000
1000
0000
0100
0000
0010
2000
0000
3000
,
2000
0000
0000
3010
0000
0000
0010
0100
1000
0001
0100
0001
,
1000
0010
0100
0001
1000
0100
0010
0100
1000
0010
0100
0001
,
0100
0010
1000
0001
0010
0001
1000
0100
0010
0001
1000
0010
,
0100
0000
0000
0000
0010
0000
0000
0000
1000
0000
0000
0000
0100
0000
0000
0000
0010
0000
0000
0000
0001
0000
0000
0000
0010
0000
0000
0100
0000
0000
1000
0000
0000
0100
0000
0000
0010
0000
0000
0000
0001
0000
0000
0000
1000
0000
0000
0000
,
0010
0000
0000
0100
0000
0000
0001
0000
0000
0100
0000
0000
0010
0000
0000
0000
1000
0000
0000
0000
0001
0000
0000
0000
0010
0000
0000
0100
0000
0000
1000
0000
0000
0000
0000
0000
0010
0000
0000
0100
0000
0000
0001
0000
0000
0000
0000
0000
,
0100
0010
1000
0010
0100
0001
1000
0000
0100
0010
0001
0010
0100
1000
0001
0000
,
0010
0100
1000
0001
1000
0010
0100
0001
2000
0000
0010
0000
0001
0000
0010
0000
,
3001
0010
0100
1000
0002
0010
1000
0010
,
1003
0100
0010
0100
2000
0010
0001
0100
,
3001
0100
0010
0100
0002
0010
1000
0103
,
0110
0010
1010
0000
2000
0010
0100
0001
,
3010
0100
1000
0100
0002
0010
0100
1000
,
0013
0100
0001
0100
2000
0010
0100
0010
,
3001
0100
1000
0100
0002
0010
0100
0013
,
0110
0010
0011
0000
0020
0001
0100
1000
,
0130
0001
0100
1000
0020
1000
0100
0001
,
0130
1000
0100
0001
0200
0001
0010
1000
,
0310
0001
0010
1000
0200
1000
0010
0301
,
0101
0100
0110
0010
0200
0001
1000
0001
,
0310
1000
0001
0100
0020
1000
0001
1000
,
0130
1000
0010
0100
0020
0001
1000
0001
,
0130
1000
0001
0010
0200
1000
0001
1300
,
1100
0110
0110
0101
,
0011
0110
1010
0110
,
0011
0001
0101
0100
1010
1000
1100
0100
,
1100
1000
1010
0010
0101
0001
0011
0010
,
0110
0100
0001
0101
0100
0101
0001
0100
,
0110
0010
0011
0001
0101
0100
1000
1100
,
0100
1100
1000
0100
0110
0010
1010
1000
,
0011
0010
1000
1010
0010
1010
1000
0010
,
0110
0100
1100
1000
1010
0010
0001
0011
,
0010
0011
0001
0010
0110
0100
0101
0001
,
0101
0100
1000
1100
0100
1100
1000
0001
,
1001
1000
0110
0000
1010
0010
0001
0011
,
0010
0011
0001
1000
1001
0001
0110
1000
,
0011
0010
1000
1010
0010
1010
1000
0001
,
1001
1000
0110
0000
1100
0100
0001
0101
,
0100
0101
0001
1000
1001
0001
0110
0000
,
0001
0010
0100
1000
0100
0010
0001
1000
0001
0100
0010
1000
0010
0100
0001
1000
,
0001
0010
0100
1000
0100
0010
0001
1000
0010
1000
0100
0010
0001
1000
0100
0010
,
0100
1000
0010
0100
0001
1000
0100
0010
0100
1000
0010
0100
0001
1000
0100
0010
,
0001
0010
0100
1000
0001
0100
0010
1000
0001
0010
0100
1000
0001
0100
0010
1000
,
0001
0010
0100
1000
0001
0100
0010
1000
0001
0010
0100
0010
0001
1000
0010
0100
,
0001
0100
0010
0100
0001
1000
0100
0010
1000
0010
0000
0000
0110
0000
0000
0000
,
1100
0000
0100
0010
0001
0000
0011
0000
0010
0000
0011
0000
0001
1000
0010
0000
,
0110
0000
0100
0000
0110
0000
0000
0000
0101
0000
0100
0010
1000
0000
1010
0000
,
0010
0000
1010
0000
1000
0001
0010
0000
0110
0000
0100
0000
0010
0100
1000
0000
,
0011
0000
0010
0100
1000
0000
1100
0000
0100
0000
1100
0000
1000
0001
0100
0000
,
0110
0000
0010
0000
0110
0000
0000
0000
1010
0000
0010
0100
1000
0000
1100
0000
,
0100
0000
0110
0000
0010
1000
0100
0000
0110
0000
0010
0000
0220
0000
0000
0000
,
0000
0000
0000
0000
,
0000
0000
0000
0000
,
0000
0000
0000
0000
,
0000
0000
0000
0000
,
0000
0000
0000
0000
,
0000
0000
0000
0000
,
0000
0000
0000
0000
,
0000
0000
0000
0330
,
0000
0000
0000
0000
,
0000
0000
0000
0000
,
0000
0000
0000
0000
,
0000
0000
0000
0000
,
0000
0000
0000
0000
,
0000
0000
0000
0000
,
0000
0000
0000
0000
,
0000
0000
0000
0110
;

//---------------dance-single - XO DS JA XMOD TS JU----------------
#NOTEDATA:;
#CHARTNAME:;
#STEPSTYPE:dance-single;
#DESCRIPTION:XO DS JA XMOD TS JU;
#CHARTSTYLE:;
#DIFFICULTY:Hard;
#METER:17;
#RADARVALUES:0.830430,1.117071,0.359498,0.122093,0.369672,857.000000,804.000000,53.000000,18.000000,0.000000,0.000000,0.000000,0.000000,2.000000,0.830430,1.117071,0.359498,0.122093,0.369672,857.000000,804.000000,53.000000,18.000000,0.000000,0.000000,0.000000,0.000000,2.000000;
#CREDIT:Karl with a K;
#OFFSET:0.000000;
#BPMS:0.000000=210.000000
,156.000000=105.000000
,188.000000=52.500000
,190.000000=210.000000
;
#STOPS:;
#DELAYS:;
#WARPS:462.979156=64.000000
;
#TIMESIGNATURES:0.000000=4=4
;
#TICKCOUNTS:0.000000=4
;
#COMBOS:0.000000=1
;
#SPEEDS:0.000000=1.000000=0.000000=0
;
#SCROLLS:0.000000=1.000000
;
#FAKES:;
#LABELS:0.000000=Song Start
;
#NOTES:
0000
0000
0000
0000
,
0000
0000
0000
0000
,
0000
0000
0000
0000
,
0000
0000
0000
0000
,
0000
0000
0000
0000
,
0000
0000
0000
0000
,
0000
0000
0000
0000
,
0000
0000
0000
0000
,
0000
0000
0000
0000
0000
0000
1000
0100
0010
0001
1000
0010
,
0100
0000
0001
0100
0001
1000
0100
0000
,
1000
0000
0010
0000
0100
0000
0001
0000
1000
0000
0100
0000
0010
0000
0000
0001
0000
0000
1000
0000
0000
0010
0000
0000
,
0100
0000
0000
0010
0000
0000
1000
0000
0000
0010
0000
0000
0100
0000
0000
0000
0000
0000
0001
0000
0010
0000
0100
0000
,
1000
0000
0000
0000
0001
0000
0000
0000
0100
0000
0000
0000
0010
0000
0000
0000
0000
0000
0000
0000
0000
0000
0000
0000
1000
0000
0000
0010
0000
0000
0000
0000
0000
0000
0000
0000
1000
0000
0000
0001
0000
0000
0000
0000
0000
0000
0000
0000
,
0010
0000
0000
0001
0000
0000
0000
0000
0000
0000
0000
0000
0001
0000
0000
0000
0100
0000
0000
0000
0010
0000
0000
0000
1000
0000
0000
0000
0001
0000
0000
0000
0010
0000
0000
0000
0100
0000
0000
0000
0000
0000
1000
0000
0000
0000
0000
0000
,
1001
0110
1001
0110
,
1000
0100
0010
0010
0100
0100
0010
0100
,
1000
0100
0010
0000
0001
0100
0010
0010
,
0100
0100
0010
0100
0001
0100
0010
1000
,
0001
0010
0100
0100
0010
0010
0100
0010
,
0001
0010
0100
0000
1000
0010
0100
0100
,
0010
0010
0100
0010
1000
0010
0100
0000
,
0010
1000
0100
0010
0100
0010
0001
0100
,
0010
1000
0100
0000
0010
0001
0100
0010
,
0100
0010
1000
0100
0010
0001
0100
0000
,
0100
0001
0010
0100
0010
0100
1000
0010
,
0100
0001
0010
0000
0100
1000
0010
0100
,
0010
0100
0001
0010
0100
1000
0001
0000
,
1000
1000
0100
0010
0010
0001
0001
0100
,
0010
0100
0010
1000
0001
0001
0010
0100
,
0100
1000
1000
0010
0100
0010
0110
0000
,
0001
0001
0010
0100
0100
1000
1000
0010
,
0100
0010
0100
0001
1000
1000
0100
0010
,
0010
0000
0001
0000
0001
0000
0100
0010
0100
0000
0001
1000
0001
1000
0100
0000
,
1000
1000
0100
1000
1000
0010
0010
0100
,
0010
0100
0010
1000
0001
0001
0010
0001
,
0001
0100
0100
0010
0100
0010
0110
0000
,
0001
0001
0010
0001
0001
0100
0100
0010
,
0100
0010
0100
0001
1000
1000
0100
0010
,
0010
0000
1000
0000
0010
0000
0001
0000
1000
0001
0000
0000
0100
0010
0000
0000
,
1000
0100
1000
0100
1000
0100
1000
0100
,
1000
0001
0100
0001
0100
0010
0100
0010
,
1000
0100
0010
0100
1000
0100
0010
0100
,
1000
0001
0100
0010
0100
0001
0100
0010
,
2000
0001
0001
0000
0001
0000
3001
0010
,
0002
0000
1000
0100
0000
1000
0100
0000
,
0023
0100
0001
0130
,
0010
0100
0010
0100
0010
0100
0010
0100
,
0000
0000
0000
0000
0000
0000
0000
0000
0000
0000
0000
0000
1000
0000
0000
1000
0000
0000
0001
0000
0000
0001
0000
0000
1000
0000
0000
0000
0010
0000
0000
0000
0100
0000
0000
0000
0010
0000
0000
0000
1000
0000
0000
0000
0001
0000
0000
0000
,
0010
0000
0001
0100
0001
0010
0100
0000
,
1000
0000
0100
0000
0010
0000
0100
0000
1000
0000
0001
0000
0100
0000
0000
0001
0000
0000
1000
0000
0000
0010
0000
0000
,
1000
0000
0000
0100
0000
0000
1000
0000
0000
0010
0000
0000
0100
0000
0000
0000
0000
0000
0001
0000
0010
0000
0100
0000
,
0010
0000
0000
0000
0001
0000
0000
0000
1000
0000
0000
0000
0010
0000
0000
0000
0000
0000
0000
0000
0000
0000
0000
0000
1000
0000
0000
0010
0000
0000
0000
0000
0000
0000
0000
0000
1000
0000
0000
0100
0000
0000
0000
0000
0000
0000
0000
0000
,
0010
0000
0000
0001
0000
0000
0000
0000
0000
0000
0000
0000
0001
0000
0000
0000
0100
0000
0000
0000
0010
0000
0000
0000
0100
0000
0000
0000
0001
0000
0000
0000
1000
0000
0000
0000
0001
0000
0000
0000
0000
0000
0000
0000
0000
0000
0000
0000
,
0010
0001
0100
0001
0010
0001
0100
0001
,
1000
0000
0010
0000
0100
0000
0001
0000
0010
0000
0100
0000
1000
0000
0000
0000
0000
0000
0001
0000
0000
0001
0000
0000
,
1000
0000
0000
1000
0000
0000
0100
0000
0000
0000
0000
0000
1000
0000
0100
0000
0010
0000
0001
0000
0010
0000
0100
0000
,
1000
0001
0100
0100
0010
0010
1000
1000
,
0001
0000
0000
0001
0010
0100
1000
0010
0100
0001
0000
0000
,
0100
0000
0000
0010
0000
0000
0000
0000
0000
0000
0000
0000
1000
0000
0000
0100
0000
0000
0000
0000
0000
0000
0000
0000
0010
0000
0000
0001
0000
0000
0000
0000
0000
0000
0000
0000
1000
0000
0000
0000
0100
0000
0000
0000
0010
0000
0000
0000
,
0001
0100
0010
1000
0000
0000
0101
0000
0000
1001
0000
0000
,
1100
0000
0000
0000
0011
0000
0000
0000
1000
0010
1000
0000
0001
0000
0010
0000
,
0100
0010
0100
1000
0010
0100
0010
1000
,
0001
0010
0001
0000
1000
0000
0010
0000
0100
0000
0010
0000
0100
0000
0001
0000
,
0010
0000
0010
0000
0001
0100
0010
0100
,
0001
0010
0100
1000
0010
0100
0001
0100
,
0001
0010
0100
1000
0001
0100
0020
0000
,
1000
0000
0000
0000
0100
0000
0000
0000
1030
0100
1000
0000
0100
0000
0010
0000
,
0001
1000
0001
0000
0100
0000
0010
0000
1000
0010
1000
0000
0001
0010
0000
0000
,
0001
0100
0001
0000
0100
0000
0010
0000
1000
0001
1000
0000
0100
0000
0010
0000
,
0001
0010
0001
0000
1000
0010
0000
0000
1000
0100
1000
0000
0001
0100
0001
0000
,
1000
0100
1000
0000
0001
0100
0001
0000
1000
0010
1000
0000
0001
0010
0001
0000
,
1000
0100
0010
0000
0001
1000
0010
0000
1000
0001
0100
0000
0010
0100
0001
0000
,
0010
0100
0000
0000
0010
0100
0000
0000
2000
0000
0000
0000
0100
0000
0000
0000
,
3001
0100
0001
1000
0002
0000
0100
0000
,
1003
0100
1000
0001
2000
0000
0010
0000
,
3001
0010
0001
1000
0002
0000
0013
0000
,
0110
0110
2000
0010
,
3100
0010
0001
1000
0002
0000
0010
0000
,
0103
0010
1000
0001
2000
0000
0100
0000
,
3010
0100
0001
1000
0002
0000
0103
0000
,
0110
0000
0110
0000
1000
0200
0010
0000
,
1300
0100
0010
0001
1000
0020
0100
0000
,
1030
0010
0100
0000
0001
0020
0100
0000
,
0031
0010
0100
1000
0001
0100
0010
0000
,
1001
0000
0110
0000
1000
0200
0010
0000
,
0301
0100
1000
0001
1000
0020
0100
0000
,
0031
0010
1000
0000
0001
0020
0100
0000
,
1030
0010
0001
1000
0001
0100
1000
0000
,
0110
0110
0110
0110
,
1001
1001
1001
1001
,
0011
1100
1010
0101
,
1100
1010
0101
0011
,
1000
0100
0010
0010
0100
0100
0001
0100
,
1000
0001
0100
0001
1000
0010
0100
0100
,
0010
0010
0001
0010
1000
0001
1000
0000
,
0001
0010
0100
0100
0010
0010
1000
0010
,
0001
1000
0010
1000
0001
0100
0010
0010
,
0100
0100
1000
0100
0001
1000
0001
0000
,
1000
0100
0010
0011
0000
0011
0001
0100
,
0110
0000
1010
0000
1000
0010
0100
0101
,
0000
0101
0001
0010
0110
0000
1100
0000
,
0001
0010
0100
1100
0000
1100
1000
0010
,
0110
0000
0101
0000
0001
0100
0010
1010
,
0000
1010
1000
0100
0110
0000
0011
0000
,
1000
0100
0010
0100
1000
0000
0000
0000
0001
0100
0010
0100
0001
0000
0000
0000
,
1000
0100
0010
0001
1000
0000
0000
0000
0001
0100
0010
0100
0001
0000
0000
0000
,
1000
0100
0010
0100
1000
0000
0000
0000
0001
0100
0010
1000
0001
0000
0000
0000
,
0001
0010
0100
0010
0001
0000
0000
0000
1000
0010
0100
0010
1000
0000
0000
0000
,
0001
0010
0100
1000
0001
0000
0000
0000
1000
0010
0100
0010
1000
0000
0000
0000
,
0001
0010
0100
0010
0001
0000
0000
0000
1000
0010
0000
0000
1001
0000
0000
0000
,
1000
0100
0001
0001
0100
0001
0100
1000
,
0001
1000
1001
0000
0001
0100
1000
1000
,
0100
1000
0100
0001
1000
0001
1001
0000
,
1000
0010
0001
0001
1000
0100
0010
1000
,
0001
0010
0110
0000
0001
0010
1000
1000
,
0001
0100
1000
0010
0100
0001
2002
0000
,
0000
0000
0000
0000
,
0000
0000
0000
0000
,
0000
0000
0000
0000
,
0000
0000
0000
0000
,
0000
0000
0000
0000
,
0000
0000
0000
0000
,
0000
0000
0000
0000
,
0000
0000
0000
3003
,
0000
0000
0000
0000
,
0000
0000
0000
0000
,
0000
0000
0000
0000
,
0000
0000
0000
0000
,
0000
0000
0000
0000
,
0000
0000
0000
0000
,
0000
0000
0000
0000
,
0000
0000
0000
1001
;

//---------------dance-single - XO DS- JA- XMOD TS JU-----------------
#NOTEDATA:;
#CHARTNAME:;
#STEPSTYPE:dance-single;
#DESCRIPTION:XO DS- JA- XMOD TS JU-;
#CHARTSTYLE:;
#DIFFICULTY:Medium;
#METER:14;
#RADARVALUES:0.642444,0.667360,0.162791,0.156008,0.006783,663.000000,639.000000,24.000000,23.000000,0.000000,0.000000,0.000000,0.000000,0.000000,0.642444,0.667360,0.162791,0.156008,0.006783,663.000000,639.000000,24.000000,23.000000,0.000000,0.000000,0.000000,0.000000,0.000000;
#CREDIT:Karl with a K;
#NOTES:
0000
0000
0000
0000
,
0000
0000
0000
0000
,
0000
0000
0000
0000
,
0000
0000
0000
0000
,
0000
0000
0000
0000
,
0000
0000
0000
0000
,
0000
0000
0000
0000
,
0000
0000
0000
0000
,
0000
0000
0000
0000
1000
0100
0010
0100
,
1000
1001
0001
1000
,
0001
0100
0010
0100
0001
0000
0020
0000
,
0130
0000
2000
0000
3100
0000
1000
0010
,
0100
0010
1000
0000
1001
0000
0001
0000
,
1000
0000
0001
0010
0100
0010
0001
0000
,
0110
0010
0011
0001
,
1000
0010
1000
0010
0000
0010
0000
0100
,
0001
1000
1000
0000
0001
0010
0001
0010
,
0000
0010
0000
0100
1000
0001
0001
0000
,
1000
0100
1000
0100
0000
0100
0000
0010
,
0001
1000
1000
0000
0001
0100
0001
0100
,
0000
0100
0000
0010
1000
0001
0001
0000
,
1000
0100
0010
0001
0000
0001
0000
0100
,
0010
0100
0010
0000
1000
0010
0100
0001
,
0000
0001
0000
0010
0100
0010
0100
0000
,
1000
0100
0010
0001
0000
0100
0000
0010
,
0100
0010
0100
0000
0001
0100
0010
1000
,
0000
0100
0000
0010
0100
0010
0100
0000
,
1000
0100
0010
0010
0000
0010
0000
0001
,
0100
0010
1000
0000
1000
0010
0100
0100
,
0000
0100
0000
0001
0010
0100
1000
0000
,
0001
0010
0100
0100
0000
0100
0000
1000
,
0010
0100
0001
0000
0001
0100
0010
0010
,
0000
0010
0000
1000
0100
0010
0001
0000
,
1000
1000
0100
0010
0000
0001
0000
0100
,
0010
1000
1000
0000
0001
0001
0100
0010
,
0000
1000
0000
0100
0010
0001
0001
0000
,
1000
1000
0010
0100
0000
0001
0000
0010
,
0100
1000
1000
0000
0001
0001
0010
0100
,
0000
1000
0000
0010
0100
0000
0110
0000
,
2000
0010
0010
0010
,
3002
1000
0100
0203
,
0320
1000
1000
1000
,
2030
0001
0100
3100
,
0020
0000
0100
0000
0100
0000
0130
1000
,
0002
0100
0100
0100
,
2003
0010
0010
0010
,
3001
1000
0001
1000
0001
1000
0001
1000
,
0000
0000
0000
0000
0100
0010
0100
0010
0001
0000
0100
0000
0010
0000
0100
0000
,
0001
1001
1000
0001
,
1000
0100
0010
0100
1000
0000
0020
0000
,
0130
0000
0002
0000
0103
0000
0001
0010
,
0100
0010
0001
0000
1001
0000
1000
0000
,
0001
0000
1000
0010
0100
0010
1000
0000
,
0110
0010
1010
1000
,
0001
0010
0100
0010
1000
0000
0010
0100
,
0010
0100
1000
0000
1000
0010
0100
0010
,
0001
0020
0130
0002
,
0013
0000
0001
0100
0010
0100
1000
0000
,
0100
0001
1000
0100
1000
0000
1000
0100
,
0010
0100
0001
0000
0110
0000
0100
0000
,
1100
0000
1000
0000
0001
0010
0100
1000
,
0100
0010
0001
1000
0010
0100
0001
0000
,
1000
0010
0100
0001
0100
0010
1000
0100
,
0020
0000
0100
0000
0031
0100
0010
0000
,
0100
0010
1000
0100
0010
0100
1000
0000
,
0001
0010
0000
0100
1000
0000
0010
0000
,
0020
0000
0100
0000
1030
0100
1000
0100
,
0010
0001
0010
0001
1000
0010
0100
0001
,
1000
0010
1000
0010
0100
0001
0100
0001
,
1000
0100
0010
0001
1000
0010
0100
0001
,
0010
0100
1000
0001
1000
0010
0100
0010
,
1000
0100
0010
0001
0100
0010
1000
0001
,
0100
0010
1000
0001
0100
0001
1000
0000
,
0100
0000
1000
0000
0100
1000
0001
0000
,
0100
0000
0001
0000
0010
0001
1000
0000
,
0010
0000
1000
0000
0010
1000
0001
0000
,
0010
0000
1001
0000
0001
0100
0010
0000
,
1000
0000
1000
0000
0001
0010
0100
0000
,
1000
0000
0001
0000
1000
0010
0100
0000
,
0001
0000
0001
0000
1000
0100
0010
0000
,
0010
0000
1001
0000
1000
0100
0010
0100
,
1000
0000
0001
0000
0001
0010
0100
0010
,
0001
0000
1000
0000
1000
0010
0100
0010
,
1000
0000
0001
0000
0001
0100
0010
0100
,
0010
0000
0110
0000
1000
0100
0010
1000
,
0010
0100
1000
0000
0001
0100
0010
0001
,
0010
0100
0001
0000
1000
0010
0100
1000
,
0100
0010
1000
0000
0001
0010
0100
0001
,
0200
0320
0032
0203
,
0320
2030
3200
0310
,
0110
0110
1001
1001
,
1010
0101
0011
1100
,
1000
0010
0100
1000
0000
1000
0100
0010
,
1000
0100
0010
0000
0001
0010
0100
0001
,
0000
0001
0100
0010
0001
0100
0010
0000
,
1000
0100
0010
1000
0000
1000
0010
0100
,
1000
0010
0100
0000
0001
0100
0010
0001
,
0000
0001
0010
0100
0001
0010
0100
0000
,
1000
0001
0100
1000
0000
1000
0100
0001
,
1000
0100
0010
0000
0001
1000
0100
0001
,
0000
0001
0100
1000
0001
0100
0010
0000
,
1000
0001
0010
1000
0000
1000
0010
0001
,
1000
0010
0100
0000
0001
1000
0010
0001
,
0000
0001
0010
1000
0001
0010
0100
0000
,
1000
0100
0010
0100
0001
0100
0010
0100
,
1000
0100
0010
0001
1000
0010
0100
0010
,
0001
0010
0100
0010
1000
0010
0100
0000
,
0001
0010
0100
0010
1000
0010
0100
0010
,
0001
0010
0100
1000
0001
0100
0010
0100
,
1000
0100
0010
0100
0001
0100
0010
0000
,
1000
0100
0010
1000
0000
1000
0001
0000
,
0100
0000
1000
0000
0001
0100
0010
0001
,
0000
0001
1000
0000
0100
0000
0001
0000
,
1000
0010
0100
1000
0000
1000
0001
0000
,
0010
0000
1000
0000
0001
0010
0100
0001
,
0000
1000
0010
0000
0110
0000
1001
0000
;

//---------------dance-single - ----------------
#NOTEDATA:;
#CHARTNAME:;
#STEPSTYPE:dance-single;
#DESCRIPTION:;
#CHARTSTYLE:;
#DIFFICULTY:Easy;
#METER:11;
#RADARVALUES:0.433141,0.549590,0.264536,0.081396,0.000000,447.000000,408.000000,39.000000,12.000000,0.000000,0.000000,0.000000,0.000000,0.000000,0.433141,0.549590,0.264536,0.081396,0.000000,447.000000,408.000000,39.000000,12.000000,0.000000,0.000000,0.000000,0.000000,0.000000;
#CREDIT:Karl with a K;
#NOTES:
0000
0000
0000
0000
,
0000
0000
0000
0000
,
0000
0000
0000
0000
,
0000
0000
0000
0000
,
0000
0000
0000
0000
,
0000
0000
0000
0000
,
0000
0000
0000
0000
,
0000
0000
0000
0000
,
0000
0000
1000
0100
,
0010
0001
0001
0001
,
1000
0010
0100
0001
,
0001
1000
1000
0001
,
0010
0100
1000
1000
,
1000
0001
0100
0010
,
1000
1000
0001
0001
,
1000
0000
0000
0010
0000
0010
0000
0000
,
1000
0000
0001
0000
0001
0000
0000
0010
,
0000
0010
0000
0000
0001
0000
0001
0000
,
1000
0000
0000
0100
0000
0100
0000
0000
,
1000
0000
1000
0000
0001
0000
0000
0100
,
0000
0100
0000
0000
0001
0000
0001
0000
,
1000
0000
0000
0100
0000
0010
0000
0000
,
0001
0000
1000
0000
0001
0000
0000
0100
,
0000
0010
0000
0000
1000
0000
0001
0000
,
1000
0000
0000
0010
0000
0100
0000
0000
,
0001
0000
1000
0000
0001
0000
0000
0010
,
0000
0100
0000
0000
1000
0000
0001
0000
,
1000
0000
0000
0010
0000
0010
0000
0000
,
0100
0000
0001
0000
0001
0000
0000
0010
,
0000
0010
0000
0000
0100
0000
1000
0000
,
1000
0000
0000
0100
0000
0100
0000
0000
,
0010
0000
0001
0000
0001
0000
0000
0100
,
0000
0100
0000
0000
0010
0000
1000
0000
,
0001
0000
0000
0010
0000
0100
0000
0000
,
1000
0000
0010
0000
0100
0000
0000
0001
,
0000
0010
0000
0000
0100
0000
1000
0000
,
0010
0000
0000
0100
0000
0001
0000
0000
,
0010
0000
0100
0000
1000
0000
0000
0010
,
0000
0100
0000
0000
0001
0000
1000
0000
,
0002
0000
0000
0000
,
2003
0000
3200
0000
,
0320
0000
0000
0000
,
0032
0000
0000
0000
,
2003
0000
0000
0001
,
3002
0000
0203
0000
,
0320
0000
0000
0000
,
1030
1000
0001
0001
,
0000
0000
0001
0010
,
0100
1000
1000
1000
,
0001
0100
0010
1000
,
1000
0001
0001
1000
,
0100
0010
0001
0001
,
0001
1000
0010
0100
,
0001
0001
1000
1000
,
0001
0000
0100
0000
0010
0000
1000
0001
,
1000
0000
0001
1000
0001
0000
0010
0000
,
0100
0000
1000
0001
1000
0000
0001
1000
,
0001
1000
0010
0100
,
0001
1000
0001
0000
1000
0001
1000
0000
,
0100
0010
0110
0100
,
1001
0000
1000
0000
0001
0100
0001
0000
,
1000
0100
0010
0001
,
1000
0100
1000
0000
0001
0000
0100
0000
,
0020
0030
1000
0001
,
0100
0010
0000
0100
0010
0000
1000
0000
,
0001
0020
0000
0000
0130
0000
0020
0000
,
0000
0000
0030
0000
0001
0100
0000
0000
,
0100
0010
0000
0000
0010
1000
0000
0000
,
1000
0100
0000
0000
0100
0010
0000
0000
,
0010
0001
0000
0000
1000
0010
0000
0000
,
0100
0001
0000
0000
0010
0100
0000
0000
,
1000
0100
0000
0000
0010
0001
0000
0000
,
0100
0010
0000
0000
1001
0000
1000
0000
,
0100
1000
1001
0001
,
0100
0001
1001
1000
,
0010
1000
1001
0001
,
0010
0110
0110
0010
,
0001
0100
0110
0010
,
1000
0100
0110
0100
,
1000
0010
0110
0100
,
0001
1001
1100
0100
,
0010
0001
0101
0100
,
0010
1000
0011
0010
,
0100
1000
1010
0010
,
0100
0110
1100
0001
,
0010
0001
1010
0001
,
0100
0001
0011
1000
,
0100
1000
0101
0100
,
0110
0000
0110
0000
,
1001
0000
1001
0000
,
1000
0100
0010
0001
,
0001
0100
0010
1000
,
1000
0000
1000
0100
0000
0100
1000
0000
,
1000
0000
1001
0000
0001
0000
0001
0100
,
0000
0100
0001
0000
0001
0000
1001
0000
,
1000
0000
1000
0010
0000
0010
1000
0000
,
1000
0000
1001
0000
0001
0000
0001
0010
,
0000
0010
0001
0000
0001
0000
1001
0000
,
1000
0000
0010
0100
0000
0010
0100
0000
,
0001
0000
1001
0000
0001
0000
0010
0100
,
0000
0010
0100
0000
0010
0000
0110
0000
,
0110
0000
1000
0001
0000
1000
0001
0000
,
0100
0000
0110
0000
0110
0000
0001
1000
,
0000
0001
1000
0000
0001
0000
1001
0000
,
1000
0100
1000
0000
0001
0000
1000
0000
,
0001
0100
0001
0000
1000
0010
1000
0000
,
0001
0000
1000
0000
0001
0010
0001
0000
,
1000
0100
1000
0000
0010
0000
1000
0000
,
0100
0010
0001
0000
0001
0100
0001
0000
,
0010
0000
0001
0000
0100
0010
0100
0000
,
0001
0000
0000
0100
0000
1000
0000
0000
,
1000
0000
0100
0000
0001
0000
0000
0010
,
0000
1000
0000
0000
1000
0000
0010
0000
,
0001
0000
0000
1000
0000
0010
0000
0000
,
0001
0000
0010
0000
1000
0000
0000
1001
,
0000
1001
0000
0000
0110
0000
0110
0000
;

//---------------dance-single - ----------------
#NOTEDATA:;
#CHARTNAME:;
#STEPSTYPE:dance-single;
#DESCRIPTION:;
#CHARTSTYLE:;
#DIFFICULTY:Beginner;
#METER:6;
#RADARVALUES:0.218024,0.314052,0.013566,0.000000,0.000000,225.000000,223.000000,2.000000,0.000000,0.000000,0.000000,0.000000,0.000000,0.000000,0.218024,0.314052,0.013566,0.000000,0.000000,225.000000,223.000000,2.000000,0.000000,0.000000,0.000000,0.000000,0.000000,0.000000;
#CREDIT:Karl with a K;
#NOTES:
// measure 0
0000
0000
0000
0000
,  // measure 1
0000
0000
0000
0000
,  // measure 2
0000
0000
0000
0000
,  // measure 3
0000
0000
0000
0000
,  // measure 4
0000
0000
0000
0000
,  // measure 5
0000
0000
0000
0000
,  // measure 6
0000
0000
0000
0000
,  // measure 7
0000
0000
0000
0000
,  // measure 8
0000
0000
1000
0000
,  // measure 9
0000
0000
0000
0000
,  // measure 10
0001
0000
0000
1000
,  // measure 11
1000
1000
0000
0001
,  // measure 12
0000
0000
0000
0000
,  // measure 13
0000
1000
0000
0000
,  // measure 14
0001
0001
0001
0000
,  // measure 15
1000
0000
0010
0000
,  // measure 16
1000
0000
0001
0000
,  // measure 17
0010
0000
0001
0000
,  // measure 18
1000
0000
0100
0000
,  // measure 19
1000
0000
0001
0000
,  // measure 20
0100
0000
0001
0000
,  // measure 21
1000
0000
1000
0000
,  // measure 22
1000
0000
0001
0000
,  // measure 23
0001
0000
0001
0000
,  // measure 24
1000
0000
1000
0000
,  // measure 25
1000
0000
0001
0000
,  // measure 26
0001
0000
0001
0000
,  // measure 27
1000
0000
0100
0000
,  // measure 28
0010
0000
0001
0000
,  // measure 29
0100
0000
0010
0000
,  // measure 30
1000
0000
0100
0000
,  // measure 31
0010
0000
0001
0000
,  // measure 32
0100
0000
0010
0000
,  // measure 33
1000
0000
0100
0000
,  // measure 34
0100
0000
0010
0000
,  // measure 35
0010
0000
0001
0000
,  // measure 36
0100
0000
0100
0000
,  // measure 37
0010
0000
1000
0000
,  // measure 38
0100
0000
0100
0000
,  // measure 39
1000
0000
0000
0000
,  // measure 40
0100
0000
0000
0000
,  // measure 41
0010
0000
0000
0000
,  // measure 42
0001
0000
0000
0000
,  // measure 43
0001
0000
0000
0000
,  // measure 44
0100
0000
0000
0000
,  // measure 45
0010
0000
0000
0000
,  // measure 46
1000
0000
0000
0000
,  // measure 47
0000
0000
1000
0000
,  // measure 48
0000
0000
0000
0000
,  // measure 49
0100
0000
0000
0010
,  // measure 50
0010
0010
0000
0001
,  // measure 51
0000
0000
0000
0000
,  // measure 52
0000
0100
0000
0000
,  // measure 53
0010
0010
0010
0000
,  // measure 54
1000
0000
0000
0001
,  // measure 55
0000
0000
1000
0000
,  // measure 56
0000
0100
0100
0100
,  // measure 57
0000
1000
0000
0000
,  // measure 58
0001
0000
0000
1000
,  // measure 59
0000
0000
0010
0010
,  // measure 60
0010
0000
1000
0000
,  // measure 61
0100
0000
1000
0000
,  // measure 62
0001
0000
0100
0000
,  // measure 63
0001
0000
1000
0000
,  // measure 64
0100
0000
0010
0000
,  // measure 65
0001
0000
0100
0000
,  // measure 66
0010
0000
1000
0000
,  // measure 67
1000
0000
0001
0000
,  // measure 68
0010
0000
0100
0000
,  // measure 69
1000
0000
0001
0000
,  // measure 70
0001
0000
1000
0000
,  // measure 71
0010
0000
0100
0000
,  // measure 72
0001
0000
1000
1000
,  // measure 73
0000
0000
0001
0001
,  // measure 74
0000
0000
1000
1000
,  // measure 75
0000
0000
0001
0001
,  // measure 76
0001
0000
0001
0001
,  // measure 77
0000
0000
1000
1000
,  // measure 78
0000
0000
0001
0001
,  // measure 79
0000
0000
1000
1000
,  // measure 80
1000
0000
0100
0100
,  // measure 81
0000
0000
0010
0010
,  // measure 82
0000
0000
0001
0001
,  // measure 83
0000
0000
0100
0100
,  // measure 84
0100
0000
0010
0010
,  // measure 85
0000
0000
1000
1000
,  // measure 86
0000
0000
0100
0100
,  // measure 87
0000
0000
0010
0010
,  // measure 88
0010
0000
0010
0000
,  // measure 89
0010
0000
0010
0000
,  // measure 90
0100
0000
0010
0000
,  // measure 91
0100
0000
0010
0000
,  // measure 92
0001
0001
0001
0000
,  // measure 93
0001
0000
1000
1000
,  // measure 94
1000
0000
1000
0000
,  // measure 95
0010
0010
0010
0000
,  // measure 96
0010
0000
0100
0100
,  // measure 97
0100
0000
0100
0000
,  // measure 98
0001
0001
0001
0000
,  // measure 99
0001
0000
0010
0010
,  // measure 100
0010
0000
0010
0000
,  // measure 101
0100
0100
0100
0000
,  // measure 102
0100
0000
1000
1000
,  // measure 103
1000
0000
1000
0000
,  // measure 104
0001
0001
0001
0001
,  // measure 105
0001
0000
1000
1000
,  // measure 106
1000
1000
1000
0000
,  // measure 107
0100
0100
0100
0100
,  // measure 108
0100
0000
0010
0010
,  // measure 109
0010
0010
0010
0000
,  // measure 110
0001
0000
0001
0000
,  // measure 111
1000
0001
1000
0000
,  // measure 112
1000
0000
0001
1000
,  // measure 113
0001
0000
0001
0000
,  // measure 114
1000
0001
1000
0000
,  // measure 115
1000
0000
1001
1001
;
