#VERSION:0.83;
#TITLE:Dear Diary,;
#SUBTITLE:;
#ARTIST:Bring Me The Horizon;
#TITLETRANSLIT:;
#SUBTITLETRANSLIT:;
#ARTISTTRANSLIT:;
#GENRE:;
#ORIGIN:;
#CREDIT:;
#BANNER:Dear Diary banner.png;
#BACKGROUND:Dear Diary bg.png;
#PREVIEWVID:;
#JACKET:Dear Diary jk.png;
#CDIMAGE:;
#DISCIMAGE:;
#LYRICSPATH:;
#CDTITLE:;
#MUSIC:Dear Diary.ogg;
#OFFSET:-0.000000;
#SAMPLESTART:32.542374;
#SAMPLELENGTH:15.000000;
#SELECTABLE:YES;
#BPMS:0.000=236.000,
60.000=118.000,
62.000=236.000,
122.000=118.000,
124.000=236.000,
188.000=118.000;
#STOPS:249.667=1.017;
#DELAYS:;
#WARPS:;
#TIMESIGNATURES:0.000=4=4;
#TICKCOUNTS:0.000=4;
#COMBOS:0.000=1;
#SPEEDS:0.000=1.000=0.000=0;
#SCROLLS:0.000=1.000;
#FAKES:;
#LABELS:0.000=Song Start;
#BGCHANGES:;
#KEYSOUNDS:;
#ATTACKS:
;

//---------------dance-single - XO DS JA XMOD BU- STR[7@118] JU+----------------
#NOTEDATA:;
#CHARTNAME:;
#STEPSTYPE:dance-single;
#DESCRIPTION:XO DS JA XMOD BU- STR[7@118] JU+;
#CHARTSTYLE:;
#DIFFICULTY:Challenge;
#METER:16;
#RADARVALUES:0.622555,1.016912,0.459181,0.155948,0.541487,503.000000,450.000000,53.000000,18.000000,0.000000,0.000000,0.000000,0.000000,0.000000,0.622555,1.016912,0.459181,0.155948,0.541487,503.000000,450.000000,53.000000,18.000000,0.000000,0.000000,0.000000,0.000000,0.000000;
#CREDIT:Karl with a K;
#NOTES:
// measure 0
0000
0000
0000
0000
,  // measure 1
0000
0000
0000
0000
,  // measure 2
0000
0000
0000
0000
,  // measure 3
0000
0000
0000
0000
,  // measure 4
0000
0000
0000
0000
,  // measure 5
0000
0000
0000
0000
,  // measure 6
0000
0000
0000
0000
,  // measure 7
0000
0000
0000
0000
,  // measure 8
1000
1000
1000
1000
,  // measure 9
0001
0001
0001
0001
,  // measure 10
0100
0100
0100
0100
,  // measure 11
0001
1000
0000
0010
0000
1000
0000
0001
,  // measure 12
1000
0000
0000
0000
1000
0000
0000
0000
1000
0000
0000
0000
1000
0000
0100
0010
,  // measure 13
0100
0000
0000
0000
0010
0000
0000
0000
0010
0000
0000
0000
0010
0000
0001
0010
,  // measure 14
0001
0000
0000
0000
1000
0100
1000
0000
0001
0100
0001
0000
0010
0000
0001
0000
,  // measure 15
0100
0000
0000
0000
0001
1000
0010
0100
,  // measure 16
0010
1000
0010
0100
0010
1000
0100
0010
,  // measure 17
0100
1000
0100
0010
0001
0010
0100
0010
,  // measure 18
0001
0010
0100
0010
0001
0100
0010
0001
,  // measure 19
0010
0100
0010
1000
0001
1000
0100
0010
,  // measure 20
0100
1000
0100
0010
0100
1000
0010
0100
,  // measure 21
0010
1000
0010
0100
0001
0100
0010
0001
,  // measure 22
0010
0100
1000
0100
0001
0001
0010
0100
,  // measure 23
1000
1000
0100
0100
1000
0001
0100
0010
,  // measure 24
0100
0001
0100
0010
0100
0001
0010
0100
,  // measure 25
0010
0001
0010
0100
1000
0100
0010
0100
,  // measure 26
1000
0100
0010
0100
1000
0010
0100
1000
,  // measure 27
0100
0010
0100
0001
1000
0001
0010
0100
,  // measure 28
0010
0001
0010
0100
0010
0001
0100
0010
,  // measure 29
0100
0001
0100
0010
1000
0010
0100
1000
,  // measure 30
0100
0000
0010
0000
0001
0000
0010
0100
0010
0000
0000
0000
0000
0000
0000
0000
,  // measure 31
1010
0101
1010
0101
,  // measure 32
0011
1100
0011
1100
,  // measure 33
1001
0110
1001
0110
,  // measure 34
0011
1100
1010
0101
,  // measure 35
1100
0110
0101
0110
,  // measure 36
1001
0110
1001
0110
,  // measure 37
1010
0110
0011
0110
,  // measure 38
1100
0101
1010
0011
,  // measure 39
0001
0010
0000
0010
1000
0010
0000
0001
,  // measure 40
1000
0010
0000
0010
0001
0010
0000
0010
,  // measure 41
1000
0100
0000
0100
0001
0100
0000
1000
,  // measure 42
0001
0000
0100
0000
0000
0000
0100
0000
1000
0000
0100
0000
0000
0000
0001
0100
,  // measure 43
0001
0101
0011
1100
,  // measure 44
1010
0011
0101
1010
,  // measure 45
1000
0100
1000
0100
1000
0000
0001
0000
0100
0001
0100
0001
0100
0000
0010
0000
,  // measure 46
0220
0330
2002
3003
,  // measure 47
0001
0000
0000
0000
,  // measure 48
0000
0000
0000
0000
,  // measure 49
0000
0000
0000
0000
,  // measure 50
0000
0000
0000
0000
,  // measure 51
0000
0000
0000
0000
,  // measure 52
0000
0000
0000
0000
,  // measure 53
0000
0000
0000
0000
,  // measure 54
0000
0000
0000
0000
,  // measure 55
1000
0000
1000
0100
0000
0100
0010
0000
0010
0001
0000
0001
,  // measure 56
0100
0000
0100
0001
0000
0001
0010
0000
0010
0001
0000
0000
,  // measure 57
1000
0000
0000
0010
0000
0010
0100
0000
0100
0001
0000
0001
,  // measure 58
0010
0000
0010
0001
0000
0000
0100
0010
0100
0010
0000
0000
,  // measure 59
1000
0100
1000
0100
1000
0100
0010
0100
0010
0100
0010
0100
,  // measure 60
0010
0001
0010
0001
0010
0001
1000
0010
1000
0010
1000
0010
,  // measure 61
0100
0001
0100
0010
1000
0010
1000
0001
1000
0001
0010
0001
,  // measure 62
0100
0010
1000
0100
0010
0001
2100
0000
0000
0001
0000
0000
,  // measure 63
0100
0000
0000
3001
0010
0100
2001
0000
0000
0100
0000
0000
,  // measure 64
0001
0000
0000
3100
0010
0001
0201
0000
0000
0001
0000
0000
,  // measure 65
0010
0000
0000
0301
0010
0100
1000
0010
1000
0020
0000
0000
,  // measure 66
0031
0000
0010
0000
0100
0001
0200
0000
0000
0000
0300
0000
0102
0000
0000
0000
0000
0000
1000
0000
0000
0000
0000
0000
,  // measure 67
0100
0000
0000
1003
0010
0100
1002
0000
0000
0100
0000
0000
,  // measure 68
1000
0000
0000
0103
0010
1000
1200
0000
0000
1000
0000
0000
,  // measure 69
0010
0000
0000
1300
0010
0100
0001
0010
0010
0001
0010
0010
,  // measure 70
1000
0010
0010
1000
0010
0001
0201
0000
0000
0301
0100
0001
,  // measure 71
0101
0000
0000
0001
0010
0100
2000
0000
0000
3100
1000
0100
,  // measure 72
1100
0000
0100
1000
0010
0100
0002
0000
0000
0103
0001
0100
,  // measure 73
0201
0000
0000
0301
0010
0100
0010
0001
0010
0002
0000
0000
,  // measure 74
0013
1000
0010
2000
0000
0000
3010
0010
0010
0100
0100
0100
,  // measure 75
1000
0000
1000
0000
1000
0000
0001
0000
0010
0000
0001
0100
0001
0000
0100
0000
0100
0000
0010
0000
0010
0000
0010
0000
,  // measure 76
1000
0000
1000
0000
1000
0000
0100
1000
0100
1000
0100
1000
0001
0000
0001
0000
0001
0000
0100
0000
0100
0000
0100
0000
,  // measure 77
0010
0000
0010
0000
0010
0000
0001
0000
0010
0000
1000
0010
1000
0000
0100
0000
1000
0000
1100
0000
0000
0000
0000
0000
,  // measure 78
0000
0100
0010
0110
0000
0000
0000
0000
0000
0000
0000
0000
;

//---------------dance-single - XO- DS- JA XMOD----------------
#NOTEDATA:;
#CHARTNAME:;
#STEPSTYPE:dance-single;
#DESCRIPTION:XO- DS- JA XMOD;
#CHARTSTYLE:;
#DIFFICULTY:Hard;
#METER:13;
#RADARVALUES:0.532204,0.779632,0.034655,0.251250,0.329224,430.000000,426.000000,4.000000,29.000000,0.000000,0.000000,0.000000,0.000000,0.000000,0.532204,0.779632,0.034655,0.251250,0.329224,430.000000,426.000000,4.000000,29.000000,0.000000,0.000000,0.000000,0.000000,0.000000;
#CREDIT:Karl with a K;
#NOTES:
0000
0000
0000
0000
,
0000
0000
0000
0000
,
0000
0000
0000
0000
,
0000
0000
0000
0000
,
0000
0000
0000
0000
,
0000
0000
0000
0000
,
0000
0000
0000
0000
,
0000
0000
0000
0000
,
1001
0000
0000
0000
,
0000
0000
0000
0000
,
0000
0000
0000
0000
,
1000
1000
0000
0010
0000
0100
0000
0001
,
1000
0000
0000
0000
0000
0000
0000
1000
,
0001
0000
0000
0000
,
0001
0100
0001
0010
0100
1000
0010
0100
,
0001
0000
0000
0000
1001
0000
1000
0100
,
0010
0100
1000
0000
0001
0100
0010
0100
,
0001
0000
1000
0000
0001
0010
0100
0010
,
0001
0000
0100
0001
0010
0100
1000
0010
,
0100
0001
1000
0100
1000
0000
0001
0100
,
0010
0100
0001
0000
1000
0100
0010
0100
,
1000
0000
0001
0000
1000
0010
0100
0010
,
0000
0010
1000
0000
0010
0010
0000
0100
,
0100
0001
0100
0001
1000
0000
0001
0010
,
0100
0010
0001
0000
1000
0010
0100
0010
,
1000
0000
0001
0000
1000
0100
0010
0100
,
1000
0000
0010
1000
0100
0010
0001
0100
,
0010
1000
0001
0010
0001
0000
1000
0010
,
0100
0010
1000
0000
0001
0010
0100
0010
,
0001
0000
1000
0000
0001
0010
0100
0010
,
1000
0010
0001
0100
0010
0000
0000
0000
,
1000
0000
1000
0100
1000
0100
1000
0001
,
0100
0001
0100
0001
0010
0001
0010
0001
,
1000
0000
0001
0100
0001
0100
0001
1000
,
0010
1000
0010
1000
0100
1000
0100
1000
,
0001
0000
1000
0100
1000
0100
1000
0001
,
0010
0001
0010
0001
0100
0001
0100
0001
,
1000
0010
1000
0010
1000
0100
1000
0100
,
1000
0010
0100
0010
0001
0010
1000
0001
,
1000
0100
0000
1000
0100
0000
1000
0000
,
0010
1000
0000
0010
1000
0000
0000
1000
,
0001
0100
0000
0001
0100
0000
0001
0000
,
0010
0001
0000
0010
0001
0000
0000
0001
,
1000
0100
0010
0100
0001
0100
0010
0100
,
1000
0010
0100
0010
0001
0010
0100
0010
,
1000
1000
0001
0100
0001
0001
1000
0100
,
0020
0000
0230
0000
,
1300
0000
0000
1000
0000
0000
1000
0000
0000
1000
0000
1000
,
0001
0000
0000
0001
0000
0000
0001
0000
0000
0010
0000
0010
,
0001
0000
0000
0001
0000
0000
0001
0000
0000
1000
0000
1000
,
0001
0000
0001
0010
0000
0000
0100
0010
0000
0010
0000
0000
,
0001
0000
0000
0001
0000
0000
0001
0000
0000
0001
0000
0001
,
1000
0000
0000
1000
0000
0000
1000
0000
0000
0010
0000
0010
,
1000
0000
0000
1000
0000
0000
1000
0000
0000
0001
0000
0001
,
1000
0000
1000
0010
0000
0000
0100
0010
0000
0010
0000
0000
,
2000
3200
0320
0230
,
2300
3002
0203
0001
,
0302
0203
0320
0230
,
0302
2003
3200
1000
,
1300
0000
1000
0100
0000
0100
0010
0000
0010
0001
0000
0001
,
1000
0000
1000
0010
0000
0010
0100
0000
0100
0001
0000
0001
,
0010
0000
0010
0100
0000
0100
1000
0000
1000
0010
0000
0010
,
0100
0001
0100
0001
0100
0001
2100
0000
0000
0100
0000
0000
,
0100
0000
0000
3010
0000
1000
0002
0000
0000
0100
0000
0000
,
0100
0000
0000
0013
0000
0001
2000
0000
0000
0100
0000
0000
,
0100
0000
0000
3010
0000
1000
0001
0010
0000
0010
0000
0000
,
1000
0010
0000
0001
0000
0000
0102
0000
0000
0100
0000
0000
,
0100
0000
0000
0013
0000
1000
2000
0000
0000
0100
0000
0000
,
0100
0000
0000
3010
0000
1000
0002
0000
0000
0100
0000
0000
,
0100
0000
0000
0013
0000
0001
1000
0010
1000
0020
0000
0000
,
0031
0010
0001
0020
0000
0000
0230
0000
0000
0301
1000
0001
,
1000
0000
0000
0001
0010
0100
2000
0000
0000
3001
1000
0001
,
2000
0000
0000
3100
0010
0001
2000
0000
0000
3001
1000
0001
,
2000
0000
0000
3001
1000
0001
0100
0010
0100
0010
0000
0000
,
0100
0010
0100
0010
0000
0000
1000
0000
1000
0100
0000
0100
,
1000
0000
1000
0010
1000
0010
1000
0000
1000
0001
0000
0001
,
0100
0000
0100
0010
1000
0010
0100
0010
0100
0010
0100
0010
,
1000
0100
1000
0100
1000
0100
1000
1000
1000
1000
0000
0000
,
0000
0001
0001
0001
0000
0000
0000
0000
0000
0000
0000
0000
;

//---------------dance-single - ----------------
#NOTEDATA:;
#CHARTNAME:;
#STEPSTYPE:dance-single;
#DESCRIPTION:;
#CHARTSTYLE:;
#DIFFICULTY:Medium;
#METER:9;
#RADARVALUES:0.330462,0.440662,0.025991,0.086638,0.034655,267.000000,264.000000,3.000000,10.000000,0.000000,0.000000,0.000000,0.000000,0.000000,0.330462,0.440662,0.025991,0.086638,0.034655,267.000000,264.000000,3.000000,10.000000,0.000000,0.000000,0.000000,0.000000,0.000000;
#CREDIT:Karl with a K;
#NOTES:
0000
0000
0000
0000
,
0000
0000
0000
0000
,
0000
0000
0000
0000
,
0000
0000
0000
0000
,
0000
0000
0000
0000
,
0000
0000
0000
0000
,
0000
0000
0000
0000
,
0000
0000
0000
0000
,
1001
0000
0000
0000
,
0000
0000
0000
0000
,
0000
0000
0000
0000
,
1000
0001
0000
0010
0000
0001
0000
1000
,
0001
0000
0000
0000
0000
0000
0000
0001
,
1000
0000
0000
0000
,
1000
0000
0100
0010
0000
0010
0001
0000
,
1000
0000
0001
1000
,
1000
1000
0010
0100
,
0001
1000
0001
0001
,
1000
0001
0010
0100
,
1000
0001
1000
0001
,
0001
0001
0010
0100
,
1000
0001
1000
1000
,
0001
0000
1000
0000
0010
0100
0010
0000
,
0100
0001
1000
0001
,
0001
0001
0100
0010
,
1000
0001
1000
1000
,
0001
1000
0100
0010
,
0001
1000
0001
1000
,
1000
1000
0100
0010
,
0001
1000
0001
0001
,
0100
0001
0110
0000
,
1000
1000
0010
0010
,
0100
0100
0001
0001
,
0010
0010
0001
0001
,
0010
0010
0100
0100
,
1000
1000
0100
0100
,
0010
0010
0001
0001
,
0100
0100
0001
0001
,
0100
0100
0010
0010
,
1000
0100
0000
0100
1000
0000
0000
0000
,
0001
0100
0000
0100
0001
0000
0000
0000
,
1000
0010
0000
0010
1000
0000
0000
0000
,
0001
0010
0000
0010
0001
0000
0000
0000
,
1000
1000
1000
1000
,
0001
0001
0001
0001
,
0010
0100
0010
0000
0100
0010
0100
0000
,
0010
0000
0010
0000
,
0100
0000
0100
1000
,
0100
0000
0100
0010
,
0100
0000
0100
1000
,
0100
0010
0100
0010
,
0001
0000
0100
0001
,
0100
0000
0100
0010
,
0100
0000
0100
0001
,
0100
0010
0100
0010
,
1000
1000
1000
0000
,
0001
0001
0001
0000
,
1000
1000
1000
0000
,
0001
0001
0001
0000
,
0100
0010
1000
0100
,
0010
0100
1000
0010
,
0100
0001
0010
0100
,
0010
0001
1000
1000
,
1000
0010
0100
0100
,
0100
0010
1000
1000
,
1000
0010
0100
0001
,
0010
0001
0001
0001
,
0001
0010
0100
0100
,
0100
0010
0001
0001
,
0001
0000
0000
0010
0000
0000
0100
0000
0100
1000
0000
0000
,
0010
0000
0010
1000
0000
0000
1001
0000
0000
1000
0000
1000
,
0100
0000
0000
0100
0000
0000
1000
0000
0000
0001
0000
0001
,
0100
0000
0000
0001
0000
0000
1000
0000
0000
0100
0000
0100
,
1000
0001
0100
0010
,
0100
0010
2000
3200
,
0320
0000
0000
0130
0000
0100
2000
0000
0000
3002
0000
0000
,
0203
0000
0000
0310
0000
0010
2000
0000
0000
3200
0000
0000
,
0320
0032
0103
0100
,
0000
0010
0000
0010
0000
0000
0000
0000
0000
0000
0000
0000
;

//---------------dance-single - ----------------
#NOTEDATA:;
#CHARTNAME:;
#STEPSTYPE:dance-single;
#DESCRIPTION:;
#CHARTSTYLE:;
#DIFFICULTY:Easy;
#METER:6;
#RADARVALUES:0.232685,0.372868,0.069310,0.051983,0.000000,188.000000,180.000000,8.000000,6.000000,0.000000,0.000000,0.000000,0.000000,0.000000,0.232685,0.372868,0.069310,0.051983,0.000000,188.000000,180.000000,8.000000,6.000000,0.000000,0.000000,0.000000,0.000000,0.000000;
#CREDIT:Karl with a K;
#NOTES:
0000
0000
0000
0000
,
0000
0000
0000
0000
,
0000
0000
0000
0000
,
0000
0000
0000
0000
,
0000
0000
0000
0000
,
0000
0000
0000
0000
,
0000
0000
0000
0000
,
0000
0000
0000
0000
,
1000
0000
0000
0000
,
0000
0000
0000
0000
,
0000
0000
0000
0000
,
0001
0000
0001
0000
,
1000
0000
0000
0000
,
1000
0000
0000
0000
,
0001
0100
0010
1000
,
0001
0000
1000
0100
,
1000
0000
0001
0100
,
0001
0000
1000
0100
,
1000
0000
0100
0010
,
0010
0000
0001
0100
,
0001
0000
1000
0100
,
1000
0000
0001
0100
,
0001
0000
0100
0010
,
0010
0000
1000
0100
,
1000
0100
1000
0100
,
1000
0000
0001
0100
,
0001
0100
0001
0100
,
0001
0000
1000
0100
,
0010
0001
0010
0100
,
1000
0000
0001
0100
,
0010
1000
0001
0000
,
1000
1000
1000
0100
,
1000
0000
0010
0000
,
0100
0001
0001
0100
,
0010
0000
0100
0000
,
0001
0010
0010
0100
,
0010
0000
0100
0000
,
1000
0000
0100
0000
,
1000
0000
0010
1000
,
0001
0000
0001
0000
,
0001
0000
0010
0000
,
0001
0000
0001
0000
,
0001
0000
0100
0000
,
0001
0010
0100
1000
,
0010
0100
0001
1000
,
0001
0001
1000
1000
,
0001
0000
1000
0000
,
0001
0000
0000
0000
,
0000
0000
0000
0000
,
0000
0000
0000
0000
,
0000
0000
0000
0000
,
0000
0000
0000
0000
,
0000
0000
0000
0000
,
0000
0000
0000
0000
,
0000
0000
0000
0000
,
1000
0000
1000
0000
,
1000
0000
1000
0000
,
0100
0000
0100
0000
,
0100
0000
0100
0000
,
0010
0001
0010
0001
,
0010
0001
0010
0001
,
0100
0010
0100
0010
,
0100
0010
1001
0000
,
0001
1000
0001
0000
,
1000
0001
1000
0000
,
0001
1000
0100
0010
,
0100
0010
0001
0000
,
1000
0001
1000
0000
,
0001
1000
0001
0000
,
1000
0001
0100
0010
,
0100
0010
2002
3003
,
1001
0000
0220
0330
,
0110
0010
0220
0330
,
0110
0100
0001
0010
,
0001
0010
0100
0100
,
1000
1000
0100
0100
,
1000
0010
0100
0100
,
0010
0010
0100
0000
,
0000
1001
0000
0000
;

//---------------dance-single - ----------------
#NOTEDATA:;
#CHARTNAME:;
#STEPSTYPE:dance-single;
#DESCRIPTION:;
#CHARTSTYLE:;
#DIFFICULTY:Beginner;
#METER:2;
#RADARVALUES:0.107678,0.203382,0.051983,0.112629,0.000000,87.000000,81.000000,6.000000,13.000000,0.000000,0.000000,0.000000,0.000000,0.000000,0.107678,0.203382,0.051983,0.112629,0.000000,87.000000,81.000000,6.000000,13.000000,0.000000,0.000000,0.000000,0.000000,0.000000;
#CREDIT:Karl with a K;
#NOTES:
0000
0000
0000
0000
,
0000
0000
0000
0000
,
0000
0000
0000
0000
,
0000
0000
0000
0000
,
0000
0000
0000
0000
,
0000
0000
0000
0000
,
0000
0000
0000
0000
,
0000
0000
0000
0000
,
1000
0000
0000
0000
,
0000
0000
0000
0000
,
0000
0000
0000
0000
,
0000
0000
0000
0000
,
1000
0000
0000
0000
,
1000
0000
0000
0000
,
1000
0000
0000
0000
,
1000
0000
1000
0000
,
1000
0000
1000
0000
,
0000
0000
0001
0000
,
0001
0000
0001
0000
,
0000
0000
1000
0000
,
1000
0000
1000
0000
,
0000
0000
0001
0000
,
0001
0000
0001
0000
,
0000
0000
0100
0000
,
0100
0000
0100
0000
,
0000
0000
0010
0000
,
0010
0000
0010
0000
,
0000
0000
0100
0000
,
0010
0000
0100
0000
,
0010
0000
0100
0000
,
0010
0000
0100
0000
,
1001
0000
0000
0000
,
1000
0000
0000
0000
,
0100
0000
0000
0000
,
0010
0000
0010
0000
,
0001
0000
0000
0000
,
0100
0000
0000
0000
,
0010
0000
0000
0000
,
1000
0000
1000
0000
,
0001
0000
0000
0000
,
1000
0000
0000
0000
,
0001
0000
0000
0000
,
1000
0000
0000
0000
,
0001
0000
0001
0000
,
0001
0000
0000
0000
,
1000
0000
1000
0000
,
1000
0000
1000
0000
,
1000
0000
0000
0000
,
0000
0000
0000
0000
,
0000
0000
0000
0000
,
0000
0000
0000
0000
,
0000
0000
0000
0000
,
0000
0000
0000
0000
,
0000
0000
0000
0000
,
0000
0000
0000
0000
,
2000
0000
0000
0000
,
0000
0000
3000
0000
,
0002
0000
0000
0000
,
0000
0000
0003
0000
,
0200
0000
0000
0000
,
0000
0000
0300
0000
,
0020
0000
0000
0000
,
0030
0000
0000
0000
,
0100
0000
0100
0000
,
0100
0000
0100
0000
,
0100
0000
0001
0000
,
0010
0000
0100
0000
,
0100
0000
0100
0000
,
0100
0000
0100
0000
,
0100
0000
1000
0000
,
0010
0000
0200
0000
,
0300
0000
0200
0000
,
0300
0000
0200
0000
,
0300
0000
0100
0000
,
0010
0000
2002
0000
,
3003
0000
2002
0000
,
3003
0000
2002
0000
,
3003
0000
1001
0000
,
0000
1001
0000
0000
;
