#VERSION:0.83;
#TITLE:Dana Dan;
#SUBTITLE:;
#ARTIST:Bloodywood;
#TITLETRANSLIT:;
#SUBTITLETRANSLIT:;
#ARTISTTRANSLIT:;
#GENRE:;
#ORIGIN:;
#CREDIT:;
#BANNER:Dana Dan banner.png;
#BACKGROUND:Dana Dan bg.png;
#PREVIEWVID:;
#JACKET:Dana Dan jk.png;
#CDIMAGE:;
#DISCIMAGE:;
#LYRICSPATH:;
#CDTITLE:;
#MUSIC:Dana Dan.ogg;
#OFFSET:-0.025000;
#SAMPLESTART:48.033001;
#SAMPLELENGTH:18.000004;
#SELECTABLE:YES;
#BPMS:0.000=160.000;
#STOPS:;
#DELAYS:;
#WARPS:;
#TIMESIGNATURES:0.000=4=4;
#TICKCOUNTS:0.000=4;
#COMBOS:0.000=1;
#SPEEDS:0.000=1.000=0.000=0;
#SCROLLS:0.000=1.000,
48.000=0.500,
56.000=1.000,
152.000=2.000,
152.333=0.500,
153.000=2.000,
153.333=0.500,
154.000=1.000,
156.000=2.000,
156.333=0.500,
157.000=2.000,
157.333=0.500,
158.000=1.000,
168.000=2.000,
168.333=0.500,
169.000=2.000,
169.333=0.500,
170.000=1.000,
172.000=2.000,
172.333=0.500,
173.000=2.000,
173.333=0.500,
174.000=1.000,
296.000=0.500,
304.000=1.000,
312.000=2.000,
312.333=0.500,
313.000=2.000,
313.333=0.500,
314.000=1.000,
316.000=2.000,
316.333=0.500,
317.000=2.000,
317.333=0.500,
318.000=1.000,
328.000=2.000,
328.333=0.500,
329.000=2.000,
329.333=0.500,
330.000=1.000,
332.000=2.000,
332.333=0.500,
333.000=2.000,
333.333=0.500,
334.000=2.000,
334.333=0.500,
335.000=1.000;
#FAKES:;
#LABELS:0.000=Song Start;
#BGCHANGES:;
#KEYSOUNDS:;
#ATTACKS:
;

//---------------dance-single - XO DS JA- XMOD STR [4*@160/{1-1/1}@120] JU+----------------
#NOTEDATA:;
#CHARTNAME:;
#STEPSTYPE:dance-single;
#DESCRIPTION:XO DS JA- XMOD STR [4*@160/{1-1/1}@120] JU+;
#CHARTSTYLE:;
#DIFFICULTY:Challenge;
#METER:17;
#RADARVALUES:0.749444,1.038373,0.464943,0.658670,0.937636,677.000000,617.000000,60.000000,85.000000,0.000000,0.000000,0.000000,0.000000,0.000000,0.749444,1.038373,0.464943,0.658670,0.937636,677.000000,617.000000,60.000000,85.000000,0.000000,0.000000,0.000000,0.000000,0.000000;
#CREDIT:Karl with a K;
#NOTES:
0000
0000
0000
0000
,
0000
0000
0000
0000
,
0000
0000
0000
0000
,
0000
0000
0000
0000
,
1010
0000
1000
0100
1000
0000
1100
0000
0100
0010
0001
0000
,
0101
0000
0100
0010
1000
0000
1100
0000
0100
0010
0001
0010
,
0001
0000
0001
0100
0001
0000
0101
0000
0100
0010
1000
0000
,
1100
0000
0100
0010
0001
0010
0100
0010
0100
1000
0001
0100
,
0001
0000
0001
0010
0001
0000
0011
0000
0010
0100
1000
0000
,
1010
0000
0010
0100
0001
0000
0011
0000
0010
0100
1000
0100
,
1000
0000
1000
0010
1000
0000
1010
0000
0010
0100
0001
0000
,
0011
0000
0010
0100
1000
0100
0010
0100
0010
0001
1000
0010
,
0000
0000
0000
0000
,
0000
0000
0000
0000
,
2000
0000
3100
0010
0100
0020
0000
0032
,
0000
0103
0010
0000
0120
0000
0001
0000
,
2030
0000
3200
0000
0310
0200
0000
0320
,
0000
0031
0100
0000
0110
0000
1001
0000
,
1002
0000
0000
0013
0100
0020
0000
2030
,
0000
0000
3010
0000
0100
0000
0000
0000
0010
0000
0001
0000
1000
0001
0100
0001
,
1000
0000
0100
0000
0010
0000
0001
0100
0001
0000
0000
0000
0010
0000
0001
0000
,
0000
0000
0100
0000
0010
0000
0100
0000
1000
0000
0100
0010
1000
0000
1000
0000
,
0001
0000
0010
0000
0100
0000
1000
0100
1000
0000
0000
0000
0010
0000
1000
0000
,
0000
0100
0010
0100
0001
0100
1000
0001
,
0001
0000
0010
0000
0100
0000
1000
0010
1000
0000
0000
0000
0010
0000
1000
0000
,
0000
0000
0010
0000
0100
0000
0010
0000
0001
0000
0010
0100
0001
0000
0100
0000
,
0001
0000
0010
0000
0100
0000
1000
0010
1000
0000
0000
0000
0100
0000
1000
0000
,
0000
0000
0100
0000
0010
0100
1000
0001
0100
0010
2000
0000
0010
0000
3001
0000
,
1000
0000
0100
0010
0001
0010
0100
1000
0001
0000
1000
0010
0100
0001
0010
0000
,
0001
0000
0100
0010
1000
0010
0100
0001
1000
0000
0001
0010
0100
1000
0010
0000
,
1000
0000
0100
0010
0001
0010
0100
1000
0001
0100
0010
1000
0100
0010
0001
1000
,
0001
0010
0100
1000
0100
0010
0001
1000
0010
0100
0001
0010
0100
1000
0001
0000
,
1002
0000
0000
1003
0010
0000
0000
0000
0120
0000
0000
0130
0001
0000
0001
0000
,
0010
0001
0010
0000
0100
0000
0000
0000
0210
0000
0000
0000
1300
0000
0001
0100
,
0001
0100
0000
0000
0110
0000
0000
0010
1000
0010
1000
0000
0001
0010
0001
0010
,
0001
0010
0010
0010
0100
0100
0100
0100
,
1100
0000
1000
0100
0010
0001
0011
0000
0001
0100
0010
1000
,
1010
0000
1000
0010
0100
0001
0101
0000
0001
0010
0100
0010
,
0220
0330
0000
0220
0330
0000
0110
0000
0010
0100
1000
0001
,
2002
3003
0000
2002
3003
0000
1001
0000
1000
0010
0100
0010
,
1010
0000
1000
0010
0100
0001
0101
0000
0001
0010
0100
1000
,
1100
0000
1000
0100
0010
0001
0011
0000
0001
0100
0010
0100
,
0220
0330
0000
0220
0330
0000
0110
0000
0100
0010
1000
0001
,
2002
3003
0000
2002
3003
0000
1000
0010
0001
0010
0100
0001
,
0020
0000
0031
0010
0001
0000
0200
0000
0310
0100
0010
0000
,
1000
0000
0000
1000
0200
0000
0320
0000
0130
0010
0002
0000
,
0203
0000
1300
0100
0001
0000
0020
0000
0130
0001
0100
0000
,
2000
0000
3010
0001
0010
0000
0100
0010
0100
1000
0100
0001
,
0010
0000
0010
0001
0010
0001
0010
0100
0010
0100
1000
0100
,
1000
0001
1000
0100
0010
0100
0010
1000
0010
0100
0010
0001
,
2000
0000
3100
0010
0002
0000
2003
0000
3010
0100
0002
0000
,
2003
0000
3100
0010
2000
0000
3002
0000
0103
0010
0002
0000
,
1003
0010
1000
0010
1000
0010
0100
0001
0100
0001
0100
0001
,
1000
0100
0001
0100
1000
0100
0020
0000
0000
0000
0000
0000
,
0031
0100
0001
0100
0000
0000
0010
0100
0010
0100
0010
0000
,
1000
0100
1000
0100
0000
0000
0010
0100
0010
0100
0010
0000
,
0001
0010
0001
0010
0000
0000
0100
0010
0100
0010
0100
0000
,
1000
0010
1000
0010
2000
0000
3100
0010
0100
0010
0100
0010
,
0002
0100
2003
0100
,
3002
0100
2003
0100
,
3002
0100
2003
0010
,
3002
0000
0000
0013
0001
0000
1000
0010
1000
0010
0100
0000
,
0020
1000
0230
0001
,
0320
1000
2030
0001
,
3200
1000
0320
0001
,
0031
0010
0001
0010
0000
0000
0200
0000
0000
0000
0000
0000
,
0320
0000
0031
0000
0011
0001
1000
0100
,
0010
0100
0100
1000
0010
0000
0100
0000
,
0120
0000
1030
0000
1010
1000
0001
0100
,
0010
0000
0100
0000
0100
0000
0001
0000
0010
0000
0000
0000
0100
0010
0100
0010
,
0200
0000
1300
0000
1100
1000
0001
0010
,
0100
0100
0010
0001
0100
0000
0010
0000
,
0210
0000
0301
0000
0101
0001
1000
0010
,
0100
0000
0100
0000
0010
0000
1000
0000
0100
0000
0000
0000
0010
0100
0010
0100
,
1000
0000
0000
0000
,
0000
0000
0000
0000
,
0011
0000
0001
0010
0100
1000
1100
0000
1000
0010
0100
0001
,
0101
0000
0001
0100
0010
1000
1010
0000
1000
0100
0010
0100
,
0220
0330
0000
2002
3003
0000
0110
0000
0001
0010
0001
1000
,
2002
3003
0000
0220
0330
0000
1001
0000
0001
0100
0010
0100
,
0001
0100
1000
0100
0010
1000
0001
0010
1000
0010
0100
1000
,
0001
0010
1000
0001
0100
1000
0001
0100
1000
0001
0010
1000
,
2020
3030
0000
2002
3003
0000
0110
0000
1000
0010
1000
0001
,
2002
3003
0000
0220
0330
0000
2002
0000
0000
3003
0000
0000
;

//---------------dance-single - XO DS XMOD JU----------------
#NOTEDATA:;
#CHARTNAME:;
#STEPSTYPE:dance-single;
#DESCRIPTION:XO DS XMOD JU;
#CHARTSTYLE:;
#DIFFICULTY:Hard;
#METER:14;
#RADARVALUES:0.551290,0.713882,0.278966,0.433947,0.457194,498.000000,462.000000,36.000000,56.000000,0.000000,0.000000,0.000000,0.000000,0.000000,0.551290,0.713882,0.278966,0.433947,0.457194,498.000000,462.000000,36.000000,56.000000,0.000000,0.000000,0.000000,0.000000,0.000000;
#CREDIT:Karl with a K;
#NOTES:
0000
0000
0000
0000
,
0000
0000
0000
0000
,
0000
0000
0000
0000
,
0000
0000
0000
0000
,
0011
0000
0001
0010
0000
0000
0110
0000
0100
1000
0000
0000
,
1001
0000
0001
0100
0000
0000
0110
0000
0010
1000
0000
0000
,
1010
0000
1000
0010
0000
0000
0110
0000
0100
0001
0000
0000
,
1001
0000
1000
0100
0000
0100
0010
0100
0010
0001
0000
0001
,
1000
0000
1000
0100
0000
0000
0110
0000
0010
0001
0000
0000
,
1001
0000
1000
0010
0000
0000
0110
0000
0100
0001
0000
0000
,
0101
0000
0001
0100
0000
0000
0110
0000
0010
1000
0000
0000
,
1001
0000
0001
0010
0000
0010
0100
0010
0100
1000
0000
0000
,
0000
0000
0000
0000
,
0000
0000
0000
0000
,
2000
0000
0000
3010
0100
0020
0000
0032
,
0000
0013
0200
0000
0302
0000
0203
0000
,
0302
0000
0023
0000
0130
0020
0000
2030
,
0000
3010
0200
0000
2300
0000
3200
0000
,
2300
0000
0000
3100
0010
0200
0000
0302
,
0000
0000
0103
0000
0020
0000
0000
0000
0031
0000
0100
0000
0010
0100
0010
0000
,
1000
0010
0100
0010
1000
0000
0001
0010
,
0000
0100
0010
0001
0010
1000
0010
0100
,
1000
0100
0010
0100
1000
0000
0001
0100
,
0000
0010
0100
0001
0100
1000
0100
0001
,
0001
0100
0010
0100
0001
0000
1000
0100
,
0000
0010
0100
1000
0100
0001
0100
0010
,
0001
0010
0100
0010
0001
0000
1000
0010
,
0000
0000
0100
0000
0010
0000
1000
0000
0010
0100
0010
0000
0001
0000
0010
0000
,
1000
0000
0100
0010
0100
0000
0010
0000
0001
0000
0100
0000
0010
0100
0010
0000
,
1000
0000
0010
0100
0010
0000
0100
0000
0001
0000
0010
0100
0010
0000
0100
0000
,
1000
0000
0010
1000
0010
0000
1000
0000
0100
0000
0010
0001
0010
0000
0001
0000
,
1000
0000
0100
0010
0100
0000
0001
0000
1000
0000
0010
0000
0001
0000
0100
0000
,
0020
1000
0001
2030
,
3200
0000
0000
0000
1000
0000
0000
0000
0001
0000
0000
0000
1300
0000
0010
0100
,
0000
0100
0010
0000
0100
0000
0001
0100
0000
0100
0001
0000
1000
0000
0100
0000
,
0010
0100
0001
0100
0010
0100
0001
0100
,
1000
0000
0001
0100
0000
0000
0101
0000
1000
0100
0000
0000
,
1100
0000
0001
0100
0000
0000
0101
0000
1000
0100
0000
0000
,
2000
0000
0000
3200
0300
0000
1100
0000
1000
0001
0000
0000
,
0002
0000
0000
0203
0300
0000
0101
0000
0001
1000
0000
0000
,
1000
0000
0001
0010
0000
0000
0011
0000
1000
0010
0000
0000
,
1010
0000
0001
0010
0000
0000
0011
0000
1000
0010
0000
0000
,
2000
0000
0000
3020
0030
0000
1010
0000
1000
0001
0000
0000
,
0002
0000
0000
0023
0030
0000
0011
0000
0001
1000
0100
1000
,
0200
0000
0010
0000
0010
0000
0010
0000
0000
0310
0001
0000
,
0200
0010
0000
0010
0000
0000
0010
0000
0000
0320
1000
0000
,
0130
0000
0010
0100
0010
0000
0110
0000
0100
0010
1000
0000
,
0100
0010
0000
0110
0000
0000
0110
0000
0000
0010
0001
0010
,
0001
0000
0001
0100
0000
0100
0010
0000
0010
1000
0000
1000
,
0100
0000
0100
0010
0000
0010
0001
0100
0001
1000
0100
1000
,
0001
0000
0001
0100
0010
0000
1000
0000
1000
0010
0100
0000
,
0001
0000
0001
0010
0100
0000
1000
0000
1000
0100
0010
0000
,
0001
0000
0010
0000
0001
0000
1000
0000
0010
0000
1000
0000
,
0010
0000
0001
0000
1000
0000
0200
0000
0000
0000
0000
0000
,
0301
0000
0001
0100
0000
0000
0001
0000
0001
0100
0001
0000
,
1000
0000
0001
0100
0000
0000
0001
0000
1000
0100
1000
0000
,
0001
0000
1000
0100
0000
0000
1000
0000
1000
0100
0000
0000
,
1000
0000
1000
0100
0000
0000
1000
0000
0001
0100
0001
0000
,
0020
0000
0100
0000
,
0001
0000
0100
0000
,
1000
0000
0100
0000
,
1030
0000
0000
0010
0100
0000
1000
0000
0010
0100
0000
0000
,
0200
0000
0010
0000
,
1000
0000
0010
0000
,
0001
0000
0010
0000
,
0302
0023
0230
0000
,
2300
0000
0010
0000
0001
0000
3001
0100
,
0002
0000
0010
0000
1000
0000
1003
0100
,
2000
0000
0100
0000
0001
0000
3001
0010
,
0002
0000
0100
0000
1000
0000
1003
0010
,
0200
0000
1000
0000
0010
0000
0301
0100
,
0020
0001
0100
1030
,
0200
0000
0001
0000
0010
0000
1300
0100
,
0020
1000
0100
0031
,
1001
0000
0000
0000
,
0000
0000
0000
0000
,
1001
0000
1000
0010
0000
0000
1010
0000
0001
0010
0000
0000
,
1100
0000
1000
0100
0000
0000
0011
0000
0001
0100
0000
0000
,
0002
0000
0000
0023
0030
0000
0011
0000
0001
1000
0000
0000
,
2000
0000
0000
3020
0030
0000
1010
0000
1000
0001
0000
0000
,
1000
0000
0100
0010
0100
0010
0001
0000
0100
0010
0100
0010
,
1000
0000
0100
0010
0001
0100
0001
0000
0100
0010
1000
0100
,
2000
0000
0000
3002
0003
0000
1001
0000
1000
0001
0100
0010
,
0200
0300
0000
0220
0330
0000
2002
0000
0000
3003
0000
0000
;

//---------------dance-single - ----------------
#NOTEDATA:;
#CHARTNAME:;
#STEPSTYPE:dance-single;
#DESCRIPTION:;
#CHARTSTYLE:;
#DIFFICULTY:Beginner;
#METER:4;
#RADARVALUES:0.146125,0.355875,0.023247,0.123985,0.000000,132.000000,129.000000,3.000000,16.000000,0.000000,0.000000,0.000000,0.000000,0.000000,0.146125,0.355875,0.023247,0.123985,0.000000,132.000000,129.000000,3.000000,16.000000,0.000000,0.000000,0.000000,0.000000,0.000000;
#CREDIT:Karl with a K;
#NOTES:
0000
0000
0000
0000
,
0000
0000
0000
0000
,
0000
0000
0000
0000
,
0000
0000
0000
0000
,
1000
0000
1000
0000
,
0000
0000
1000
0000
,
0001
0000
0001
0000
,
0000
0000
0001
0000
,
1000
0000
1000
0000
,
0000
0000
1000
0000
,
0001
0000
0001
0000
,
0000
0000
0001
0000
,
0000
0000
0000
0000
,
0000
0000
0000
0000
,
0100
0000
0000
0000
,
0010
0000
0000
0000
,
0100
0000
0000
0000
,
0010
0000
0000
0000
,
0100
0000
0000
0000
,
0010
0000
0000
0000
,
1000
0000
0000
0000
,
0001
0000
0000
0000
,
1000
0000
0000
0000
,
0001
0000
0000
0000
,
1000
0000
0000
0000
,
0001
0000
0000
0000
,
1000
0000
0000
0000
,
0001
0000
0000
0000
,
1000
1000
1000
0000
,
0001
0001
0001
0000
,
0010
0010
0010
0000
,
0100
0100
0100
0000
,
2000
0000
3000
0000
,
0002
0000
0003
0000
,
2000
0000
3000
0000
,
0002
0000
0003
0000
,
1000
1000
1000
0000
,
0001
0001
0001
0000
,
0010
0010
0010
0000
,
0100
0100
0100
0000
,
1000
1000
1000
0000
,
0001
0001
0001
0000
,
0100
0100
0100
0000
,
0010
0010
0010
0000
,
1000
0000
0001
0000
,
1000
0000
0001
0000
,
0100
0000
0010
0000
,
0100
0000
0010
0000
,
2000
0000
3000
0000
,
0200
0000
0300
0000
,
0010
0000
0010
0000
,
0001
0000
0001
0000
,
1000
0000
0010
0000
,
0100
0000
0001
0000
,
1000
0000
1000
0000
,
1000
0000
1000
0000
,
0001
0000
0001
0000
,
0001
0000
0001
0000
,
0200
0000
0000
0000
,
0000
0000
0000
0000
,
0000
0000
0000
0000
,
0300
0000
0000
0000
,
0020
0000
0000
0000
,
0000
0000
0000
0000
,
0000
0000
0000
0000
,
0030
0000
0000
0000
,
2000
0000
3000
0000
,
0002
0000
0003
0000
,
2000
0000
3000
0000
,
0002
0000
0003
0000
,
0200
0000
0300
0000
,
0020
0000
0030
0000
,
0200
0000
0300
0000
,
0020
0000
0030
0000
,
1000
0000
0000
0000
,
0000
0000
0000
0000
,
0001
0001
0001
0000
,
1000
1000
1000
0000
,
0100
0100
0100
0000
,
0010
0010
0010
0000
,
0001
0001
0001
0001
,
1000
1000
1000
1000
,
0010
0010
0010
0000
,
1001
1001
1001
0000
;

//---------------dance-single - ----------------
#NOTEDATA:;
#CHARTNAME:;
#STEPSTYPE:dance-single;
#DESCRIPTION:;
#CHARTSTYLE:;
#DIFFICULTY:Easy;
#METER:7;
#RADARVALUES:0.250184,0.355875,0.061992,0.193726,0.000000,226.000000,218.000000,8.000000,25.000000,0.000000,0.000000,0.000000,0.000000,0.000000,0.250184,0.355875,0.061992,0.193726,0.000000,226.000000,218.000000,8.000000,25.000000,0.000000,0.000000,0.000000,0.000000,0.000000;
#CREDIT:Karl with a K;
#NOTES:
0000
0000
0000
0000
,
0000
0000
0000
0000
,
0000
0000
0000
0000
,
0000
0000
0000
0000
,
1000
0000
1000
0000
,
0001
0000
0001
0000
,
0100
0000
0100
0000
,
0010
0000
0010
0000
,
1000
0000
1000
0000
,
0001
0000
0001
0000
,
0010
0000
0010
0000
,
0100
0000
0100
0000
,
0000
0000
0000
0000
,
0000
0000
0000
0000
,
2000
0000
3001
0000
,
0002
1000
1003
0000
,
0020
0000
0130
0000
,
0200
0010
0310
0000
,
2000
0000
3100
0000
,
0020
0001
0031
0001
,
1000
1000
0010
0000
,
1000
1000
0001
0000
,
0001
0001
0010
0000
,
0001
0001
1000
0000
,
1000
0100
1000
0000
,
1000
0001
1000
0000
,
0001
0100
0001
0000
,
0001
1000
0001
0000
,
0001
0010
0001
0010
,
0100
1000
0100
1000
,
0001
0100
0001
0100
,
0010
1000
0100
0010
,
0002
0010
0013
0001
,
2000
0010
3010
1000
,
0001
0100
0001
0000
,
1000
0100
0010
0001
,
1000
0100
0100
0000
,
0001
0100
0100
0000
,
1000
0001
1000
0000
,
0001
1000
0001
0000
,
0001
0100
0100
0000
,
1000
0100
0100
0000
,
0001
1000
0001
0000
,
1000
0001
1000
0000
,
1000
0010
1000
0000
,
0001
0010
0001
0000
,
1000
0010
1000
0001
,
0001
0010
0100
0100
,
2000
0000
3200
0000
,
0320
0000
0032
0000
,
1003
0100
1000
0001
,
0001
0100
0010
0010
,
2000
0000
3020
0000
,
0230
0000
0301
0000
,
1000
0000
1001
0000
,
0001
0000
1001
0000
,
0010
0000
0110
0000
,
0100
0000
0110
0000
,
2000
0000
0010
0000
,
0010
0000
0010
0000
,
0010
0000
0010
0000
,
0010
0000
0010
0000
,
3002
0000
0010
0000
,
0010
0000
0010
0000
,
0010
0000
0010
0000
,
0010
0000
0013
0001
,
2000
0000
3010
0100
,
0002
0000
0103
0010
,
2000
0000
3100
0010
,
0002
0000
0013
0100
,
2000
0000
3001
0100
,
0002
0000
1003
0100
,
2000
0000
3001
0010
,
0002
0000
1003
0010
,
1000
0000
0000
0000
,
0000
0000
0000
0000
,
1000
0010
0100
0000
,
0001
0010
0100
0000
,
1000
0001
1000
0000
,
0001
1000
0001
0000
,
0001
1001
1000
1001
,
1000
0001
0100
0010
,
1000
0001
1001
1000
,
0100
0010
0110
0000
;

//---------------dance-single - ----------------
#NOTEDATA:;
#CHARTNAME:;
#STEPSTYPE:dance-single;
#DESCRIPTION:;
#CHARTSTYLE:;
#DIFFICULTY:Medium;
#METER:11;
#RADARVALUES:0.415128,0.549989,0.092989,0.271217,0.224723,375.000000,363.000000,12.000000,35.000000,0.000000,0.000000,0.000000,0.000000,0.000000,0.415128,0.549989,0.092989,0.271217,0.224723,375.000000,363.000000,12.000000,35.000000,0.000000,0.000000,0.000000,0.000000,0.000000;
#CREDIT:Karl with a K;
#NOTES:
0000
0000
0000
0000
,
0000
0000
0000
0000
,
0000
0000
0000
0000
,
0000
0000
0000
0000
,
1000
0000
0000
0100
0000
0000
0010
0000
0010
0001
0000
0000
,
1000
0000
0000
0010
0000
0000
0100
0000
0100
0001
0000
0000
,
0001
0000
0000
0010
0000
0000
0100
0000
0100
1000
0000
0000
,
0001
0000
0000
0100
0000
0000
0010
0000
0010
1000
0000
1000
,
0001
0000
0000
0100
0000
0000
0010
0000
0010
1000
0000
0000
,
0001
0000
0000
0010
0000
0000
0100
0000
0100
1000
0000
0000
,
1000
0000
0000
0010
0000
0000
0100
0000
0100
0001
0000
0000
,
1000
0000
0000
0100
0000
0000
0010
0000
0010
0001
0000
0000
,
0000
0000
0000
0000
,
0000
0000
0000
0000
,
2000
0000
3100
0010
,
0002
0000
0103
0010
,
2000
0000
3010
0100
,
0002
0000
0103
1000
,
0002
0000
0013
1000
,
0200
0000
0301
0100
,
0010
0000
0001
0000
0100
0010
0100
0000
,
0010
0000
1000
0000
0100
0010
0100
0000
,
1000
0000
0010
0000
1000
0001
1000
0000
,
0001
0000
0010
0000
0001
1000
0001
0000
,
0100
0000
0001
0000
0010
0100
0010
0000
,
0100
0000
1000
0000
0010
0100
0010
0000
,
1000
0000
0100
0000
1000
0001
1000
0000
,
0001
0000
0100
0000
0001
1000
0002
0000
,
1003
0100
0010
0100
1000
0100
0010
0001
,
1000
0010
0100
0010
1000
0010
0100
0001
,
1000
0100
0010
0001
1000
0010
0100
0001
,
1000
0010
0100
0001
0010
0100
1000
0000
,
0002
0010
1003
0001
,
2000
0010
3001
1000
,
0100
0010
0001
0000
1000
0000
0001
0000
,
1000
0010
0100
0000
0001
0000
1001
0000
,
1000
0000
0010
0100
0000
0000
0001
0000
0100
0010
0000
0000
,
1000
0000
0010
0100
0000
0000
0001
0000
0100
0010
0000
0000
,
0100
0010
0110
0100
,
0010
0100
0110
0010
,
1000
0000
0100
0010
0000
0000
0001
0000
0010
0100
0000
0000
,
1000
0000
0100
0010
0000
0000
0001
0000
0010
0100
0000
0000
,
0010
0100
0110
0010
,
0100
0010
0110
0100
,
1000
0000
0100
0000
1000
0000
0100
0010
0000
0010
0000
0000
,
0001
0000
0000
0100
0010
0000
0010
0000
0000
1000
0000
0000
,
1000
0000
0010
0000
1000
0000
0010
0100
0000
0100
0000
0000
,
0001
0000
0000
0010
0100
0000
0100
0000
0000
1000
0000
0000
,
0002
0023
0230
0320
,
0032
0000
0000
0203
0000
0000
0310
0000
0010
0100
0000
0100
,
0001
0000
0000
1000
0100
0000
1000
0000
0000
0001
0100
0000
,
0001
0000
0000
1000
0100
0000
1000
0000
0000
0001
0100
0000
,
0010
0000
0100
0000
0010
0000
0100
0000
0010
0000
0100
0000
,
1000
0000
0100
0000
0010
0000
0200
0000
0000
0000
0000
0000
,
0302
0000
0000
0010
0000
0000
0023
0000
0100
0000
0100
0000
,
0230
0000
0000
1000
0000
0000
2300
0000
0001
0000
0001
0000
,
3002
0000
0000
1000
0000
0000
2003
0000
0010
0000
0010
0000
,
3020
0000
0000
0100
0000
0000
0230
0000
0001
0000
0001
0000
,
0302
0000
1000
0000
,
0100
0000
1000
0000
,
0100
0000
1000
0000
,
0100
0000
1003
0000
,
2000
0000
0100
0000
,
0001
0000
0100
0000
,
0001
0000
0100
0000
,
0001
0000
3200
0000
,
0320
0000
0001
0000
0031
1000
0001
1000
,
0020
0000
1000
0000
1030
0001
1000
0001
,
2000
0000
0100
0000
3001
1000
0001
1000
,
0002
0000
0100
0000
1003
0100
0001
0100
,
2000
0010
0001
0010
,
3002
0010
1000
0010
,
2003
0001
0100
0001
,
3020
0100
0001
0100
,
1030
0000
0000
0000
,
0000
0000
0000
0000
,
1000
0000
0010
0100
0000
0000
0001
0000
0010
0100
0000
0000
,
1000
0000
0010
0100
0000
0000
0001
0000
0010
0100
0000
0000
,
1000
0001
1001
1000
,
0001
1000
1001
0001
,
0010
0000
0010
0001
0000
0001
0100
0000
0100
0010
0000
0010
,
1000
0000
1000
0100
0000
0100
0010
0000
0010
0001
0000
0001
,
1000
0000
0000
1001
0000
0000
0110
0000
0100
0010
0000
0000
,
0110
1001
1001
0000
;

//---------------dance-double - ----------------
#NOTEDATA:;
#CHARTNAME:;
#STEPSTYPE:dance-double;
#DESCRIPTION:;
#CHARTSTYLE:;
#DIFFICULTY:Challenge;
#METER:17;
#RADARVALUES:0.669740,0.811229,0.271217,0.542434,0.774905,605.000000,570.000000,35.000000,70.000000,0.000000,0.000000,0.000000,0.000000,0.000000,0.669740,0.811229,0.271217,0.542434,0.774905,605.000000,570.000000,35.000000,70.000000,0.000000,0.000000,0.000000,0.000000,0.000000;
#CREDIT:Karl with a K;
#NOTES:
00000000
00000000
00000000
00000000
,
00000000
00000000
00000000
00000000
,
00000000
00000000
00000000
00000000
,
00000000
00000000
00000000
00000000
,
10100000
00000000
10000000
01000000
00000000
00000000
01100000
00000000
00100000
00010000
00000000
00000000
,
00101000
00000000
00001000
00010000
00000000
00000000
00011000
00000000
00010000
00000100
00000010
00000000
,
00000011
00000000
00000001
00000100
00000000
00000000
00000110
00000000
00000010
00001000
00000000
00000000
,
00010010
00000000
00010000
00001000
00000000
00000000
00010000
00001000
01000000
00010000
01000000
00100000
,
10000000
00000000
10000000
00100000
00000000
00000000
01100000
00000000
01000000
00010000
00000000
00000000
,
01001000
00000000
00001000
00010000
00000000
00000000
00011000
00000000
00010000
00000010
00000100
00000000
,
00000101
00000000
00000001
00000010
00000000
00000000
00000110
00000000
00000100
00001000
00000000
00000000
,
00010100
00000000
00010000
00001000
00000000
00000000
00010000
00001000
00100000
00010000
00100000
01000000
,
00000000
00000000
00000000
00000000
,
00000000
00000000
00000000
00000000
,
20000000
00000000
31000000
00100000
00010000
00002000
00000000
00023000
,
00000000
00031000
00000100
00000000
00000020
00000000
00000100
00000000
,
00000032
00000000
00000203
00000000
00000310
00002000
00000000
00023000
,
00000000
01030000
00010000
00000000
01100000
00000000
10000000
00000000
,
10020000
00000000
00000000
00130000
01000000
00020000
00000000
00032000
,
00000000
00000000
00013000
00000000
00000010
00000000
00000000
00000000
00001000
00000000
00000100
00000000
00000010
00000001
00000010
00000001
,
00001000
00000000
00000001
00000000
00000100
00000000
00000010
00001000
00000010
00000000
00000000
00000000
00010000
00000000
00001000
00000000
,
00000000
00000000
01000000
00000000
00100000
00000000
01000000
00000000
00010000
00000000
00100000
01000000
10000000
00000000
00000000
00000000
,
00010000
00000000
10000000
00000000
01000000
00000000
00100000
00010000
00100000
00000000
00000000
00000000
00001000
00000000
00010000
00000000
,
00000000
00000100
00000010
00000100
00001000
00000100
00000010
00000001
,
00001000
00000000
00000001
00000000
00000010
00000000
00000100
00001000
00000100
00000000
00000000
00000000
00010000
00000000
00001000
00000000
,
00000000
00000000
00100000
00000000
01000000
00000000
00100000
00000000
00010000
00000000
01000000
00100000
10000000
00000000
00000000
00000000
,
00010000
00000000
10000000
00000000
00100000
00000000
01000000
00010000
01000000
00000000
00000000
00000000
00001000
00000000
00010000
00000000
,
00000000
00000000
00000010
00000000
00000100
00000000
00000010
00000000
00001000
00000100
00000010
00000001
00002000
00000000
00000000
00000000
,
00003001
00000000
00000100
00000010
00001000
00000010
00010000
00000000
00001000
00000000
00010000
00000000
01000000
00000000
10000000
00000000
,
10000000
00000000
01000000
00100000
00010000
00100000
00001000
00000000
00010000
00000000
00001000
00000000
00000100
00000000
00000001
00000000
,
00000001
00000000
00000010
00000100
00001000
00000100
00010000
00000000
00001000
00000000
00010000
00000000
00100000
00000000
10000000
00000000
,
10000000
00100000
01000000
00010000
01000000
00001000
00010000
00000100
00010000
00000000
00000100
00000000
00000010
00000000
00001000
00000000
,
00000010
00000000
00000000
00000010
00000001
00000000
00000000
00000000
00001000
00000000
00000000
00001000
00000010
00000000
00010000
00000000
,
00001000
00010000
00001000
00000000
00100000
00000000
00000000
00000000
02000000
00000000
00000000
00000000
13000000
00000000
00010000
01000000
,
00010000
01000000
00000000
00000000
00100000
00000000
00000000
00010000
00001000
00010000
00001000
00000000
00010000
00000100
00010000
00000100
,
00000010
00000010
00000001
00000100
00001000
00010000
01000000
10000000
,
11000000
00000000
01000000
00010000
00001000
00000100
00000001
00000000
00000100
00001000
00010000
01000000
,
10000000
00000000
01000000
00010000
00001000
00000100
00000001
00000000
00000100
00001000
00010000
01000000
,
20000000
30000000
00000000
02200000
03300000
00000000
00011000
00000000
00010000
00000100
00000010
00000000
,
00000002
00000003
00000000
00000220
00000330
00000000
00011000
00000000
00010000
01000000
10000000
00000000
,
10100000
00000000
00100000
00010000
00001000
00000010
00000001
00000000
00000010
00001000
00010000
00100000
,
10000000
00000000
00100000
00010000
00001000
00000010
00000001
00000000
00000010
00001000
00010000
00100000
,
20000000
30000000
00000000
02200000
03300000
00000000
00011000
00000000
00010000
00000010
00000100
00000000
,
00000002
00000003
00000000
00000220
00000330
00000000
00011000
00000000
00001000
00010000
00100000
10000000
,
02000000
00000000
03010000
00001000
00010000
00000000
00000200
00000000
00010300
00001000
00010000
00000000
,
00000020
00000000
00000030
00001000
00010000
00000000
00200000
00000000
00301000
00010000
00001000
00000000
,
02000000
00000000
03001000
00010000
00000000
00001000
00000010
00000000
00000001
00001000
00000001
00000000
,
00000001
00000000
00000100
00000010
00000000
00010000
00001000
00010000
01000000
10000000
01000000
00100000
,
00020000
00000000
00000000
10030000
01000000
00100000
00010000
00100000
00001000
00010000
00000010
00001000
,
00000001
00000100
00000010
00001000
00000010
00010000
00001000
00100000
01000000
00010000
01000000
10000000
,
00020000
00000000
01030000
10000000
02000000
00000000
03020000
00000000
00130000
00010000
00002000
00000000
,
00003200
00000000
00000310
00001000
00000020
00000000
00000032
00000000
00000103
00001000
00020000
00000000
,
00130000
10000000
00100000
10000000
00100000
10000000
00010000
01000000
00010000
01000000
00010000
01000000
,
00001000
00010000
00000100
00001000
00000010
00000100
00000002
00000000
00000000
00000000
00000000
00000000
,
00000103
00000010
00000100
00000010
00000000
00000000
00010000
00001000
00010000
00001000
00010000
00000000
,
00001000
00100000
00001000
00100000
00000000
00000000
01000000
10000000
01000000
10000000
01000000
00000000
,
00100000
00001000
00100000
00001000
00000000
00000000
00010000
00000010
00010000
00000010
00010000
00000000
,
00010000
00000100
00010000
00000100
00000020
00000000
00000031
00000100
00000001
00000100
00000001
00000100
,
00000020
00000100
00002030
00000100
,
00003002
00000100
00002003
00000001
,
00003020
00001000
00020030
00001000
,
00130000
00000000
00000000
01000000
00010000
00000000
10000000
00000000
01000000
00100000
00010000
00000000
,
02000000
00100000
03020000
00100000
,
20030000
00100000
30020000
10000000
,
02030000
00010000
03002000
00010000
,
00003010
00000000
00000000
00000100
00001000
00000000
00000020
00000000
00000000
00000000
00000000
00000000
,
00001030
00000000
00000001
00000000
00000100
00001000
00010000
01000000
,
10000000
01000000
01000000
10000000
00100000
00000000
01000000
00000000
,
00010000
00000000
10000000
00000000
01000000
00010000
00001000
00000100
,
00000001
00000100
00000100
00000001
00000010
00000000
00000100
00000000
,
00001000
00000000
00000001
00000000
00000010
00001000
00010000
00100000
,
10000000
00100000
00100000
10000000
01000000
00000000
00100000
00000000
,
00010000
00000000
10000000
00000000
00100000
00010000
00001000
00000010
,
00000001
00000010
00000010
00000001
00000100
00000000
00000010
00000000
,
00000110
00000000
00000000
00000000
,
00000000
00000000
00000000
00000000
,
11000000
00000000
01000000
00010000
00001000
00000100
00000001
00000000
00000010
00001000
00010000
00100000
,
10000000
00000000
01000000
00010000
00001000
00000100
00000001
00000000
00000010
00001000
00010000
00100000
,
02000000
03000000
00000000
00022000
00033000
00000000
00000110
00000000
00010000
00001000
00000100
00000010
,
00000200
00000300
00000000
00022000
00033000
00000000
01100000
00000000
00010000
01000000
00100000
10000000
,
01000000
00100000
00010000
00001000
00000100
00000010
00000001
00000100
00000010
00001000
00010000
01000000
,
10000000
00010000
00100000
10000000
01000000
00010000
00001000
00000100
00000001
00000010
00000001
00000100
,
00000002
00000003
00000000
00022000
00033000
00000000
20020000
30030000
10000000
01000000
00100000
00010000
,
20000000
30000000
00000000
00022000
00033000
00000000
00002002
00000000
00000000
00003003
00000000
00000000
;

//---------------dance-double - ----------------
#NOTEDATA:;
#CHARTNAME:;
#STEPSTYPE:dance-double;
#DESCRIPTION:;
#CHARTSTYLE:;
#DIFFICULTY:Hard;
#METER:14;
#RADARVALUES:0.463836,0.551636,0.100738,0.526936,0.321586,419.000000,406.000000,13.000000,68.000000,0.000000,0.000000,0.000000,0.000000,0.000000,0.463836,0.551636,0.100738,0.526936,0.321586,419.000000,406.000000,13.000000,68.000000,0.000000,0.000000,0.000000,0.000000,0.000000;
#CREDIT:;
#NOTES:
00000000
00000000
00000000
00000000
,
00000000
00000000
00000000
00000000
,
00000000
00000000
00000000
00000000
,
00000000
00000000
00000000
00000000
,
00000001
00000000
00000100
00000010
00000000
00000000
00000100
00000000
00000010
00001000
00000000
00000000
,
00000010
00000000
00010000
00001000
00000000
00000000
00010000
00000000
00100000
10000000
00000000
00000000
,
10000000
00000000
01000000
00100000
00000000
00000000
01000000
00000000
00100000
00010000
00000000
00000000
,
00100000
00000000
00001000
00010000
00000000
00000000
00001000
00000000
00000010
00000100
00001000
00000000
,
00000001
00000000
00000010
00000100
00000000
00000000
00000010
00000000
00000100
00001000
00000000
00000000
,
00000100
00000000
00010000
00001000
00000000
00000000
00010000
00000000
01000000
10000000
00000000
00000000
,
10000000
00000000
00100000
01000000
00000000
00000000
00100000
00000000
01000000
00010000
00000000
00000000
,
01000000
00000000
00001000
00010000
00000000
00000000
00001000
00000000
00000100
00000010
00001000
00000000
,
00000000
00000000
00000000
00000000
,
00000000
00000000
00000000
00000000
,
00000002
00000000
00000000
00000103
00000010
00002000
00000000
00003200
,
00000000
00010300
00002000
00000000
00203000
00000000
02300000
00000000
,
23000000
00000000
32000000
00000000
03100000
00020000
00000000
00230000
,
00000000
00301000
00020000
00000000
00030020
00000000
00000230
00000000
,
00000302
00000000
00000000
00000103
00000010
00002000
00000000
00003200
,
00000000
00000000
00010300
00000000
00002000
00000000
00000000
00000000
00203000
00000000
00000000
00000000
01300000
10000000
01000000
00000000
,
10000000
01000000
00100000
00010000
00100000
00000000
00001000
00010000
,
00000000
00001000
00020000
00000000
00030020
00000000
00000230
00000000
,
00000301
00000010
00000100
00001000
00000100
00000000
00010000
00001000
,
00000000
00010000
00002000
00000000
02003000
00000000
03200000
00000000
,
10300000
00100000
01000000
00010000
01000000
00000000
00001000
00010000
,
00000000
00001000
00020000
00000000
00030200
00000000
00000320
00000000
,
00000031
00000100
00000010
00001000
00000010
00000000
00010000
00001000
,
00000000
00010000
00002000
00000000
00203000
00000000
00310000
00000000
,
10000000
01000000
00010000
01000000
00010000
00001000
00000100
00000000
,
00000001
00000100
00001000
00000100
00001000
00010000
01000000
00000000
,
10000000
00100000
01000000
00010000
00001000
00000010
00000100
00000001
,
00001000
00000100
00000100
00001000
00010000
00100000
01000000
10000000
,
00200000
10000000
01000000
10300000
,
20000000
00000000
01000000
00000000
00010000
00000000
31000000
00100000
,
00010000
00100000
00001000
00000000
00010000
00000010
00001000
00000000
,
00000002
00000203
00000320
00002030
,
00003001
00000000
00000010
00001000
00000000
00000000
00010000
00000000
00100000
10000000
00000000
00000000
,
01000000
00000000
00010000
00001000
00000000
00000000
00000100
00000000
00000001
00000010
00000000
00000000
,
00000002
00000000
00000000
00000203
00000000
00000000
00001300
00000000
00000100
00001000
00000000
00000000
,
00020000
02030000
13000000
10010000
,
10000000
00000000
01000000
00010000
00000000
00000000
00001000
00000000
00000100
00000001
00000000
00000000
,
00000010
00000000
00001000
00010000
00000000
00000000
00100000
00000000
10000000
01000000
00000000
00000000
,
20000000
00000000
00000000
30200000
00000000
00000000
00310000
00000000
00100000
00010000
00000000
00000000
,
00002000
00000000
00000000
00003020
00000000
00000000
00000031
00000000
00000000
00001000
00000001
00001000
,
00000001
00000000
00000100
00000000
00000100
00000000
00000100
00000000
00000000
00000010
00000000
00000000
,
00020000
00031000
00020000
01030000
,
10000000
00000000
01000000
00000000
01000000
00000000
01000000
00000000
00000000
00100000
00000000
00000000
,
00002000
00000000
00000000
00013000
00000000
00000000
00002000
00000000
00000000
00003100
00000010
00000100
,
00000001
00000000
00000001
00000010
00000000
00000010
00000100
00000000
00000100
00001000
00000000
00000000
,
00010000
00000000
00010000
01000000
00000000
01000000
00100000
00000000
00100000
10000000
00100000
10000000
,
00010000
00000000
01000000
00001000
00000000
00000000
00010000
00000000
00010000
00000100
00000000
00000000
,
00001000
00000000
00000100
00010000
00000000
00000000
00001000
00000000
00001000
01000000
00000000
00000000
,
00010000
00000000
00100000
00000000
01000000
00000000
10000000
00000000
00100000
00000000
01000000
00000000
,
00001000
00000000
00010000
00000000
00000100
00000000
00000020
00000000
00000000
00000000
00000000
00000000
,
00000031
00000000
00001000
00000010
00000000
00000000
00010000
00000000
00001000
00100000
00010000
00000000
,
10000000
00000000
00010000
00100000
00000000
00000000
00001000
00000000
00010000
00000010
00001000
00000000
,
00000001
00000000
00001000
00000100
00000000
00000000
00010000
00000000
00001000
01000000
00010000
00000000
,
10000000
00000000
00010000
01000000
00000000
00000000
00001000
00000000
00010000
00000100
00001000
00000000
,
00000002
00000000
00000010
00000000
,
00001000
00000000
00000100
00000000
,
00001000
00000000
00000010
00000000
,
00001003
00000000
00000000
00000100
00010000
00000000
00001000
00000000
01000000
00100000
00000000
00000000
,
20000000
00000000
00100000
00000000
,
00010000
00000000
01000000
00000000
,
00010000
00000000
00100000
00000000
,
30010000
00000000
00000000
01000000
00001000
00000000
00010000
00000000
00000000
00000100
00000000
00000000
,
00000010
00000000
00000100
00000000
00001000
00000000
00000001
00000010
,
00002000
00010000
01003000
01100000
,
00100000
00000000
01000000
00000000
00010000
00000000
10000000
00100000
,
00020000
00001000
00030100
00000110
,
00000010
00000000
00000100
00000000
00001000
00000000
00000001
00000100
,
00002000
00010000
00103000
01100000
,
01000000
00000000
00100000
00000000
00010000
00000000
10000000
01000000
,
00020000
00001000
00030010
00000110
,
00001001
00000000
00000000
00000000
,
00000000
00000000
00000000
00000000
,
10000000
00000000
01000000
00010000
00000000
00000000
00001000
00000000
00000010
00000001
00000000
00000000
,
00000100
00000000
00001000
00010000
00000000
00000000
00100000
00000000
10000000
01000000
00000000
00000000
,
20000000
00000000
00000000
30020000
00000000
00000000
00031000
00000000
00000010
00000100
00000000
00000000
,
00000002
00002003
00013000
01100000
,
10000000
00000000
01000000
00100000
00000000
00010000
00001000
00000000
00000010
00000100
00000000
00000001
,
00000010
00000000
00000100
00001000
00000000
00010000
01000000
00000000
00100000
10000000
00000000
00000000
,
22000000
33000000
00000000
00220000
00330000
00000000
00011000
00000000
00010000
00000010
00000000
00000000
,
00000202
00000303
00000000
00002020
00003030
00000000
00022000
00000000
00000000
00033000
00000000
00000000
;

//---------------dance-double - ----------------
#NOTEDATA:;
#CHARTNAME:;
#STEPSTYPE:dance-double;
#DESCRIPTION:;
#CHARTSTYLE:;
#DIFFICULTY:Medium;
#METER:10;
#RADARVALUES:0.367527,0.517637,0.023247,0.294464,0.162730,332.000000,329.000000,3.000000,38.000000,0.000000,0.000000,0.000000,0.000000,0.000000,0.367527,0.517637,0.023247,0.294464,0.162730,332.000000,329.000000,3.000000,38.000000,0.000000,0.000000,0.000000,0.000000,0.000000;
#CREDIT:;
#NOTES:
00000000
00000000
00000000
00000000
,
00000000
00000000
00000000
00000000
,
00000000
00000000
00000000
00000000
,
00000000
00000000
00000000
00000000
,
10000000
00000000
00000000
01000000
00000000
00000000
00100000
00000000
00100000
00010000
00000000
00000000
,
01000000
00000000
00000000
00001000
00000000
00000000
00010000
00000000
00000100
00000010
00000000
00000000
,
00000001
00000000
00000000
00000100
00000000
00000000
00000010
00000000
00000010
00001000
00000000
00000000
,
00000100
00000000
00000000
00010000
00000000
00000000
00001000
00000000
01000000
00100000
00000000
00000000
,
10000000
00000000
00000000
00100000
00000000
00000000
01000000
00000000
01000000
00010000
00000000
00000000
,
00100000
00000000
00000000
00001000
00000000
00000000
00010000
00000000
00000010
00000100
00000000
00000000
,
00000001
00000000
00000000
00000010
00000000
00000000
00000100
00000000
00000100
00001000
00000000
00000000
,
00000010
00000000
00000000
00010000
00000000
00000000
00001000
00000000
00100000
01000000
00000000
00000000
,
00000000
00000000
00000000
00000000
,
00000000
00000000
00000000
00000000
,
20000000
00000000
31000000
00100000
,
00002000
00000000
01003000
00001000
,
00020000
00000000
00030010
00000100
,
00000002
00000000
00000013
00000010
,
00000002
00000000
00000103
00000010
,
00020000
00000000
00030100
00010000
,
00001000
00000000
00010000
00000000
01000000
00100000
00010000
00000000
,
01000000
00000000
00100000
00000000
10000000
00010000
10000000
00000000
,
01000000
00000000
00100000
00000000
00001000
00010000
00001000
00000000
,
00010000
00000100
00000010
00000100
,
00010000
00000000
00001000
00000000
00000100
00000010
00001000
00000000
,
00000100
00000000
00000010
00000000
00000001
00001000
00000001
00000000
,
00000100
00000000
00000010
00000000
00010000
00001000
00010000
00000000
,
00001000
01000000
00100000
00000000
,
10000000
01000000
00100000
00000000
01000000
00100000
00010000
00000000
,
00100000
00001000
00010000
00000000
00000010
00010000
00001000
00000000
,
00010000
00000000
00000100
00000000
00000010
00000000
00000001
00000100
,
00000010
00001000
00010000
00100000
01000000
10000000
00010000
00000000
,
20000000
00100000
00010000
30010000
,
00020000
00100000
10000000
10030000
,
01000000
00100000
00001000
00000000
00010000
00000000
00001000
00000000
,
00000020
00000032
00000203
00000301
,
00000100
00000000
00000010
00001000
00000000
00000000
00010000
00000000
01000000
00100000
00000000
00000000
,
10000000
00000000
01000000
00100000
00000000
00000000
00001000
00000000
00010000
00000100
00000000
00000000
,
00000010
00000001
00000100
00001000
,
00010000
00100000
10000000
01000000
,
01000000
00000000
00100000
00010000
00000000
00000000
00001000
00000000
00000100
00000010
00000000
00000000
,
00000001
00000000
00000100
00000010
00000000
00000000
00010000
00000000
00001000
01000000
00000000
00000000
,
00100000
10000000
01000000
00010000
,
00001000
00000010
00000001
00000100
,
00000001
00000000
00000100
00000000
00000010
00000000
00001000
00000000
00000000
00000010
00000000
00000000
,
00010000
00001000
00100000
00010000
,
10000000
00000000
01000000
00000000
00100000
00000000
00010000
00000000
00000000
00100000
00000000
00000000
,
00001000
00010000
00000010
00001000
,
00000002
00000023
00000230
00020300
,
00032000
02003000
03200000
20300000
,
30010000
00000000
00000000
10000000
01000000
00000000
10000000
00000000
00000000
00010000
01000000
00000000
,
00001000
00000000
00000000
00010000
00001000
00000000
00010000
00000000
00000000
00000100
00000010
00000000
,
00000001
00000000
00000100
00000000
00000010
00000000
00010000
00000000
00001000
00000000
00010000
00000000
,
00001000
00000000
00100000
00000000
01000000
00000000
20000000
00000000
00000000
00000000
00000000
00000000
,
30020000
00100000
00230000
01000000
,
02300000
10000000
23000000
00010000
,
30020000
01000000
02030000
00001000
,
03002000
00010000
00013000
00000100
,
00020000
00000000
00001000
00000000
,
00001000
00000000
00001000
00000000
,
00001000
00000000
00001000
00000000
,
00001000
00000000
00031000
00000000
,
00002000
00000000
00010000
00000000
,
00010000
00000000
00010000
00000000
,
00010000
00000000
00010000
00000000
,
00013000
00000000
00000200
00000000
,
00000320
00000000
00000000
00000000
00000031
00000100
00000010
00000000
,
00020000
00000000
00031000
01000000
,
00200000
00000000
00000000
00000000
10300000
01000000
00100000
00000000
,
00002000
00000000
00000000
00000000
00010000
00000000
00003100
00000010
,
00000200
00000000
00000000
00000000
00000301
00000010
00000100
00000000
,
00020000
00000000
00031000
00100000
,
02000000
00000000
00000000
00000000
13000000
00100000
01000000
00000000
,
00002000
00000000
00010000
00003010
,
00000001
00000000
00000000
00000000
,
00000000
00000000
00000000
00000000
,
10000000
00000000
01000000
00010000
00000000
00000000
00001000
00000000
00000010
00000001
00000000
00000000
,
00000001
00000000
00000100
00001000
00000000
00000000
00010000
00000000
00100000
10000000
00000000
00000000
,
01000000
10000000
00100000
00010000
,
00001000
00000010
00000001
00000100
,
00000001
00000000
00000001
00000010
00000000
00000010
00000100
00000000
00000100
00010000
00000000
00010000
,
00001000
00000000
00001000
01000000
00000000
01000000
00100000
00000000
00100000
10000000
00000000
00000000
,
10000000
00000000
00000000
01000000
00000000
00000000
00010000
00000000
00001000
00000100
00000000
00000000
,
00000101
00001010
00011000
00000000
;

//---------------dance-double - ----------------
#NOTEDATA:;
#CHARTNAME:;
#STEPSTYPE:dance-double;
#DESCRIPTION:;
#CHARTSTYLE:;
#DIFFICULTY:Easy;
#METER:6;
#RADARVALUES:0.215867,0.388228,0.023247,0.286715,0.000000,195.000000,192.000000,3.000000,37.000000,0.000000,0.000000,0.000000,0.000000,0.000000,0.215867,0.388228,0.023247,0.286715,0.000000,195.000000,192.000000,3.000000,37.000000,0.000000,0.000000,0.000000,0.000000,0.000000;
#CREDIT:;
#NOTES:
00000000
00000000
00000000
00000000
,
00000000
00000000
00000000
00000000
,
00000000
00000000
00000000
00000000
,
00000000
00000000
00000000
00000000
,
00000001
00000000
00000100
00000000
,
00000010
00000000
00001000
00000000
,
00000010
00000000
00010000
00000000
,
00001000
00000000
00100000
00000000
,
00010000
00000000
00100000
00000000
,
01000000
00000000
10000000
00000000
,
01000000
00000000
00010000
00000000
,
00001000
00000000
00000100
00000000
,
00000001
00000000
00000000
00000000
,
00000000
00000000
00000000
00000000
,
00000002
00000000
00001003
00000000
,
00000200
00010000
00010300
00000000
,
00020000
00000000
00031000
00000000
,
00200000
00001000
00301000
00000000
,
00002000
00000000
01003000
00000000
,
00200000
10000000
10300000
00000000
,
10000000
01000000
00100000
00000000
,
00001000
00010000
00001000
00000000
,
00010000
00000010
00000100
00000000
,
00000001
00001000
00000001
00000000
,
00000001
00000100
00000010
00000000
,
00010000
00001000
00010000
00000000
,
00001000
00100000
01000000
00000000
,
10000000
00010000
10000000
00000000
,
10000000
01000000
00100000
00010000
,
00001000
00000100
00000010
00000001
,
00000100
00000010
00001000
00010000
,
01000000
00100000
10000000
10000000
,
20000000
00000000
31000000
01000000
,
00200000
00000000
00310000
00010000
,
00001000
00000010
00001000
00000000
,
00000001
00000001
00000010
00000010
,
00000001
00000010
00001000
00000000
,
00010000
00100000
10000000
00000000
,
01000000
01000000
00010000
00000000
,
00001000
00001000
00000100
00000000
,
00000001
00000100
00001000
00000000
,
00010000
01000000
10000000
00000000
,
00100000
00100000
00010000
00000000
,
00001000
00001000
00000010
00000000
,
00000002
00000000
00000103
00000000
,
00002000
00000000
00003100
00000000
,
00000020
00000000
00010030
00000000
,
00020000
00000000
00031000
00001000
,
00002000
00000000
02003000
00000000
,
03200000
00000000
20300000
00000000
,
31000000
00010000
00001000
00000000
,
00000100
00000001
00000010
00000000
,
00000002
00000000
00000203
00000000
,
00002300
00000000
00003000
00000000
,
00010000
00000000
00100000
00000000
,
10000000
00000000
00100000
00000000
,
00010000
00000000
00001000
00000000
,
00000010
00000000
00000001
00000000
,
00000002
00000000
00000000
00000000
,
00001000
00000000
00000000
00000000
,
00001000
00000000
00000000
00000000
,
00001000
00000000
00000000
00000000
,
00002003
00000000
00000000
00000000
,
00000001
00000000
00000000
00000000
,
00000001
00000000
00000000
00000000
,
00000001
00000000
00003001
00000000
,
00000002
00000000
00000203
00000000
,
00002300
00000000
00023000
00000000
,
00032000
00000000
00023000
00000000
,
02030000
00000000
23000000
00000000
,
32000000
00000000
03200000
00000000
,
00320000
00000000
00032000
00000000
,
00003200
00000000
00000320
00000000
,
00000032
00000000
00000203
00000000
,
00000301
00000000
00000000
00000000
,
00000000
00000000
00000000
00000000
,
10000000
01000000
00010000
00000000
,
00001000
00000100
00000001
00000000
,
00000010
00000010
00001000
00000000
,
00010000
00010000
00100000
00000000
,
10000000
00100000
00010000
00001000
,
00010000
00001000
00000010
00000001
,
00000100
00001000
00010000
00001000
,
00011000
00011000
00011000
00000000
;

//---------------dance-single - JA++++++++++++++++++++----------------
#NOTEDATA:;
#CHARTNAME:BEATDOWN SPECIAL;
#STEPSTYPE:dance-single;
#DESCRIPTION:JA++++++++++++++++++++;
#CHARTSTYLE:;
#DIFFICULTY:Edit;
#METER:108;
#RADARVALUES:0.306641,0.679398,0.000000,0.154981,0.418449,277.000000,277.000000,0.000000,20.000000,0.000000,0.000000,0.000000,0.000000,0.000000,0.306641,0.679398,0.000000,0.154981,0.418449,277.000000,277.000000,0.000000,20.000000,0.000000,0.000000,0.000000,0.000000,0.000000;
#CREDIT:Karl with a K;
#NOTES:
0000
0000
0000
0000
,
0000
0000
0000
0000
,
0000
0000
0000
0000
,
0000
0000
0000
0000
,
0100
0000
0100
0000
,
0100
0000
0100
0000
,
0100
0000
0100
0000
,
0100
0000
0100
0000
,
0100
0000
0100
0000
,
0100
0000
0100
0000
,
0100
0000
0100
0000
,
0100
0000
0100
0000
,
0000
0000
0000
0000
,
0000
0000
0000
0000
,
0200
0300
0200
0300
,
0200
0300
0200
0300
,
0200
0300
0200
0300
,
0200
0300
0200
0300
,
0200
0300
0200
0300
,
0200
0300
0200
0300
,
0000
0000
0000
0000
,
0000
0000
0000
0000
,
0000
0000
0000
0000
,
0000
0000
0000
0000
,
0000
0000
0000
0000
,
0000
0000
0000
0000
,
0000
0000
0000
0000
,
0000
0000
0000
0000
,
0100
0100
0100
0100
,
0100
0100
0100
0100
,
0100
0100
0100
0100
,
0100
0100
0100
0100
,
0200
0000
0000
0300
,
0200
0000
0000
0300
,
0200
0000
0000
0300
,
0200
0000
0000
0300
,
0100
0000
0100
0100
0100
0100
0100
0000
0100
0100
0100
0100
,
0100
0000
0100
0100
0100
0100
0100
0000
0100
0100
0100
0100
,
0100
0000
0000
0100
0000
0000
0100
0000
0100
0100
0100
0100
,
0100
0100
0100
0000
,
0100
0000
0100
0100
0100
0100
0100
0000
0100
0100
0100
0100
,
0100
0000
0100
0100
0100
0100
0100
0000
0100
0100
0100
0100
,
0100
0000
0000
0100
0000
0000
0100
0000
0100
0100
0100
0100
,
0100
0100
0100
0000
,
0100
0000
0100
0000
,
0100
0000
0100
0000
,
0100
0000
0100
0000
,
0100
0000
0100
0000
,
0000
0000
0000
0000
,
0000
0000
0000
0000
,
0000
0000
0000
0000
,
0000
0000
0000
0000
,
0000
0000
0000
0000
,
0000
0000
0000
0000
,
0100
0100
0100
0100
0000
0000
0100
0100
0100
0100
0000
0000
,
0100
0100
0100
0100
0000
0000
0100
0100
0100
0100
0000
0000
,
0100
0100
0100
0100
0000
0000
0100
0100
0100
0100
0000
0000
,
0100
0100
0100
0100
0000
0000
0100
0100
0100
0100
0000
0000
,
0100
0100
0100
0100
0000
0000
0100
0100
0100
0100
0000
0000
,
0100
0100
0100
0100
0000
0000
0100
0100
0100
0100
0000
0000
,
0100
0100
0100
0100
0000
0000
0100
0100
0100
0100
0000
0000
,
0100
0100
0100
0100
0000
0000
0100
0100
0100
0100
0000
0000
,
0100
0100
0100
0100
0000
0000
0100
0100
0100
0100
0000
0000
,
0100
0100
0100
0100
0000
0000
0100
0100
0100
0100
0000
0000
,
0100
0100
0100
0100
0000
0000
0100
0100
0100
0100
0000
0000
,
0100
0100
0100
0100
0000
0000
0100
0100
0100
0100
0000
0000
,
0200
0000
0000
0000
,
0000
0000
0000
0300
,
0200
0000
0000
0000
,
0000
0000
0000
0300
,
0200
0000
0000
0000
,
0000
0000
0000
0300
,
0200
0000
0000
0000
,
0000
0000
0000
0300
,
0100
0000
0000
0000
,
0000
0000
0000
0000
,
0100
0000
0100
0100
0100
0100
0100
0000
0100
0100
0100
0100
,
0100
0000
0100
0100
0100
0100
0100
0000
0100
0100
0100
0100
,
0100
0000
0000
0100
0000
0000
0100
0000
0100
0100
0100
0100
,
0100
0100
0100
0000
,
0100
0000
0100
0100
0100
0100
0100
0000
0100
0100
0100
0100
,
0100
0000
0100
0100
0100
0100
0100
0000
0100
0100
0100
0100
,
0100
0000
0000
0100
0000
0000
0100
0000
0100
0100
0100
0100
,
0100
0100
0100
0000
;

//---------------dance-double - JU++++++++++++++++++++----------------
#NOTEDATA:;
#CHARTNAME:BEATDOWN SPECIAL;
#STEPSTYPE:dance-double;
#DESCRIPTION:JU++++++++++++++++++++;
#CHARTSTYLE:;
#DIFFICULTY:Edit;
#METER:108;
#RADARVALUES:0.396309,0.711751,0.627673,0.309962,0.418449,358.000000,277.000000,81.000000,40.000000,0.000000,0.000000,0.000000,0.000000,0.000000,0.396309,0.711751,0.627673,0.309962,0.418449,358.000000,277.000000,81.000000,40.000000,0.000000,0.000000,0.000000,0.000000,0.000000;
#CREDIT:Karl with a K;
#NOTES:
// measure 0
00000000
00000000
00000000
00000000
,  // measure 1
00000000
00000000
00000000
00000000
,  // measure 2
00000000
00000000
00000000
00000000
,  // measure 3
00000000
00000000
00000000
00000000
,  // measure 4
01000100
00000000
01000100
00000000
,  // measure 5
01000100
00000000
01000100
00000000
,  // measure 6
01000100
00000000
01000100
00000000
,  // measure 7
01000100
00000000
01000100
00000000
,  // measure 8
01000100
00000000
01000100
00000000
,  // measure 9
01000100
00000000
01000100
00000000
,  // measure 10
01000100
00000000
01000100
00000000
,  // measure 11
01000100
00000000
01000100
00000000
,  // measure 12
00000000
00000000
00000000
00000000
,  // measure 13
00000000
00000000
00000000
00000000
,  // measure 14
02000200
03000300
02000200
03000300
,  // measure 15
02000200
03000300
02000200
03000300
,  // measure 16
02000200
03000300
02000200
03000300
,  // measure 17
02000200
03000300
02000200
03000300
,  // measure 18
02000200
03000300
02000200
03000300
,  // measure 19
02000200
03000300
02000200
03000300
,  // measure 20
00000000
00000000
00000000
00000000
,  // measure 21
00000000
00000000
00000000
00000000
,  // measure 22
00000000
00000000
00000000
00000000
,  // measure 23
00000000
00000000
00000000
00000000
,  // measure 24
00000000
00000000
00000000
00000000
,  // measure 25
00000000
00000000
00000000
00000000
,  // measure 26
00000000
00000000
00000000
00000000
,  // measure 27
00000000
00000000
00000000
00000000
,  // measure 28
01000100
01000100
01000100
01000100
,  // measure 29
01000100
01000100
01000100
01000100
,  // measure 30
01000100
01000100
01000100
01000100
,  // measure 31
01000100
01000100
01000100
01000100
,  // measure 32
02000200
00000000
00000000
03000300
,  // measure 33
02000200
00000000
00000000
03000300
,  // measure 34
02000200
00000000
00000000
03000300
,  // measure 35
02000200
00000000
00000000
03000300
,  // measure 36
01000100
00000000
01000000
00000100
01000000
00000100
01000000
00000000
00000100
01000000
00000100
01000000
,  // measure 37
00000100
00000000
01000000
00000100
01000000
00000100
01000000
00000000
00000100
01000000
00000100
01000000
,  // measure 38
00000100
00000000
00000000
01000100
00000000
00000000
01000100
00000000
01000000
00000100
01000000
00000100
,  // measure 39
01000000
01000100
01000100
00000000
,  // measure 40
01000100
00000000
01000000
00000100
01000000
00000100
01000000
00000000
00000100
01000000
00000100
01000000
,  // measure 41
00000100
00000000
01000000
00000100
01000000
00000100
01000000
00000000
00000100
01000000
00000100
01000000
,  // measure 42
00000100
00000000
00000000
01000100
00000000
00000000
01000100
00000000
01000000
00000100
01000000
00000100
,  // measure 43
01000000
01000100
01000100
00000000
,  // measure 44
01000100
00000000
01000100
00000000
,  // measure 45
01000100
00000000
01000100
00000000
,  // measure 46
01000100
00000000
01000100
00000000
,  // measure 47
01000100
00000000
01000100
00000000
,  // measure 48
00000000
00000000
00000000
00000000
,  // measure 49
00000000
00000000
00000000
00000000
,  // measure 50
00000000
00000000
00000000
00000000
,  // measure 51
00000000
00000000
00000000
00000000
,  // measure 52
00000000
00000000
00000000
00000000
,  // measure 53
00000000
00000000
00000000
00000000
,  // measure 54
01000000
00000100
01000000
00000100
00000000
00000000
01000000
00000100
01000000
00000100
00000000
00000000
,  // measure 55
01000000
00000100
01000000
00000100
00000000
00000000
01000000
00000100
01000000
00000100
00000000
00000000
,  // measure 56
01000000
00000100
01000000
00000100
00000000
00000000
01000000
00000100
01000000
00000100
00000000
00000000
,  // measure 57
01000000
00000100
01000000
00000100
00000000
00000000
01000000
00000100
01000000
00000100
00000000
00000000
,  // measure 58
01000000
00000100
01000000
00000100
00000000
00000000
01000000
00000100
01000000
00000100
00000000
00000000
,  // measure 59
01000000
00000100
01000000
00000100
00000000
00000000
01000000
00000100
01000000
00000100
00000000
00000000
,  // measure 60
01000000
00000100
01000000
00000100
00000000
00000000
01000000
00000100
01000000
00000100
00000000
00000000
,  // measure 61
01000000
00000100
01000000
00000100
00000000
00000000
01000000
00000100
01000000
00000100
00000000
00000000
,  // measure 62
01000000
00000100
01000000
00000100
00000000
00000000
01000000
00000100
01000000
00000100
00000000
00000000
,  // measure 63
01000000
00000100
01000000
00000100
00000000
00000000
01000000
00000100
01000000
00000100
00000000
00000000
,  // measure 64
01000000
00000100
01000000
00000100
00000000
00000000
01000000
00000100
01000000
00000100
00000000
00000000
,  // measure 65
01000000
00000100
01000000
00000100
00000000
00000000
01000000
00000100
01000000
00000100
00000000
00000000
,  // measure 66
02000200
00000000
00000000
00000000
,  // measure 67
00000000
00000000
00000000
03000300
,  // measure 68
02000200
00000000
00000000
00000000
,  // measure 69
00000000
00000000
00000000
03000300
,  // measure 70
02000200
00000000
00000000
00000000
,  // measure 71
00000000
00000000
00000000
03000300
,  // measure 72
02000200
00000000
00000000
00000000
,  // measure 73
00000000
00000000
00000000
03000300
,  // measure 74
01000100
00000000
00000000
00000000
,  // measure 75
00000000
00000000
00000000
00000000
,  // measure 76
01000100
00000000
01000000
00000100
01000000
00000100
01000000
00000000
00000100
01000000
00000100
01000000
,  // measure 77
00000100
00000000
01000000
00000100
01000000
00000100
01000000
00000000
00000100
01000000
00000100
01000000
,  // measure 78
00000100
00000000
00000000
01000100
00000000
00000000
01000100
00000000
01000000
00000100
01000000
00000100
,  // measure 79
01000000
01000100
01000100
00000000
,  // measure 80
01000100
00000000
01000000
00000100
01000000
00000100
01000000
00000000
00000100
01000000
00000100
01000000
,  // measure 81
00000100
00000000
01000000
00000100
01000000
00000100
01000000
00000000
00000100
01000000
00000100
01000000
,  // measure 82
00000100
00000000
00000000
01000100
00000000
00000000
01000100
00000000
01000000
00000100
01000000
00000100
,  // measure 83
01000000
01000100
01000100
00000000
;
