#VERSION:0.83;
#TITLE:Dad Vibes;
#SUBTITLE:;
#ARTIST:Limp Bizkit;
#TITLETRANSLIT:;
#SUBTITLETRANSLIT:;
#ARTISTTRANSLIT:;
#GENRE:;
#ORIGIN:;
#CREDIT:;
#BANNER:Dad Vibes.png;
#BACKGROUND:Dad Vibes-bg.png;
#PREVIEWVID:;
#JACKET:Dad Vibes-jacket.png;
#CDIMAGE:;
#DISCIMAGE:;
#LYRICSPATH:;
#CDTITLE:;
#MUSIC:Dad Vibes.ogg;
#OFFSET:-0.020000;
#SAMPLESTART:30.303787;
#SAMPLELENGTH:10.105263;
#SELECTABLE:YES;
#BPMS:0.000=95.000;
#STOPS:;
#DELAYS:;
#WARPS:;
#TIMESIGNATURES:0.000=4=4;
#TICKCOUNTS:0.000=4;
#COMBOS:0.000=1;
#SPEEDS:0.000=1.000=0.000=0;
#SCROLLS:0.000=1.000;
#FAKES:;
#LABELS:0.000=Song Start;
#BGCHANGES:;
#KEYSOUNDS:;
#ATTACKS:
;

//---------------dance-single - ----------------
#NOTEDATA:;
#CHARTNAME:;
#STEPSTYPE:dance-single;
#DESCRIPTION:;
#CHARTSTYLE:;
#DIFFICULTY:Hard;
#METER:10;
#RADARVALUES:0.392488,0.461947,0.418085,0.253837,0.175446,368.000000,312.000000,56.000000,34.000000,0.000000,0.000000,0.000000,0.000000,0.000000,0.392488,0.461947,0.418085,0.253837,0.175446,368.000000,312.000000,56.000000,34.000000,0.000000,0.000000,0.000000,0.000000,0.000000;
#CREDIT:Karl with a K as delectablewet;
#NOTES:
0000
0000
0000
0000
,
0000
0000
0000
0000
,
0000
0000
0000
0000
,
0000
0000
0000
0000
,
0120
0000
0031
0000
1000
0000
0002
0100
,
2003
0000
3010
0100
0010
0000
1000
0000
,
1001
0000
0001
0100
0020
0000
1030
0100
,
1000
0001
0001
1000
0002
1000
0013
0100
,
0110
0000
1000
0000
0020
0030
1001
0000
,
1000
0000
0001
0000
0010
0000
0100
0000
2000
0000
3010
0000
0100
0001
0000
0000
,
0010
0010
1000
1000
0200
1300
1010
0000
,
0011
0000
1100
1000
1010
0000
0101
0001
,
1001
0000
0000
0000
0011
0000
0010
0000
0010
0100
0000
0000
1010
0000
0010
0000
,
0010
0100
0000
0000
0201
0000
0001
0000
0301
0000
1010
0000
0000
1000
0000
0000
,
1100
0000
0011
1000
0010
0000
1000
0000
,
0100
0000
0000
0000
0010
0000
0010
0000
0010
0000
0000
0000
0100
0010
2000
0000
,
3000
0000
0000
0000
1010
0000
0010
0000
0010
0100
0000
0000
0011
0000
0010
0000
,
0010
0100
0000
0000
0012
0000
0010
0000
1003
0000
1100
0000
0000
0100
0000
0000
,
0011
0000
1010
0001
0010
0000
0001
0000
,
0001
0000
0000
0000
0010
0000
0000
0010
0100
0000
0000
0000
0000
0000
0000
0000
,
0020
0000
0230
0010
2300
0000
3002
0000
,
0203
0000
0320
0100
2030
0000
3020
0000
,
0230
0000
0301
0000
0101
0000
0200
0001
,
0320
0000
1030
0000
1020
0000
1030
1000
,
0001
1000
0000
0000
1000
0001
0000
0000
1001
0000
0000
0000
0001
0000
0010
0000
,
0100
0000
0010
0001
1000
0000
0001
0001
,
0002
0003
0010
0100
2000
3000
0001
0000
,
1001
1001
0011
1001
0101
0000
1010
1000
,
1010
0000
0000
0000
0110
0000
0010
0000
1000
0100
0000
0000
0110
0000
0010
0000
,
0010
0001
0000
0000
1200
0000
0010
0000
1300
0000
0011
0000
1000
0001
0000
0000
,
1001
0000
1001
1000
0010
0000
0100
0100
,
0001
0000
0000
0000
0010
0000
0010
0000
0010
0000
0000
0000
0010
0100
0002
0000
,
0003
0000
0000
0000
0110
0000
0010
0000
0001
0100
0000
0000
0110
0000
0010
0000
,
0010
1000
0000
0000
0201
0000
0010
0000
0301
0000
1010
0000
0001
0010
0000
0000
,
0110
0000
0110
0010
0100
0000
1000
0001
,
1000
0000
0000
0000
0010
0000
0000
0010
0100
0000
0000
0000
0000
0000
0000
0000
,
0001
0000
0001
0000
0000
0001
0000
0000
0010
0000
0010
0000
0000
0010
0000
0000
,
1000
0000
1000
0000
0000
1000
0000
0000
0100
0000
1000
0000
0010
0000
0001
0000
,
1000
0000
1000
0000
0000
1000
0000
0000
0010
0000
0010
0000
0000
0010
0000
0000
,
0001
0000
0001
0000
0000
0001
0000
0000
0100
0000
0001
0000
0010
0001
0010
0000
,
1000
0000
1000
0000
0000
1000
0000
0000
0100
0000
0100
0000
0000
0100
0000
0000
,
0001
0000
0001
0000
0000
0001
0000
0000
0010
0000
0001
0000
0100
0000
1000
0000
,
0001
0000
0001
0000
0000
0001
0000
0000
0100
0000
0100
0000
0000
0100
0000
0000
,
1000
0000
1000
0000
0100
0001
0000
0000
0020
0000
0031
0000
1000
0000
1000
0000
,
1001
0000
0000
0000
1001
0000
0001
0000
0001
0100
0020
0000
1030
0000
1000
0100
,
1000
0100
0000
0000
0021
0000
0130
0000
1100
0000
1000
0000
0010
0100
0000
0000
,
0101
0000
0000
0000
1001
0000
0010
0001
0010
0000
0100
0000
0100
0000
1000
0000
,
1000
0000
0000
0000
0010
1000
0010
1000
0010
0000
0000
0000
0100
0010
0002
0000
,
0003
0000
0000
0000
1010
0000
1000
0000
1000
0100
0020
0000
0031
0000
0001
0100
,
0001
0100
0000
0000
2010
0000
3001
0000
0101
0000
0100
0000
0010
1000
0000
0000
,
0011
0000
0000
0000
1001
0000
0010
1000
0010
0000
0100
0000
0100
0000
0001
0000
,
0001
0000
0000
0000
0011
0000
1000
0100
0010
0001
0000
0000
0000
0000
0000
0000
;

//---------------dance-single - ----------------
#NOTEDATA:;
#CHARTNAME:;
#STEPSTYPE:dance-single;
#DESCRIPTION:;
#CHARTSTYLE:;
#DIFFICULTY:Medium;
#METER:8;
#RADARVALUES:0.262370,0.307591,0.149316,0.223974,0.003733,246.000000,226.000000,20.000000,30.000000,0.000000,0.000000,0.000000,0.000000,0.000000,0.262370,0.307591,0.149316,0.223974,0.003733,246.000000,226.000000,20.000000,30.000000,0.000000,0.000000,0.000000,0.000000,0.000000;
#CREDIT:Karl with a K as delectablewet;
#NOTES:
0000
0000
0000
0000
,
0000
0000
0000
0000
,
0000
0000
0000
0000
,
0000
0000
0000
0000
,
1000
0100
0001
0100
,
1000
0010
0001
0010
,
0100
0100
0001
0010
,
0001
1000
0002
0013
,
1001
0010
1000
0010
,
1000
0001
0100
0001
,
1000
0001
0001
1000
,
1001
0000
0101
0000
1100
0000
1000
0100
,
1000
0000
0001
0100
0001
0000
1000
0100
,
1000
0001
0001
0001
,
0001
0000
0010
0001
0010
0000
0001
1000
,
0010
0000
0010
0010
0010
0000
1000
0000
,
0000
0000
1000
0100
1000
0000
0001
0100
,
0001
1000
1000
1000
,
1000
0000
0010
1000
0010
0000
1000
0001
,
0010
1001
0110
0000
,
2010
0010
0001
0001
,
0100
0100
0010
3010
,
1020
1000
0100
0100
,
0001
0001
2030
3010
,
1001
0010
0001
1000
,
0100
0001
0100
1000
,
0100
0010
0100
1000
,
1010
0101
1100
0110
,
1001
0000
0001
1000
0100
0000
1000
0001
,
0100
0000
0001
0010
0001
0000
0001
1000
,
0001
0000
0001
1000
0010
0000
1000
0001
,
0010
0000
0010
0010
0010
0000
0002
0000
,
0003
0000
1000
0001
0100
0000
0001
1000
,
0100
0000
1000
0010
1000
0100
1000
0001
,
1000
0000
1000
0001
0010
0000
0001
1000
,
0010
1001
0110
0000
,
2000
3200
0302
0003
,
2000
3020
0032
1003
,
0002
0203
2300
3000
,
0002
0000
0023
0000
2030
0000
3001
0001
,
2000
3020
0032
0003
,
2000
3020
0032
1003
,
2000
3200
0302
0003
,
2000
0000
3100
0100
0100
0000
0010
0000
,
0110
0000
1000
0100
0001
0000
0001
0100
,
1000
0000
1000
0010
0100
0001
0010
0100
,
1000
0000
1000
0010
0001
1000
0001
0010
,
1000
0000
0010
0010
0010
0000
1001
2000
,
3000
0000
0001
0100
1000
0000
1000
0100
,
0001
0000
0001
1000
0100
0010
1000
0001
,
0100
0000
1000
0001
0010
1000
0010
0001
,
1000
0000
0000
0000
1001
0000
0000
2002
3003
0000
0000
0000
0000
0000
0000
0000
;

//---------------dance-single - ----------------
#NOTEDATA:;
#CHARTNAME:;
#STEPSTYPE:dance-single;
#DESCRIPTION:;
#CHARTSTYLE:;
#DIFFICULTY:Easy;
#METER:5;
#RADARVALUES:0.145050,0.192245,0.037329,0.074658,0.000000,136.000000,131.000000,5.000000,10.000000,0.000000,0.000000,0.000000,0.000000,0.000000,0.145050,0.192245,0.037329,0.074658,0.000000,136.000000,131.000000,5.000000,10.000000,0.000000,0.000000,0.000000,0.000000,0.000000;
#CREDIT:Karl with a K as delectablewet;
#NOTES:
0000
0000
0000
0000
,
0000
0000
0000
0000
,
0000
0000
0000
0000
,
0000
0000
0000
0000
,
1000
0000
0100
0000
,
0001
0000
0100
0000
,
0010
0000
0001
0000
,
0001
0000
0010
0000
,
0110
0000
1000
0000
,
0001
0000
1000
0000
,
0100
0000
0010
0000
,
0001
0100
0010
0000
,
1010
0100
0010
0000
,
0100
0010
0100
0001
,
0100
0000
0010
1000
,
0001
1000
0010
0100
,
0000
0010
0100
0000
,
0010
0100
0010
1000
,
0010
0100
0100
0100
,
0100
0001
1000
0000
,
0002
0000
0000
0000
,
0203
0000
0000
0000
,
0320
0000
0000
0000
,
1030
0200
0000
0301
,
0200
0000
1000
0000
,
0010
0000
1300
0001
,
0200
0000
0010
0000
,
0301
1000
0100
0000
,
1001
0001
0100
0000
,
0001
0010
0100
0000
,
1000
0100
0010
1000
,
0010
0001
1000
1001
,
0000
1000
0010
0000
,
0100
0001
0100
0000
,
0100
0010
1000
1000
,
0001
0001
0010
0000
,
0020
0000
0001
0000
,
0100
0000
0001
0000
,
0032
0000
1000
0000
,
0010
0000
0100
0000
,
2003
0000
0010
0000
,
0001
0000
0100
0000
,
3200
0000
1000
0000
,
0010
0000
1300
0000
,
0001
0010
0100
0001
,
0100
0010
0001
0010
,
0100
0001
0100
0010
,
0001
0100
0010
0000
,
0000
1000
0010
0100
,
1000
0100
0010
1000
,
0010
0100
1000
0100
,
0010
1000
1001
0000
;

//---------------dance-single - XO FS+ SS DS JA- XMOD JU Mines- Spins----------------
#NOTEDATA:;
#CHARTNAME:;
#STEPSTYPE:dance-single;
#DESCRIPTION:XO FS+ SS DS JA- XMOD JU Mines- Spins;
#CHARTSTYLE:;
#DIFFICULTY:Challenge;
#METER:14;
#RADARVALUES:0.555669,0.602491,0.223974,0.851102,0.574867,521.000000,491.000000,30.000000,114.000000,68.000000,0.000000,0.000000,0.000000,0.000000,0.555669,0.602491,0.223974,0.851102,0.574867,521.000000,491.000000,30.000000,114.000000,68.000000,0.000000,0.000000,0.000000,0.000000;
#CREDIT:Karl with a K;
#OFFSET:-0.020000;
#BPMS:0.000000=95.000000
;
#STOPS:63.500000=0.631577
,77.250000=0.631577
,125.500000=0.631577
,139.250000=0.631577
,187.500000=0.631577
,201.250000=0.789474
;
#DELAYS:;
#WARPS:;
#TIMESIGNATURES:0.000000=4=4
;
#TICKCOUNTS:0.000000=4
;
#COMBOS:0.000000=1
;
#SPEEDS:0.000000=1.000000=0.000000=0
;
#SCROLLS:0.000000=1.000000
;
#FAKES:;
#LABELS:0.000000=Song Start
;
#NOTES:
0000
0000
0000
0000
,
0000
0000
0000
0000
,
0000
0000
0000
0000
,
0000
0000
0000
0000
,
2100
0000
0000
0000
3010
0000
0010
0100
0002
0000
0013
0000
0020
0000
0130
0000
,
0200
0000
0310
0010
0002
0103
0200
0310
,
1000
0000
0000
0000
1000
0000
1000
0001
0010
0000
0001
0000
0001
0000
0100
0000
,
0100
0000
0001
0000
0010
0000
0100
1000
0002
0000
0100
0000
0013
0100
1000
0000
,
0110
0000
0000
0000
1000
0000
0001
0100
0020
0000
0130
0000
0001
0000
0010
0000
,
0002
0000
0103
0000
0200
0000
0310
0000
0020
0000
1030
0000
0001
0010
0100
0000
,
0200
0000
1300
0000
2000
0000
3001
0100
0002
0000
0103
0000
0010
0000
1000
0000
,
1100
0000
0011
0000
1100
0000
MMMM
1000
0010
0000
1000
0000
0001
0100
0010
0000
,
0210
0000
0301
1000
0100
M100
0001
1000
0100
M100
0001
0000
0020
0000
0130
0000
,
0210
0000
1300
0001
0100
010M
1000
0001
0100
010M
1000
0000
1000
0100
0010
0100
,
0120
0000
0031
1000
0010
M010
0001
1000
0010
M010
0001
0000
0100
0010
0100
0010
,
0120
0000
1030
0001
0010
001M
1000
0001
0010
0000
0200
0000
0301
0100
0020
0030
,
0100
01M0
0001
1000
0100
M100
0001
0000
2000
0000
3010
0000
0120
0000
1030
0001
,
0100
010M
1000
0001
0100
010M
1000
0000
1000
0100
0010
0001
0120
0000
0031
1000
,
0010
M010
0001
1000
0010
M010
0001
0000
0100
0010
1000
0010
0120
0000
1030
0001
,
0010
001M
0001
0010
0100
0001
0000
0000
2000
0000
0000
0000
3010
0000
1000
2000
,
0001
0000
0100
0000
3010
0100
0020
0000
2030
0000
3200
0000
0320
0000
0032
0000
,
1000
0000
0100
0000
0013
0100
2000
0000
3002
0000
0100
0000
0103
0000
0001
0002
,
1000
0000
0013
0001
0200
0000
0010
0000
0302
0000
0013
0000
0020
0000
0130
2000
,
0001
0000
3010
1000
0100
0010
0001
0000
1001
0000
0000
0000
1000
0000
1000
0100
,
0010
0002
0103
0200
0310
0010
1000
0001
,
0020
0000
0031
0000
0001
0100
0001
0000
1000
0000
0100
0000
0020
0000
0031
0000
,
0002
0000
0103
0000
0100
0000
0001
0000
1010
0000
0101
0000
1010
0000
MMMM
1000
,
0100
0010
MMMM
0000
0010
0001
0100
0010
0120
0000
1030
0001
0010
001M
0100
01M0
,
0010
0M10
1000
0000
0200
0000
0310
0000
0120
0000
0031
1000
0010
M010
0100
01M0
,
0010
0M10
0001
0000
0001
0010
0100
0010
0210
0000
1300
0001
0100
010M
0010
0M10
,
0100
01M0
1000
0000
0010
0100
0010
0100
0210
0000
0301
1000
0100
M100
0010
0M10
,
0001
0000
0020
0000
1030
0010
0200
0300
0010
0M10
0100
01M0
0010
0M10
1000
0000
,
0002
0000
0103
0000
0210
0000
0301
1000
0010
M010
0100
01M0
0010
0M10
0001
0000
,
0001
0010
0100
1000
0210
0000
1300
0001
0100
010M
0010
0M10
0100
01M0
1000
0000
,
0010
0100
0001
0100
0210
0000
0301
1000
0100
M100
1000
0001
0010
1000
0000
0000
,
0020
0000
0230
0000
0000
2300
0000
0000
3002
0000
0023
0000
0000
0230
0000
0000
,
0302
0000
0023
0000
0000
0230
0000
0000
0302
0000
2003
0000
3020
0000
0032
0000
,
2003
0000
3020
0000
0000
0032
0000
0000
2003
0000
3200
0000
0000
0302
0000
0000
,
0023
0000
2030
0000
0000
3002
0000
0000
0203
0000
2300
0000
3100
0010
0001
0000
,
2000
0000
3020
0000
0000
0032
0000
0000
2003
0000
3020
0000
0000
0032
0000
0000
,
2003
0000
3200
0000
0000
0302
0000
0000
2003
0000
3200
0000
0302
0000
2003
0000
,
3002
0000
0203
0000
0000
2300
0000
0000
3002
0000
0203
0000
0000
2300
0000
0000
,
3002
0000
0023
0000
1030
0002
0000
0000
0023
0000
0130
0000
0100
1000
0010
0000
,
0120
0000
0031
1000
0010
M010
0100
01M0
0010
0M10
0001
0000
0200
0000
0310
0000
,
0120
0000
1030
0001
0010
001M
0100
01M0
0010
0M10
1000
0000
1000
0010
0100
0010
,
0210
0000
0301
1000
0100
M100
0010
0M10
0100
01M0
0001
0000
0010
0100
0010
0100
,
0210
0000
1300
0001
0100
010M
0010
0M10
1000
0000
0020
0000
0031
0010
0200
0300
,
0010
0M10
1000
10M0
0100
M100
0001
0000
2000
0000
3100
0000
0210
0000
1300
0001
,
0010
M010
0001
00M1
0010
001M
1000
0000
1000
0010
0100
0001
0210
0000
0301
1000
,
0100
M100
1000
1M00
0010
M010
0001
0000
0010
0100
1000
0100
0210
0000
1300
0100
,
0001
0M01
1000
0010
0200
1000
0000
0300
0000
0000
0000
0000
0000
0000
0000
0000
;

//---------------dance-single - ----------------
#NOTEDATA:;
#CHARTNAME:;
#STEPSTYPE:dance-single;
#DESCRIPTION:;
#CHARTSTYLE:;
#DIFFICULTY:Beginner;
#METER:1;
#RADARVALUES:0.020264,0.038449,0.000000,0.000000,0.000000,19.000000,19.000000,0.000000,0.000000,0.000000,0.000000,0.000000,0.000000,0.000000,0.020264,0.038449,0.000000,0.000000,0.000000,19.000000,19.000000,0.000000,0.000000,0.000000,0.000000,0.000000,0.000000,0.000000;
#CREDIT:Karl with a K;
#NOTES:
0000
0000
0000
0000
,
0000
0000
0000
0000
,
0000
0000
0000
0000
,
0000
0000
0000
0000
,
0100
0000
0000
0000
,
0000
0000
0000
0000
,
0000
0000
0000
0000
,
0000
0000
0000
0000
,
0100
0000
0000
0000
,
0000
0000
0000
0000
,
0000
0000
0000
0000
,
0000
0000
0000
0000
,
0100
0000
0000
0000
,
0000
0000
0000
0000
,
0100
0000
0000
0000
,
0000
0000
0000
0000
,
0000
0100
0000
0000
,
0000
0000
0000
0000
,
0100
0000
0000
0000
,
0000
0000
0000
0000
,
0100
0000
0000
0000
,
0000
0000
0000
0000
,
0000
0000
0000
0000
,
0000
0000
0000
0000
,
0100
0000
0000
0000
,
0000
0000
0000
0000
,
0000
0000
0000
0000
,
0000
0000
0000
0000
,
0100
0000
0000
0000
,
0000
0000
0000
0000
,
0100
0000
0000
0000
,
0000
0000
0000
0000
,
0000
0100
0000
0000
,
0000
0000
0000
0000
,
0100
0000
0000
0000
,
0000
0000
0000
0000
,
0100
0000
0000
0000
,
0000
0000
0000
0000
,
0000
0000
0000
0000
,
0000
0000
0000
0000
,
0100
0000
0000
0000
,
0000
0000
0000
0000
,
0000
0000
0000
0000
,
0000
0000
0000
0000
,
0100
0000
0000
0000
,
0000
0000
0000
0000
,
0100
0000
0000
0000
,
0000
0000
0000
0000
,
0000
0100
0000
0000
,
0000
0000
0000
0000
,
0100
0000
0000
0000
,
0000
0000
0100
0000
;

//---------------dance-double - ----------------
#NOTEDATA:;
#CHARTNAME:;
#STEPSTYPE:dance-double;
#DESCRIPTION:;
#CHARTSTYLE:;
#DIFFICULTY:Challenge;
#METER:14;
#RADARVALUES:0.494876,0.526526,0.321030,0.186645,0.332228,464.000000,421.000000,43.000000,25.000000,36.000000,0.000000,0.000000,0.000000,0.000000,0.494876,0.526526,0.321030,0.186645,0.332228,464.000000,421.000000,43.000000,25.000000,36.000000,0.000000,0.000000,0.000000,0.000000;
#CREDIT:Karl with a K;
#OFFSET:-0.020000;
#BPMS:0.000000=95.000000
;
#STOPS:63.500000=0.631577
,77.250000=0.631577
,125.500000=0.631577
,139.250000=0.631577
,187.500000=0.631577
,201.250000=0.789474
;
#DELAYS:;
#WARPS:;
#TIMESIGNATURES:0.000000=4=4
;
#TICKCOUNTS:0.000000=4
;
#COMBOS:0.000000=1
;
#SPEEDS:0.000000=1.000000=0.000000=0
;
#SCROLLS:0.000000=1.000000
;
#FAKES:;
#LABELS:0.000000=Song Start
;
#NOTES:
00000000
00000000
00000000
00000000
,
00000000
00000000
00000000
00000000
,
00000000
00000000
00000000
00000000
,
00000000
00000000
00000000
00000000
,
00021000
00000000
00000000
00000000
00030010
00000000
00001000
00000001
00000020
00000000
00000130
00000000
00000200
00000000
00010300
00000000
,
00010000
00000000
00001000
00100000
00020000
01030000
02000000
03100000
,
10000000
00000000
00000000
00000000
00010000
00000000
01000000
00001000
00010000
00000000
00001000
00000000
00100000
00000000
01000000
00000000
,
10000000
00010000
01000000
00100000
00020000
00001000
00031000
00010000
,
00010100
00000000
00010000
00000010
00000020
00000130
00000000
00000001
,
00000010
00000010
00000001
00001000
00000010
00010000
00001000
00100000
,
00020000
10030000
10000000
00010000
00020000
01030000
00100000
01000000
,
01010000
00000000
MMMM1000
00000000
0001MMMM
00000000
MMMM1000
00000000
00200000
00000000
00301000
00000000
00010000
00000010
00000100
00000000
,
00000110
00000000
00000001
00000000
00001000
00000100
00010000
00000100
00001000
00000100
00010000
00000000
00011000
00000000
01000000
00000000
,
01100000
00000000
10000000
00000000
00010000
01000000
00001000
01000000
00010000
01000000
00001000
00000000
00011000
00000000
00000100
00000000
,
00000110
00000000
00000001
00000000
00001000
00000010
00010000
00000010
00001000
00000010
00010000
00000000
00011000
00000000
01000000
00000000
,
01100000
00000000
10000000
00000000
00010000
00100000
00001000
00100000
00010000
00100000
00001000
00000000
00010000
00001000
00000200
00000000
,
00000301
00000100
00000010
00001000
00000100
00010000
00001000
00000000
00011000
00000000
01000000
00000000
01100000
00000000
00010000
00000000
,
10000000
01000000
00100000
00010000
01000000
00001000
00010000
00000000
00011000
00000000
00000100
00000000
00000110
00000000
00001000
00000000
,
00000001
00000010
00000100
00001000
00000010
00010000
00001000
00000000
00011000
00000000
01000000
00000000
01100000
00000000
00010000
00000000
,
10000000
00000000
00000000
10000000
02000000
03000000
00000000
00000000
20000000
00000000
00000000
00000000
30100000
00000000
01000000
01000000
,
00020000
00000000
10030000
00100000
20000000
00000000
31000000
00100000
,
00001000
00000000
00010000
00000000
00000010
00000000
00000100
00000000
00000002
00000000
00000000
00000000
00000013
00000000
00000100
00000100
,
00002000
00000000
00003001
00000010
00000002
00000000
00000103
00000010
,
00010000
00000000
00001000
00000000
00100000
00000000
01000000
00000000
10010000
00000000
00000000
00000000
10000000
00000000
01000000
00100000
,
00002000
00103000
01000000
10000000
00010000
01000000
00001000
00010000
,
00000010
00010000
00001000
00010000
00000100
00000100
00000020
00000001
,
00000031
00000100
00000010
00010000
00011000
0100MMMM
MMMM0100
0010MMMM
,
MMMM0010
00000000
00000000
00000000
0001MMMM
00000000
MMMM1000
00000000
00011000
00000000
00100000
00000000
00010000
01000000
00100000
10000000
,
01000000
00100000
00001000
00000000
00020000
00000000
00031000
00000000
00011000
00000000
00000010
00000000
00001000
00000100
00000010
00000001
,
00000100
00000010
00010000
00000000
00011000
00000000
00001000
00000000
01010000
00000000
00010000
00000000
10000000
01000000
00100000
00001000
,
00010000
00000010
00010000
00000000
00001000
00000000
00010000
00000000
00001100
00000000
00001000
00000000
00000001
00000100
00000010
00010000
,
00001000
00000000
00200000
00000000
01300000
00100000
20000000
30000000
00100000
01000000
10000000
00100000
01000000
00001000
00010000
00000000
,
00011000
00000000
00000100
00000000
00000110
00000000
00001000
00000000
00000010
00000100
00000001
00000010
00000100
00010000
00001000
00000000
,
00011000
00000000
00100000
00000000
01100000
00000000
00010000
00000000
01000000
00100000
10000000
01000000
00100000
00001000
00010000
00000000
,
00011000
00000000
00000010
00000000
00000110
00000000
00000001
00000000
00001001
00000000
00001000
00000100
00000020
00000030
00000000
00000000
,
00000001
00000000
00000100
00000000
00000000
00000010
00000000
00000000
00000001
00000000
00000010
00000000
00000000
00000100
00000000
00000000
,
00000001
00000000
00000010
00000000
00000000
00000100
00000000
00000000
00000001
00000000
00001000
00000000
00010000
00000000
01000000
00000000
,
10000000
00000000
01000000
00000000
00000000
00100000
00000000
00000000
10000000
00000000
00100000
00000000
00000000
01000000
00000000
00000000
,
10000000
00000000
00100000
00000000
00000000
01000000
00000000
00000000
10000000
00000000
00010000
00000000
00001000
00000010
00000001
00000000
,
00000001
00000000
00000010
00000000
00000000
00001000
00000000
00000000
00000100
00000000
00000010
00000000
00000000
00010000
00000000
00000000
,
00001000
00000000
00100000
00000000
00000000
01000000
00000000
00000000
00010000
00000000
00100000
00000000
10000000
00000000
01000000
00000000
,
10000000
00000000
00100000
00000000
00000000
00010000
00000000
00000000
01000000
00000000
00100000
00000000
00000000
00001000
00000000
00000000
,
00010000
00000000
00000010
00000000
00000100
00001000
00000000
00000000
00001000
00000000
00000100
00000000
00000001
00000000
00000010
00000000
,
00001001
00000000
00000001
00000000
00000010
00001000
00010000
00001000
00010000
00100000
10000000
00000000
01100000
00000000
01000000
00000000
,
10010000
00000000
10000000
00000000
00100000
00010000
00001000
00010000
00001000
00000010
00000001
00000000
00000110
00000000
00001000
00000000
,
00001001
00000000
00000001
00000000
00000100
00001000
00010000
00001000
00010000
01000000
10000000
00000000
01100000
00000000
00100000
00000000
,
10010000
00000000
10000000
00000000
01000000
00010000
00001000
00010000
00001000
00000100
00000001
00000000
00001000
00000100
00000001
00000000
,
00000100
00001000
00010000
01000000
10000000
01000000
00010000
00000000
10010000
00000000
00010000
00000000
11000000
00000000
01000000
00000000
,
00100000
00010000
00001000
00000010
00000001
00000010
00001000
00000000
00000110
00000000
00000001
00000000
00001100
00000000
00010000
00000000
,
00000010
00001000
00010000
00100000
10000000
00100000
00010000
00000000
10010000
00000000
00010000
00000000
10100000
00000000
00100000
00000000
,
01000000
00010000
00001000
00000100
00000001
00002000
00003000
00000000
00000000
00000000
00000000
00000000
00000000
00000000
00000000
00000000
;

//---------------dance-double - ----------------
#NOTEDATA:;
#CHARTNAME:;
#STEPSTYPE:dance-double;
#DESCRIPTION:;
#CHARTSTYLE:;
#DIFFICULTY:Hard;
#METER:10;
#RADARVALUES:0.351959,0.422938,0.343427,0.141850,0.104521,330.000000,284.000000,46.000000,19.000000,0.000000,0.000000,0.000000,0.000000,0.000000,0.351959,0.422938,0.343427,0.141850,0.104521,330.000000,284.000000,46.000000,19.000000,0.000000,0.000000,0.000000,0.000000,0.000000;
#CREDIT:Karl with a K;
#NOTES:
00000000
00000000
00000000
00000000
,
00000000
00000000
00000000
00000000
,
00000000
00000000
00000000
00000000
,
00000000
00000000
00000000
00000000
,
02010000
03001000
00010000
00000200
,
00000310
00000010
00000001
00001000
,
00000010
00000000
00010000
00000000
00001000
00010000
00001000
00000000
,
00100000
00000000
01000000
00000000
20000000
00000000
30010000
01000000
,
01100000
10000000
00010000
00100000
,
00001000
00000000
00010000
00001000
00010000
00000000
00000010
00000000
,
00000010
00000000
00000100
00000000
00000001
00000010
00000000
00000100
,
00000010
00000110
00011000
01010000
,
10010000
00000000
00000000
00000000
10100000
00000000
00100000
00000000
00100000
01000000
00000000
00000000
00011000
00000000
00010000
00000000
,
00010000
00000100
00000000
00000000
00000010
00000000
00000010
00000000
00000010
00000000
00000001
00000000
00000100
00000000
00000010
00000000
,
00001000
00000000
00000011
00000010
00000010
00000100
00001000
00000000
,
00000001
00000000
00000100
00001000
00010000
00000000
01000000
10000000
,
00000000
00000000
00000000
00000000
11000000
00000000
01000000
00000000
01000000
00100000
00000000
00000000
00011000
00000000
00010000
00000000
,
00010000
00000010
00000000
00000000
00000100
00000000
00000100
00000000
00000100
00000000
00000001
00000000
00000010
00000000
00000100
00000000
,
00001000
00000000
00000101
00000100
00000100
00000010
00001000
00000000
,
00000001
00000000
00000010
00001000
00010000
00000000
00000000
00000000
,
00002000
00203000
02300000
23000000
,
30200000
00000000
00320000
00000000
00032000
00000000
00003010
00000100
,
00000002
00000023
00000230
00020300
,
00032000
02003000
03200000
10300000
,
10010000
00000000
00000000
00000000
10000000
00010000
00000000
00000000
10010000
00000000
00000000
00000000
00010000
00000000
00100000
00000000
,
00001000
00000000
00100000
00001000
00010000
00000000
00000010
00000000
,
00000010
00000000
00000100
00000010
00001000
00000000
00000001
00000000
,
00001001
00000000
00011000
00000000
10010000
00000000
10000000
00010000
,
10100000
00000000
00000000
00000000
01100000
00000000
00100000
00000000
10000000
01000000
00000000
00000000
01100000
00000000
00100000
00000000
,
00100000
00001000
00000000
00000000
00011000
00000000
00010000
00000000
00001000
00000000
00001100
00000000
00000000
00001001
00000000
00000000
,
00000101
00000000
00000110
00000010
00001000
00000000
00000100
00010000
,
00001000
00000000
01000000
01000000
01000000
00000000
00100000
10000000
,
11000000
00000000
00000000
00000000
11000000
00000000
01000000
00000000
10000000
00100000
00000000
00000000
01100000
00000000
01000000
00000000
,
01000000
00001000
00000000
00000000
00011000
00000000
00010000
00000000
00001000
00000000
00001010
00000000
00000000
00001001
00000000
00000000
,
00000011
00000000
00000110
00000100
00001000
00000000
00000010
00010000
,
00001000
00000000
00100000
00100000
00100000
00000000
00000000
00000000
,
00010000
00000000
00010000
00000000
00000000
00010000
00000000
00000000
00100000
00000000
00100000
00000000
00000000
00100000
00000000
00000000
,
10000000
00000000
10000000
00000000
00000000
10000000
00000000
00000000
01000000
00000000
10000000
00000000
00100000
00000000
00010000
00000000
,
10000000
00000000
10000000
00000000
00000000
10000000
00000000
00000000
00100000
00000000
00100000
00000000
00000000
00100000
00000000
00000000
,
00010000
00000000
00010000
00000000
00000000
00010000
00000000
00000000
00001000
00000000
00010000
00000000
00000100
00000000
00000010
00000000
,
00000001
00000000
00000001
00000000
00000000
00000001
00000000
00000000
00000100
00000000
00000100
00000000
00000000
00000100
00000000
00000000
,
00001000
00000000
00001000
00000000
00000000
00001000
00000000
00000000
00000010
00000000
00001000
00000000
00000100
00000000
00000001
00000000
,
00000010
00000000
00000010
00000000
00000000
00000010
00000000
00000000
00001000
00000000
00001000
00000000
00000000
00001000
00000000
00000000
,
00010000
01000000
10000000
00000000
00100000
01000000
00100000
01000000
,
10010000
00000000
00000000
00000000
10010000
00000000
00010000
00000000
00010000
01000000
00200000
00000000
00310000
00000000
00001000
00000000
,
00000100
00000001
00000000
00000000
00000011
00000000
00000010
00000000
00001000
00000000
00010000
00000000
00001000
00000000
01000000
00000000
,
01001000
00000000
00000000
00000000
10010000
00000000
00010000
00100000
01000000
00000000
10000000
00000000
00100000
00000000
01000000
00000000
,
00001000
00000000
00011000
00010000
00011000
00000000
00000100
00000010
,
00000000
00000000
00000000
00000000
00001001
00000000
00001000
00000000
00001000
00000100
00000020
00000000
00001030
00000000
00010000
00000000
,
01000000
10000000
00000000
00000000
10100000
00000000
00100000
00000000
00010000
00000000
00001000
00000000
00010000
00000000
00000100
00000000
,
00010100
00000000
00000000
00000000
00001001
00000000
00001000
00000010
00000100
00000000
00000001
00000000
00000010
00000000
00000100
00000000
,
00010000
00000000
00011000
01000000
01100000
00000000
00000000
00000000
;

//---------------dance-double - ----------------
#NOTEDATA:;
#CHARTNAME:;
#STEPSTYPE:dance-double;
#DESCRIPTION:;
#CHARTSTYLE:;
#DIFFICULTY:Medium;
#METER:8;
#RADARVALUES:0.244239,0.307591,0.097055,0.179179,0.000000,229.000000,216.000000,13.000000,24.000000,0.000000,0.000000,0.000000,0.000000,0.000000,0.244239,0.307591,0.097055,0.179179,0.000000,229.000000,216.000000,13.000000,24.000000,0.000000,0.000000,0.000000,0.000000,0.000000;
#CREDIT:Karl with a K;
#NOTES:
00000000
00000000
00000000
00000000
,
00000000
00000000
00000000
00000000
,
00000000
00000000
00000000
00000000
,
00000000
00000000
00000000
00000000
,
10000000
01000000
00010000
00001000
,
00010000
00000010
00000010
00000100
,
00000001
00000100
00001000
00010000
,
00001000
00100000
00100000
01000000
,
10010000
00000000
10000000
00100000
,
01000000
00001000
00010000
00001000
,
00010000
00000100
00000010
00000001
,
00001001
00010100
00011000
01001000
,
10010000
00000000
00010000
01000000
00100000
00000000
10000000
01000000
,
00100000
00001000
00001000
00010000
,
00010000
00000000
00000010
00010000
00000010
00000000
00001000
00000000
,
00001000
00000000
00000100
00000010
00000100
00000000
00001000
00000000
,
00000000
00000000
00001000
00000010
00000100
00000000
00000001
00000010
,
00000100
00010000
00010000
00001000
,
00001000
00000000
01000000
00001000
01000000
00000000
00010000
00000000
,
00010000
00000000
00100000
01000000
10000000
00000000
00000000
00000000
,
10000000
00100000
01000000
00001000
,
00010000
00010000
00000100
00000100
,
00001000
00000100
00000010
00000001
,
00000100
00000010
00010000
00001000
,
00011000
00100000
00010000
10000000
,
00100000
00010000
00001000
01000000
,
00001000
00100000
00001000
00010000
,
00101000
00011000
00010010
00000110
,
00001001
00000000
00000001
00001000
00000100
00000000
00010000
00001000
,
00010000
00000010
00010000
00001000
,
00100000
00000000
00010000
10000000
00100000
00000000
10000000
00000000
,
00010000
00000000
01000000
00100000
01000000
00000000
00010000
10000000
,
00000000
00000000
10000000
00010000
01000000
00000000
00001000
00010000
,
00001000
00100000
00001000
00010000
,
00000010
00000000
00001000
00000001
00000010
00000000
00000001
00000000
,
00001000
00000000
00000100
00000010
00000001
00000000
00000000
00000000
,
00000002
00000203
00002300
00003000
,
00020000
00032000
00203000
02300000
,
23000000
32000000
03020000
00030000
,
00002000
00023000
00030020
00000130
,
00000002
00000023
00002030
00003000
,
00020000
00032000
02003000
03200000
,
20300000
30200000
00320000
00030000
,
00002000
00000000
00003010
00000001
00001000
00000000
00000001
00000000
,
00001001
00000000
00000001
00000100
00000010
00000000
00000001
00000010
,
00000100
00000000
00000010
00010000
00001000
00100000
01000000
00000000
,
10000000
00000000
10000000
00100000
00010000
00001000
00010000
00000100
,
00000010
00000000
00000001
00000001
00000001
00000000
00001000
00000001
,
00000000
00000000
00000001
00000010
00000100
00000000
00000001
00000100
,
00000010
00000000
00000100
00010000
00001000
01000000
00100000
00000000
,
10000000
00000000
10000000
01000000
00010000
00001000
00010000
00000010
,
00000100
00000000
00000010
00000010
00000010
00000000
00000000
00000000
;

//---------------dance-double - ----------------
#NOTEDATA:;
#CHARTNAME:;
#STEPSTYPE:dance-double;
#DESCRIPTION:;
#CHARTSTYLE:;
#DIFFICULTY:Easy;
#METER:5;
#RADARVALUES:0.162115,0.211469,0.111987,0.059726,0.000000,152.000000,137.000000,15.000000,8.000000,0.000000,0.000000,0.000000,0.000000,0.000000,0.162115,0.211469,0.111987,0.059726,0.000000,152.000000,137.000000,15.000000,8.000000,0.000000,0.000000,0.000000,0.000000,0.000000;
#CREDIT:Karl with a K;
#NOTES:
// measure 0
00000000
00000000
00000000
00000000
,  // measure 1
00000000
00000000
00000000
00000000
,  // measure 2
00000000
00000000
00000000
00000000
,  // measure 3
00000000
00000000
00000000
00000000
,  // measure 4
10000000
00000000
00100000
00000000
,  // measure 5
01000000
00000000
00001000
00000000
,  // measure 6
00010000
00000000
00000100
00000000
,  // measure 7
00000010
00000000
00000001
00000000
,  // measure 8
00001001
00000000
00000001
00000000
,  // measure 9
00000100
00000000
00000010
00000000
,  // measure 10
00010000
00000000
00001000
00000000
,  // measure 11
00100000
00100000
01000000
00000000
,  // measure 12
10010000
10000000
01000000
00000000
,  // measure 13
01100000
00100000
00001000
00010000
,  // measure 14
00010000
00000010
00000100
00000001
,  // measure 15
00001000
00000001
00000010
00000010
,  // measure 16
00000000
00000001
00000100
00000000
,  // measure 17
00000110
00000010
00010000
00001000
,  // measure 18
00001000
00100000
01000000
10000000
,  // measure 19
00010000
10000000
01100000
00000000
,  // measure 20
20000000
00000000
00000000
00000000
,  // measure 21
30020000
00000000
00000000
00000000
,  // measure 22
02030000
00000000
00000000
00000000
,  // measure 23
03002000
00000000
00023000
00000000
,  // measure 24
00030200
00000000
00000010
00000000
,  // measure 25
00000320
00000000
00000001
00000001
,  // measure 26
00000032
00000000
00000100
00000100
,  // measure 27
00000103
00000010
00000110
00000000
,  // measure 28
00001001
00000001
00000010
00000000
,  // measure 29
00000110
00000100
00010000
00001000
,  // measure 30
00001000
01000000
00100000
10000000
,  // measure 31
00010000
10000000
01000000
01000000
,  // measure 32
00000000
10000000
00100000
00000000
,  // measure 33
01100000
01000000
00001000
00010000
,  // measure 34
00010000
00000100
00000010
00000001
,  // measure 35
00001000
00000001
00001001
00000000
,  // measure 36
00000001
00000000
00000100
00000000
,  // measure 37
00001000
00000000
00010000
00000000
,  // measure 38
01000000
00000000
10000000
00000000
,  // measure 39
00100000
00000000
01000000
00010000
,  // measure 40
10000000
00000000
01000000
00000000
,  // measure 41
00010000
00000000
00001000
00000000
,  // measure 42
00000100
00000000
00000001
00000000
,  // measure 43
00000010
00000110
00000000
00000100
,  // measure 44
00001001
00000001
00000100
00001000
,  // measure 45
00010000
01000000
10000000
00010000
,  // measure 46
10010000
10000000
01000000
00010000
,  // measure 47
00001000
00000100
00000001
00001000
,  // measure 48
00000000
00000001
00000010
00001000
,  // measure 49
00010000
00100000
10000000
00010000
,  // measure 50
10010000
10000000
00100000
00010000
,  // measure 51
00001000
00000010
00000110
00000000
;
