#VERSION:0.83;
#TITLE:Copium;
#SUBTITLE:;
#ARTIST:Magni Dezmond;
#TITLETRANSLIT:;
#SUBTITLETRANSLIT:;
#ARTISTTRANSLIT:;
#GENRE:;
#ORIGIN:;
#CREDIT:;
#BANNER:Copium banner.png;
#BACKGROUND:Copium bg.png;
#PREVIEWVID:;
#JACKET:Copium jk.png;
#CDIMAGE:;
#DISCIMAGE:;
#LYRICSPATH:;
#CDTITLE:;
#MUSIC:Copium.ogg;
#OFFSET:0.000000;
#SAMPLESTART:55.652176;
#SAMPLELENGTH:15.000000;
#SELECTABLE:YES;
#BPMS:0.000=138.000,
96.000=69.000,
112.000=138.000,
208.000=69.000,
224.000=138.000,
260.000=69.000;
#STOPS:;
#DELAYS:;
#WARPS:;
#TIMESIGNATURES:0.000=4=4;
#TICKCOUNTS:0.000=4;
#COMBOS:0.000=1;
#SPEEDS:0.000=1.000=0.000=0;
#SCROLLS:0.000=1.000,
30.000=0.250,
30.250=0.500,
30.500=0.750,
30.750=1.000,
31.000=1.250,
31.250=1.500,
31.500=1.750,
31.750=2.000,
32.000=1.000,
110.000=0.000,
111.000=1.000,
222.000=0.500,
222.500=0.000,
224.000=1.000,
224.250=0.000,
225.000=-1.000,
225.250=0.000,
226.000=1.000,
226.250=0.000,
226.750=1.000;
#FAKES:;
#LABELS:0.000=Song Start;
#BGCHANGES:;
#KEYSOUNDS:;
#ATTACKS:
;

//---------------dance-single - XO- DS+ JA XMOD JU Mines----------------
#NOTEDATA:;
#CHARTNAME:;
#STEPSTYPE:dance-single;
#DESCRIPTION:XO- DS+ JA XMOD JU Mines;
#CHARTSTYLE:;
#DIFFICULTY:Challenge;
#METER:15;
#RADARVALUES:0.484984,0.848551,0.308004,0.403827,0.424361,496.000000,451.000000,45.000000,59.000000,68.000000,0.000000,0.000000,0.000000,0.000000,0.484984,0.848551,0.308004,0.403827,0.424361,496.000000,451.000000,45.000000,59.000000,68.000000,0.000000,0.000000,0.000000,0.000000;
#CREDIT:Karl with a K;
#OFFSET:0.000000;
#BPMS:0.000000=138.000000
,96.000000=69.000000
,112.000000=138.000000
,208.000000=69.000000
,224.000000=138.000000
,260.000000=69.000000
;
#STOPS:;
#DELAYS:;
#WARPS:;
#TIMESIGNATURES:0.000000=4=4
;
#TICKCOUNTS:0.000000=4
;
#COMBOS:0.000000=1
;
#SPEEDS:0.000000=1.000000=0.000000=0
;
#SCROLLS:0.000000=1.000000
,30.000000=0.250000
,30.250000=0.500000
,30.500000=0.750000
,30.750000=1.000000
,31.000000=1.250000
,31.250000=1.500000
,31.500000=1.750000
,31.750000=2.000000
,32.000000=1.000000
,110.000000=0.000000
,111.000000=1.000000
,222.000000=0.500000
,222.500000=0.000000
,224.000000=1.000000
,224.250000=0.000000
,225.000000=-1.000000
,225.250000=0.000000
,226.000000=1.000000
,226.250000=0.000000
,226.750000=1.000000
;
#FAKES:;
#LABELS:0.000000=Song Start
;
#NOTES:
0000
0000
0000
0000
,
0000
0000
0000
0000
,
0000
0000
0000
0000
,
0000
0000
0000
0000
,
1000
0000
0010
0000
,
0100
0000
0010
1000
0010
0000
1000
0000
,
0200
0000
0320
0000
,
0032
0000
1003
0000
,
0001
0000
0001
0000
0010
0100
0000
0010
,
0002
0000
0023
0000
2030
0000
3010
0001
,
1000
0000
0010
0000
0010
1000
0100
0010
,
0002
0000
0203
0000
2300
0000
3100
0001
,
1000
0000
0010
1000
0100
0000
0010
0000
,
2000
0000
3020
0000
0032
0000
0013
0100
,
1000
0000
0001
1000
1000
0001
1000
0100
,
1000
0000
0001
1000
0001
0000
1000
0000
0010
0000
0100
0000
0120
0000
0000
0000
,
1030
0100
0110
0010
0001
0100
MMMM
0000
,
1000
0000
0010
1000
0010
0000
0010
1000
0020
0000
0000
0000
1030
0000
0100
0000
,
1000
0000
0010
1000
0000
0001
0101
0100
,
0001
0000
0010
0100
0000
0002
0203
2300
,
3100
1000
1001
0001
2000
0000
3100
0100
,
1000
0000
0000
0001
0010
0000
2000
0000
0000
0000
3000
0000
0110
0000
0001
0000
,
1000
0000
0011
0010
0000
0001
1001
1000
,
0020
0000
0031
0020
0230
1000
0310
0000
,
1020
0000
2030
0000
3100
0020
0000
0032
0000
0000
0000
0000
0000
0000
1000
0000
,
0023
0000
0000
0000
0000
0000
0000
0000
0000
0032
0000
0000
0103
0000
0000
0000
0010
0000
0100
0000
0000
1000
0000
0000
0200
0000
0000
0000
0000
0000
0000
0000
0000
0000
0000
0000
0300
0000
0000
0000
0000
0000
0000
0000
0000
0100
0000
0000
,
0001
0000
0000
0001
0000
0000
0020
0000
0100
0000
0000
0031
0000
0000
0001
0000
1000
0000
0000
1000
0000
0000
0020
0000
0100
0000
0000
1030
0000
0000
1000
0000
,
0001
0000
0100
0000
0010
0000
0100
0000
0001
1000
0001
1000
0001
1000
0001
1000
0100
0000
0000
0000
0000
0000
0000
0000
0000
0000
0000
0000
MMMM
0000
0000
0000
,
0001
0000
0100
0002
0000
0000
0000
0000
0000
0000
0000
0000
0013
0000
0000
0000
0000
0000
1200
0000
0000
0000
0000
0000
,
0300
0100
0010
MMMM
,
1000
0000
0100
2000
0000
0000
0000
0000
0000
0000
0000
0000
3010
0000
0000
0000
0000
0000
0000
0000
0000
0000
0000
0000
,
1000
0010
0000
0000
0100
0001
0000
0000
0010
0000
0000
0000
MMMM
0000
0000
0000
,
0001
0000
0010
0002
0000
0000
0000
0000
0000
0000
0000
0000
0103
0000
0000
0000
0000
0000
1020
0000
0000
0000
0000
0000
,
0030
0010
0100
MMMM
,
1000
0000
0010
2000
0000
0000
0000
0000
0000
0000
0000
0000
3100
0000
0000
0000
0000
0000
0000
0000
0000
0000
0000
0000
,
1000
0100
0000
0000
0010
0001
0000
0000
0100
0000
0000
0000
MMMM
0000
0000
0000
,
1000
0000
0100
1000
0000
0000
0001
0000
0000
0100
0000
0000
0010
0000
0000
0100
0000
0000
0001
0000
0000
0000
0000
0000
,
0000
0000
1000
0100
0010
0100
MMMM
0000
,
0001
0000
0100
0001
0000
0000
1000
0000
0000
0100
0000
0000
0010
0000
0000
0100
0000
0000
2000
0000
0000
0000
0000
0000
,
0010
30M2
0000
0000
1000
M203
0000
0000
0310
0000
0100
0000
MMMM
0000
0000
0000
,
0001
0000
0010
0001
0000
0000
1000
0000
0000
0010
0000
0000
0001
0000
0000
0010
0000
0000
1000
0000
0000
0000
0000
0000
,
0000
0000
0001
0010
1000
0010
MMMM
0000
,
1000
0000
0010
1000
0000
0000
0001
0000
0000
0010
0000
0000
1000
0000
0000
0010
0000
0000
0002
0000
0000
0000
0000
0000
,
1000
M023
0000
0000
0001
023M
0000
0000
1300
0000
0010
0000
MMMM
0000
0000
0000
,
1100
0000
1000
0001
0101
0000
0001
1000
,
1010
0000
1000
0100
1100
0000
1000
0001
,
0011
0000
0001
1000
1010
0000
1000
0001
,
0101
0000
0001
1000
1100
0000
0110
0000
,
1001
0000
0001
1000
1100
0000
1000
0001
,
0011
0000
0001
0100
0101
0000
0001
1000
,
1010
0000
1000
0001
0011
0000
0001
1000
,
1100
0000
1000
0001
0101
0000
0110
0000
,
2000
0000
0000
0000
0001
0000
0000
0001
0000
0000
0001
0000
0001
0000
0000
0200
3000
0000
1000
0000
1000
0000
0000
1000
0000
0000
1000
0000
1000
0000
0000
0020
,
0300
0000
0001
0000
0001
0000
0000
0001
0000
0000
0001
0000
0001
0000
0000
0002
0030
0000
0100
0000
0100
0000
0000
0100
0000
0000
0100
0000
0100
0000
0000
1000
,
0003
0000
0010
0000
1000
0000
0000
0001
0000
0000
0010
0000
0001
0000
0000
1000
0000
0000
0100
0000
1000
0000
0000
0001
0000
0000
0100
0000
0001
0000
0000
0000
,
1000
0000
1000
0100
0000
0000
0010
0000
0001
0000
0000
0000
0001
0000
0000
0000
2000
0000
0200
0000
3300
0000
0000
0000
0000
0000
0000
0000
0000
0000
0000
0000
,
0000
0000
0000
MMMM
,
1001
0000
0001
0100
0010
0100
0001
1000
0000
0100
0010
0000
0100
0000
0000
0010
,
0001
1000
0010
0000
1000
0000
0100
1000
0000
0100
1000
0000
MMMM
0000
0000
0000
,
1001
0000
1000
0100
0010
0100
1000
0001
0000
0100
0010
0000
0100
0000
0000
0020
,
1000
M130
0020
0000
0100
1M30
0001
1000
0100
0010
0100
0000
MMMM
0000
0000
0000
,
0101
0000
0001
0010
0100
0010
0001
1000
0000
0010
0100
0000
0010
0000
0000
0100
,
0001
1000
0100
0000
1000
0000
0010
1000
0000
0010
1000
0000
MMMM
0000
0000
0000
,
1100
0000
1000
0010
0100
0010
1000
0001
0000
0010
0100
0000
0010
0000
0000
0200
,
1000
M320
0000
0000
0001
013M
1000
0010
0000
0010
0100
0000
MMMM
0000
0000
0000
,
2100
0000
3010
0100
1001
0001
0100
0000
0102
0000
0013
0100
1001
1000
0100
0000
,
0210
0000
0000
0000
0310
0000
0001
0000
0110
0000
0000
0000
1000
0000
0001
0100
0001
0000
0000
0100
0000
0000
0000
0001
0010
0000
0000
0000
0100
0000
0100
0000
,
0120
0000
1030
0010
0110
0100
1000
0010
0120
0000
0031
0010
0110
0100
0001
0000
,
1001
0000
0001
0000
0010
0000
1000
0000
2010
0000
0000
0000
3010
0000
0100
0010
0001
0000
0000
0001
0000
0000
0100
0000
1000
0000
0100
0000
1100
0000
0000
0000
;

//---------------dance-single - Hands++++++ MagginTime++++++ Cthulu-----------------
#NOTEDATA:;
#CHARTNAME:;
#STEPSTYPE:dance-single;
#DESCRIPTION:Hands++++++ MagginTime++++++ Cthulu-;
#CHARTSTYLE:;
#DIFFICULTY:Edit;
#METER:666;
#RADARVALUES:0.597430,2.545653,0.444895,0.835033,0.896634,611.000000,544.000000,65.000000,122.000000,822.000000,83.000000,0.000000,16.000000,0.000000,0.597430,2.545653,0.444895,0.835033,0.896634,611.000000,544.000000,65.000000,122.000000,822.000000,83.000000,0.000000,16.000000,0.000000;
#CREDIT:Magmo Dezmo;
#OFFSET:0.000000;
#BPMS:0.000000=34.500000
,8.000000=138.000000
,72.000000=69.000000
,136.000000=34.500000
,144.000000=69.000000
,146.000000=276.000000
,210.000000=17.250000
,214.000000=2208.000000
;
#STOPS:;
#DELAYS:;
#WARPS:;
#TIMESIGNATURES:0.000000=4=4
;
#TICKCOUNTS:0.000000=4
;
#COMBOS:0.000000=1
;
#SPEEDS:0.000000=1.000000=0.000000=0
;
#SCROLLS:0.000000=0.000000
,3.750000=1.000000
,7.500000=0.250000
,7.562500=0.500000
,7.625000=0.750000
,7.687500=1.000000
,7.750000=1.250000
,7.812500=1.500000
,7.875000=1.750000
,7.937500=2.000000
,8.000000=1.000000
,86.000000=0.000000
,87.000000=1.000000
,94.000000=2.000000
,94.500000=-2.000000
,95.000000=4.000000
,95.500000=1.000000
,102.000000=2.000000
,102.500000=-2.000000
,103.000000=4.000000
,103.500000=1.000000
,110.000000=2.000000
,110.500000=-2.000000
,111.000000=4.000000
,111.500000=1.000000
,118.000000=2.000000
,118.500000=-2.000000
,119.000000=4.000000
,119.500000=2.000000
,120.000000=1.000000
,143.000000=0.500000
,143.250000=0.000000
,144.000000=1.000000
,144.125000=0.000000
,144.500000=-1.000000
,144.625000=0.000000
,145.000000=1.000000
,145.125000=0.000000
,145.375000=1.000000
;
#FAKES:;
#LABELS:0.000000=Song Start
;
#DISPLAYBPM:*;
#NOTES:
0000
0000
0000
0000
,
0001
0100
0010
1000
0100
0010
0100
1000
0001
0010
0100
0001
0100
0010
0001
1000
0020
0100
1000
0100
0230
0010
0001
0010
2300
0010
0001
0200
3301
0000
0000
0000
,
1000
0100
1000
0001
0100
0010
0010
0100
,
2000
0000
0200
0000
3302
0020
0103
1030
,
0001
0000
0100
0001
0100
0001
0010
0100
,
2000
0000
0020
0000
0032
0010
3013
1000
,
0001
0000
0100
0001
0010
0100
0010
0100
,
0002
0000
0200
0000
2303
0001
3100
0010
,
0001
0000
0010
0001
0001
1000
0001
0010
,
0001
0000
1000
0001
1000
0000
0001
0000
0200
0000
0020
0000
0001
0000
0030
0000
,
0302
0000
0000
0000
0020
0000
0000
0000
0133
0000
0000
0000
0100
0000
0000
0000
1000
0000
0000
0000
0010
0000
0000
0000
MMMM
MMMM
MMMM
MMMM
MMMM
MMMM
0000
0000
,
0001
0000
0100
1000
0100
0000
0100
2000
0200
0000
0000
0000
3310
0000
0010
0000
,
1000
0000
1000
0001
0000
1000
1010
0010
,
1000
0000
0100
0010
0000
2000
0020
3031
,
0010
0001
1001
1000
0002
0000
0013
0010
,
0002
0000
0000
1000
0103
0000
0002
0000
0000
0000
0000
0000
0113
0000
1000
0000
,
0001
0000
1100
0100
0000
1000
1001
0001
,
0200
0000
2300
0200
0010
3302
1103
0000
,
0101
0100
0001
0100
0010
0100
0010
2000
0100
0010
0001
0010
0100
0010
0001
0010
,
3200
0000
0000
0010
0000
0000
0001
0000
0000
2300
0000
0000
3010
0000
0000
0000
0100
0000
0010
0000
0000
0001
0000
0000
0020
0000
0000
0100
0000
0000
0001
0000
0000
1000
0000
0000
0031
0000
0000
0100
0000
0000
0010
0000
0000
0010
0000
0000
,
1000
0000
0001
1000
0001
0000
0200
0000
0010
0010
1000
1300
0010
0000
1000
0000
0001
0000
1000
0001
1000
0000
0200
0000
0010
0010
0001
0301
0010
0000
0001
0000
,
1010
0000
0000
0000
0010
0000
0000
0000
0110
0000
0000
0000
0010
0000
0000
0000
1000
0000
0001
0000
1000
0000
0001
0000
1010
0000
0101
0000
1010
0000
0101
0000
1111
0000
0000
0000
0000
0000
0000
0000
0000
0000
0000
0000
0000
0000
0000
0000
0000
0000
0000
0000
0000
0000
0000
0000
MMMM
MMMM
MMMM
MMMM
MMMM
0000
0000
0000
,
1000
0000
0000
0000
0000
0000
0000
0000
0200
0000
0000
0000
2000
0000
0000
0000
0000
0000
0000
0000
0000
0000
0000
0000
0000
0000
0000
0000
0000
0000
0000
0000
0000
0000
0000
0000
0000
0000
0000
0000
0000
0000
0000
0000
0000
0000
0000
0000
0011
0000
0000
0000
0000
0000
0000
0000
0000
0000
0000
0000
0000
0000
0000
0000
0000
0000
0000
0000
0000
0000
0000
3300
2200
0000
0000
0000
0000
0000
0000
0000
0000
0000
0000
0000
0000
0000
0000
0000
0000
0000
0000
0000
0000
0000
0000
0000
0000
0000
0000
0000
0000
0000
0000
0000
0000
0000
0000
0000
0000
0000
0000
0000
0000
0000
0000
0000
0000
0000
0000
0300
0200
0000
0000
0000
0000
0000
0000
0000
0000
0000
0000
0000
0000
0000
0000
0000
0000
0000
0000
0000
0000
0000
0000
0000
3311
0000
0000
0000
0000
0000
0000
0000
0000
0000
0000
0000
0000
0000
0000
0000
0000
0000
0000
0000
0000
0000
0000
0000
MMMM
0000
0000
MMMM
0000
0000
MMMM
0000
0000
MMMM
0000
0000
MMMM
0000
0000
0000
0000
0000
0000
0000
0000
0000
0000
0000
,
0001
0000
0000
0000
0000
0000
0000
0000
0200
0000
0000
0000
0002
0000
0000
0000
0000
0000
0000
0000
0000
0000
0000
0000
0000
0000
0000
0000
0000
0000
0000
0000
0000
0000
0000
0000
0000
0000
0000
0000
0000
0000
0000
0000
0000
0000
0000
0000
1010
0000
0000
0000
0000
0000
0000
0000
0000
0000
0000
0000
0000
0000
0000
0000
0000
0000
0000
0000
0000
0000
0000
0000
0000
0000
0000
0000
0000
0000
0000
0000
0000
0000
0000
0000
0000
0000
0000
0000
0000
0000
0000
0000
0000
0000
0000
0000
L0L0
0000
0000
0000
0000
0000
0000
0000
0000
0000
0000
0000
0000
0000
0000
0000
0000
0000
0000
0000
0000
0000
0000
0000
1010
0000
0000
0000
0000
0000
0000
0000
0000
0000
0000
0000
0000
0000
0000
0000
0000
0000
0000
0000
0000
0000
0000
0000
L0L0
0000
0000
0000
0000
0000
0000
0000
0000
0000
0000
0000
0303
0000
0000
0000
0000
0000
0000
0000
0000
0000
0000
0000
MMMM
0000
0000
MMMM
0000
0000
MMMM
0000
0000
MMMM
0000
0000
MMMM
0000
0000
0000
0000
0000
0000
0000
0000
0000
0000
0000
,
0001
0000
0000
0000
0000
0000
0000
0000
0200
0000
0000
0000
0002
0000
0000
0000
0000
0000
0000
0000
0000
0000
0000
0000
0000
0000
0000
0000
0000
0000
0000
0000
0000
0000
0000
0000
0000
0000
0000
0000
0000
0000
0000
0000
0000
0000
0000
0000
1010
0000
0000
0000
0000
0000
0000
0000
0000
0000
0000
0000
0000
0000
0000
0000
0000
0000
0000
0000
0000
0000
0000
0303
0202
0000
0000
0000
0000
0000
0000
0000
0000
0000
0000
0000
0000
0000
0000
0000
0000
0000
0000
0000
0000
0000
0000
0000
0000
0000
0000
0000
0000
0000
0000
0000
0000
0000
0000
0000
0000
0000
0000
0000
0000
0000
0000
0000
0000
0000
0000
0300
0200
0000
0000
0000
0000
0000
0000
0000
0000
0000
0000
0000
0000
0000
0000
0000
0000
0000
0000
0000
0000
0000
0000
0000
1313
0000
0000
0000
0000
0000
0000
0000
0000
0000
0000
0000
0000
0000
0000
0000
0000
0000
0000
0000
0000
0000
0000
0000
MMMM
0000
0000
MMMM
0000
0000
MMMM
0000
0000
MMMM
0000
0000
MMMM
0000
0000
0000
0000
0000
0000
0000
0000
0000
0000
0000
,
1000
0000
0000
0000
0000
0000
0000
0000
0200
0000
0000
0000
2000
0000
0000
0000
0000
0000
0000
0000
0000
0000
0000
0000
0000
0000
0000
0000
0000
0000
0000
0000
0000
0000
0000
0000
0000
0000
0000
0000
0000
0000
0000
0000
0000
0000
0000
0000
0011
0000
0000
0000
0000
0000
0000
0000
0000
0000
0000
0000
0000
0000
0000
0000
0000
0000
0000
0000
0000
0000
0000
0000
0000
0000
0000
0000
0000
0000
0000
0000
0000
0000
0000
0000
0000
0000
0000
0000
0000
0000
0000
0000
0000
0000
0000
0000
00LL
0000
0000
0000
0000
0000
0000
0000
0000
0000
0000
0000
0000
0000
0000
0000
0000
0000
0000
0000
0000
0000
0000
0000
0011
0000
0000
0000
0000
0000
0000
0000
0000
0000
0000
0000
0000
0000
0000
0000
0000
0000
0000
0000
0000
0000
0000
0000
00LL
0000
0000
0000
0000
0000
0000
0000
0000
0000
0000
0000
3300
0000
0000
0000
0000
0000
0000
0000
0000
0000
0000
0000
MMMM
0000
0000
MMMM
0000
0000
MMMM
0000
0000
MMMM
0000
0000
MMMM
0000
0000
0000
0000
0000
0000
0000
0000
0000
0000
0000
,
0001
0000
0000
0000
0000
0000
0000
0000
0100
0000
0000
0000
0001
0000
0000
0000
0000
0000
0000
0000
0000
0000
0000
0000
2000
0000
0000
0000
0000
0000
0000
0000
0000
0000
0000
0000
0200
0000
0000
0000
0000
0000
0000
0000
0000
0000
0000
0000
3311
0000
0000
0000
0000
0000
0000
0000
0000
0000
0000
0000
0100
0000
0000
0000
0000
0000
0000
0000
0000
0000
0000
0000
1100
0000
0000
0000
0000
0000
0000
0000
0000
0000
0000
0000
0000
0000
0000
0000
0000
0000
0000
0000
0000
0000
0000
0000
0000
0000
0000
0000
0000
0000
0000
0000
0000
0000
0000
0000
0000
0000
0000
0000
0000
0000
0000
0000
0000
0000
0000
0000
0002
0000
0000
0000
0000
0000
0000
0000
0000
0000
0000
0000
0200
0000
0000
0000
0000
0000
0000
0000
0000
0000
0000
0000
1313
0000
0000
0000
0000
0000
0000
0000
0000
0000
0000
0000
0100
0000
0000
0000
0000
0000
0000
0000
0000
0000
0000
0000
MMMM
0000
0000
MMMM
0000
0000
MMMM
0000
0000
MMMM
0000
0000
MMMM
0000
0000
0000
0000
0000
0000
0000
0000
0000
0000
0000
,
1000
0000
0000
0000
0000
0000
0000
0000
0100
0000
0000
0000
1000
0000
0000
0000
0000
0000
0000
0000
0000
0000
0000
0000
0002
0000
0000
0000
0000
0000
0000
0000
0000
0000
0000
0000
0200
0000
0000
0000
0000
0000
0000
0000
0000
0000
0000
0000
1313
0000
0000
0000
0000
0000
0000
0000
0000
0000
0000
0000
0100
0000
0000
0000
0000
0000
0000
0000
0000
0000
0000
0000
0202
0000
0000
0000
0000
0000
0000
0000
0000
0000
0000
0000
0000
0000
0000
0000
0000
0000
0000
0000
0000
0000
0000
0000
L0L0
0000
0000
0000
0000
0000
0000
0000
0000
0000
0000
0000
0000
0000
0000
0000
0000
0000
0000
0000
0000
0000
0000
0000
1010
0000
0000
0000
0000
0000
0000
0000
0000
0000
0000
0000
0000
0000
0000
0000
0000
0000
0000
0000
0000
0000
0000
0000
L0L0
0000
0000
0000
0000
0000
0000
0000
0000
0000
0000
0000
0303
0000
0000
0000
0000
0000
0000
0000
0000
0000
0000
0000
MMMM
0000
0000
MMMM
0000
0000
MMMM
0000
0000
MMMM
0000
0000
MMMM
0000
0000
0000
0000
0000
0000
0000
0000
0000
0000
0000
,
1000
0000
0000
0000
0000
0000
0000
0000
0010
0000
0000
0000
1000
0000
0000
0000
0000
0000
0000
0000
0000
0000
0000
0000
0002
0000
0000
0000
0000
0000
0000
0000
0000
0000
0000
0000
0020
0000
0000
0000
0000
0000
0000
0000
0000
0000
0000
0000
1133
0000
0000
0000
0000
0000
0000
0000
0000
0000
0000
0000
0010
0000
0000
0000
0000
0000
0000
0000
0000
0000
0000
0000
0011
0000
0000
0000
0000
0000
0000
0000
0000
0000
0000
0000
0000
0000
0000
0000
0000
0000
0000
0000
0000
0000
0000
0000
0000
0000
0000
0000
0000
0000
0000
0000
0000
0000
0000
0000
0000
0000
0000
0000
0000
0000
0000
0000
0000
0000
0000
0000
2000
0000
0000
0000
0000
0000
0000
0000
0000
0000
0000
0000
0020
0000
0000
0000
0000
0000
0000
0000
0000
0000
0000
0000
3131
0000
0000
0000
0000
0000
0000
0000
0000
0000
0000
0000
0010
0000
0000
0000
0000
0000
0000
0000
0000
0000
0000
0000
MMMM
0000
0000
MMMM
0000
0000
MMMM
0000
0000
MMMM
0000
0000
MMMM
0000
0000
0000
0000
0000
0000
0000
0000
0000
0000
0000
,
0001
0000
0000
0000
0000
0000
0000
0000
0010
0000
0000
0000
0001
0000
0000
0000
0000
0000
0000
0000
0000
0000
0000
0000
2000
0000
0000
0000
0000
0000
0000
0000
0000
0000
0000
0000
0020
0000
0000
0000
0000
0000
0000
0000
0000
0000
0000
0000
3131
0000
0000
0000
0000
0000
0000
0000
0000
0000
0000
0000
0010
0000
0000
0000
0000
0000
0000
0000
0000
0000
0000
0000
22MM
0000
0000
0000
0000
0000
0000
0000
0000
0000
0000
0000
0000
0000
0000
0000
0000
0000
0000
0000
0000
0000
0000
0000
00LL
0000
0000
0000
0000
0000
0000
0000
0000
0000
0000
0000
0000
0000
0000
0000
0000
0000
0000
0000
0000
0000
0000
0000
0011
0000
0000
0000
0000
0000
0000
0000
0000
0000
0000
0000
0000
0000
0000
0000
0000
0000
0000
0000
0000
0000
0000
0000
00LL
0000
0000
0000
0000
0000
0000
0000
0000
0000
0000
0000
3300
0000
0000
0000
0000
0000
0000
0000
0000
0000
0000
0000
MMMM
0000
0000
MMMM
0000
0000
MMMM
0000
0000
MMMM
0000
0000
MMMM
0000
0000
0000
0000
0000
0000
0000
0000
0000
0000
0000
,
0011
0000
0002
2000
3013
0000
2000
0002
3103
0000
0002
0020
1033
0000
0002
2000
,
3103
0000
2000
0002
3103
0000
0002
2000
3013
0000
2000
0002
0010
0000
3223
0000
,
1332
0000
2003
0002
3013
0000
0002
2000
3103
0000
2000
0020
3031
0000
2000
0002
,
3103
0000
0002
2000
3103
0000
2000
0002
3013
0000
0002
2000
0010
0000
3223
0000
,
0332
0000
0000
0000
1000
0000
0000
1000
0000
0000
1000
0000
1000
0000
0000
0020
0003
0000
0001
0000
0001
0000
0000
0001
0000
0000
0001
0000
0001
0000
0000
0200
0030
0000
1000
0000
1000
0000
0000
1000
0000
0000
1000
0000
1000
0000
0000
2000
0300
0000
0010
0000
0010
0000
0000
0010
0000
0000
0010
0000
0010
0000
0000
0001
,
3000
0000
0100
0000
0001
0000
0000
1000
0000
0000
0100
0000
1000
0000
0000
0001
0000
0000
0010
0000
0001
0000
0000
1000
0000
0000
0010
0000
1000
0000
0000
0000
0001
0000
0001
0010
0000
0000
0100
0000
1000
0000
0000
0000
2000
0000
0000
0000
0002
0000
0020
0000
3033
0000
0000
0000
0000
0000
0000
0000
0000
0000
0000
0000
,
0000
0000
0000
0000
0000
0000
0000
0000
0000
0000
0000
0000
0000
0000
0000
0000
0000
0000
0000
0000
0000
0000
0000
0000
0000
0000
0000
0000
0000
0000
0000
0000
0000
0000
0000
0000
0000
0000
0000
0000
0000
0000
0000
0000
0000
0000
0000
0000
0000
0000
0000
0000
0000
0000
0000
0000
0000
0000
0000
0000
0000
0000
0000
0000
0000
0000
0000
0000
0000
0000
0000
0000
MMMM
0000
0000
MMMM
0000
0000
MMMM
0000
0000
MMMM
0000
0000
MMMM
0000
0000
0000
0000
0000
0000
0000
0000
0000
0000
0000
1001
0000
0000
0000
0000
0000
0000
0000
0000
0000
0000
0000
0000
0000
0000
0000
0000
0000
0000
0000
0000
0000
0000
0000
0000
0000
0000
0000
0000
0000
0000
0000
0001
0000
0000
0000
0000
0000
0000
0000
0000
0000
0000
0000
0000
0000
0000
0000
1000
0000
0000
0000
0000
0000
0000
0000
0000
0000
0000
0000
0000
0000
0000
0000
0000
0000
0000
0000
0000
0000
0000
0000
0010
0000
0000
0000
0000
0000
0000
0000
0000
0000
0000
0000
0000
0000
0000
0000
0000
0000
0000
0000
0000
0000
0000
0000
,
0100
0010
1000
0001
1000
0010
0100
0001
,
0010
0001
1000
0100
1000
0001
0100
0001
,
0010
0001
0010
0001
0100
0010
0001
0000
,
MMMM
0000
0000
MMMM
0000
0000
MMMM
0000
0000
MMMM
0000
0000
MMMM
0000
0000
0000
0000
0000
0000
0000
0000
0000
0000
0000
1001
0000
0000
0000
0000
0000
0000
0000
1000
0000
0000
0000
0001
0000
0000
0000
0000
0000
0010
0000
0000
0000
0000
0000
,
0100
0010
0001
1000
0001
0010
0100
0000
,
1000
0010
0200
0002
1000
0010
2000
0320
,
0103
0001
0200
3002
1030
0010
1000
0313
,
MMMM
0000
0000
MMMM
0000
0000
MMMM
0000
0000
MMMM
0000
0000
MMMM
0000
0000
0000
0000
0000
0000
0000
0000
0000
0000
0000
1001
0000
0000
0000
0000
0000
0000
0000
1000
0000
0000
0000
0001
0000
0000
0000
0000
0000
0010
0000
0000
0000
0000
0000
,
0100
0010
0001
1000
0001
0010
0100
1000
,
0010
1000
0001
0100
0001
1000
0100
1000
,
0010
1000
0010
1000
0100
0010
1000
0000
,
MMMM
0000
0000
MMMM
0000
0000
MMMM
0000
0000
MMMM
0000
0000
MMMM
0000
0000
0000
0000
0000
0000
0000
0000
0000
0000
0000
1001
0000
0000
0000
0000
0000
0000
0000
0001
0000
0000
0000
1000
0000
0000
0000
0000
0000
0010
0000
0000
0000
0000
0000
,
0100
0010
1000
0001
1000
0010
0100
0000
,
0001
0010
0200
2000
0001
0010
0002
0320
,
3100
1000
0200
2003
0031
0010
0001
3310
,
MMMM
0000
0000
0000
0000
0000
0000
0000
0000
0000
0000
0000
MMMM
0000
0000
0000
0000
0000
0000
0000
0000
0000
0000
0000
MMMM
0000
0000
0000
0000
0000
0000
0000
0000
0000
0000
0000
MMMM
0000
0000
0000
0000
0000
0000
0000
0000
0000
0000
0000
MMMM
0000
0000
0000
0000
0000
0000
0000
0000
0000
0000
0000
0000
0000
0000
0000
0000
0000
0000
0000
0000
0000
0000
0000
0000
0000
0000
0000
0000
0000
0000
0000
0000
0000
0000
0000
0000
0000
0000
0000
0000
0000
0000
0000
0000
0000
0000
0000
0101
0000
0000
0000
0000
0000
0100
0000
0000
0010
0000
0000
1001
0000
0000
1000
0000
0000
0010
0100
0010
0100
0000
0000
2010
0000
0000
0000
0000
0000
3100
0000
0000
0010
0000
0000
1001
0000
0000
0001
0000
0000
0010
0100
0010
0100
0000
0000
0120
0000
0000
0000
0000
0000
0130
0000
0000
1000
0000
0000
0100
0010
0100
0010
0000
0000
0001
0000
0000
1000
0000
0000
1100
0000
0000
0100
0000
0000
0010
0000
0000
0001
0000
0000
0101
0000
0000
0100
0000
0000
0010
0000
0000
0010
0000
0000
,
0210
0000
0000
0000
0000
0000
0301
0000
0000
0100
0000
0000
0110
0000
0000
0010
0000
0000
1000
0100
1000
0100
0000
0000
0210
0000
0000
0000
0000
0000
1300
0000
0000
0100
0000
0000
0110
0000
0000
0010
0000
0000
0001
0100
0001
0100
0000
0000
1001
0000
0000
1000
0000
0000
0100
0000
0000
0001
0000
0000
0102
0000
0000
0000
0000
0000
0103
0000
0000
0010
0000
0000
0010
0000
0000
1000
0000
0000
0010
0000
0000
0001
0000
0000
0100
0000
0000
0010
0000
0000
0100
1000
0100
0001
0000
0000
MMMM
0000
0000
0000
0000
0000
0000
0000
0000
0000
0000
0000
0000
0000
0000
0000
0000
0000
0000
0000
0000
0000
0000
0000
0000
0000
0000
0000
0000
0000
0000
0000
0000
0000
0000
0000
0000
0000
0000
0000
0000
0000
0000
0000
0000
0000
0000
0000
MMMM
0000
0000
0000
0000
0000
0000
0000
0000
0000
0000
0000
0000
0000
0000
0000
0000
0000
0000
0000
0000
0000
0000
0000
0000
0000
0000
0000
0000
0000
0000
0000
0000
0000
0000
0000
0000
0000
0000
0000
0000
0000
0000
0000
0000
0000
0000
0000
,
MMMM
MMMM
MMMM
MMMM
,
MMMM
MMMM
MMMM
MMMM
,
MMMM
MMMM
MMMM
MMMM
,
MMMM
MMMM
MMMM
MMMM
,
MMMM
MMMM
MMMM
MMMM
,
MMMM
MMMM
MMMM
MMMM
,
MMMM
MMMM
MMMM
MMMM
,
MMMM
MMMM
MMMM
MMMM
,
MMMM
MMMM
MMMM
MMMM
,
MMMM
MMMM
MMMM
MMMM
,
MMMM
MMMM
MMMM
MMMM
,
MMMM
MMMM
MMMM
MMMM
,
MMMM
MMMM
MMMM
MMMM
,
MMMM
MMMM
MMMM
MMMM
,
MMMM
MMMM
MMMM
MMMM
,
MMMM
MMMM
MMMM
MMMM
,
MMMM
MMMM
MMMM
MMMM
,
MMMM
MMMM
MMMM
MMMM
,
MMMM
MMMM
MMMM
MMMM
,
MMMM
MMMM
MMMM
MMMM
,
MMMM
MMMM
MMMM
MMMM
,
MMMM
MMMM
MMMM
MMMM
,
MMMM
MMMM
MMMM
MMMM
,
MMMM
MMMM
MMMM
MMMM
,
MMMM
MMMM
MMMM
MMMM
,
MMMM
MMMM
MMMM
MMMM
,
MMMM
MMMM
MMMM
MMMM
,
MMMM
MMMM
MMMM
MMMM
,
MMMM
MMMM
MMMM
MMMM
,
MMMM
MMMM
MMMM
MMMM
,
MMMM
MMMM
MMMM
MMMM
,
MMMM
MMMM
MMMM
0000
;

//---------------dance-single - XO- DS- JA-JU-----------------
#NOTEDATA:;
#CHARTNAME:;
#STEPSTYPE:dance-single;
#DESCRIPTION:XO- DS- JA-JU-;
#CHARTSTYLE:;
#DIFFICULTY:Hard;
#METER:12;
#RADARVALUES:0.353960,0.497426,0.109513,0.123202,0.013689,362.000000,346.000000,16.000000,18.000000,0.000000,0.000000,0.000000,0.000000,0.000000,0.353960,0.497426,0.109513,0.123202,0.013689,362.000000,346.000000,16.000000,18.000000,0.000000,0.000000,0.000000,0.000000,0.000000;
#CREDIT:Karl with a K;
#OFFSET:0.000000;
#BPMS:0.000000=138.000000
;
#STOPS:;
#DELAYS:;
#WARPS:;
#TIMESIGNATURES:0.000000=4=4
;
#TICKCOUNTS:0.000000=4
;
#COMBOS:0.000000=1
;
#SPEEDS:0.000000=1.000000=0.000000=0
;
#SCROLLS:0.000000=1.000000
;
#FAKES:;
#LABELS:0.000000=Song Start
;
#NOTES:
0000
0000
0000
0000
,
0000
0000
0000
0000
,
0000
0000
0000
0000
,
0000
0000
0000
0000
,
1000
0000
0010
0000
,
1000
0000
0001
0010
,
0200
0000
2300
0000
,
3020
0000
1030
0000
,
0001
0100
0001
0000
0000
0000
0010
0100
,
1000
0000
0000
0001
0010
0100
0010
0000
,
1000
0100
1000
0000
0000
0000
0010
0100
,
0001
0000
0000
1000
0010
0100
0010
0000
,
1000
0100
0010
0000
0000
0000
0001
0100
,
0001
0000
0010
0100
0010
0100
1000
0000
,
0001
0100
0010
0000
0000
0000
1000
0100
,
1000
0000
0010
0100
0010
0100
0002
0000
,
1003
0000
0010
0000
1000
0100
0010
0000
,
0001
0000
0010
0010
0001
0100
0010
0000
,
1000
0000
0010
0000
1000
0100
1000
0000
,
0001
0000
0010
0000
0001
0100
0001
0100
,
0001
0000
0010
0001
0020
0000
0031
0100
,
0010
0000
1000
0000
0100
1000
0001
0000
,
1000
0000
1000
0100
1000
0000
0001
0100
,
0001
0000
0010
0100
1000
0001
0001
0000
,
2000
0000
0000
0000
,
0000
0000
0000
0000
,
3020
0000
0000
0000
,
0000
0000
0000
0000
,
0130
0000
0000
0100
0000
0000
0100
0000
0001
0000
0000
0001
0000
0000
0001
0000
,
1000
0000
0000
1000
0000
0000
1000
0000
0001
0000
0000
0001
0000
0000
0001
0000
,
0010
0000
0010
0000
0100
0010
0100
0010
,
0001
0000
0000
0000
,
1200
0000
0310
0100
,
0000
0100
0010
0000
,
0002
0000
1003
0000
,
0001
0100
0010
0010
,
0201
0000
0310
0100
,
0000
0100
0010
0000
,
2000
0000
3001
0000
,
1000
0100
0010
0010
,
1001
0000
0001
0100
0001
0000
1000
0000
,
0000
0000
1000
0100
1000
0000
0001
0000
,
0000
0000
0001
0100
0001
0000
1000
0100
,
1000
0000
0001
0100
0001
0000
1000
0000
,
1001
0000
0001
0010
0001
0000
1000
0000
,
0000
0000
1000
0010
1000
0000
0001
0000
,
0000
0000
0001
0010
0001
0000
1000
0010
,
1000
0000
0001
0010
0001
0000
1000
0000
,
0011
0000
0010
0001
0010
0000
1000
0010
,
1000
0000
0100
1000
0100
0000
0001
0100
,
0001
0000
0010
0001
0010
0000
1000
0010
,
1000
0000
0100
1000
0100
0000
0002
0000
,
1003
0000
0100
1000
0100
0000
0001
0100
,
0001
0000
0010
0100
0010
0000
1000
0010
,
1000
0000
0100
1000
0100
0000
0001
0100
,
0001
0000
0010
1000
0010
0000
0100
0000
,
0001
0001
0000
0001
,
0000
1000
0000
1000
,
0000
0100
0000
0100
,
0000
0010
0000
0010
,
0000
0001
0000
0100
,
0000
0010
0000
1000
,
0100
0010
0100
0010
,
0110
0000
0000
0000
,
0000
0000
0000
0000
,
1000
0100
1000
0001
0010
0001
0100
0000
,
0001
0100
0001
1000
0010
1000
0100
0000
,
1000
0100
0010
0100
0010
0001
0100
0000
,
0010
1000
0001
0100
0010
1000
1001
0000
,
0001
0010
0001
1000
0100
1000
0010
0000
,
1000
0010
1000
0001
0100
0001
0010
0000
,
0001
0010
0100
0010
0100
1000
0010
0000
,
0010
0010
0100
0100
0010
0000
1001
0000
,
2100
0000
3010
0100
0010
0100
0001
0000
,
0102
0000
0013
0100
0010
0100
1000
0000
,
2100
0000
3010
1000
0010
0000
0100
0001
,
0100
0000
0001
0010
0100
1000
0001
0000
,
0012
0000
0103
0010
0100
1000
0100
0010
,
2010
0000
3100
0010
0100
0001
0100
0010
,
0012
0000
0103
0001
0100
0000
1010
0000
,
0010
1000
0100
0010
0001
0100
0110
0000
;

//---------------dance-single - ----------------
#NOTEDATA:;
#CHARTNAME:;
#STEPSTYPE:dance-single;
#DESCRIPTION:;
#CHARTSTYLE:;
#DIFFICULTY:Medium;
#METER:9;
#RADARVALUES:0.225870,0.331618,0.047912,0.136891,0.000000,231.000000,224.000000,7.000000,20.000000,0.000000,0.000000,0.000000,0.000000,0.000000,0.225870,0.331618,0.047912,0.136891,0.000000,231.000000,224.000000,7.000000,20.000000,0.000000,0.000000,0.000000,0.000000,0.000000;
#CREDIT:Karl with a K;
#OFFSET:0.000000;
#BPMS:0.000000=138.000000
;
#STOPS:;
#DELAYS:;
#WARPS:;
#TIMESIGNATURES:0.000000=4=4
;
#TICKCOUNTS:0.000000=4
;
#COMBOS:0.000000=1
;
#SPEEDS:0.000000=1.000000=0.000000=0
;
#SCROLLS:0.000000=1.000000
;
#FAKES:;
#LABELS:0.000000=Song Start
;
#NOTES:
// measure 0
0000
0000
0000
0000
,  // measure 1
0000
0000
0000
0000
,  // measure 2
0000
0000
0000
0000
,  // measure 3
0000
0000
0000
0000
,  // measure 4
1000
0000
0010
0000
,  // measure 5
1000
0000
0010
0000
,  // measure 6
0100
0000
0001
0000
,  // measure 7
0010
0000
0010
0000
,  // measure 8
0001
0000
0010
0000
,  // measure 9
0001
0000
0010
0000
,  // measure 10
0001
0000
0100
0000
,  // measure 11
0001
0000
0100
0001
,  // measure 12
1000
0000
0010
0000
,  // measure 13
1000
0000
0010
0000
,  // measure 14
1000
0000
0100
0000
,  // measure 15
1000
0000
0001
1000
,  // measure 16
0001
0010
0100
1000
,  // measure 17
0001
0001
0010
0001
,  // measure 18
0100
0010
1000
0001
,  // measure 19
1000
0010
1000
0001
,  // measure 20
1000
0010
0010
0100
,  // measure 21
0001
0001
0010
0100
,  // measure 22
1000
1000
1000
0001
,  // measure 23
1000
0010
1000
0001
,  // measure 24
0020
0000
0000
0000
,  // measure 25
0000
0000
0000
0000
,  // measure 26
0230
0000
0000
0000
,  // measure 27
0000
0000
0000
0000
,  // measure 28
2300
0000
0010
0000
,  // measure 29
3002
0000
0010
0000
,  // measure 30
1003
0001
0100
0010
,  // measure 31
0110
0000
0000
0000
,  // measure 32
0200
0000
0310
0200
,  // measure 33
0300
0100
0010
0000
,  // measure 34
0200
0000
0310
0000
,  // measure 35
0010
0100
0010
1000
,  // measure 36
0200
0000
0310
0200
,  // measure 37
0300
0100
0010
0000
,  // measure 38
0200
0000
0310
0000
,  // measure 39
0010
0100
0010
0001
,  // measure 40
0200
0310
0010
0100
,  // measure 41
0000
0010
0010
1000
,  // measure 42
0200
0310
0010
0010
,  // measure 43
0010
0100
0010
0100
,  // measure 44
0200
0310
0010
0100
,  // measure 45
0000
0010
0010
0001
,  // measure 46
0200
0310
0010
0010
,  // measure 47
0010
0100
0010
0100
,  // measure 48
0001
0000
0000
0001
1000
0000
0000
1000
,  // measure 49
0100
0000
0000
0100
0010
0000
0000
0010
,  // measure 50
0001
0000
0000
0001
1000
0000
0000
1000
,  // measure 51
0010
0000
0000
0010
0100
0000
0001
0000
,  // measure 52
1000
0000
0000
1000
0001
0000
0000
0001
,  // measure 53
0100
0000
0000
0100
0010
0000
0000
0010
,  // measure 54
1000
0000
0000
1000
0001
0000
0000
0001
,  // measure 55
0010
0000
0000
0010
0100
0000
1000
0000
,  // measure 56
0002
0000
0000
0000
,  // measure 57
0000
0000
0000
0000
,  // measure 58
2003
0000
0000
0000
,  // measure 59
0000
0000
0000
0000
,  // measure 60
3200
0000
0000
0000
,  // measure 61
0320
0000
0000
0000
,  // measure 62
0032
0000
2003
0000
,  // measure 63
3001
0000
0000
0000
,  // measure 64
0000
0000
0000
0000
,  // measure 65
1000
0000
0001
0000
0010
0001
0010
0000
,  // measure 66
0001
0000
1000
0000
0010
1000
0010
0000
,  // measure 67
1000
0000
0001
0000
0100
0001
0100
0000
,  // measure 68
0010
0100
0010
0110
,  // measure 69
0001
0000
1000
0000
0010
1000
0010
0000
,  // measure 70
1000
0000
0001
0000
0010
0001
0010
0000
,  // measure 71
0001
0000
1000
0000
0100
1000
0100
0000
,  // measure 72
0010
0100
0010
0110
,  // measure 73
1001
0000
1000
0100
,  // measure 74
0110
0000
0010
0001
,  // measure 75
0100
0000
0010
0100
,  // measure 76
0010
0010
0010
1000
,  // measure 77
1001
0000
0001
0100
,  // measure 78
0110
0000
0010
1000
,  // measure 79
0100
0000
0010
0100
,  // measure 80
0010
0010
0010
0001
;

//---------------dance-single - ----------------
#NOTEDATA:;
#CHARTNAME:;
#STEPSTYPE:dance-single;
#DESCRIPTION:;
#CHARTSTYLE:;
#DIFFICULTY:Easy;
#METER:6;
#RADARVALUES:0.156446,0.248713,0.027378,0.136891,0.000000,160.000000,156.000000,4.000000,20.000000,0.000000,0.000000,0.000000,0.000000,0.000000,0.156446,0.248713,0.027378,0.136891,0.000000,160.000000,156.000000,4.000000,20.000000,0.000000,0.000000,0.000000,0.000000,0.000000;
#CREDIT:Karl with a K;
#OFFSET:0.000000;
#BPMS:0.000000=138.000000
;
#STOPS:;
#DELAYS:;
#WARPS:;
#TIMESIGNATURES:0.000000=4=4
;
#TICKCOUNTS:0.000000=4
;
#COMBOS:0.000000=1
;
#SPEEDS:0.000000=1.000000=0.000000=0
;
#SCROLLS:0.000000=1.000000
;
#FAKES:;
#LABELS:0.000000=Song Start
;
#NOTES:
0000
0000
0000
0000
,
0000
0000
0000
0000
,
0000
0000
0000
0000
,
0000
0000
0000
0000
,
1000
0000
0000
0000
,
1000
0000
0000
0000
,
0100
0000
0010
0000
,
0001
0000
0001
0000
,
1000
0000
0100
0000
,
1000
0000
0010
0000
,
0100
0000
0001
0000
,
0100
0000
0001
0000
,
1000
0000
0001
0000
,
0010
0000
0001
0000
,
0100
0000
0001
0000
,
1000
0000
0100
0000
,
1000
0001
1000
0000
,
0000
0001
0010
0000
,
0001
0010
0001
0000
,
1000
0010
1000
0000
,
0001
0010
0100
0000
,
1000
0010
0100
0000
,
0001
0001
1000
0000
,
1000
1000
0001
0001
,
2000
0000
0000
0000
,
0000
0000
0000
0000
,
3200
0000
0000
0000
,
0000
0000
0000
0000
,
0320
0000
0000
0000
,
0032
0000
0000
0000
,
2003
0000
3002
0000
,
1003
0000
0000
0000
,
1001
0000
0000
0100
,
0000
0000
0010
0000
,
1001
0000
0000
0000
,
0010
0100
0010
0000
,
1001
0000
0000
0100
,
0000
0000
0010
0000
,
1001
0000
0000
0000
,
0010
0100
0010
0000
,
1000
0000
0100
0000
,
1000
0000
0100
0000
,
1000
0000
0001
0000
,
0010
0100
0010
0000
,
0001
0000
0100
0000
,
0001
0000
0100
0000
,
0001
0000
1000
0000
,
0010
0100
0010
0000
,
1000
0000
1000
0000
,
0001
0000
0010
0000
,
0100
0000
0100
0000
,
0010
0000
0010
0000
,
0001
0000
0001
0000
,
1000
0000
0010
0000
,
0100
0000
0100
0000
,
0010
0000
0010
0000
,
2000
0000
0000
0000
,
0000
0000
0000
0000
,
3020
0000
0000
0000
,
0000
0000
0000
0000
,
0230
0000
0000
0000
,
0302
0000
0000
0000
,
2003
0000
3002
0000
,
1003
0000
0000
0000
,
0000
0000
0000
0000
,
1000
0100
0010
0100
,
1000
0100
0010
0100
,
1000
0010
0100
0010
,
0010
0100
0010
1000
,
0001
0010
0100
0010
,
0001
0010
0100
0010
,
0001
0100
0010
0100
,
0001
0100
0010
0000
,
2000
0000
3100
0000
,
0002
0000
0103
0000
,
2000
0000
3100
0000
,
0002
0000
0103
0000
,
2000
0000
3010
0000
,
0002
0000
0013
0000
,
2000
0000
3010
0000
,
0002
0000
0013
0100
;

//---------------dance-single - ----------------
#NOTEDATA:;
#CHARTNAME:;
#STEPSTYPE:dance-single;
#DESCRIPTION:;
#CHARTSTYLE:;
#DIFFICULTY:Beginner;
#METER:2;
#RADARVALUES:0.089957,0.191647,0.000000,0.000000,0.000000,92.000000,92.000000,0.000000,0.000000,0.000000,0.000000,0.000000,0.000000,0.000000,0.089957,0.191647,0.000000,0.000000,0.000000,92.000000,92.000000,0.000000,0.000000,0.000000,0.000000,0.000000,0.000000,0.000000;
#CREDIT:Karl with a K;
#OFFSET:0.000000;
#BPMS:0.000000=138.000000
;
#STOPS:;
#DELAYS:;
#WARPS:;
#TIMESIGNATURES:0.000000=4=4
;
#TICKCOUNTS:0.000000=4
;
#COMBOS:0.000000=1
;
#SPEEDS:0.000000=1.000000=0.000000=0
;
#SCROLLS:0.000000=1.000000
;
#FAKES:;
#LABELS:0.000000=Song Start
;
#NOTES:
0000
0000
0000
0000
,
0000
0000
0000
0000
,
0000
0000
0000
0000
,
0000
0000
0000
0000
,
0000
0000
0000
0000
,
0000
0000
0000
0000
,
0000
0000
0000
0000
,
0000
0000
0000
0000
,
1000
0000
0000
0000
,
1000
0000
0001
0000
,
1000
0000
0000
0000
,
1000
0000
1000
0000
,
0001
0000
0000
0000
,
0001
0000
1000
0000
,
0001
0000
0000
0000
,
0001
0000
0001
0000
,
1000
0000
1000
0000
,
0001
0000
0001
0000
,
0100
0000
0100
0000
,
0010
0000
0010
0000
,
1000
0000
0001
0000
,
1000
0000
1000
0000
,
0100
0000
0100
0000
,
0010
0000
0010
0000
,
0001
0000
0000
0000
,
0000
0000
0000
0000
,
0000
0000
0000
0000
,
0000
0000
0000
0000
,
1000
0000
0000
0000
,
0001
0000
0000
0000
,
1000
0000
0001
0000
,
1000
0000
0000
0000
,
0100
0000
0000
0000
,
0000
0000
0000
0000
,
0100
0000
0000
0000
,
0010
0000
0000
0000
,
0100
0000
0000
0000
,
0000
0000
0000
0000
,
0100
0000
0000
0000
,
0010
0000
0000
0000
,
0100
0000
0100
0000
,
0100
0000
0000
0000
,
0010
0000
0010
0000
,
0010
0000
0000
0000
,
0100
0000
0100
0000
,
0100
0000
0000
0000
,
0010
0000
0010
0000
,
0010
0000
0000
0000
,
0001
0000
0000
0000
,
1000
0000
0000
0000
,
0100
0000
0000
0000
,
0010
0000
0000
0000
,
0001
0000
0000
0000
,
1000
0000
0000
0000
,
0010
0000
0000
0000
,
0100
0000
0000
0000
,
0000
0000
0000
0000
,
0000
0000
0000
0000
,
0000
0000
0000
0000
,
0000
0000
0000
0000
,
0000
0000
0000
0000
,
0000
0000
0000
0000
,
0000
0000
0000
0000
,
0000
0000
0000
0000
,
0000
0000
0000
0000
,
1000
1000
1000
0000
,
0001
0001
0001
0000
,
0100
0100
0100
0000
,
0010
0010
0010
0000
,
1000
1000
1000
0000
,
1000
1000
1000
0000
,
0100
0100
0100
0000
,
0010
0010
0010
0000
,
0001
0000
0000
0000
,
0001
0000
0000
0000
,
1000
0000
0000
0000
,
1000
0000
0000
0000
,
0001
0000
0000
0000
,
0001
0000
0000
0000
,
1000
0000
0000
0000
,
0001
0000
0000
0000
;
