#VERSION:0.83;
#TITLE:Bleep Beep Bop 2023;
#SUBTITLE:;
#ARTIST:kors k;
#TITLETRANSLIT:;
#SUBTITLETRANSLIT:;
#ARTISTTRANSLIT:;
#GENRE:;
#ORIGIN:pop'n music Sunny Park;
#CREDIT:;
#BANNER:Bleep Beep Bop 2023 banner.png;
#BACKGROUND:Bleep Beep Bop 2023 bg.png;
#PREVIEWVID:;
#JACKET:Bleep Beep Bop 2023 jk.png;
#CDIMAGE:;
#DISCIMAGE:;
#LYRICSPATH:;
#CDTITLE:;
#MUSIC:Bleep Beep Bop 2023.ogg;
#OFFSET:0.000000;
#SAMPLESTART:78.857002;
#SAMPLELENGTH:15.000000;
#SELECTABLE:YES;
#BPMS:0.000=175.000,
166.000=87.500,
198.000=175.000;
#STOPS:;
#DELAYS:;
#WARPS:;
#TIMESIGNATURES:0.000=4=4;
#TICKCOUNTS:0.000=4;
#COMBOS:0.000=1;
#SPEEDS:0.000=1.000=0.000=0;
#SCROLLS:0.000=1.000;
#FAKES:;
#LABELS:0.000=Song Start;
#BGCHANGES:;
#KEYSOUNDS:;
#ATTACKS:
;

//---------------dance-single - XO+ DS JA+ XMOD RH- JU-----------------
#NOTEDATA:;
#CHARTNAME:;
#STEPSTYPE:dance-single;
#DESCRIPTION:XO+ DS JA+ XMOD RH- JU-;
#CHARTSTYLE:;
#DIFFICULTY:Challenge;
#METER:18;
#RADARVALUES:0.809769,1.085479,0.065911,0.354274,0.753862,688.000000,680.000000,8.000000,43.000000,0.000000,0.000000,0.000000,0.000000,0.000000,0.809769,1.085479,0.065911,0.354274,0.753862,688.000000,680.000000,8.000000,43.000000,0.000000,0.000000,0.000000,0.000000,0.000000;
#CREDIT:Karl with a K as tsugaruapproved;
#NOTES:
0000
0000
0000
0000
,
0000
0000
0000
0000
,
0000
0000
0000
0000
,
0000
0000
0000
0000
,
0000
0000
0000
0000
,
0000
0000
0000
0000
0000
0000
0000
0000
1000
0000
0000
0000
1000
0000
0000
0010
,
0000
0100
0000
0000
0100
0000
0001
1000
0001
0000
0000
0000
1000
0000
0000
0001
,
0010
0000
0100
1000
0100
1000
0100
0010
0001
0000
0000
0000
0001
0000
0000
1000
,
0010
0100
0000
0000
0010
0000
1000
0000
1000
0100
0010
0000
0020
0000
2030
0000
,
3020
0032
0103
1010
1001
1000
0010
1000
,
0001
0010
0100
0010
0001
0100
0010
0100
,
1000
0100
0010
0100
0001
0010
0001
1000
,
0010
0100
0010
1000
0100
0010
0100
0001
,
0000
0000
0001
0100
0010
0000
0001
0000
0100
0000
0001
0000
0100
0000
0001
0000
,
1000
0100
0010
0100
1000
0010
0100
0010
,
0001
0010
0100
0010
1000
1000
0100
1000
,
1000
0000
0010
0000
0010
0000
1000
0001
1000
0000
0100
0000
0010
0000
1000
0000
,
0001
0000
0100
0000
1000
0000
0001
0000
1000
0000
0100
0000
0010
0000
0001
0010
,
0000
0001
0100
0000
0010
0000
0100
0000
0001
0000
0100
0000
0010
0000
1000
0001
,
0000
1000
0100
0000
0010
0000
0001
0000
1000
0000
0010
0000
0100
0000
0001
0100
,
0000
0001
0010
0000
0100
0000
0010
0000
0001
0000
0010
0000
0100
0000
1000
0001
,
0000
1000
0010
0000
1000
0010
0100
0000
0010
0000
1000
0000
0100
0000
1000
0100
,
0000
1000
0010
0000
0100
0000
0010
0000
1000
0000
0010
0000
0100
0000
0001
1000
,
0000
0001
0010
0000
0100
0000
1000
0000
0001
0000
0100
0000
0010
0000
0100
0010
,
0000
0100
0001
0000
0010
0000
0100
0000
1000
0000
0100
0010
0100
0000
1000
0100
,
0000
0000
0001
0000
0200
0000
0000
0000
1300
0100
1000
0000
0010
0000
0100
0001
,
0100
0001
0020
0100
0032
0100
2003
0100
,
3002
0000
0010
0000
1003
0100
0010
0000
0001
0000
0001
0010
0000
0010
0001
0100
,
0010
2000
0000
0000
3001
0010
0100
1000
0010
0000
0010
1000
0000
0001
0100
0010
,
0001
0000
0010
0000
2000
0000
0000
0000
3001
0000
0100
0001
0010
0000
0100
1000
,
0100
0000
1000
0000
0020
0000
0100
0000
1030
0100
1000
0100
0010
0000
0100
0000
,
0200
0000
0010
0000
1300
0000
1000
0001
1000
0000
1000
0010
0000
0000
0010
0100
,
0020
0000
0000
0000
1030
0100
0010
0001
0010
0000
0100
0000
0010
1000
0010
0100
,
0010
0000
0000
0000
0000
0000
0000
0000
0000
0000
0000
0000
0001
0000
0000
0000
0000
0000
0000
0000
0000
0000
0000
0000
1000
0000
0000
0000
0000
0000
0000
0000
0000
0000
0000
0000
0000
0000
0000
0000
0000
0000
0000
0000
0000
0000
0000
0000
2000
0000
0000
0000
0000
0000
0000
0000
0000
0000
0000
0000
0000
0000
0000
0000
0000
0000
0000
0000
0000
0000
0000
0000
0010
0000
0000
0000
0000
0000
0000
0000
0000
0000
0000
0000
0000
0000
0000
0000
0000
0000
0000
0000
0000
0000
0000
0000
3002
0000
0000
0000
0000
0000
0000
0000
0000
0000
0000
0000
0000
0000
0000
0000
0000
0000
0000
0000
0000
0000
0000
0000
0100
0000
0000
0000
0000
0000
0000
0000
0000
0000
0000
0000
0000
0000
0000
0000
0000
0000
0000
0000
0000
0000
0000
0000
0000
0000
0000
0000
0000
0000
0000
0000
0000
0000
0000
0000
0000
0000
0000
0000
0000
0000
0000
0000
0000
0000
0000
0000
0100
0000
0000
0000
0000
0000
0000
0000
0000
0000
0000
0000
0010
0000
0000
0000
0000
0000
0000
0000
0000
0000
0000
0003
,
0002
0000
0023
0000
1030
0001
1000
0001
1000
0000
0100
0010
0100
0000
1000
0000
,
0010
0100
0010
0100
0010
0100
0010
0000
1000
0100
0020
0000
1000
0000
0130
1000
,
0010
0000
0010
0000
0100
0000
0100
0000
0001
0000
1000
0000
0001
0010
0000
0010
,
0002
0000
0000
0000
0103
0000
0001
0000
0010
0000
0000
0000
0001
0000
1000
0000
0000
0000
0010
0000
0000
0100
0000
0000
0010
0000
0000
0200
0000
0000
0302
0000
,
0023
0000
0000
0000
0130
0001
0200
0000
1300
0000
0010
0000
1000
0100
0010
0000
,
0001
0000
0001
0100
0010
0100
1000
0000
0100
0010
0100
0010
1000
0001
1000
0001
,
1000
0100
0010
0001
0100
0010
1000
0100
0010
1000
0000
1000
0010
0001
0100
0010
,
0100
0000
0110
0000
2002
0000
3003
0000
1000
0100
0010
0002
0000
0000
0003
0001
,
1000
0010
0100
0002
0000
0023
0030
0001
0020
0030
0001
1000
0000
0010
0000
1000
,
0000
0000
0100
0000
0000
0000
0100
0010
0001
0000
1000
0000
0010
0000
1000
0000
0001
0000
0010
0000
0100
0000
2000
0000
0000
0000
0000
0000
3000
0000
1000
0000
,
0001
0100
0010
2000
0000
3020
1030
0020
0000
0000
2030
3000
0002
0003
0010
0002
,
1000
0000
1003
0000
0001
0000
0010
0100
1000
0000
0010
0000
0100
0000
0001
0000
1000
0000
0010
0000
0100
0000
1000
0000
0100
0000
0010
0000
1000
0000
0001
0000
,
1000
0100
0010
1000
0010
0001
1000
0100
0010
0100
1000
0001
0100
0010
0100
1000
,
0100
0000
0010
0000
0100
0000
0001
0010
0001
0000
0010
0000
0100
0000
1000
0000
0001
0000
0010
0000
0100
0000
0001
0000
0100
0000
0010
0000
0001
0000
1000
0000
,
0001
0100
0010
0001
0010
1000
0001
0100
0010
0001
1000
0100
0001
0010
1000
0001
,
0100
0010
0010
0010
0001
1000
0100
0110
0001
0000
0100
0000
0010
0000
0100
0000
,
1000
0000
0100
0001
0010
0000
1000
0000
0010
0000
1000
0000
0001
0000
0100
0000
,
0010
0100
1000
0100
1000
0100
0010
0100
,
0001
0000
0100
1000
0010
0000
0001
0000
0010
0000
0001
0000
0010
0000
0100
0000
,
1000
0100
0001
0010
0001
0010
0100
0010
,
0001
0000
0010
0001
0100
0000
1000
0000
0100
0000
1000
0000
0001
0000
0010
0000
,
0100
0010
1000
0100
1000
0010
0100
0010
,
1000
0000
0010
1000
0100
0000
0001
0000
0000
0000
0001
0100
0001
0100
0010
0000
,
1000
0000
0010
0000
0001
0100
0010
0100
0001
0000
0100
0000
1000
0000
0100
0000
,
0001
0000
0010
1000
0010
0000
0001
0000
0010
0000
1000
0000
0001
0000
0100
0000
,
0010
0100
1000
0100
1000
0100
0001
0100
,
1000
0000
0010
0001
0010
0000
1000
0000
0010
0000
0001
0000
0010
0000
0100
0000
,
1000
0100
0001
0001
1000
0100
0010
0001
,
1000
0000
0010
0001
0010
0000
1000
0000
0010
0000
0001
0000
1000
0000
0100
0000
,
0010
0100
0001
0010
0001
0100
0010
1000
,
0001
0000
0100
0001
0010
0000
1000
0000
0001
0000
1000
0010
1000
0000
1000
0000
,
0001
0000
0100
0000
1000
0010
0100
0000
0001
0000
0100
0010
0001
0000
0010
0100
,
0001
1000
0100
0000
0010
0000
0010
0000
0002
0000
0010
0000
0203
0000
1000
0000
,
0310
0100
0001
0000
0010
1000
0010
0000
0001
0000
0010
0100
0000
0001
0100
0010
,
0001
0000
1000
0000
0010
0000
0100
0000
0001
0000
0100
0010
0000
0010
0001
0010
,
1000
0000
0011
0000
1001
0000
1000
0100
1000
0000
0010
0100
1000
0000
0100
0010
,
1000
0001
0010
0000
0100
0000
0100
0000
2000
0000
0100
0000
3020
0000
0001
0000
,
0130
0010
1000
0000
0100
0001
0100
0000
1000
0000
0010
0000
0010
0100
0010
0000
,
0001
0000
0010
0000
0010
0000
0010
0100
0001
0000
0010
0100
0010
0000
0010
0100
,
0001
0000
1000
0000
0010
0001
1000
0000
2002
0000
0000
0000
0000
0000
0000
0000
,
0000
0000
0000
0000
,
0000
0000
0000
0000
,
0000
0000
0000
0000
,
0000
0000
3003
0000
;

//---------------dance-single - XO DS- JA XMOD RH- JU-----------------
#NOTEDATA:;
#CHARTNAME:;
#STEPSTYPE:dance-single;
#DESCRIPTION:XO DS- JA XMOD RH- JU-;
#CHARTSTYLE:;
#DIFFICULTY:Hard;
#METER:16;
#RADARVALUES:0.637928,0.798146,0.032956,0.032956,0.416066,542.000000,538.000000,4.000000,4.000000,0.000000,0.000000,0.000000,0.000000,0.000000,0.637928,0.798146,0.032956,0.032956,0.416066,542.000000,538.000000,4.000000,4.000000,0.000000,0.000000,0.000000,0.000000,0.000000;
#CREDIT:Karl with a K as tsugaruapproved;
#NOTES:
// measure 0
0000
0000
0000
0000
,  // measure 1
0000
0000
0000
0000
,  // measure 2
0000
0000
0000
0000
,  // measure 3
0000
0000
0000
0000
,  // measure 4
0000
0000
0000
0000
,  // measure 5
0000
0000
0000
0000
0000
0000
0000
0000
1000
0000
0000
0000
0100
0000
0000
0010
,  // measure 6
0000
0001
0000
0000
1000
0000
0001
0000
0001
0000
0000
0000
0100
0000
0000
0100
,  // measure 7
0010
0000
1000
0000
1000
0000
0000
0000
0001
0000
0000
0000
0010
0000
0000
0100
,  // measure 8
0000
1000
0000
0000
0001
0000
1000
0000
0000
0000
0010
0000
0010
0000
0000
0000
,  // measure 9
0100
0001
0010
0010
0001
0000
1000
0100
,  // measure 10
0010
0000
0001
0100
0001
0000
0100
0010
,  // measure 11
0001
0010
0100
0000
0001
0000
1000
0010
,  // measure 12
0100
0000
0001
0010
0001
0010
0100
0000
,  // measure 13
1000
0000
0000
0001
1000
0000
0100
0000
1000
0000
0000
0000
0001
0000
0010
0000
,  // measure 14
0100
0000
1000
0010
1000
0000
0100
0010
,  // measure 15
1000
0010
0100
0000
1000
0000
0001
0100
,  // measure 16
0010
0000
0000
0000
0001
0000
0010
0000
1000
0000
0010
0000
0100
0010
0100
0010
,  // measure 17
1000
0000
0000
0000
1001
0000
0000
0000
1000
0000
0100
0000
0010
0000
0100
0010
,  // measure 18
0000
0010
0001
0000
0100
0000
0000
0000
0001
0000
0100
0000
0010
0000
0100
0010
,  // measure 19
0000
0010
1000
0000
0001
0000
1000
0000
0001
0000
0100
0000
0010
0000
0100
0010
,  // measure 20
0000
0010
1000
0000
0100
0000
0000
0000
1000
0000
0100
0000
0010
0000
0100
0010
,  // measure 21
0000
0010
0001
0000
1000
0001
1000
0000
0001
0000
0010
0000
0100
0000
0010
0100
,  // measure 22
0000
0100
1000
0000
0010
0000
0000
0000
1000
0000
0010
0000
0100
0000
0010
0100
,  // measure 23
0000
0100
0001
0000
1000
0000
0001
0000
1000
0000
0010
0000
0100
0000
0010
0100
,  // measure 24
0000
0100
0001
0000
0010
0000
0010
0000
0001
0000
0010
0100
0010
0000
0100
0010
,  // measure 25
0000
0000
0001
0000
1000
0000
0000
0000
0001
0100
0001
0000
1000
0000
0100
0000
,  // measure 26
0010
0100
0010
0000
0001
0100
0010
0100
,  // measure 27
1000
0000
0100
0000
0010
0000
0100
0000
0001
0000
0000
0001
0000
0000
0001
0000
,  // measure 28
1000
0100
0000
0000
0100
0010
0100
0000
0010
0000
0001
1000
0000
0000
1000
0000
,  // measure 29
0010
0100
0001
1000
1000
0001
0001
0100
,  // measure 30
0010
0100
0010
0000
1000
0100
0010
0100
,  // measure 31
0001
0100
1000
0001
1000
0010
0100
0100
,  // measure 32
0001
0000
0010
0000
0100
0000
0100
0000
0010
0000
0100
1000
0000
0000
0001
0000
,  // measure 33
1000
1000
0001
0100
0001
0010
0000
0010
,  // measure 34
0000
0010
0001
0001
0100
0010
1000
0010
,  // measure 35
1000
1000
0001
0010
0001
0020
0000
0031
,  // measure 36
0010
0000
0100
0000
1000
0000
0100
0000
1000
0000
1000
0000
0010
1000
0000
0010
,  // measure 37
0100
0000
0000
0000
0100
0000
0000
0000
0001
0000
0000
0000
0001
0000
1000
0000
0000
0000
0001
0000
0000
1000
0000
0000
0001
0000
0000
1000
0000
0000
0000
0000
,  // measure 38
0010
0000
0110
0000
1000
0100
0010
0100
,  // measure 39
1000
0001
0001
0001
0100
0010
0010
0000
,  // measure 40
1000
0000
0100
0000
1000
0001
0010
0000
0100
0000
0010
0100
0010
0100
0010
0100
,  // measure 41
0010
0000
0001
0000
0002
0000
0100
0000
1003
0100
0010
0100
0000
0000
0000
1000
,  // measure 42
0001
0100
0010
0100
0000
0000
0000
0100
0010
0000
1000
0100
0000
0010
0000
0100
,  // measure 43
0000
1000
0000
0001
0001
0100
0010
1000
0001
0010
0100
0010
0000
0000
0000
0001
,  // measure 44
1000
0010
0100
0010
0000
0000
0010
0100
0000
0000
0010
0000
1000
0000
0010
0100
,  // measure 45
0000
0000
0000
0001
0010
0100
1000
0100
1000
0100
0010
0001
0000
1000
0000
1000
,  // measure 46
0001
0100
0010
1000
0000
0001
1000
0100
0010
0000
0001
0100
0000
0010
0000
0100
,  // measure 47
0000
0100
0000
0001
0010
0001
1000
0010
1000
0010
0100
0001
0000
1000
0000
1000
,  // measure 48
0000
0001
0000
0010
0000
0100
0000
1000
0100
0010
0001
0010
0100
1000
0010
0100
,  // measure 49
0010
0000
0001
0000
0010
0000
1000
0001
1000
0000
0100
0000
0010
0000
0100
0000
,  // measure 50
1000
0100
0010
1000
0000
1000
0010
0100
,  // measure 51
1000
0001
0100
0001
1000
0010
0100
0010
,  // measure 52
1000
0010
0100
1000
0000
1000
0100
0000
,  // measure 53
0010
1000
0001
0010
0001
0010
0100
0010
,  // measure 54
0001
0010
0100
0001
0000
0001
0100
0010
,  // measure 55
0001
1000
0010
1000
0001
0100
0010
0100
,  // measure 56
0001
0100
0100
1000
0000
1000
0100
0000
,  // measure 57
0100
0001
0010
0011
0001
0100
1000
0000
,  // measure 58
1000
0100
0001
0010
0000
0010
0100
0001
,  // measure 59
0100
0000
1000
0000
1000
0100
0001
0000
,  // measure 60
0001
0100
1000
0010
0000
0010
0100
1000
,  // measure 61
0100
0100
0001
0001
1000
0010
0001
0010
,  // measure 62
0001
0010
1000
0100
0000
0100
0010
1000
,  // measure 63
0010
0000
0001
0000
0001
0010
1000
0010
,  // measure 64
1000
0010
0001
0100
0000
0100
0010
0001
,  // measure 65
0010
0000
1000
0000
0100
0000
0001
0000
0100
0000
0010
0000
0001
0000
1000
0010
,  // measure 66
0000
0010
0100
0000
0001
0000
0001
0000
1000
0000
0100
0000
0001
0000
0100
0000
,  // measure 67
1000
0000
0010
0000
0100
0000
0000
0000
0001
0000
0100
0000
0001
0000
1000
0100
,  // measure 68
0000
0100
0010
0000
0001
0000
0001
0000
1000
0000
0010
0001
0000
0010
1000
0000
,  // measure 69
0100
0000
0010
0000
0010
0000
0001
0000
0100
0000
0010
0000
1000
0000
0001
0010
,  // measure 70
0000
0010
0100
0000
1000
0000
1000
0000
0001
0000
0010
0000
1000
0000
0010
0000
,  // measure 71
0001
0010
0100
0000
1000
0010
0010
0001
,  // measure 72
0001
0000
0010
0000
0010
0000
1000
0100
0010
0000
0100
0000
0001
0000
1000
0000
,  // measure 73
0010
0001
1000
0000
2002
0000
0000
0000
,  // measure 74
0000
0000
0000
0000
,  // measure 75
0000
0000
0000
0000
,  // measure 76
0000
0000
0000
0000
,  // measure 77
0000
0000
3003
0000
;

//---------------dance-single - XO- JA XMOD JU-----------------
#NOTEDATA:;
#CHARTNAME:;
#STEPSTYPE:dance-single;
#DESCRIPTION:XO- JA XMOD JU-;
#CHARTSTYLE:;
#DIFFICULTY:Medium;
#METER:12;
#RADARVALUES:0.449610,0.702369,0.041195,0.140062,0.107106,382.000000,377.000000,5.000000,17.000000,0.000000,0.000000,0.000000,0.000000,0.000000,0.449610,0.702369,0.041195,0.140062,0.107106,382.000000,377.000000,5.000000,17.000000,0.000000,0.000000,0.000000,0.000000,0.000000;
#CREDIT:Karl with a K as tsugaruapproved;
#NOTES:
0000
0000
0000
0000
,
0000
0000
0000
0000
,
0000
0000
0000
0000
,
0000
0000
0000
0000
,
0000
0000
0000
0000
,
0000
0000
1000
0100
,
0010
0100
1000
0001
,
0100
0010
0010
1000
,
0001
0000
1000
0000
0100
0010
0010
0000
,
0001
1000
0001
0100
,
0010
0100
0001
0010
,
0100
1000
0100
0000
1000
0000
0100
0000
,
0010
0100
1000
0010
,
0100
0000
0001
0100
0001
0000
0010
0000
,
0100
0010
0001
0100
,
0010
1000
0010
0000
1000
0000
0010
0000
,
0100
0000
0010
0000
1000
0000
0100
0010
,
0001
0000
1001
0000
1000
0001
1000
0000
,
0001
0000
0100
0000
0001
1000
0001
0000
,
1000
0000
0100
0000
1000
0001
1000
0000
,
0010
0000
1000
0000
0001
1000
0001
0000
,
0010
0000
0100
0010
0001
1000
0001
0000
,
0100
0000
0010
0000
1000
0001
1000
0000
,
0100
0000
0010
0000
0001
1000
0001
0000
,
0100
0000
0000
0000
0010
0000
0000
0000
1000
0000
0100
0000
0010
0000
0000
0100
,
0000
0100
0010
0000
0001
0100
0001
0000
,
1000
1000
0100
0000
0010
0000
0010
0000
,
0010
0000
0001
0000
0100
0000
0010
0000
1000
0000
0000
0100
0000
0000
1000
0000
,
0001
0000
0001
0100
0010
0000
0010
1000
,
0001
1000
0001
0000
1000
0010
1000
0000
,
0001
0001
0010
0000
0100
0000
0100
0000
,
0100
0000
1000
0000
0010
0000
0100
0000
0001
0000
0000
0010
0000
0000
0001
0000
,
1000
0000
1000
0010
0100
0000
0100
0001
,
1000
0001
1000
0000
1001
0000
0000
0001
,
0000
1000
0001
0001
1000
0100
0010
0000
,
0001
0001
0001
0000
0100
0010
0000
0010
,
1000
0000
0100
0000
1000
0000
1000
0000
0001
0000
0100
0000
0010
0000
0000
0010
,
0000
0100
0010
0200
0000
0000
0000
0000
,
0310
0000
0110
0000
1000
0100
0010
0100
,
1000
0000
0001
0001
0100
0100
0010
0010
,
0100
0100
0001
0001
1000
0000
0001
1000
,
0001
0000
0000
0000
1001
0000
0000
0000
2000
0000
0000
0100
0000
0000
0000
0000
,
3200
0000
0000
0010
0000
0000
0000
0000
0310
0000
0001
1000
0000
0001
0000
1000
,
0000
0100
0000
0000
0010
0000
0001
0000
0002
0000
0000
0100
0000
0000
0000
0000
,
0203
0000
0000
0010
0000
0000
0310
0000
0000
0000
0010
0000
1000
0000
0010
0100
,
0000
0000
0001
0000
0010
0000
0100
0000
1000
0100
0010
0000
0001
0000
1000
0000
,
0001
0100
0010
0000
1000
0000
0001
0000
1000
0000
0100
0010
0000
0100
0000
1000
,
0000
0001
0000
0100
0010
0000
0010
0000
1000
0000
1000
0000
0001
0000
0001
0000
,
1000
0000
1000
0000
0001
0000
0001
0000
1000
0100
0010
0000
0001
0100
0010
0000
,
0100
0010
0010
0000
0010
0100
0010
0100
0001
0000
0000
0000
0010
0000
0000
0000
,
0010
0000
0100
0010
0000
0010
0001
0000
,
0100
0010
1000
0010
,
0010
0000
0100
0010
0000
0010
1000
0000
,
0100
0010
0100
0000
1000
0000
0010
0100
,
0001
0000
0100
0001
0000
0001
1000
0000
,
0100
0010
0001
0010
,
0100
0000
0100
1000
0000
1000
0001
0000
,
0100
0010
2000
3200
,
0302
0000
0000
0000
0103
0000
0010
0001
,
0010
0001
2000
3020
,
0032
0000
0013
0100
,
0010
1000
0010
0000
2000
0000
3010
0002
,
0000
0000
0010
0000
0013
0000
0100
0001
,
0100
0000
0001
0000
2000
0000
3100
0002
,
0000
0100
0103
0010
,
0100
1000
0100
0000
1000
0000
0010
0000
,
0100
0100
0010
0000
1000
0100
1000
0100
,
0010
0001
0010
0000
0001
0100
0001
0001
,
1000
0000
0100
0000
1000
0000
0010
0000
0100
0000
0000
0100
0010
0000
0000
0000
,
0001
0010
1000
0100
,
0010
0010
0100
0000
1000
0010
1000
0010
,
0100
0001
0100
0000
0001
0010
0010
0000
,
1000
0010
0010
0000
0001
0100
0010
0100
,
0001
0010
0100
0000
0220
0000
0000
0000
,
0000
0000
0000
0000
,
0000
0000
0000
0000
,
0000
0000
0000
0000
,
0000
0000
0330
0000
;

//---------------dance-single - ----------------
#NOTEDATA:;
#CHARTNAME:;
#STEPSTYPE:dance-single;
#DESCRIPTION:;
#CHARTSTYLE:;
#DIFFICULTY:Easy;
#METER:9;
#RADARVALUES:0.295424,0.383110,0.024717,0.197734,0.000000,251.000000,248.000000,3.000000,24.000000,0.000000,0.000000,0.000000,0.000000,0.000000,0.295424,0.383110,0.024717,0.197734,0.000000,251.000000,248.000000,3.000000,24.000000,0.000000,0.000000,0.000000,0.000000,0.000000;
#CREDIT:Karl with a K as tsugaruapproved;
#NOTES:
0000
0000
0000
0000
,
0000
0000
0000
0000
,
0000
0000
0000
0000
,
0000
0000
0000
0000
,
0000
0000
0000
0000
,
0000
0000
1000
0000
,
0100
0000
1000
0000
,
0100
0000
0010
0000
,
0001
0000
0100
0010
,
0010
0010
1000
0100
,
0020
0030
0001
0100
,
0010
1000
0001
0010
,
0200
0300
1000
0010
,
0100
0100
0001
0010
,
0200
0300
1000
0010
,
0100
0001
1000
0100
,
0020
0030
0001
0100
,
0010
0010
1000
0100
,
1000
0100
0010
0001
,
0010
0010
0001
0100
,
0001
0100
0010
1000
,
0010
1000
0001
0010
,
0001
0010
0100
1000
,
0100
0100
1000
0010
,
1000
0010
0100
0001
,
0000
0001
1000
0100
,
0010
0010
0001
0001
,
0001
1000
0001
0100
,
0010
0010
1000
1000
,
1000
0001
0001
0010
,
0100
0100
1000
1000
,
1000
0001
1000
0010
,
0100
0100
0001
0001
,
0001
1000
0002
0000
,
0003
0001
1000
1000
,
1000
1000
0100
0010
,
0100
0010
0001
0100
,
0010
0200
0000
0300
,
0100
0110
1000
0010
,
0100
0100
0001
0001
,
0001
0001
0010
0000
,
0100
0100
2000
0000
,
3002
0000
0023
0000
,
0230
0000
2300
0000
,
3002
0000
0203
0000
,
0320
0000
1030
0100
,
0010
0100
1000
0010
,
0100
0010
1000
0001
,
0001
0000
0001
0000
0001
1000
0001
1000
,
0001
0000
0100
0010
1000
0000
0100
0000
,
0010
0000
0001
1000
0000
0000
0010
0000
,
1000
1000
0001
0100
,
0010
0000
1000
0001
0000
0000
0010
0000
,
0001
0001
1000
0010
,
0100
0000
0001
1000
0000
0000
0100
0000
,
1000
1000
0001
0010
,
0100
0000
1000
0001
0000
0000
0100
0000
,
0001
0001
2000
0000
,
3200
0000
0301
0100
,
1000
1000
0002
0000
,
0203
0000
1300
0100
,
0001
0001
0002
0000
,
0023
0000
1030
0010
,
0001
0100
0020
0000
,
0032
0000
0013
0010
,
0010
0110
1000
0010
,
0100
0001
0010
0100
,
1000
0001
1000
0000
0001
0000
0100
0000
,
0010
1000
0100
0010
,
0001
1000
0001
0000
0010
0000
0001
0000
,
0100
0010
1000
0100
,
0010
0100
0010
0000
0001
0000
0001
0000
,
1000
0000
1000
0000
0000
0001
1000
0001
,
1000
0001
2002
0000
,
0000
0000
0000
0000
,
0000
0000
0000
0000
,
0000
0000
0000
0000
,
0000
0000
3003
0000
;

//---------------dance-single - ----------------
#NOTEDATA:;
#CHARTNAME:;
#STEPSTYPE:dance-single;
#DESCRIPTION:;
#CHARTSTYLE:;
#DIFFICULTY:Beginner;
#METER:4;
#RADARVALUES:0.189495,0.302781,0.041195,0.115345,0.000000,161.000000,156.000000,5.000000,14.000000,0.000000,0.000000,0.000000,0.000000,0.000000,0.189495,0.302781,0.041195,0.115345,0.000000,161.000000,156.000000,5.000000,14.000000,0.000000,0.000000,0.000000,0.000000,0.000000;
#CREDIT:;
#NOTES:
0000
0000
0000
0000
,
0000
0000
0000
0000
,
0000
0000
0000
0000
,
0000
0000
0000
0000
,
0000
0000
0000
0000
,
0000
0000
0000
0000
,
0000
0000
0000
0000
,
0000
0000
0000
0000
,
0000
0000
0000
0000
,
0000
0000
1000
0000
,
1000
0000
0010
0000
,
1000
0000
0001
0000
,
0001
0000
0010
0000
,
0001
0000
1000
0000
,
1000
0000
0100
0000
,
1000
0000
0001
0000
,
0001
0000
0100
0010
,
0100
0000
0001
0001
,
0001
0000
1000
1000
,
1000
0000
0001
0001
,
0001
0000
1000
1000
,
1000
0000
0100
0100
,
0100
0000
0010
0010
,
0010
0000
0001
0000
,
0100
0000
0010
0010
,
0000
0100
0100
0000
,
0001
0000
1000
0000
,
0100
0100
0010
0000
,
0001
0000
1000
0000
,
0010
0010
0100
0000
,
0001
0000
1000
0000
,
0100
0100
0010
0010
,
0001
0000
0200
0000
,
0000
0000
0300
0000
,
0000
0000
0001
0001
,
1000
0000
1000
0000
,
0001
0010
0001
0000
,
1000
0000
0001
0000
,
0020
0030
0001
0000
,
1000
0010
1000
0000
,
1000
1000
1000
0000
,
0000
0000
0001
0000
,
0000
0000
0010
0000
,
0000
0000
0100
0000
,
0000
0000
1000
0000
,
0000
0000
0010
0000
,
0100
0000
0010
0000
,
0100
0000
0001
0000
,
0001
0000
1000
1000
,
1000
0000
1000
0100
,
0010
0000
0001
0001
,
1000
0000
0001
0100
,
0010
0000
1000
1000
,
0001
0000
1000
0010
,
0100
0000
0001
0001
,
1000
0000
0001
0010
,
0100
0000
1000
1000
,
0001
0000
2000
3000
,
0200
0300
2000
3000
,
0010
0010
0200
0300
,
0002
0003
0200
0300
,
0001
0001
0002
0003
,
0200
0300
0002
0003
,
0010
0010
0200
0300
,
2000
3000
0200
0300
,
1000
1000
0001
0100
,
0001
0000
1000
0100
,
1000
0000
0001
0001
,
0001
0000
1000
1000
,
1000
0000
0100
0010
,
0100
0000
1000
0010
,
0100
0000
0110
0000
,
0110
0000
0110
0000
,
0110
0000
1001
0000
;
