#VERSION:0.83;
#TITLE:Bamboo on Bamboo;
#SUBTITLE:;
#ARTIST:Sampling Masters MEGA;
#TITLETRANSLIT:;
#SUBTITLETRANSLIT:;
#ARTISTTRANSLIT:;
#GENRE:;
#ORIGIN:DJMAX TECHNIKA 3;
#CREDIT:;
#BANNER:Bamboo on Bamboo banner.png;
#BACKGROUND:Bamboo on Bamboo bg.png;
#PREVIEWVID:;
#JACKET:Bamboo on Bamboo jk.png;
#CDIMAGE:;
#DISCIMAGE:;
#LYRICSPATH:;
#CDTITLE:;
#MUSIC:Bamboo on Bamboo.ogg;
#OFFSET:-0.254000;
#SAMPLESTART:9.854000;
#SAMPLELENGTH:19.200001;
#SELECTABLE:YES;
#BPMS:0.000=200.000,
76.000=100.000,
78.000=200.000,
90.000=50.000,
91.000=200.000,
135.000=100.000,
137.000=200.000,
149.000=50.000,
150.000=200.000,
214.000=133.333,
228.000=66.667,
229.000=133.333,
261.000=200.000;
#STOPS:330.500=0.150,
331.000=0.150,
337.500=0.150,
338.000=0.075,
338.250=0.075;
#DELAYS:;
#WARPS:;
#TIMESIGNATURES:0.000=4=4;
#TICKCOUNTS:0.000=4;
#COMBOS:0.000=1;
#SPEEDS:0.000=1.000=0.000=0;
#SCROLLS:0.000=1.000,
297.000=0.000,
297.250=2.000,
297.500=0.000,
297.750=2.000,
298.000=0.000,
298.250=2.000,
298.500=0.000,
298.750=2.000,
299.000=0.000,
299.250=2.000,
299.500=0.000,
299.750=2.000,
300.000=1.000,
306.000=0.000,
306.250=2.000,
306.500=0.000,
306.750=2.000,
307.000=0.000,
307.250=2.000,
307.500=0.000,
307.750=2.000,
308.000=0.000,
308.250=2.000,
308.500=0.000,
308.750=2.000,
309.000=1.000,
313.000=0.000,
313.250=2.000,
313.500=0.000,
313.750=2.000,
314.000=0.000,
314.250=2.000,
314.500=0.000,
314.750=2.000,
315.000=0.000,
315.250=2.000,
315.500=0.000,
315.750=2.000,
316.000=1.000,
322.000=0.000,
322.250=2.000,
322.500=0.000,
322.750=2.000,
323.000=0.000,
323.250=2.000,
323.500=0.000,
323.750=2.000,
324.000=1.000;
#FAKES:;
#LABELS:0.000=Song Start;
#BGCHANGES:;
#KEYSOUNDS:;
#ATTACKS:
;

//---------------dance-single - XO DS JA XMOD RH- JU-----------------
#NOTEDATA:;
#CHARTNAME:;
#STEPSTYPE:dance-single;
#DESCRIPTION:XO DS JA XMOD RH- JU-;
#CHARTSTYLE:;
#DIFFICULTY:Challenge;
#METER:16;
#RADARVALUES:0.809608,1.364151,0.204367,0.424455,0.558080,721.000000,695.000000,26.000000,54.000000,0.000000,0.000000,0.000000,0.000000,0.000000,0.809608,1.364151,0.204367,0.424455,0.558080,721.000000,695.000000,26.000000,54.000000,0.000000,0.000000,0.000000,0.000000,0.000000;
#CREDIT:Karl with a K;
#NOTES:
0000
0000
0000
0000
,
0000
0000
0000
0000
,
0000
0000
0000
0000
,
0000
0000
0000
0000
,
1000
0000
0000
0100
0000
0100
0010
0000
,
0010
0100
0000
0100
1000
0001
1000
0000
,
0001
0000
0000
0100
0000
0100
0010
0000
,
0010
0000
0100
0000
0000
0000
0100
0000
0001
0000
1000
0000
0001
0010
0100
1000
,
0002
0000
0103
0000
0010
0100
0001
0001
,
0001
0010
0100
0010
1000
0010
0100
1000
,
1001
0000
0001
0100
0110
0000
0100
0010
,
1000
0000
1000
0000
1000
0000
0100
0000
0010
0000
0000
0000
0010
0100
0010
0100
,
2000
0000
3100
0000
0010
0100
1000
1000
,
1000
0010
0100
0010
0001
0010
0100
0001
,
1001
0000
1000
0100
0110
0000
0100
0010
,
0001
0000
0001
0000
0100
0000
0100
0000
0010
0000
0010
0000
1000
0100
0010
0100
,
1000
0000
0100
0000
0010
0000
0100
0000
1000
0000
0100
0000
0010
0000
0001
1000
,
0010
0000
0001
0000
0010
0000
1000
0000
0001
0000
0010
0000
0100
0000
1000
0100
,
1000
0000
0010
0000
0100
0000
0010
0000
1000
0000
0010
0000
0100
0000
0001
1000
,
0200
0000
0320
0000
0032
0000
0203
0000
0320
0000
0230
0000
0310
1000
0100
0010
0001
0000
0000
0000
0100
0000
0000
0000
0010
0000
0000
0000
0100
0000
0000
0000
,
0001
0000
0100
0000
0010
0000
1000
0001
0010
0000
1000
0000
0010
0000
0001
0000
,
1000
0000
0010
0000
0100
0000
0001
0100
0001
0000
0010
0000
0100
0000
0010
0000
,
0001
0000
0010
0000
0100
0000
1000
0001
0200
0000
0000
0310
2010
0000
0000
0000
,
3001
0000
0100
0010
1000
1000
1000
0100
,
0010
0100
0001
0100
0010
0001
1001
0000
,
1000
0010
0110
0000
0010
0100
0001
0001
,
0001
0000
0010
0000
0100
0000
0000
0000
0100
0010
0100
0010
0002
0000
0000
0000
,
0013
0000
0100
0010
0001
0001
0001
0100
,
0010
0100
1000
0100
0010
1000
1001
0000
,
0001
0010
0110
0000
0010
0100
1000
1000
,
0010
0000
0010
0000
0100
0000
0100
0000
0001
0010
0100
0010
0001
0000
0010
0000
,
0100
0000
0010
0000
0001
0000
0010
0000
0100
0000
1000
0001
0100
0000
1000
0000
,
0100
0000
0001
0000
1000
0000
0100
0000
0010
0000
0001
0010
0001
0000
0100
0000
,
0010
0000
0100
0000
0001
0000
0100
0000
0010
0000
1000
0001
0020
0230
2300
3020
,
0230
0000
0320
0000
0130
0001
0010
0100
1000
0000
0000
0000
0010
0000
0000
0000
0100
0000
0000
0000
0010
0000
0000
0000
1000
0000
0000
0000
0010
0000
0000
0000
,
0100
0000
0001
1000
0100
0000
0001
0000
0100
0000
1000
0000
0001
0000
0100
0000
,
0010
0000
1000
0010
1000
0000
0100
0000
0010
0000
0100
0000
1000
0000
0100
0000
,
0010
0000
0000
0000
0000
0000
0000
0000
0001
0000
0000
0000
1000
0000
0000
0000
0020
0000
0000
0000
0000
0000
0000
0000
0000
0000
0000
0000
0130
0010
0100
0010
1000
0000
0000
0000
0000
0000
0000
0000
0100
0000
0000
0000
0000
0000
0000
0000
0000
0000
0000
0000
0000
0000
0000
0000
0010
0000
0000
0000
0000
0000
0000
0000
,
0000
0001
1000
0100
0000
0010
0000
0001
,
1000
0100
0010
0001
1000
0010
0000
0100
,
0000
0001
1000
0010
0000
0100
0000
0001
,
1001
0000
0000
0000
0001
0010
0000
0100
,
0000
1000
0001
0010
0000
0100
0000
1000
,
0001
0010
0100
1000
0001
0100
0000
0010
,
0000
1000
0001
0100
0000
0010
0000
1000
,
0010
0000
1000
0000
0100
0000
0010
0000
0001
0000
0100
0000
0001
0000
0000
0010
0000
0000
0000
0000
0000
0010
0000
0000
,
0000
0001
0001
0100
0000
0100
0001
1000
,
0001
0010
0100
1000
1000
0010
0000
0010
,
0000
1000
1000
0100
0000
0100
1000
0100
,
1100
0000
0001
0000
0001
0100
0000
1000
,
0000
0100
0001
0010
0000
1000
0010
0001
,
0100
0000
0010
0000
1000
0000
0100
0010
0100
0000
0010
0000
0000
0000
0011
0000
,
0000
0001
0100
0010
0000
1010
0000
1000
,
0100
1000
0010
0100
0001
0010
0001
1000
0010
0002
0000
0013
,
0100
0001
0010
0001
0100
0010
1000
0001
0010
2000
0000
3010
,
0001
1000
0100
0020
0000
0130
1000
0001
0100
2000
0000
3100
,
0010
1000
0100
1000
0000
1000
0001
1000
0100
0002
0000
0103
,
1000
0000
0000
0000
0000
0000
0100
0010
0100
0000
0010
0000
0001
0000
0000
0000
1000
0000
0000
0000
0100
0000
0000
0000
0002
0000
0000
0000
0000
0000
0000
0000
0103
0000
0000
0000
0010
0000
0000
0000
0001
0000
0000
0000
0100
0000
0000
0000
,
0001
0010
0100
1000
0001
0100
2000
0000
3100
0001
1000
0010
,
0200
0000
0310
1000
0001
0010
2000
0000
3010
0100
1000
0010
,
1000
0000
1000
0001
1000
0010
0002
0000
0013
1000
1000
0100
,
0010
0010
0100
1000
0000
0000
1001
0000
0000
1010
0000
0000
,
0101
0000
0000
0011
0001
0010
0100
1000
0001
1000
0010
0100
,
0001
0000
1000
0000
0001
0000
1000
0100
0000
1000
0100
0000
0010
0000
0001
0000
1000
0000
0001
0100
0000
0001
0100
0000
,
0010
0000
1000
0000
0001
0000
1000
0100
1000
0100
0010
0001
0010
0001
1000
0010
0100
0001
1000
0100
0010
0001
1000
0010
,
0100
0001
0010
0100
1000
0001
1000
0000
0000
0010
0000
0000
0100
0000
0000
0001
0000
0000
0010
0000
0000
0010
0000
0000
,
0001
0000
0001
0000
1000
0010
1000
0000
0100
0000
0100
0000
0010
0000
0010
0000
,
0010
0010
0011
0000
0001
0100
1000
0100
,
1000
0100
0010
0010
1000
0100
0010
0000
,
0001
1000
0001
1000
0001
0000
0010
0000
0100
0000
1000
0000
0010
0000
0010
0000
,
1000
0000
1000
0000
0001
0010
0001
0000
0100
0000
0100
0000
0010
0000
0010
0000
,
0010
0010
1010
0000
1000
0100
0001
0100
,
0001
0100
0010
0010
0001
0100
0010
0010
,
1000
0100
0010
0001
0100
0000
1000
0000
0100
0000
0002
0000
0010
0000
2003
0000
,
0001
0000
3010
0010
0010
0010
1000
1000
,
0200
0320
0130
0001
0100
2000
0010
3002
,
1000
0000
0023
0030
0010
0010
0001
0001
,
0200
0000
0310
0001
0010
2000
0100
3002
,
1000
0000
0103
0100
0100
0100
0001
0001
,
0020
0230
0310
1000
0010
0002
0100
2003
,
3001
0000
1100
0000
0110
0010
0001
0100
,
0202
0303
2000
0100
3001
0020
0000
0030
,
0020
0000
0130
1000
0020
0000
0130
0000
0010
0000
0100
0000
0110
0000
0110
0000
,
0002
0000
0100
0000
1003
0000
0020
0000
0000
0000
0030
0000
0010
0000
0100
0001
,
0020
0000
0130
0000
0020
0000
0130
0000
0110
0010
0010
0000
0001
0000
0100
0000
,
0010
1000
0000
0001
0100
0010
1000
0000
,
0001
0000
0100
0000
0010
0000
1000
0000
0100
1000
0100
1000
0001
0000
0010
0000
,
0100
1000
0001
0010
0100
1000
0001
0010
,
0100
1000
0010
0001
0010
1000
2002
0000
,
3003
0000
0000
0000
;

//---------------dance-single - XO- JA- XMOD RH- JU----------------
#NOTEDATA:;
#CHARTNAME:;
#STEPSTYPE:dance-single;
#DESCRIPTION:XO- JA- XMOD RH- JU;
#CHARTSTYLE:;
#DIFFICULTY:Hard;
#METER:13;
#RADARVALUES:0.581660,0.804499,0.353712,0.117904,0.235808,518.000000,473.000000,45.000000,15.000000,0.000000,0.000000,0.000000,0.000000,0.000000,0.581660,0.804499,0.353712,0.117904,0.235808,518.000000,473.000000,45.000000,15.000000,0.000000,0.000000,0.000000,0.000000,0.000000;
#CREDIT:Karl with a K;
#NOTES:
0000
0000
0000
0000
,
0000
0000
0000
0000
,
0000
0000
0000
0000
,
0000
0000
0000
0000
,
0001
0000
0000
0100
0000
0000
0010
0000
,
0010
0000
1000
0001
,
1000
0000
0000
0100
0000
0000
0010
0000
,
0010
0000
0000
0000
0001
0000
1000
1000
,
2000
0000
3100
0000
0010
0001
0000
0100
,
0000
0001
0010
0000
0001
0010
0100
0000
,
1000
0000
0010
1000
0100
0000
1000
0000
,
0001
0001
0001
0010
0100
0000
0010
0010
,
0002
0000
0103
0000
0010
1000
0000
0100
,
0000
1000
0010
0000
1000
0010
0100
0000
,
0001
0000
0010
0001
0100
0000
0001
0000
,
1000
1000
0001
0000
0011
0000
1010
0000
,
0001
0010
0001
0000
0100
0000
0010
0000
,
1000
0010
1000
0000
0100
0000
1000
0000
,
0100
0010
0100
0000
1000
0000
1010
0000
,
1000
0010
0100
0000
0001
0100
0001
0000
,
0100
0000
0010
0000
1000
0100
1000
0000
,
0100
0000
1000
0000
0010
0100
0010
0000
,
1000
1100
1000
0002
,
0013
0000
0100
1000
0000
0010
0000
1000
,
0100
0000
1000
0100
0010
0000
0001
0000
,
0100
0001
0010
0000
0001
0000
1000
1000
,
1000
0100
0010
0000
0100
0100
2000
0000
,
3010
0000
0100
0001
0000
0010
0000
0001
,
0100
0000
0001
0100
0010
0000
1000
0000
,
0100
1000
0010
0000
1000
0000
0001
0001
,
1000
0000
1100
0000
0101
0000
1000
0100
,
1000
0000
0010
0000
0100
0000
0001
0100
,
0001
0000
0010
0000
0001
0000
0010
0100
,
0010
0000
0001
0000
0101
0000
0001
0100
,
0010
0000
1000
0010
1000
0000
0010
0000
,
0100
0000
0001
0010
0001
0000
0010
0000
,
0001
0000
0100
0010
0100
0000
0001
0000
,
0011
0000
0000
0000
0001
0000
0000
1000
1010
0000
0000
0000
0000
0000
0010
0000
,
0000
0000
0011
0000
0000
0001
0000
0000
,
1001
0000
0000
0000
1100
0000
0000
0100
,
0000
0000
0101
0000
0000
0001
0000
0000
,
1001
0000
0000
0000
0101
0000
0000
0100
,
0000
0000
1100
0000
0000
1000
0000
0000
,
1001
0000
0000
0000
0011
0000
0000
0010
,
0000
0000
1010
0000
0000
1000
0000
0000
,
1000
0000
0100
0000
1000
0000
0100
0000
0000
0000
0000
0000
0010
0000
0000
0001
0000
0000
0000
0000
0000
0101
0000
0000
,
0000
0000
0010
1000
0000
1100
0000
0000
,
1001
0000
1100
0000
0100
1000
0000
1010
,
0000
0000
0100
0001
0000
0011
0000
0000
,
0110
0000
0000
0000
1000
0100
0000
0011
,
0000
1000
0001
0100
0000
1010
0000
0001
,
1000
0100
0010
0001
0100
0001
0000
1010
,
0000
1000
0100
1000
0000
0011
0000
0001
,
1000
0010
0100
0001
0000
0000
1000
0001
0010
0001
0000
0001
,
0100
0000
0001
1000
0000
1000
0001
1000
0010
1000
0000
1000
,
0100
0000
1000
0010
0000
0100
0001
1000
0010
1000
0000
1000
,
0100
0000
1000
0001
0000
0001
1000
0001
1000
0010
0000
1000
,
0100
0000
0000
0010
0000
0010
0001
0000
1000
0000
0001
0000
0100
0000
0000
0000
0100
0000
1000
0000
0000
0000
0100
0000
,
0001
0000
0001
1000
0001
1000
0100
0000
0100
0001
0000
0000
,
0100
0000
0000
1000
0001
0100
0010
0000
0010
0001
0000
0010
,
1000
0000
1000
0001
1000
0001
0100
0000
0001
0010
1000
0000
,
0010
0000
0100
1000
0000
0000
1010
0000
0000
0101
0000
0000
,
1100
0000
0000
1000
0100
1000
0100
0000
1000
0001
0100
0001
,
0100
0000
0000
0000
0001
0000
1000
0000
0000
1000
0000
0000
1000
0000
0100
0000
0010
0000
0001
0000
0000
0001
0000
0000
,
0001
0100
0010
1000
0100
0010
0100
1000
0010
0100
0010
1000
,
0100
0000
0010
0000
0001
0000
1000
0000
0000
0100
0000
0000
0000
0000
0000
0011
0000
0000
0000
0000
0000
0001
0000
0000
,
1000
0001
0000
1010
0000
1000
0010
0100
,
1000
0100
0010
0000
1000
0100
0010
0000
,
0001
0100
0010
0010
0010
0000
0110
0000
,
0001
1000
0001
0100
0000
1010
0000
1000
,
0001
1000
0000
0011
0000
0001
0010
0100
,
0001
0100
0010
0000
0001
0100
0010
0000
,
1000
0100
0010
0010
0010
0000
0100
0010
,
0001
0100
0001
0010
0000
0200
0000
1300
,
0010
0000
1000
1000
1000
0000
0001
0001
,
0002
0000
1003
0010
0000
0100
0000
0001
,
0010
0000
0002
0000
1003
1000
0001
0001
,
2000
0000
3001
0100
0000
0020
0000
1030
,
0100
0000
1000
1000
1000
0000
0001
0001
,
0002
0000
1003
0100
0000
0010
0000
0001
,
0100
0000
1001
0000
1000
1000
0001
0001
,
2000
0000
3001
0010
0000
2000
0000
3010
,
0001
1001
0110
1001
,
1000
0010
0000
0002
0000
0013
1000
0000
,
1001
0000
0110
0000
1000
0000
1000
0100
,
0010
0001
0000
1000
0100
0010
0001
0000
,
1000
0100
0010
0001
0010
0100
1000
0010
,
0100
0001
1000
0010
0100
0001
1000
0010
,
0100
0001
0010
0100
1000
0001
2002
0000
,
3003
0000
0000
0000
;

//---------------dance-single - ----------------
#NOTEDATA:;
#CHARTNAME:;
#STEPSTYPE:dance-single;
#DESCRIPTION:;
#CHARTSTYLE:;
#DIFFICULTY:Medium;
#METER:11;
#RADARVALUES:0.478354,0.594630,0.306551,0.102184,0.125764,426.000000,387.000000,39.000000,13.000000,0.000000,0.000000,0.000000,0.000000,0.000000,0.478354,0.594630,0.306551,0.102184,0.125764,426.000000,387.000000,39.000000,13.000000,0.000000,0.000000,0.000000,0.000000,0.000000;
#CREDIT:Karl with a K;
#NOTES:
0000
0000
0000
0000
,
0000
0000
0000
0000
,
0000
0000
0000
0000
,
0000
0000
0000
0000
,
1000
0000
0000
1000
0000
0000
0000
0000
,
0010
0000
0000
0010
0000
0000
0000
0000
,
0100
0000
0000
0100
0000
0000
0000
0000
,
0001
0000
0000
0001
0000
0000
0000
0000
,
1000
0100
0010
0100
,
1000
0010
0100
0001
,
1000
0000
0100
0010
0001
0000
0100
0010
,
1000
0001
1000
0000
0110
0000
0001
0001
,
1000
0010
0100
0010
,
1000
0100
0010
0001
,
1000
0000
0010
0100
0001
0000
0010
0100
,
1000
0001
1000
0001
0100
0010
0100
0010
,
1000
0100
0010
0100
,
0010
0001
0000
0100
0010
0000
1000
0000
,
0001
0010
0100
0010
,
0100
1000
0000
0010
1000
0000
0010
0000
,
0100
0000
0010
0000
0100
0001
0000
0010
,
0100
1000
0001
0100
,
0010
0100
0110
0001
,
0010
0100
0010
0001
,
0100
0010
1000
0001
,
0010
0100
1000
0000
0010
0100
0001
1000
,
0001
0000
0110
0000
1000
1000
0001
0000
,
0100
0010
0100
0001
,
0010
0100
1000
0001
,
0100
0010
1000
0000
0100
0010
0001
1000
,
0001
1000
0010
0100
0010
0100
0001
0000
,
0010
0000
0100
0000
0010
0000
0100
1000
,
0000
0010
0100
0000
0001
0000
1000
0000
,
0100
0000
0010
0000
0100
0000
0010
0001
,
0000
0100
0001
0000
0100
0000
0010
0000
,
0100
0000
0010
1000
0000
0100
0010
0000
,
0001
1000
0010
0100
,
0010
0100
1100
0000
,
0000
0011
0000
0000
,
1001
0000
0101
0000
,
0000
1010
0000
0000
,
1001
0000
0000
0000
1100
0000
0000
1000
,
0000
0000
0011
0000
0000
0001
0000
0000
,
0110
0000
0000
0000
0101
0000
0000
0001
,
0000
0000
1010
0000
0000
1000
0000
0000
,
1001
0000
0000
0000
1000
0100
0000
0010
,
0000
0000
0001
0100
0000
0010
0000
0000
,
1000
0000
1001
0000
0001
0010
0000
0100
,
0000
0000
1000
0010
0000
0100
0000
0000
,
0110
0000
0000
0000
1000
0100
0000
1100
,
0000
0000
0001
0100
0000
0101
0000
0000
,
1010
0000
0011
0000
1000
0010
0000
1010
,
0000
0000
0001
0010
0000
0011
0000
0000
,
0110
0000
0000
0000
0000
0000
1000
0000
1000
0010
0000
0010
,
0100
0000
0000
0001
0000
0000
1000
0000
0001
0010
0000
0010
,
0100
0000
0000
1000
0000
0000
0001
0000
0001
0100
0000
0100
,
0010
0000
0000
1000
0000
0000
0001
0000
1000
0100
0000
0100
,
0010
0000
0000
0010
0000
0000
0001
0000
0000
0000
0001
0000
0010
0000
0000
0000
0010
0000
0100
0000
0000
0000
0100
0000
,
1000
0000
1000
0010
0000
0010
0100
0000
0100
0001
1000
0000
,
0001
0000
1000
0001
0000
0001
0010
0000
0010
1000
0000
1000
,
0010
0000
0010
0001
0000
0001
0100
0000
0100
1000
0100
0000
,
0001
0101
0001
1100
,
1000
0000
0000
0001
0000
0001
1000
0000
1000
0010
0000
0010
,
0100
0000
0000
0000
0100
0000
0001
0000
0000
0001
0000
0000
0001
0000
0000
0000
0000
0000
1000
0000
0000
1000
0000
0000
,
1000
0000
0000
0100
0010
0001
0010
0100
1000
0002
0000
2000
,
0000
3003
0000
0001
0000
0000
0100
0000
0000
0010
0000
0000
,
1000
0000
0100
0000
0010
0000
0001
1000
,
0001
1001
1000
0110
,
1000
0000
0001
0100
0001
0100
0010
0000
,
1000
0100
1000
0000
0100
0000
0010
0000
,
0001
0000
0100
0000
0010
0000
1000
0001
,
1000
1001
0001
0110
,
0001
0000
1000
0100
1000
0100
0010
0001
,
1000
0001
1000
0010
0000
0200
0000
0000
,
0310
1000
1000
0100
,
0110
0000
0001
0010
0000
0200
0000
0000
,
0310
0002
0103
0100
,
0110
0000
1000
0100
0000
0002
0000
0000
,
0103
1000
1000
0010
,
0110
0000
0001
0100
0000
2000
0000
0000
,
3100
0002
0013
0010
,
0110
0000
1000
0000
0100
0020
0000
0000
,
0031
0100
0110
0110
,
0001
0000
0100
0020
0000
0000
1030
0000
,
0100
0110
0110
0001
,
0100
2000
0000
3100
0000
0001
1000
0000
,
0100
0000
0010
0001
0010
0001
1000
0000
,
0100
0001
0100
1000
,
0010
0000
0001
0010
1000
0000
2002
0000
,
3003
0000
0000
0000
;

//---------------dance-single - ----------------
#NOTEDATA:;
#CHARTNAME:;
#STEPSTYPE:dance-single;
#DESCRIPTION:;
#CHARTSTYLE:;
#DIFFICULTY:Easy;
#METER:6;
#RADARVALUES:0.304305,0.418560,0.220088,0.047162,0.000000,271.000000,243.000000,28.000000,6.000000,0.000000,0.000000,0.000000,0.000000,0.000000,0.304305,0.418560,0.220088,0.047162,0.000000,271.000000,243.000000,28.000000,6.000000,0.000000,0.000000,0.000000,0.000000,0.000000;
#CREDIT:Karl with a K;
#NOTES:
0000
0000
0000
0000
,
0000
0000
0000
0000
,
0000
0000
0000
0000
,
0000
0000
0000
0000
,
1000
0000
0000
0000
,
0100
0000
0000
0000
,
0010
0000
0000
0000
,
0001
0000
0000
0000
,
1001
0000
1000
0010
,
0100
0010
1000
0000
,
1001
0000
0110
0000
,
0001
0010
0100
0000
,
1001
0000
1000
0100
,
0010
0100
1000
0000
,
1001
0000
0110
0000
,
0001
0100
0010
0010
,
1000
0100
0100
0000
,
0001
0000
0100
0000
,
1000
0100
0100
0000
,
1001
0000
0001
0100
,
0100
0000
1000
0000
,
0100
0000
0001
0100
,
0100
0000
0001
1001
,
0000
0001
0010
0100
,
0010
0001
0000
1001
,
0000
0110
0000
1000
,
0010
0100
0000
1001
,
0000
0001
0100
0010
,
0100
0001
0000
1001
,
0000
0110
0000
1000
,
0100
0010
0010
0001
,
0010
0010
0000
1000
,
0000
0010
0000
0001
,
0010
0010
0000
1001
,
0000
1000
0010
0010
,
0000
0001
0000
0010
,
0000
1000
0010
0010
,
0000
1000
0001
0000
,
0000
0001
0000
0000
,
1000
0001
1000
0000
,
0000
1000
0000
0000
,
1001
0000
0001
0000
,
0000
0010
0000
0000
,
0100
0100
1000
0000
,
0000
0010
0000
0000
,
0110
0000
1000
0000
,
0000
0010
0000
0000
,
0100
0100
0001
0000
,
0000
0010
0000
0000
,
0110
0000
1000
0000
,
0000
0100
0000
0000
,
0010
0000
0010
0000
0001
0000
0000
0001
,
0000
0000
0100
0000
0000
0100
0000
0000
,
0110
0000
1000
0010
,
0100
0001
0001
0010
,
0100
1000
1000
0100
,
0010
0001
0001
0100
,
0010
1000
0010
0100
,
1000
0100
0010
1000
,
1000
0001
0010
0100
,
0001
0100
0010
0001
,
0001
1000
1000
1000
,
1000
0001
0001
0100
,
0100
0010
1000
0001
,
0010
0100
0010
0220
,
0330
1000
0100
0010
,
0100
1000
0010
0100
,
0010
1000
1000
0001
,
0001
0010
0100
1000
,
1001
0001
0100
0010
,
0100
0001
0010
0100
,
0010
0001
0001
1000
,
1000
0010
0100
0001
,
1001
1000
0100
0001
,
0100
2000
0000
0000
,
0000
3001
0100
1000
,
0100
0002
0000
0000
,
0000
1003
0010
0001
,
0010
2000
0000
0000
,
0000
3001
0010
1000
,
0010
0002
0000
0000
,
0000
1003
0110
0001
,
0110
1000
1001
0000
,
0001
0110
1000
0110
,
0001
1001
0000
1000
,
0100
0010
0001
0001
,
0100
0010
1000
1000
,
0100
0010
0001
0100
,
0010
1000
0001
1001
;

//---------------dance-single - ----------------
#NOTEDATA:;
#CHARTNAME:;
#STEPSTYPE:dance-single;
#DESCRIPTION:;
#CHARTSTYLE:;
#DIFFICULTY:Beginner;
#METER:3;
#RADARVALUES:0.157206,0.348800,0.094323,0.015721,0.000000,140.000000,128.000000,12.000000,2.000000,0.000000,0.000000,0.000000,0.000000,0.000000,0.157206,0.348800,0.094323,0.015721,0.000000,140.000000,128.000000,12.000000,2.000000,0.000000,0.000000,0.000000,0.000000,0.000000;
#CREDIT:Karl with a K;
#NOTES:
// measure 0
0000
0000
0000
0000
,  // measure 1
0000
0000
0000
0000
,  // measure 2
0000
0000
0000
0000
,  // measure 3
0000
0000
0000
0000
,  // measure 4
1000
0000
0000
0000
,  // measure 5
0000
0000
0000
0000
,  // measure 6
1000
0000
0000
0000
,  // measure 7
0000
0000
0000
0000
,  // measure 8
1000
0000
0000
0000
,  // measure 9
0001
0000
0000
0000
,  // measure 10
1000
0000
0000
0000
,  // measure 11
1000
0000
0000
0000
,  // measure 12
0001
0000
0000
0000
,  // measure 13
1000
0000
0000
0000
,  // measure 14
0001
0000
0000
0000
,  // measure 15
0001
0000
0000
0000
,  // measure 16
0010
0000
0000
0000
,  // measure 17
0100
0000
0000
0000
,  // measure 18
0010
0000
0000
0000
,  // measure 19
0001
0000
0100
0000
,  // measure 20
0000
0000
0010
0000
,  // measure 21
0000
0000
0100
0000
,  // measure 22
0000
0000
0100
0001
,  // measure 23
0000
0000
0000
1000
,  // measure 24
0000
0000
0000
0001
,  // measure 25
0000
0000
0000
0001
,  // measure 26
0000
0000
0000
1000
,  // measure 27
0000
0000
0000
0001
,  // measure 28
0000
0000
0000
1000
,  // measure 29
0000
0000
0000
1000
,  // measure 30
0000
0000
0000
0010
,  // measure 31
0000
0000
0000
0100
,  // measure 32
0000
0000
0000
0010
,  // measure 33
0000
0000
0000
1000
,  // measure 34
0000
0100
0000
0000
,  // measure 35
0000
0010
0000
0000
,  // measure 36
0000
0100
0000
0000
,  // measure 37
0000
0100
1000
0000
,  // measure 38
0000
1000
0000
0000
,  // measure 39
1000
0000
0001
0000
,  // measure 40
0000
0001
0000
0000
,  // measure 41
0001
0000
0100
0000
,  // measure 42
0000
0100
0000
0000
,  // measure 43
0100
0000
0010
0000
,  // measure 44
0000
0010
0000
0000
,  // measure 45
0010
0000
1000
0000
,  // measure 46
0000
1000
0000
0000
,  // measure 47
1000
0000
0001
0000
,  // measure 48
0000
0001
0000
0000
,  // measure 49
0001
0000
0010
0000
,  // measure 50
0000
0010
0000
0000
,  // measure 51
0010
0000
0100
0000
,  // measure 52
0000
0100
0000
0000
,  // measure 53
0100
0000
1000
0000
,  // measure 54
1000
0000
0001
0000
,  // measure 55
0001
0000
1000
0000
,  // measure 56
1000
0000
0001
0000
,  // measure 57
0001
0010
0000
0100
,  // measure 58
0000
1000
0000
0010
,  // measure 59
0000
0100
0000
0001
,  // measure 60
0000
0010
0000
0100
,  // measure 61
0000
1001
0000
1001
,  // measure 62
0000
0110
0000
0110
,  // measure 63
0000
0110
0000
0110
,  // measure 64
0000
0220
0000
0000
,  // measure 65
0330
1000
0000
0010
,  // measure 66
0000
1000
0000
0001
,  // measure 67
0000
1000
0000
1000
,  // measure 68
0000
1000
1000
1000
,  // measure 69
0000
0001
0000
0010
,  // measure 70
0000
0001
0000
1000
,  // measure 71
0000
0001
0000
0001
,  // measure 72
0000
0001
0001
0001
,  // measure 73
0000
1000
0000
1001
,  // measure 74
0000
0000
0000
0000
,  // measure 75
0000
0001
0000
1001
,  // measure 76
0000
0000
0000
0000
,  // measure 77
0000
1000
0000
0110
,  // measure 78
0000
0000
0000
0000
,  // measure 79
0000
0001
0000
0110
,  // measure 80
0000
0000
0000
0000
,  // measure 81
0000
1000
1000
1000
,  // measure 82
0000
0001
0001
0000
,  // measure 83
0001
0001
0001
0000
,  // measure 84
1000
1000
0000
0100
,  // measure 85
0000
0010
0000
0001
,  // measure 86
0000
0100
0000
0010
,  // measure 87
0010
0010
0000
1000
,  // measure 88
1000
1000
0000
1001
;
