#VERSION:0.83;
#TITLE:Backseat Freestyle;
#SUBTITLE:;
#ARTIST:Kendrick Lamar;
#TITLETRANSLIT:;
#SUBTITLETRANSLIT:;
#ARTISTTRANSLIT:;
#GENRE:;
#ORIGIN:;
#CREDIT:;
#BANNER:Backseat Freestyle banner.png;
#BACKGROUND:Backseat Freestyle bg.png;
#PREVIEWVID:;
#JACKET:Backseat Freestyle jk.png;
#CDIMAGE:;
#DISCIMAGE:;
#LYRICSPATH:;
#CDTITLE:;
#MUSIC:Backseat Freestyle.ogg;
#OFFSET:0.000000;
#SAMPLESTART:124.683327;
#SAMPLELENGTH:12.467522;
#SELECTABLE:YES;
#BPMS:0.000=77.000;
#STOPS:;
#DELAYS:;
#WARPS:121.000=14.000,
137.000=14.000,
153.000=14.000;
#TIMESIGNATURES:0.000=4=4;
#TICKCOUNTS:0.000=4;
#COMBOS:0.000=1;
#SPEEDS:0.000=1.000=0.000=0;
#SCROLLS:0.000=1.000,
57.750=1.300,
58.000=0.700,
58.250=1.300,
58.500=0.700,
58.750=1.000,
105.750=0.900,
106.000=0.800,
106.250=0.700,
106.500=0.600,
106.750=0.500,
107.000=0.400,
107.250=0.300,
107.500=1.000,
110.000=0.200,
110.500=0.400,
111.000=0.600,
111.500=0.800,
112.000=1.000,
135.000=0.000,
135.500=1.000,
151.000=0.000,
151.500=1.000,
167.000=0.000,
167.500=1.000,
179.000=0.500,
180.000=1.000,
181.000=0.500,
182.000=1.000,
198.000=0.500,
201.500=-1.000,
201.562=1.000,
201.750=-1.000,
201.812=1.000,
230.000=0.500;
#FAKES:121.000=10.000,
137.000=10.000,
153.000=10.000;
#LABELS:0.000=Song Start;
#BGCHANGES:;
#KEYSOUNDS:;
#ATTACKS:
;

//---------------dance-single - XO FS- DS JA XMOD JU+ Mines-----------------
#NOTEDATA:;
#CHARTNAME:;
#STEPSTYPE:dance-single;
#DESCRIPTION:XO FS- DS JA XMOD JU+ Mines-;
#CHARTSTYLE:;
#DIFFICULTY:Challenge;
#METER:14;
#RADARVALUES:0.633729,0.858910,0.267235,0.447619,1.222600,664.000000,624.000000,40.000000,67.000000,17.000000,0.000000,0.000000,0.000000,135.000000,0.633729,0.858910,0.267235,0.447619,1.222600,664.000000,624.000000,40.000000,67.000000,17.000000,0.000000,0.000000,0.000000,135.000000;
#CREDIT:Karl with a K as eiffeltap;
#NOTES:
// measure 0
0000
0000
0000
0000
,  // measure 1
0000
0000
0000
0000
,  // measure 2
0000
0000
0000
0000
0000
0000
0000
0000
0000
1000
0100
M100
0001
1000
0010
0000
,  // measure 3
0000
0000
0000
0000
0000
0000
0000
0000
0000
00M1
0100
0100
1000
0001
0010
0000
,  // measure 4
0001
1000
0010
0100
0001
1000
0200
0300
1000
0001
0100
0000
0001
0100
1000
0100
,  // measure 5
0020
1030
0010
0100
0001
1000
0010
0000
1000
0001
0010
0000
0001
0100
1000
0100
,  // measure 6
0020
1030
0010
0100
0001
1000
0100
0000
1000
0001
0100
0000
1M00
0100
0001
0100
,  // measure 7
0010
0000
0110
0000
0001
0010
0011
0001
1000
0000
1100
0000
0100
0000
0110
0100
,  // measure 8
1000
1000
0010
0200
0000
1300
0100
0001
0000
0001
0100
1000
0100
0001
0020
0000
,  // measure 9
0031
0001
0010
0200
0000
0301
0100
1000
0000
1000
0100
0001
0100
1000
0010
0100
,  // measure 10
0100
0001
0010
0200
0000
0310
0100
1000
0001
0010
1000
0010
0001
0010
0100
0010
,  // measure 11
0001
0100
0110
0000
0010
1000
1010
0010
1000
0100
0210
0000
0310
0001
0010
0120
,  // measure 12
0130
1000
0001
1000
0010
1000
0100
0020
0000
0031
1000
0001
0010
0001
0100
0010
,  // measure 13
1000
0000
0010
1000
0001
0000
1000
0000
0010
0000
0001
0000
0010
0000
1000
0000
0001
0000
0010
0001
1000
0000
0001
0000
0010
0000
1000
0000
0010
0000
0100
0000
,  // measure 14
0100
1000
0100
0001
0100
0010
0100
2000
0000
3020
0000
1030
0010
1000
0100
1000
,  // measure 15
0100
0000
0001
0000
0001
0000
0100
0000
0010
0000
0001
0000
1000
0010
1000
0000
0001
0000
1000
0000
0010
0000
1000
0000
0001
0000
0010
0000
0100
0010
0001
0000
,  // measure 16
0100
1000
1000
0100
0010
1000
0100
1000
0001
1000
0100
0001
0200
0310
0100
1000
,  // measure 17
0100
0000
1000
0000
0001
0100
0001
0000
0010
0000
0001
0000
0100
0000
0010
0000
1000
0000
0010
0000
0001
0000
0010
0000
2000
0000
3010
0000
0100
0000
0100
0000
,  // measure 18
0001
0100
1000
0100
0002
0013
0001
1000
0001
0010
1000
0010
0002
0013
0100
0010
,  // measure 19
0001
0000
0011
0000
0110
0000
1100
1000
0010
0000
1010
0000
0110
0100
0101
0001
,  // measure 20
1000
0000
0000
0000
0001
0000
0000
0000
0010
0000
0000
0000
0200
0000
0000
0000
0000
0000
0000
0000
0301
0000
0000
0000
0200
0000
0000
0000
1000
0000
0000
0300
0200
0000
0000
0000
0010
0000
0000
0300
0100
0000
0000
0000
0001
0000
0000
0000
0100
0000
0000
0000
1000
0000
0000
0000
0020
0000
0000
0000
0000
0000
0000
0000
,  // measure 21
1030
0000
0000
0000
1000
0000
0000
0000
0010
0000
0000
0000
0200
0000
0000
0000
0000
0000
0000
0000
1300
0000
0000
0000
0200
0000
0000
0000
0001
0000
0000
0000
0000
0000
0000
0300
0200
0000
0000
0000
0301
0000
0000
0000
0000
0000
0000
0000
0010
0000
0000
0000
0001
0000
0000
0000
0011
0000
0000
0000
0010
0000
0000
0000
,  // measure 22
0100
1000
0010
0200
0000
0310
0200
0001
0001
0310
1000
0010
0001
0010
1000
0000
,  // measure 23
0001
0010
0110
0000
0010
0001
0011
0010
0001
0100
0210
0000
0310
1000
0010
0120
,  // measure 24
0130
0001
1000
0001
0010
0001
0100
0020
0000
1030
0001
1000
0010
1000
0100
0010
,  // measure 25
0100
1000
0001
1000
0010
1000
0100
0010
1000
0010
0001
1000
0010
1000
0100
0100
,  // measure 26
0010
0010
0001
2000
0000
3010
1000
0100
0000
0100
2000
0000
3020
0000
0032
0000
,  // measure 27
1003
0000
0000
0000
0000
0000
0000
0000
MMMM
0000
0000
0000
0000
0000
0001
0010
,  // measure 28
1000
0000
0001
0000
1000
0001
1000
0000
0020
0000
0032
0000
1003
0000
0010
0000
0001
0000
1000
0000
0001
1000
0001
0000
0020
0000
2030
0000
3001
0000
1000
0000
,  // measure 29
0010
0000
0001
0000
0010
0001
0010
0000
0010
0000
1000
0000
0100
0000
0010
0000
0100
0000
0001
0000
0100
0000
1000
0000
2MM2
0000
3003
0000
MMMM
0000
2000
0000
,  // measure 30
0020
0000
0000
0000
3030
0000
0000
0000
1010
0000
1010
0000
1000
0001
1000
0000
0001
0000
0010
0001
0010
0000
0001
0000
0200
0000
0310
0000
0400
0000
0010
0000
,  // measure 31
0001
0000
0310
1000
0010
0000
1000
0000
0200
0000
0310
0000
0100
0000
0010
0000
0001
0000
0010
0000
10M0
0000
M100
0000
0M10
0000
10M0
0000
0010
0000
2000
0000
,  // measure 32
3100
0010
0001
0100
0020
0000
0130
0002
0020
0000
0033
0000
0000
0000
0000
0000
,  // measure 33
0000
0000
0000
0000
0000
0000
0000
0000
0000
0000
0000
0000
0000
0000
0000
0002
,  // measure 34
0020
0000
0000
0000
0033
0000
0000
0000
0011
0000
0011
0000
1000
0001
1000
0000
0001
0000
0010
0001
0010
0000
0001
0000
0200
0000
0310
0000
0400
0000
0010
0000
,  // measure 35
0001
0000
0310
1000
0010
0000
1000
0000
0200
0000
0310
0000
0100
0000
0010
0000
0001
0000
0010
0000
10M0
0000
M100
0000
0M10
0000
10M0
0000
0010
0000
2000
0000
,  // measure 36
3100
0010
0001
0100
0020
0000
0130
0002
0020
0000
0033
0000
0000
0000
0000
0000
,  // measure 37
0000
0000
0000
0000
0000
0000
0000
0000
0000
0000
0000
0000
0000
0000
0000
2000
,  // measure 38
0010
0000
0000
0000
3010
0000
0000
0000
1010
0000
1010
0000
1000
0001
1000
0000
0001
0000
0010
0001
0010
0000
0001
0000
0200
0000
0310
0000
0400
0000
0010
0000
,  // measure 39
0001
0000
0310
1000
0010
0000
1000
0000
0200
0000
0310
0000
0100
0000
0010
0000
0001
0000
0010
0000
10M0
0000
M100
0000
0M10
0000
10M0
0000
0010
0000
2000
0000
,  // measure 40
3100
0010
0001
0100
0020
0000
0130
0002
0020
0000
0033
0000
0000
0000
0000
0000
,  // measure 41
0000
0000
0000
0000
0000
0000
0000
0000
0000
0000
0000
0000
0000
0000
0000
0200
,  // measure 42
0010
0000
0000
0000
0310
0000
0000
0000
0110
0000
0010
0000
1001
0000
1000
0000
0001
0000
0010
0001
0010
0000
0001
0000
0200
0000
0310
0000
0200
0000
0010
0000
,  // measure 43
0001
0000
0310
1000
0010
0000
1000
0000
0200
0000
0310
0000
0100
0000
0010
0000
0001
0000
0010
0000
10M0
0000
M100
0000
0M10
0000
10M0
0000
0020
0000
2030
0000
,  // measure 44
3100
0010
0001
0100
0020
0000
0130
0002
0010
0010
0013
0000
0001
1000
0000
2000
,  // measure 45
0010
0010
3010
0000
1000
0001
0000
0002
0013
0000
0011
0000
0001
0100
0020
0130
,  // measure 46
0001
0000
0010
0000
0012
0000
0013
0000
0110
0000
0100
0000
1100
0000
1000
0000
0110
0000
0010
0000
0011
0000
0001
0000
0011
0000
0010
0000
0110
0000
1000
0010
,  // measure 47
1000
0000
0010
0000
0110
0000
0010
0000
1010
0000
1000
0000
0100
0000
0001
0000
0100
0000
1000
0000
0001
1000
0100
0000
0010
0000
0001
0000
0100
0000
0001
0000
,  // measure 48
1000
0001
0200
0301
1001
0000
1000
0100
0010
0001
1000
0100
0010
0100
1000
0010
,  // measure 49
1000
0100
0001
0100
1000
0000
0001
0100
0010
1000
0001
0100
0010
0100
0001
1000
,  // measure 50
0010
0001
0010
1000
0001
0000
1002
1000
1003
1000
0100
0020
1000
1030
0010
0001
,  // measure 51
0000
0001
0010
1000
0010
0001
0200
0000
0301
0001
0100
0020
0001
0031
0010
1000
,  // measure 52
0000
1000
0010
0001
0010
1000
0100
0100
0010
0001
0100
0020
0100
0130
0010
1000
,  // measure 53
0001
0010
1000
0010
0001
0010
0100
0010
0001
0100
0110
0000
1020
1030
1010
0010
,  // measure 54
1000
0100
0110
0000
0110
0001
1000
1020
1030
0001
1000
0001
0010
0001
0100
0020
,  // measure 55
0000
1030
0001
1000
0010
1000
0010
0020
1030
0100
0001
0100
0010
0100
1000
0001
,  // measure 56
0100
1000
0100
0001
1000
0010
1000
0100
0010
0100
1000
0002
0010
0103
0001
0010
,  // measure 57
0000
0100
0001
0100
1000
0010
2000
0000
3100
0000
0000
0100
0000
0000
0100
0000
,  // measure 58
0000
0000
0100
0000
0000
0000
0010
0100
0000
0000
0000
0000
0000
0000
0000
0000
;

//---------------dance-single - ----------------
#NOTEDATA:;
#CHARTNAME:;
#STEPSTYPE:dance-single;
#DESCRIPTION:;
#CHARTSTYLE:;
#DIFFICULTY:Hard;
#METER:11;
#RADARVALUES:0.433302,0.604494,0.360767,0.086851,0.501066,454.000000,400.000000,54.000000,13.000000,4.000000,0.000000,0.000000,0.000000,99.000000,0.433302,0.604494,0.360767,0.086851,0.501066,454.000000,400.000000,54.000000,13.000000,4.000000,0.000000,0.000000,0.000000,99.000000;
#CREDIT:Karl with a K as eiffeltap;
#NOTES:
0000
0000
0000
0000
,
0000
0000
0000
0000
,
0000
0000
0000
0000
0000
0000
0000
0000
0000
0000
1000
0000
0001
0001
0001
0000
,
0000
0000
0000
0000
0000
0000
0000
0000
0000
0000
0100
0000
0010
0010
0010
0000
,
1000
0000
1000
0000
0010
0000
0010
0000
1000
0000
1000
0000
0001
0010
0001
0010
,
0001
0000
0001
0000
0010
0000
0010
0000
0001
0000
0001
0000
1000
0100
1000
0100
,
1000
0000
1000
0000
0100
0000
0100
0000
1000
0000
1000
0000
0001
0100
0001
0100
,
0010
0000
1010
0000
1000
0000
1100
0000
0100
0000
0110
0000
0010
0000
0011
0001
,
1000
0100
0000
0001
0000
0100
0000
1000
0000
1000
0100
0000
0010
0000
0001
0000
,
1000
0010
0000
0001
0000
0010
0000
1000
0000
0001
0100
0000
0100
0000
0001
0001
,
0001
0010
0000
1000
0000
0010
0000
0001
1000
0001
1000
0000
0001
0000
0100
0000
,
0001
0000
0011
0000
0010
0000
0110
0000
0100
0000
1100
0000
1000
0000
1001
0001
,
0001
1000
1010
0001
1000
0001
0011
1000
,
0100
0010
0100
0010
0100
0010
0100
0010
0100
0000
1000
0000
0010
0000
0100
0100
,
0100
0000
0001
0000
0010
0000
0100
0010
0000
0010
0000
0000
0001
0000
0100
0000
,
0010
0000
1010
0000
1000
0000
1001
0000
0001
0000
0101
0000
0100
0000
0110
0010
,
1000
0000
0100
0000
0011
0000
1000
0000
0001
0000
0100
0000
0010
0010
0000
0100
,
0001
0000
0100
0000
1010
0000
0001
0000
1000
0000
0100
0000
0010
0010
0000
0001
,
0001
0000
0100
0000
0010
0010
0000
1000
1000
0000
0100
0000
0010
0010
0000
0001
,
0001
0011
0010
0110
0100
1100
1001
1001
,
1000
0010
0000
0001
0000
0010
0000
1000
0000
1000
0010
0000
0100
0000
0001
0000
,
1000
0100
0000
0001
0000
0100
0000
1000
0000
0001
0010
0000
0010
0000
0001
0001
,
0001
0100
0000
1000
0000
0100
0000
0001
1000
0001
1000
0000
0001
0000
0010
0000
,
0001
0000
0101
0000
0100
0000
0110
0000
0010
0000
1010
0000
1000
0000
1001
1000
,
1000
0001
0011
1000
0001
1000
1010
0001
,
1000
0000
0001
0000
0011
0000
1000
0000
0001
0000
0100
0000
0010
0000
0100
0100
,
0010
1000
0100
1000
0010
0100
0001
0100
,
0000
0000
0000
0000
,
1000
0000
0010
1000
0100
0000
1000
0000
0001
0000
0010
0001
0100
0000
0001
0000
,
1000
0000
0010
1000
0001
0000
0010
0001
1000
0000
0010
0100
0010
0000
MMMM
0000
,
0022
0000
0033
0000
0011
0000
0011
0000
1000
0010
1000
0010
1000
0010
0200
0000
,
0301
0010
0001
0010
0001
0010
0100
0000
1000
0010
0010
0010
0010
0010
0200
0001
,
0301
0010
0001
0010
0200
0000
0300
0000
2020
0000
3030
0000
0000
0000
0000
0000
,
0000
0000
0000
0000
,
2020
0000
3030
0000
1010
0000
1010
0000
1000
0010
1000
0010
1000
0010
0200
0000
,
0301
0010
0001
0010
0001
0010
0100
0000
1000
0010
0010
0010
0010
0010
0200
0001
,
0301
0010
0001
0010
0200
0000
0300
0000
2020
0000
3030
0000
0000
0000
0000
0000
,
0000
0000
0000
0000
,
0110
0000
0100
0000
0110
0000
0110
0000
1000
0010
1000
0010
1000
0010
0200
0000
,
0301
0010
0001
0010
0001
0010
0100
0000
1000
0010
0010
0010
0010
0010
0200
0001
,
0301
0010
0001
0010
0200
0000
0300
0000
2020
0000
3030
0000
0000
0000
0000
0000
,
0000
0000
0000
0000
,
1001
0000
0001
0000
1001
0000
1001
0000
1000
0010
1000
0010
1000
0010
0200
0000
,
0301
0010
0001
0010
0001
0010
0100
0000
1000
0010
0010
0010
0010
0010
0200
0001
,
0301
0010
0001
0010
0200
0000
0300
0000
2020
0000
3030
0000
0000
0000
0000
0000
,
0022
0033
0000
0000
0110
0010
0011
0001
,
0010
0000
0010
0000
0010
0010
0010
0010
0110
0000
0010
0100
1000
0000
0101
0100
,
0010
0000
0100
0010
1000
0000
0100
0000
0100
0000
0010
0001
0010
0000
0001
0000
,
0100
0000
0100
0000
0010
0000
1000
0100
1000
0000
0001
0010
0001
0000
0100
0000
,
1000
0000
0100
0000
0001
0000
0001
0100
0001
0000
1000
0010
1000
0000
0100
0000
,
0001
0000
0100
0000
1000
0000
0002
0000
1003
0010
0000
0001
0010
0010
0000
1000
,
0000
1000
0100
0000
0110
0000
0001
0000
1000
0100
0000
0001
0100
0100
0000
1000
,
0000
0001
0100
0000
0110
0000
1000
1000
1000
0100
0000
0001
0100
0100
0000
1000
,
0001
1000
0001
0000
0011
0000
0100
0000
1000
0000
1100
0000
0110
0000
0110
0000
,
0010
0000
0011
0000
1001
0000
1001
1000
1000
0000
0001
0000
0011
0000
1000
0001
,
0000
0001
1000
0000
1010
0000
0001
1000
0000
1000
0001
0000
0011
0000
1000
0000
,
0001
0000
0100
0000
0110
0000
0100
0100
0100
0001
0000
0010
0001
0001
0000
0100
,
0000
0100
0001
0000
1001
0000
0010
0000
0200
0000
0000
0000
0000
0000
0000
0000
,
0000
0000
0000
0300
0000
0000
0000
0000
;

//---------------dance-single - ----------------
#NOTEDATA:;
#CHARTNAME:;
#STEPSTYPE:dance-single;
#DESCRIPTION:;
#CHARTSTYLE:;
#DIFFICULTY:Medium;
#METER:8;
#RADARVALUES:0.244329,0.517475,0.314001,0.093532,0.016702,256.000000,209.000000,47.000000,14.000000,4.000000,0.000000,0.000000,0.000000,57.000000,0.244329,0.517475,0.314001,0.093532,0.016702,256.000000,209.000000,47.000000,14.000000,4.000000,0.000000,0.000000,0.000000,57.000000;
#CREDIT:Karl with a K as eiffeltap;
#NOTES:
0000
0000
0000
0000
,
0000
0000
0000
0000
,
0000
0000
0000
0000
,
0000
0000
0000
0000
,
1000
0000
0100
0000
0001
0000
0100
1000
,
0001
0000
0100
0000
1000
0000
0100
0001
,
1000
0000
0010
0000
0001
0000
0010
1000
,
0001
0001
0010
0010
0100
0100
1000
1000
,
0001
0000
0100
0000
0010
0000
1000
1000
,
1000
0000
0100
0000
0010
0000
0001
0001
,
0001
0000
0010
0000
0100
0000
1000
1000
,
1000
1001
0110
1001
,
0100
0010
0100
0010
,
0100
0010
1000
0010
0100
0010
1000
0100
,
0100
0010
0000
0010
,
0110
1001
0110
1001
,
1000
0000
0000
0000
0001
0100
0000
0000
0001
0000
0000
0000
1000
0010
0000
0000
,
1000
0000
0000
0000
0100
0000
0000
0000
1000
0000
0000
0000
0001
0010
0000
0000
,
0001
0000
0000
0000
1000
0010
0000
0000
1000
0000
0000
0000
0001
0010
0000
0000
,
0011
1100
1010
0101
,
1000
0000
0100
0000
0010
0000
0001
0001
,
0001
0000
0100
0000
0010
0000
1000
1000
,
1000
0000
0010
0000
0100
0000
0001
0001
,
0001
0110
1001
0110
,
0100
0010
0100
0010
,
0001
0000
0100
0000
0010
0000
1000
0100
,
0100
1000
0001
0010
,
0000
0000
0000
0000
,
1000
0010
0100
0000
0001
0010
0100
0000
,
1000
0010
0001
0010
1000
0100
0010
MMMM
,
2002
0000
3003
1001
1000
0100
0010
0001
,
0001
0100
0010
1000
0010
0010
0010
0100
,
0010
1000
0100
0000
0110
0000
0000
0000
,
0000
0000
0000
0000
,
2002
0000
3003
1001
1000
0100
0010
0001
,
0001
0100
0010
1000
0010
0010
0010
0100
,
0010
1000
0100
0000
0110
0000
0000
0000
,
0000
0000
0000
0000
,
2002
0000
3003
1001
1000
0100
0010
0001
,
0001
0100
0010
1000
0010
0010
0010
0100
,
0010
1000
0100
0000
0110
0000
0000
0000
,
0000
0000
0000
0000
,
2002
3003
1001
1001
1000
0100
0010
0001
,
0001
0100
0010
1000
0010
0010
0010
0100
,
0010
1000
0100
0000
0220
0000
0330
0000
,
0220
0330
0220
0330
,
0110
0110
0110
0110
1010
0110
0101
0001
,
0011
0110
1100
1000
0010
1000
0010
1000
,
0001
0100
0001
0000
1000
0000
0100
0000
,
0010
0001
1001
0000
,
0000
0000
0001
0101
,
0010
0000
1010
1000
1000
0000
1100
0000
,
0010
0000
0011
0001
0001
0000
0010
0000
,
0100
0000
1000
1000
1000
0000
1001
0000
,
0110
0000
1001
0001
0100
0000
1010
0000
,
0100
0011
0100
1010
,
0001
0000
0011
0001
0010
0000
1010
0000
,
1000
0000
0101
0100
0000
0000
0000
0000
;

//---------------dance-single - ----------------
#NOTEDATA:;
#CHARTNAME:;
#STEPSTYPE:dance-single;
#DESCRIPTION:;
#CHARTSTYLE:;
#DIFFICULTY:Easy;
#METER:4;
#RADARVALUES:0.141253,0.191240,0.013362,0.073490,0.000000,148.000000,146.000000,2.000000,11.000000,0.000000,0.000000,0.000000,0.000000,27.000000,0.141253,0.191240,0.013362,0.073490,0.000000,148.000000,146.000000,2.000000,11.000000,0.000000,0.000000,0.000000,0.000000,27.000000;
#CREDIT:Karl with a K;
#NOTES:
0000
0000
0000
0000
,
0000
0000
0000
0000
,
0000
0000
0000
0000
,
0000
0000
0000
0000
,
1000
0000
1000
1000
,
0001
0000
0001
0001
,
1000
0000
1000
1000
,
0010
0100
0010
0100
,
0001
0000
1000
0001
,
1000
0000
0001
1000
,
0001
0000
1000
0001
,
1000
0100
0010
0001
,
1000
0010
1000
1000
,
0001
0010
0001
0001
,
1000
0100
0000
0010
,
0001
0100
0010
0010
,
1000
0010
0100
0001
,
0001
0010
0100
1000
,
1000
0010
1000
0010
,
0100
0010
0010
0010
,
1000
0000
1000
0200
0000
0000
1300
0000
,
0001
0000
0001
0200
0000
0000
0301
0000
,
1000
0000
0001
0200
0000
0000
0301
0000
,
0001
1000
0100
0110
,
1000
0010
1000
0100
,
0010
0001
0100
0001
,
1000
0001
2000
0000
,
3000
0000
0000
0000
,
1000
0010
0001
0010
,
1000
0100
0001
0100
,
2000
3000
0001
0010
,
1000
0010
0001
0100
,
1000
0100
0001
0000
,
0000
0000
0000
0000
,
2000
3000
0001
0010
,
1000
0010
0001
0100
,
1000
0100
0001
0000
,
0000
0000
0000
0000
,
2000
3000
0001
0010
,
1000
0010
0001
0100
,
1000
0100
0001
0000
,
0000
0000
0000
0000
,
2000
3000
0001
0010
,
1000
0010
0001
0100
,
1000
0100
0002
0003
,
0002
0003
0002
0003
,
0001
0001
1000
0010
,
0100
0001
0010
0100
,
1000
1001
0001
0100
,
0010
1000
0000
0000
,
0000
0000
1000
0000
,
0100
1000
0001
0000
,
0100
0001
1000
0000
,
0010
1000
0001
0010
,
0100
1000
0001
0010
,
0100
0010
0001
0100
,
0010
0100
0001
0001
,
1000
1000
0000
0000
;

//---------------dance-single - ----------------
#NOTEDATA:;
#CHARTNAME:;
#STEPSTYPE:dance-single;
#DESCRIPTION:;
#CHARTSTYLE:;
#DIFFICULTY:Beginner;
#METER:1;
#RADARVALUES:0.077307,0.171364,0.053447,0.000000,0.000000,81.000000,73.000000,8.000000,0.000000,0.000000,0.000000,0.000000,0.000000,18.000000,0.077307,0.171364,0.053447,0.000000,0.000000,81.000000,73.000000,8.000000,0.000000,0.000000,0.000000,0.000000,0.000000,18.000000;
#CREDIT:Karl with a K;
#NOTES:
0000
0000
0000
0000
,
0000
0000
0000
0000
,
0000
0000
0000
0000
,
0000
0000
0000
0000
,
1000
0000
0000
0000
,
1000
0000
0000
0000
,
1000
0000
0000
0000
,
0001
0000
0000
0000
,
1000
0000
0000
0000
,
1000
0000
0000
0000
,
1000
0000
0000
0000
,
0001
0000
0000
0000
,
1000
0000
1000
0000
,
1000
0000
1000
0000
,
0001
0000
0000
0000
,
0001
0000
0001
0000
,
1000
0000
0001
0000
,
1000
0000
0001
0000
,
1000
0000
0001
0000
,
1000
0000
0001
0000
,
1000
0000
0000
0000
,
0001
0000
0000
0000
,
1000
0000
0000
0000
,
0010
0000
0000
0000
,
0100
0000
0100
0000
,
0100
0000
0100
0000
,
0001
0000
0000
0000
,
0001
0000
0000
0000
,
1000
1000
1000
0000
,
0001
0001
0001
0000
,
1001
0000
0001
0001
,
0001
0000
1000
1000
,
1000
0000
0000
0000
,
0000
0000
0000
0000
,
1001
0000
0001
0001
,
0001
0000
1000
1000
,
1000
0000
0000
0000
,
0000
0000
0000
0000
,
1001
0000
0001
0001
,
0001
0000
1000
1000
,
1000
0000
0000
0000
,
0000
0000
0000
0000
,
1001
0000
0001
0001
,
0001
0000
1000
1000
,
1000
0000
1001
0000
,
1001
0000
1001
0000
,
0110
0000
0010
0010
,
0010
0000
0100
0100
,
0100
0000
1000
1000
,
1000
0000
0000
0000
,
0000
0000
0000
0001
,
0000
0000
1000
0000
,
0000
0000
0001
0000
,
0000
0000
1000
0000
,
0000
0000
0100
0000
,
0010
0000
0100
0000
,
0010
0000
0001
0001
,
0001
0000
0000
0000
;
