#VERSION:0.83;
#TITLE:BLACK SHOUT;
#SUBTITLE:;
#ARTIST:Roselia;
#TITLETRANSLIT:;
#SUBTITLETRANSLIT:;
#ARTISTTRANSLIT:;
#GENRE:;
#ORIGIN:BanG Dream! Girl's Band Party;
#CREDIT:;
#BANNER:BLACK SHOUT banner.png;
#BACKGROUND:BLACK SHOUT bg.png;
#PREVIEWVID:;
#JACKET:BLACK SHOUT jk.png;
#CDIMAGE:;
#DISCIMAGE:;
#LYRICSPATH:;
#CDTITLE:;
#MUSIC:BLACK SHOUT.ogg;
#OFFSET:0.000000;
#SAMPLESTART:79.135223;
#SAMPLELENGTH:15.000000;
#SELECTABLE:YES;
#BPMS:0.000=92.500,
46.000=185.000;
#STOPS:54.000=1.946,
112.000=0.973,
253.000=1.946;
#DELAYS:;
#WARPS:;
#TIMESIGNATURES:0.000=4=4;
#TICKCOUNTS:0.000=4;
#COMBOS:0.000=1;
#SPEEDS:0.000=1.000=0.000=0;
#SCROLLS:0.000=1.000;
#FAKES:;
#LABELS:0.000=Song Start;
#BGCHANGES:;
#KEYSOUNDS:;
#ATTACKS:
;

//---------------dance-single - XO DS JA XMOD JU----------------
#NOTEDATA:;
#CHARTNAME:;
#STEPSTYPE:dance-single;
#DESCRIPTION:XO DS JA XMOD JU;
#CHARTSTYLE:;
#DIFFICULTY:Challenge;
#METER:15;
#RADARVALUES:0.602342,0.655793,0.260042,0.380775,0.236824,454.000000,426.000000,28.000000,41.000000,0.000000,0.000000,0.000000,0.000000,0.000000,0.602342,0.655793,0.260042,0.380775,0.236824,454.000000,426.000000,28.000000,41.000000,0.000000,0.000000,0.000000,0.000000,0.000000;
#CREDIT:Karl with a K;
#NOTES:
0000
0000
0000
0000
,
0000
0000
0000
0000
,
0000
0000
0000
0000
,
0000
0000
0000
0000
,
0000
0000
0000
0000
0000
0000
0000
0000
1000
0000
0100
0000
0010
0000
0100
0010
,
0000
0001
0000
0010
0000
0002
0000
0000
1003
0000
0001
0100
0010
0000
1000
0001
,
0000
0100
0000
0001
0000
0200
0000
0000
0301
0000
0010
0000
0100
0000
0010
0100
,
0000
1000
0000
0100
0000
2000
0000
0000
3020
0000
0000
0000
0230
0000
0000
0000
,
0301
0000
0001
0100
0010
1000
0000
0000
0001
0000
0100
0000
0010
0000
0100
0010
,
0000
1000
0000
0010
0000
2000
0000
0000
3001
0000
1000
0100
0010
0000
0001
1000
,
0000
0000
0000
0100
0000
0000
0000
0000
0000
1000
0000
0000
0000
0000
0000
0200
0000
0000
0000
0000
0000
0000
0000
0000
1300
0000
0000
0000
0000
0000
0010
0000
0000
0000
0000
0000
0100
0000
0000
0000
0010
0000
0000
0000
0100
0000
0000
0000
,
0001
0000
0010
0000
0100
0000
2000
0000
0000
3000
0000
0000
1002
0000
0000
0000
0000
0000
0000
0000
0000
0103
0000
0000
,
0210
0000
0301
0000
1001
0000
1000
0100
,
0010
2000
0000
3000
1010
0000
0110
0000
,
1001
0000
1000
0100
0000
0100
0010
0100
,
0000
0010
0001
0010
0000
0001
1000
0001
,
1000
0000
1000
0010
0000
0010
0100
0010
,
0100
0000
0001
0000
0001
0000
0001
0010
0100
1000
0100
0010
0001
0000
0000
0000
,
1001
0001
0010
0100
0000
0100
0001
0100
,
0000
0000
0100
0000
0010
0000
0100
0010
0000
0000
0100
0000
1000
0000
0001
0000
,
1001
1000
0010
0100
0000
0100
1000
0100
,
0000
0000
0100
0000
0010
0000
0100
0000
0010
0000
1000
0001
0010
0000
0000
0000
,
0110
0100
1000
0100
0000
0100
0010
0100
,
1000
0100
0010
1000
0000
1000
0010
0100
,
1000
0010
0100
0010
0000
0010
0100
0010
,
1000
0010
0100
1000
0000
1000
0100
0010
,
0110
0100
0001
0100
0000
0100
0010
0100
,
0001
0010
0100
0001
0000
0001
1000
0010
,
0001
0000
0000
0000
0010
0000
0001
0000
0100
0000
0001
0000
0010
0000
0001
1000
,
0001
1000
0001
0000
1001
0000
1000
0000
0002
0000
0010
0000
2003
0000
0010
0000
,
3002
1000
0203
0001
0320
0032
0000
0013
,
1000
0001
1001
1000
0002
0100
2003
0100
,
3002
1000
0023
0001
0230
0302
0000
0103
,
1000
0001
1001
0001
2000
0100
3002
0100
,
2003
0001
3020
1000
0230
2300
0000
3100
,
0001
1000
1001
1000
0100
0100
0001
0001
,
0100
0000
0100
0000
1000
0000
0010
0000
0001
0000
0010
0100
0010
0000
1000
0000
,
0100
0010
0011
0000
0001
0100
0010
0000
,
0100
0100
0000
0010
0000
0100
0001
0000
,
1000
0000
1010
0000
1000
0100
0010
0000
,
0100
0100
0000
0010
0000
0100
1000
0000
,
0001
0000
1100
0000
1000
0010
0100
0000
,
0010
0010
0000
0100
0000
0010
1000
0000
,
0001
0000
0101
0000
0001
0010
0100
1000
,
0010
0000
0100
0010
0000
0000
0010
0000
0000
0000
1000
0000
0100
0010
0100
0000
,
0001
0100
0110
0011
,
1100
0000
0000
0100
0010
0000
0001
0000
0100
0001
0100
0000
0010
0000
0000
0010
,
1000
0001
0100
0001
1000
0000
0100
0000
0010
0000
0100
0000
0001
0000
0100
0000
,
0010
0020
0000
0031
0100
0010
0100
1000
,
0100
0010
1000
0100
0010
0100
1000
0100
,
0001
2000
0000
3010
0100
0001
0100
0010
,
0001
0000
0001
0010
0100
0010
1000
0010
,
0100
0200
0000
1300
0010
0100
0010
0001
,
0010
0100
1000
0100
0010
0100
0001
0100
,
1000
0000
0002
0000
0000
0000
0003
0000
0011
0000
0000
0000
0010
0000
1000
0010
,
1000
0000
0001
0100
0001
0000
0010
0000
0100
0000
0010
0000
1000
0000
0010
0000
,
0100
0200
0000
1300
0010
0100
0010
0001
,
0010
0100
0001
0010
0100
0010
0001
0010
,
1000
0000
0002
0000
0000
0000
0103
0000
0010
0000
0001
1000
0001
0000
0010
0000
,
0100
0000
0000
0000
2000
0000
0000
0000
3020
0000
0000
0000
0130
0000
0000
0100
,
0000
0000
0001
0000
0010
0000
0000
0010
0000
0000
0100
0000
1000
0000
0010
0000
,
0100
0000
2001
0000
3100
0010
0210
0000
,
1300
0000
0000
1000
0010
0000
0100
0000
0001
0000
0100
0010
0100
0000
1000
0000
,
0100
0000
0001
0000
0101
0000
0000
0000
0110
0000
0000
0000
1001
0000
1000
0100
,
0010
0001
0100
0010
1000
2002
0000
0000
,
0000
0000
0000
0000
,
0000
0000
0000
0000
,
0000
3003
0000
0000
;

//---------------dance-single - XO- DS JA- XMOD JU----------------
#NOTEDATA:;
#CHARTNAME:;
#STEPSTYPE:dance-single;
#DESCRIPTION:XO- DS JA- XMOD JU;
#CHARTSTYLE:;
#DIFFICULTY:Hard;
#METER:12;
#RADARVALUES:0.448439,0.562108,0.269329,0.464360,0.130021,338.000000,309.000000,29.000000,50.000000,0.000000,0.000000,0.000000,0.000000,0.000000,0.448439,0.562108,0.269329,0.464360,0.130021,338.000000,309.000000,29.000000,50.000000,0.000000,0.000000,0.000000,0.000000,0.000000;
#CREDIT:Karl with a K;
#NOTES:
0000
0000
0000
0000
,
0000
0000
0000
0000
,
0000
0000
0000
0000
,
0000
0000
0000
0000
,
0000
0000
0000
0000
0000
0000
0000
0000
0001
0000
0100
0000
0010
0000
0000
0100
,
0000
0010
0000
0100
0000
0010
0000
0000
1000
0000
1000
0000
1000
0000
0000
1000
,
0000
0100
0000
0010
0000
0100
0000
0000
1000
0000
0100
0000
0010
0000
0000
0100
,
0000
0010
0000
0100
0000
0010
0000
0000
0020
0000
0000
0000
0032
0000
0000
0000
,
0203
0000
0300
0000
0100
0010
0000
0000
1000
0000
0010
0000
0100
0000
0000
0010
,
0000
0100
0000
0010
0000
0100
0000
0000
0001
0000
0001
0000
0001
0000
0000
0001
,
0000
0000
0000
0010
0000
0000
0000
0000
0000
0100
0000
0000
0000
0000
0000
0010
0000
0000
0000
0000
0000
0000
0000
0000
0001
0000
0000
0000
0000
0000
0010
0000
0000
0000
0000
0000
0100
0000
0000
0000
1000
0000
0000
0000
0001
0000
0000
0000
,
0010
0010
0001
1000
0000
0000
2002
0000
0000
3003
0000
0000
,
0220
0330
0102
1003
,
2010
3001
0011
1001
,
1000
0000
0001
0100
0000
0000
0001
0100
,
0000
0000
0001
0100
0000
0000
0001
0100
,
0010
0000
1000
0100
0000
0000
1000
0100
,
0010
0001
0001
0001
0010
0001
0100
0000
,
0110
0000
0001
0100
0000
0001
1000
0001
,
0000
0100
0001
0100
0000
0001
0010
0100
,
1000
0000
1000
0100
0000
1000
0001
1000
,
0000
0100
1000
0100
0000
1000
0020
0030
,
1001
0000
1000
0001
1000
0000
0100
1000
,
0001
0100
0010
1000
0000
1000
0010
0000
,
1001
0000
1000
0001
1000
0000
0010
1000
,
0001
0010
0100
1000
0000
1000
0100
0000
,
0110
0000
0010
0001
1000
0000
0100
1000
,
0001
0100
0010
1000
0000
1000
0001
0000
,
1001
0000
2000
0000
3200
0000
0310
0001
,
1000
1002
0100
1000
,
0100
0000
2003
0100
0000
0001
0000
3001
,
0010
2001
0100
0001
,
0100
0000
3002
0100
0000
0023
0000
0130
,
1000
2001
0010
0001
,
0010
0000
3002
0010
0000
1000
0000
1003
,
0100
0012
0103
2010
,
3200
0000
0302
0000
0203
0000
1300
0010
,
0100
0210
0010
0001
,
0301
1000
0000
1000
0000
0100
0010
0000
,
0001
1200
0010
1000
,
1300
0001
0000
0001
0000
0100
0010
0000
,
1000
0021
0100
0001
,
0031
0100
0000
0100
0000
0010
1000
0000
,
0001
1020
0100
0001
,
0130
0010
0000
0010
0000
0100
0010
0000
,
0001
0020
0100
0100
,
0130
0020
0000
1030
0001
1000
0100
0010
,
0001
2100
0001
0010
,
3001
0020
0000
1000
0000
0100
0000
0032
,
0000
0000
1003
0000
1000
0100
1000
0000
,
0010
0100
0000
0001
0000
1000
0000
0001
,
1000
0102
1000
0010
,
1003
0020
0000
0001
0000
0100
0000
0230
,
0000
2300
0100
3200
,
0301
0020
0000
0030
0010
0100
0010
0001
,
0200
0300
0012
0000
1000
0000
0100
0000
,
1003
0200
0000
0001
0000
0010
0000
2300
,
0000
0000
3001
0000
0001
0010
0001
0000
,
0100
0010
0000
1000
0000
0001
0000
1000
,
0001
0000
0000
0000
2010
0000
0000
0000
0001
0000
0000
0000
3100
0000
0000
1000
,
0000
0000
0100
0000
0010
0000
0000
0010
0000
0000
0001
0000
0100
0000
0000
0000
,
0010
2001
3100
0210
,
1300
0000
2100
0000
3001
0100
0001
0020
,
0100
0000
0000
0000
0031
0000
0000
0000
1001
0000
0000
0000
1000
0000
0000
1000
,
0100
0000
0010
0001
0100
0220
0000
0000
,
0000
0000
0000
0000
,
0000
0000
0000
0000
,
0000
0330
0000
0000
;

//---------------dance-single - ----------------
#NOTEDATA:;
#CHARTNAME:;
#STEPSTYPE:dance-single;
#DESCRIPTION:;
#CHARTSTYLE:;
#DIFFICULTY:Medium;
#METER:10;
#RADARVALUES:0.346280,0.405967,0.204319,0.204319,0.102159,261.000000,239.000000,22.000000,22.000000,0.000000,0.000000,0.000000,0.000000,0.000000,0.346280,0.405967,0.204319,0.204319,0.102159,261.000000,239.000000,22.000000,22.000000,0.000000,0.000000,0.000000,0.000000,0.000000;
#CREDIT:Karl with a K;
#NOTES:
0000
0000
0000
0000
,
0000
0000
0000
0000
,
0000
0000
0000
0000
,
0000
0000
0000
0000
,
0000
0000
0000
0000
0000
0000
0000
0000
1000
0000
0000
0000
0010
0000
0000
1000
,
0000
0010
0000
0100
0000
0010
0000
0000
1000
0000
0000
0000
1000
0000
0000
0001
,
0000
0100
0000
0001
0000
0100
0000
0000
0001
0000
0000
0000
0010
0000
0000
0001
,
0000
0010
0000
0001
0000
0010
0000
0000
0010
0000
0000
0000
0100
0000
0000
0000
,
1000
0000
0000
0000
1000
0000
0000
0000
0001
0000
0000
0000
0100
0000
0000
0001
,
0000
0100
0000
0010
0000
0100
0000
0000
0001
0000
0000
0000
0001
0000
0000
1000
,
0000
0000
0000
0010
0000
0000
0000
0000
0000
1000
0000
0000
0000
0000
0000
0010
0000
0000
0000
0000
0000
0000
0000
0000
1000
0000
0000
0000
0000
0000
0000
0000
0000
0000
0000
0000
0100
0000
0000
0000
0000
0000
0000
0000
0100
0000
0000
0000
,
0010
0000
0010
0001
0000
0000
0002
0000
0000
0000
0000
0000
,
0203
0000
0320
0000
,
1030
0001
1001
1001
,
1000
1000
0000
0001
,
0000
1000
0000
0001
,
0100
0010
0000
0100
,
0010
1000
0100
0110
,
1001
0001
0100
0010
,
0100
0001
0100
0010
,
1001
1000
0100
0010
,
0100
1000
0100
0010
,
1001
0001
0001
0100
,
0001
0100
0000
0001
0000
0000
0010
0000
,
1001
1000
1000
0100
,
1000
0100
0000
0010
0000
0000
0001
0000
,
1001
1000
0001
0100
,
0001
0100
0000
0001
0000
1000
0100
0000
,
0110
0000
0010
0000
0000
0001
0000
0100
,
0010
2000
0001
0001
,
3100
0000
1000
0100
0000
1000
0000
0010
,
1000
0002
1000
1000
,
0103
0000
0001
0100
0000
0010
0000
1000
,
0100
2000
0010
0010
,
3001
0000
1000
0010
0000
1000
0000
0001
,
1000
2002
3003
2200
,
3300
0022
0033
0220
,
0330
2000
0010
3001
,
0000
1000
0000
1000
0000
0000
0001
0000
,
0010
0002
0100
1003
,
0000
0001
0000
1000
0000
0000
0001
0000
,
0100
0002
0010
1003
,
0000
0001
0000
0001
0000
0000
1000
0000
,
0010
2000
0001
3010
,
0000
1000
0000
1000
0000
0000
0001
0000
,
0010
0001
0001
1000
,
1000
0001
0000
0001
0010
0000
0100
1000
,
0100
0100
1000
0010
,
0100
0001
0000
0010
0000
0001
0000
0010
,
0000
0000
0001
0000
0001
1000
0001
0000
,
0010
0001
0000
1000
0000
0001
0000
0001
,
0000
0100
0001
0010
,
0100
1000
0000
0010
0000
1000
0000
0010
,
0000
0020
0000
0230
,
0000
0302
0000
0003
0001
0000
0001
0010
,
0000
0001
1000
0010
,
1000
0001
0000
0010
0000
0001
0000
0010
,
0000
0000
0100
0000
0100
1000
0100
0000
,
0010
0001
0000
0100
0000
0010
0000
0100
,
0000
0001
0000
1001
,
0000
0110
0000
1001
,
0000
1100
0000
0011
,
0000
0101
0000
1010
,
0000
1001
1001
1000
,
0100
0010
0001
0010
0100
2000
0000
0000
,
0000
0000
0000
0000
,
0000
0000
0000
0000
,
0000
3000
0000
0000
;

//---------------dance-single - ----------------
#NOTEDATA:;
#CHARTNAME:;
#STEPSTYPE:dance-single;
#DESCRIPTION:;
#CHARTSTYLE:;
#DIFFICULTY:Easy;
#METER:8;
#RADARVALUES:0.232180,0.343511,0.037149,0.102159,0.000000,175.000000,171.000000,4.000000,11.000000,0.000000,0.000000,0.000000,0.000000,0.000000,0.232180,0.343511,0.037149,0.102159,0.000000,175.000000,171.000000,4.000000,11.000000,0.000000,0.000000,0.000000,0.000000,0.000000;
#CREDIT:Karl with a K;
#NOTES:
0000
0000
0000
0000
,
0000
0000
0000
0000
,
0000
0000
0000
0000
,
0000
0000
0000
0000
,
0000
0000
1000
0000
,
0010
0000
0100
0000
,
0001
0000
0001
0000
,
0010
0000
0010
0000
,
0100
1000
0001
0000
,
0010
0000
0100
0000
,
1000
0000
1000
0000
,
0010
0100
0001
0000
,
0001
0000
1000
0000
,
1000
0000
1001
0001
,
1000
0100
0000
0100
,
0000
0100
0000
0100
,
1000
0010
0000
0010
,
0100
0001
1000
0001
,
1000
0100
0000
0100
,
1000
0100
0000
0100
,
0010
0001
0000
0001
,
0010
0001
0100
0010
,
1000
0000
1000
0000
,
1000
0000
0000
0001
0000
0000
0010
0000
,
0001
0000
0001
0000
,
0001
0000
0000
0001
0000
0000
0100
0000
,
0001
0000
0001
0000
,
0001
0000
0000
1000
0000
0000
0010
0000
,
1000
0000
0000
0000
,
0000
0001
0001
0001
,
0100
0000
0001
0000
0000
0001
0000
0000
,
0010
0001
1000
1000
,
0100
0000
1000
0000
0000
0010
0000
0000
,
0100
0001
0001
0001
,
0100
0000
0001
0000
0000
0001
0000
0000
,
0010
0020
0000
0032
,
0000
0023
0000
0032
,
0000
0103
0010
1000
,
0000
1000
0000
1000
0000
0000
0001
0000
,
1000
0100
0010
0001
,
0000
0001
0000
0001
0000
0000
1000
0000
,
1000
0001
0100
0010
,
0000
1000
0000
1000
0000
0000
0001
0000
,
0001
1000
0010
0010
,
0100
0001
1000
0001
,
0010
0001
1001
1001
,
0000
1000
0010
0100
,
0001
1000
0100
0010
,
0000
0100
0000
0010
0000
0000
0000
0000
,
0000
0001
0100
0010
,
0000
0100
0000
0010
0000
0000
0000
0000
,
0000
1000
0100
0010
,
0000
0001
0000
0010
0000
0000
0000
0000
,
0000
0020
0000
0032
,
0000
0203
0000
0310
,
0010
0001
0010
0100
,
0000
0010
0000
0100
0000
0000
0000
0000
,
0000
1000
0010
0100
,
0000
0010
0000
0100
0000
0000
0000
0000
,
0000
0001
0010
0100
,
0000
1000
0000
0100
,
0000
0200
0000
2300
,
0000
3020
0000
0130
,
0100
0110
0100
0001
,
0010
0000
0100
0000
1000
0002
0000
0000
,
0000
0000
0000
0000
,
0000
0000
0000
0000
,
0000
0003
0000
0000
;

//---------------dance-single - ----------------
#NOTEDATA:;
#CHARTNAME:;
#STEPSTYPE:dance-single;
#DESCRIPTION:;
#CHARTSTYLE:;
#DIFFICULTY:Beginner;
#METER:4;
#RADARVALUES:0.137981,0.218598,0.027862,0.027862,0.000000,104.000000,101.000000,3.000000,3.000000,0.000000,0.000000,0.000000,0.000000,0.000000,0.137981,0.218598,0.027862,0.027862,0.000000,104.000000,101.000000,3.000000,3.000000,0.000000,0.000000,0.000000,0.000000,0.000000;
#CREDIT:Karl with a K;
#NOTES:
// measure 0
0000
0000
0000
0000
,  // measure 1
0000
0000
0000
0000
,  // measure 2
0000
0000
0000
0000
,  // measure 3
0000
0000
0000
0000
,  // measure 4
0000
0000
1000
0000
,  // measure 5
0000
0000
0100
0000
,  // measure 6
0000
0000
1000
0000
,  // measure 7
0000
0000
0010
0000
,  // measure 8
1000
0000
0001
0000
,  // measure 9
0000
0000
0100
0000
,  // measure 10
0000
0000
0001
0000
,  // measure 11
0010
0000
0001
0000
,  // measure 12
0001
0000
1000
0000
,  // measure 13
1000
0000
0001
0000
,  // measure 14
1000
0000
0000
0000
,  // measure 15
0000
0000
0000
0000
,  // measure 16
0001
0000
0000
0000
,  // measure 17
0100
0000
0010
0000
,  // measure 18
1000
0000
1000
0000
,  // measure 19
1000
0000
0000
0000
,  // measure 20
0001
0000
0001
0000
,  // measure 21
0001
0000
0000
0000
,  // measure 22
1000
0000
1000
0000
,  // measure 23
1000
0000
0000
0000
,  // measure 24
0001
0000
0001
0000
,  // measure 25
0001
0000
0000
0000
,  // measure 26
1000
0000
1000
0000
,  // measure 27
1000
0000
0000
0000
,  // measure 28
0010
0000
0000
0000
,  // measure 29
0000
1000
0000
0001
,  // measure 30
0000
1000
0000
0000
,  // measure 31
0000
0001
0000
1000
,  // measure 32
0000
0001
0000
0000
,  // measure 33
0000
1000
0000
0001
,  // measure 34
0000
1000
0000
0000
,  // measure 35
0000
0001
0000
0100
,  // measure 36
0000
0010
0000
1000
,  // measure 37
0000
0001
0000
0000
,  // measure 38
0000
0100
0000
0010
,  // measure 39
0000
1000
0000
0000
,  // measure 40
0000
0010
0000
0100
,  // measure 41
0000
0001
0000
0000
,  // measure 42
0000
0010
0000
0100
,  // measure 43
0000
1000
0000
0100
,  // measure 44
0000
0010
0000
0001
,  // measure 45
0000
2000
0000
0000
,  // measure 46
0000
0000
0000
3000
,  // measure 47
0000
1000
1000
1000
,  // measure 48
0000
0001
0000
1000
,  // measure 49
0000
0001
0001
0001
,  // measure 50
0000
1000
0000
0001
,  // measure 51
0000
1000
1000
1000
,  // measure 52
0000
0001
0000
1000
,  // measure 53
0000
0010
0000
0100
,  // measure 54
0000
0001
0000
1000
,  // measure 55
0000
0001
0001
0001
,  // measure 56
0000
1000
0000
0001
,  // measure 57
0000
1000
1000
1000
,  // measure 58
0000
0001
0000
1000
,  // measure 59
0000
0001
0000
0010
,  // measure 60
0000
0100
0000
1000
,  // measure 61
0000
0001
0000
0001
,  // measure 62
0000
1000
0000
1000
,  // measure 63
0000
1001
0000
0110
,  // measure 64
0000
0000
0000
0000
0000
2002
0000
0000
,  // measure 65
0000
0000
0000
0000
,  // measure 66
0000
0000
0000
0000
,  // measure 67
0000
3003
0000
0000
;
