#VERSION:0.83;
#TITLE:BLACK LOTUS;
#SUBTITLE:;
#ARTIST:燐舞曲;
#TITLETRANSLIT:;
#SUBTITLETRANSLIT:;
#ARTISTTRANSLIT:RONDO;
#GENRE:;
#ORIGIN:D4DJ Groovy Mix;
#CREDIT:;
#BANNER:BLACK LOTUS banner.png;
#BACKGROUND:BLACK LOTUS bg.png;
#PREVIEWVID:;
#JACKET:BLACK LOTUS jk.png;
#CDIMAGE:;
#DISCIMAGE:;
#LYRICSPATH:;
#CDTITLE:;
#MUSIC:BLACK LOTUS.ogg;
#OFFSET:-0.025000;
#SAMPLESTART:66.493965;
#SAMPLELENGTH:12.765961;
#SELECTABLE:YES;
#BPMS:0.000=188.000,
44.000=94.000,
48.000=188.000,
108.000=94.000,
110.000=188.000,
174.000=94.000,
182.000=188.000;
#STOPS:194.000=0.319;
#DELAYS:;
#WARPS:;
#TIMESIGNATURES:0.000=4=4;
#TICKCOUNTS:0.000=4;
#COMBOS:0.000=1;
#SPEEDS:0.000=1.000=0.000=0;
#SCROLLS:0.000=1.000;
#FAKES:;
#LABELS:0.000=Song Start;
#BGCHANGES:;
#KEYSOUNDS:;
#ATTACKS:
;

//---------------dance-single - XO DS JA- XMOD JU+----------------
#NOTEDATA:;
#CHARTNAME:;
#STEPSTYPE:dance-single;
#DESCRIPTION:XO DS JA- XMOD JU+;
#CHARTSTYLE:;
#DIFFICULTY:Challenge;
#METER:17;
#RADARVALUES:0.738257,0.981502,0.678907,0.324254,0.359720,510.000000,443.000000,67.000000,32.000000,0.000000,0.000000,0.000000,0.000000,0.000000,0.738257,0.981502,0.678907,0.324254,0.359720,510.000000,443.000000,67.000000,32.000000,0.000000,0.000000,0.000000,0.000000,0.000000;
#CREDIT:Karl with a K;
#NOTES:
0000
0000
0000
0000
,
0000
0000
0000
0000
,
0000
0000
0000
0000
,
0000
0000
0000
0000
,
0000
0000
0000
0000
,
0000
0000
0000
0000
,
0000
0000
0000
0000
,
0000
0000
0000
0000
,
0000
0000
0000
0000
,
1000
0100
0010
0000
0010
0100
1000
0000
,
0001
0000
0100
0010
1000
0010
0100
0001
1000
0100
0010
0001
0010
0100
1000
0001
,
1000
0000
0010
0000
0000
0000
0010
0000
0000
0000
0010
0000
0000
0000
1000
0000
0000
0000
1000
0000
0000
0000
0200
0000
0000
0000
0300
0000
1000
0010
0100
0001
,
1000
0000
0100
0000
0010
0000
0011
0000
0000
0000
0001
0000
0010
0100
1000
0000
,
0010
0000
1000
0000
1001
0000
0000
0001
1000
0000
0010
0000
0100
0001
1000
0000
,
1001
1000
0100
0210
0000
0310
0001
0012
,
0000
0000
1003
0000
1010
0000
0000
0000
0001
0100
0010
1000
0001
0000
0000
0000
,
0012
0000
0103
0002
1000
0000
0013
0001
,
1000
0000
1000
0000
0001
0000
0000
0000
0100
0000
0100
0000
0010
0000
1000
0100
,
0010
0100
0110
0000
1000
0010
0100
0001
,
1000
0000
1000
0000
0100
0000
0100
0000
0010
0001
0010
0000
0001
0100
0010
1000
,
0001
0000
0100
0000
0010
0000
1000
0000
0000
0000
0001
0000
0010
0100
1000
0000
,
0010
0000
1000
0000
0001
0000
0000
0000
1000
0000
0010
0000
0100
0000
0001
1000
,
0001
1000
0010
0120
0000
0130
0001
0102
,
0000
0000
1003
0000
1100
0000
0000
0000
1000
0100
0010
0001
1000
0000
0000
0000
,
0021
0000
0130
2000
0001
0000
3020
0000
,
1030
0100
0110
0000
0011
0000
1010
0000
,
1000
0000
0100
0000
1000
0001
0100
0001
1000
0001
1000
0010
0100
0001
1000
0000
,
0001
0010
0000
0001
0000
0100
0001
0100
0010
0000
1000
0000
1010
0000
0000
0000
,
1001
0000
0000
0000
1100
0000
0000
0010
0001
0000
0000
0000
0110
0000
0000
0000
,
0001
1000
1001
0000
0001
0010
0011
0000
,
1001
0101
1010
0110
,
1000
0001
1001
0000
0001
0100
0101
0000
,
1001
0011
1100
0110
,
1000
0001
0100
0010
1000
0000
0000
0000
1100
0000
0100
0000
1000
0000
0110
0000
,
0000
0011
0000
2010
0000
3001
0010
0012
,
0000
1000
0103
0020
0000
1030
0100
0010
,
0001
1000
0001
0100
0001
1000
0100
1000
,
0100
0010
0100
0020
0000
0031
0100
0010
,
1000
0001
1000
0100
0010
0001
0100
0010
,
0100
0001
0100
0002
0003
0001
0010
0100
,
1000
0001
1000
0010
1000
0001
0010
0000
,
0010
1000
0010
0100
1100
0001
0100
1000
,
0100
0010
1000
0000
0001
0001
0010
0000
,
0100
0010
0001
1000
0010
0100
0002
0000
0000
0000
0000
0000
,
2003
0000
3020
0000
,
0230
0000
0302
0003
0011
0010
0100
1100
,
1000
0000
0010
0000
1010
0000
0000
0000
0101
0000
0100
0000
0001
1000
0100
0010
,
0001
1000
0010
0100
0001
0010
0100
1000
0002
0000
0000
0000
0000
0000
0000
0000
,
0000
0000
0003
1001
,
0001
0100
0010
0001
1000
0100
0010
1000
,
0001
0000
1000
0100
0110
0000
1001
0000
,
1000
0100
0010
1000
0001
0100
0010
0001
,
1000
0000
0000
0000
0001
0100
0001
0100
0010
0000
0000
0000
2000
0000
0100
0000
,
3002
0013
0000
0000
0002
0100
2003
3010
,
0100
0000
0100
0001
0010
0000
0011
0000
,
1000
1010
0000
1001
0000
2100
0000
3100
,
0010
0001
0010
0000
0001
0100
0010
1000
0100
0000
0000
0000
1010
0000
1000
0000
,
0010
0100
0000
0001
0010
0110
0000
0100
,
1000
0000
0001
0001
1000
0000
0011
0001
,
0010
0100
0000
1000
0010
0110
0000
0100
,
0010
0000
0000
0000
1000
0001
1000
0100
0010
0000
0000
0000
0011
0000
0001
0000
,
0100
0110
0000
0010
1010
0000
1100
0000
,
0110
0101
0110
0011
,
0101
0000
0000
0000
0001
0010
0100
1000
0010
0100
0001
1000
0200
0000
0000
0000
,
0000
0000
0000
0000
0300
0000
1000
0010
,
0001
0000
0011
0000
0000
0000
0001
0000
0010
1000
0001
0000
0010
0000
0001
0000
,
1000
0000
1000
0100
0010
0001
0011
0010
,
1000
1020
0000
0130
1000
2010
0000
3010
,
0001
0000
0000
0000
0010
0100
0001
1000
0001
0000
0000
0000
0021
0000
0000
0000
,
0130
2000
0010
0000
3200
0000
1300
0100
,
1000
0100
0010
1000
0010
0001
1001
0000
,
1000
0100
0010
0001
1000
0010
0100
0001
0100
0010
1000
0001
1000
0000
0000
0000
;

//---------------dance-single - XO- XMOD JU-----------------
#NOTEDATA:;
#CHARTNAME:;
#STEPSTYPE:dance-single;
#DESCRIPTION:XO- XMOD JU-;
#CHARTSTYLE:;
#DIFFICULTY:Hard;
#METER:13;
#RADARVALUES:0.496514,0.581631,0.162127,0.344520,0.065864,343.000000,327.000000,16.000000,34.000000,0.000000,0.000000,0.000000,0.000000,0.000000,0.496514,0.581631,0.162127,0.344520,0.065864,343.000000,327.000000,16.000000,34.000000,0.000000,0.000000,0.000000,0.000000,0.000000;
#CREDIT:Karl with a K;
#NOTES:
0000
0000
0000
0000
,
0000
0000
0000
0000
,
0000
0000
0000
0000
,
0000
0000
0000
0000
,
0000
0000
0000
0000
,
0000
0000
0000
0000
,
0000
0000
0000
0000
,
0000
0000
0000
0000
,
0000
0000
0000
0000
,
1000
0010
0010
1000
,
0001
0010
0100
0010
0001
0100
1000
0100
,
0001
0000
0000
0010
0000
0010
0000
0001
0000
0001
0000
0100
0000
0000
0002
0000
,
1003
0000
0100
0010
0000
0001
0100
0001
,
0010
0000
0001
0000
1000
0000
0000
0010
1000
0000
0001
0000
0100
0000
0010
0000
,
1000
0100
0010
2000
0000
3010
0100
0002
,
0000
0000
0103
0000
2000
0000
0000
0000
3010
0100
0010
0000
1001
0000
0000
0000
,
2000
0000
0000
3002
0000
0000
1003
0010
,
1000
0000
0100
0000
1000
0100
1000
0001
,
0100
0000
0110
0000
1000
0010
0100
0001
,
1000
0000
0000
0000
1001
0000
0000
0000
1000
0001
0010
0000
0100
0000
1000
0000
,
0001
0000
0100
0010
0000
1000
0100
1000
,
0010
1000
0001
0000
0001
1000
0100
0010
,
0001
0100
0010
0002
0000
0013
0100
2000
,
0000
0000
3100
0000
0002
0000
0000
0000
0013
0100
0010
0000
1001
0000
0000
0000
,
0002
0000
0103
0002
0000
0000
0023
0000
,
0230
0000
0310
0002
1000
0000
1003
0000
,
1001
0000
0000
0000
1000
0000
0100
0000
0010
0000
0001
0000
0100
0010
0100
0000
,
0001
0000
1000
0100
,
1000
0010
0100
0001
,
0100
0001
1000
0000
0001
0000
0100
0000
,
0001
0010
0100
1000
,
0100
1000
0001
0000
1000
0000
0100
0000
,
0010
0100
1000
0001
,
0100
0010
1000
0000
1010
0000
1000
0001
,
0000
0010
0000
0020
0000
1030
0010
0002
,
0000
0103
0010
1000
0000
1000
0100
0000
,
0010
0001
0100
0000
0001
0000
1000
0001
,
0000
0010
0000
0011
0000
0001
0100
0000
,
0010
1000
0100
0000
1000
0000
1000
0001
,
0000
0100
0000
0101
0000
0001
0010
0000
,
0100
1000
0010
0000
1000
0000
0001
0000
,
2000
0000
3200
0000
0302
0000
0103
1000
,
0000
0001
0100
0000
0001
0010
0001
0000
,
1000
0010
0100
0001
0000
0000
2000
0000
0000
0000
0000
0000
,
3002
0000
0023
0000
,
0230
0000
2300
0000
3001
0000
0100
0010
,
0000
0100
1000
0000
0100
0010
1000
0000
,
0100
0001
0100
0000
0220
0000
0000
0000
,
0000
0000
0330
1001
,
1000
0100
0000
0010
0000
0001
0000
0100
,
0010
0000
1000
0001
1000
0000
1001
0000
,
0001
0100
0000
0010
0000
1000
0000
0100
,
0010
0000
0001
0010
0001
0000
1000
0100
,
1000
0001
0000
0000
0001
0100
0001
1000
,
0000
0001
0010
1000
,
0010
0001
0000
0100
0000
0020
0000
0000
,
1030
0000
0200
0000
2300
0000
3010
0100
,
0001
1000
0000
0100
0000
1000
0000
1000
,
0001
0000
0010
0000
0100
0000
0010
0100
,
1000
0001
0000
0100
0001
0001
0000
0001
,
1000
0100
0010
0011
,
1000
0010
0000
0000
1001
0000
1010
0000
,
0001
0000
0010
0000
0001
0000
1000
1000
,
0001
0000
0100
0010
1000
0000
0100
0000
,
0000
0000
0000
1000
,
0010
0100
0000
0001
0010
0001
0100
0001
,
1000
0000
1000
0001
0010
0100
1000
0010
,
0100
2000
0000
3100
0010
0002
0000
0013
,
2000
0000
0000
0000
3100
0010
0100
0000
1001
0000
0000
0000
2000
0000
0000
0000
,
3010
2000
0000
3001
1000
0000
1000
0000
,
0100
0000
1000
0010
1000
0001
0010
0000
,
0110
0000
1000
0100
0010
0001
1000
0000
;

//---------------dance-single - ----------------
#NOTEDATA:;
#CHARTNAME:;
#STEPSTYPE:dance-single;
#DESCRIPTION:;
#CHARTSTYLE:;
#DIFFICULTY:Medium;
#METER:11;
#RADARVALUES:0.419793,0.543379,0.445850,0.283722,0.000000,290.000000,246.000000,44.000000,28.000000,0.000000,0.000000,0.000000,0.000000,0.000000,0.419793,0.543379,0.445850,0.283722,0.000000,290.000000,246.000000,44.000000,28.000000,0.000000,0.000000,0.000000,0.000000,0.000000;
#CREDIT:Karl with a K;
#NOTES:
0000
0000
0000
0000
,
0000
0000
0000
0000
,
0000
0000
0000
0000
,
0000
0000
0000
0000
,
0000
0000
0000
0000
,
0000
0000
0000
0000
,
0000
0000
0000
0000
,
0000
0000
0000
0000
,
0000
0000
0000
0000
,
1000
0100
0010
0001
,
0100
0010
0100
0000
0010
1000
0001
0010
,
0001
0000
0000
0000
0000
0000
0000
1000
,
1001
0000
0000
0011
0000
0000
1001
0000
,
1000
0000
0010
0000
0100
0001
0100
0000
,
0001
0000
0100
0010
0000
0100
0010
1000
,
0000
0000
1001
0000
1000
0100
0010
0000
,
0002
0000
0000
2003
0000
0000
3100
0010
,
0100
0000
1000
0000
0001
0000
0100
0010
,
1000
1000
0110
1001
,
1100
0000
0101
0000
0100
0001
0010
0000
,
1001
0000
0000
1010
0000
0000
1001
0000
,
0001
0000
0010
0000
0100
1000
0100
0000
,
1000
0000
0100
0010
0000
0100
0010
0001
,
0000
0000
1001
0000
0001
0100
0010
0000
,
2000
0000
0000
3200
0000
0000
0320
0000
,
0032
0203
0320
1030
,
1000
0100
1000
0000
0110
0000
0110
0000
,
1001
0000
0001
0100
,
0010
0100
0001
0100
,
0010
0000
1000
0100
,
0010
0100
1000
0100
,
0010
0001
0001
0100
,
0010
1000
0010
0100
,
0001
0000
1001
0000
0001
0000
0010
0100
,
0000
0010
0000
0220
0000
0330
0000
2002
,
0000
3003
0001
1000
0000
1000
0100
0000
,
0010
0000
0100
0000
1000
0000
0001
0100
,
0000
0010
0000
0110
0000
1000
0010
0000
,
0100
0000
0010
0000
1000
0000
0001
0010
,
0000
0100
0000
0110
0000
0001
0010
0000
,
0100
1000
0010
0100
,
0002
0000
0203
0000
2300
0000
3100
0010
,
0000
0001
1000
0010
,
0100
0100
0002
0000
,
0203
0000
0320
0000
,
2030
0000
3000
0000
1001
0000
0000
0101
,
0000
0000
1001
0000
0011
0000
0000
1001
,
0000
1010
2002
0000
,
0000
0000
3003
1000
,
0100
0010
0000
1000
0000
0010
0000
0100
,
0000
1000
0001
0001
,
0100
0010
0000
0001
0000
0010
0000
0100
,
0000
0010
1000
0001
,
0100
0001
0000
0000
1000
0000
0100
1000
,
0000
0001
0010
0011
,
0000
1100
0000
1000
0000
0020
0000
0000
,
0130
0000
0001
0000
0001
0000
1000
0100
,
1000
0100
0000
0010
0000
0010
0000
0000
,
0001
0000
0001
0000
0100
0000
0001
0100
,
0001
0100
0000
0010
0000
0010
0000
0000
,
1000
1000
0100
0110
,
0000
0011
0000
0000
1001
0000
0110
0000
,
0000
1010
0000
0000
1001
0000
0001
0000
,
0011
1000
1010
1001
,
0000
0000
0000
1001
,
0000
0101
0000
0000
1001
0000
1000
0000
,
0100
0000
0010
0001
0010
0000
0001
0000
,
0010
0100
0000
0010
0100
1000
0000
0000
,
1001
0000
1000
0010
0100
0000
0002
0000
,
0000
0203
0000
0000
0320
0000
2030
0000
,
3200
0000
0320
0000
0031
0000
0001
0100
,
0001
0110
0110
0000
;

//---------------dance-single - ----------------
#NOTEDATA:;
#CHARTNAME:;
#STEPSTYPE:dance-single;
#DESCRIPTION:;
#CHARTSTYLE:;
#DIFFICULTY:Easy;
#METER:8;
#RADARVALUES:0.325702,0.470929,0.192526,0.070931,0.000000,225.000000,206.000000,19.000000,7.000000,0.000000,0.000000,0.000000,0.000000,0.000000,0.325702,0.470929,0.192526,0.070931,0.000000,225.000000,206.000000,19.000000,7.000000,0.000000,0.000000,0.000000,0.000000,0.000000;
#CREDIT:Karl with a K;
#NOTES:
0000
0000
0000
0000
,
0000
0000
0000
0000
,
0000
0000
0000
0000
,
0000
0000
0000
0000
,
0000
0000
0000
0000
,
0000
0000
0000
0000
,
0000
0000
0000
0000
,
0000
0000
0000
0000
,
0000
0000
0000
0000
,
1000
0100
1000
0000
,
0001
0001
0001
0001
,
1000
0000
0000
0000
,
0001
0000
0000
1001
0000
0000
1000
0000
,
0010
1000
0100
0010
,
0001
0000
0000
1001
0000
0000
0000
1000
,
0000
0000
0110
1000
,
1000
0100
1000
0100
,
0010
0001
0100
0010
,
1000
1000
0001
0001
,
0010
0110
0100
1000
,
0001
0000
0000
1001
0000
0000
1000
0000
,
0100
1000
0010
0100
,
0001
0000
0000
1001
0000
0000
0000
1000
,
0000
0000
0110
1000
,
1000
0010
1000
0010
,
0100
0001
0010
0100
,
1000
1000
0001
0001
,
0110
0000
1000
0100
,
1000
1000
0001
0100
,
0001
0001
1000
0100
,
0010
0010
0001
0100
,
0010
0010
1000
0010
,
0100
0100
0001
0010
,
0100
0000
0100
0000
1000
0000
0000
1000
,
0000
1000
0000
1000
0000
0000
0000
0001
,
0000
0000
0000
0001
0000
0000
0100
0000
,
0100
0001
1000
0100
,
0010
0000
0000
0100
0000
0000
0100
0000
,
1000
0001
0100
0010
,
0100
0000
0000
0001
0000
0000
1000
0000
,
1000
0100
1000
0001
,
1000
0010
0100
0010
,
0000
1000
0001
0000
,
0001
0010
0002
0000
,
0203
0000
0320
0000
,
2030
0000
0000
0000
3001
0000
0000
1001
,
0000
0000
0001
0000
1000
0000
0000
1001
,
0000
1000
0220
0000
,
0000
0000
0330
0001
,
0100
0010
0001
0010
,
0100
0000
0001
1000
,
0100
0010
1000
0010
,
0100
0000
1000
0001
,
0001
0000
1000
1000
,
0000
0100
1000
0010
,
0000
0100
0000
0100
0000
0020
0000
0000
,
1030
1000
0100
0010
,
0000
0001
0000
0001
0000
0001
0000
0000
,
1000
0001
0100
0010
,
0000
1000
0000
1000
0000
1000
0000
0000
,
0001
1000
0100
0010
,
0000
0110
0000
0000
0100
0000
1000
0000
,
1001
0001
1001
1010
,
1000
0100
0010
0011
,
0000
0000
0000
1000
,
0000
1001
0000
0000
0001
0000
0100
0000
,
0001
0010
0100
1000
,
0000
1001
0000
0000
0000
0001
0000
0000
,
0000
0110
0001
0001
,
0010
0001
0010
0100
,
1000
0010
0100
0001
,
0001
1000
1000
0000
;

//---------------dance-single - ----------------
#NOTEDATA:;
#CHARTNAME:;
#STEPSTYPE:dance-single;
#DESCRIPTION:;
#CHARTSTYLE:;
#DIFFICULTY:Beginner;
#METER:3;
#RADARVALUES:0.144756,0.253577,0.040532,0.010133,0.000000,100.000000,96.000000,4.000000,1.000000,0.000000,0.000000,0.000000,0.000000,0.000000,0.144756,0.253577,0.040532,0.010133,0.000000,100.000000,96.000000,4.000000,1.000000,0.000000,0.000000,0.000000,0.000000,0.000000;
#CREDIT:Karl with a K;
#NOTES:
// measure 0
0000
0000
0000
0000
,  // measure 1
0000
0000
0000
0000
,  // measure 2
0000
0000
0000
0000
,  // measure 3
0000
0000
0000
0000
,  // measure 4
0000
0000
0000
0000
,  // measure 5
0000
0000
0000
0000
,  // measure 6
0000
0000
0000
0000
,  // measure 7
0000
0000
0000
0000
,  // measure 8
0000
0000
0000
0000
,  // measure 9
1000
0000
0000
0000
,  // measure 10
0001
0000
0000
0000
,  // measure 11
0000
0000
0000
0000
,  // measure 12
1000
0000
1000
0000
,  // measure 13
1000
0000
0000
0000
,  // measure 14
0001
0000
0001
0000
,  // measure 15
0001
0000
0000
0000
,  // measure 16
1000
0000
1000
0000
,  // measure 17
0100
0000
0000
0000
,  // measure 18
0010
0000
0010
0000
,  // measure 19
0001
0000
0000
0000
,  // measure 20
0001
0000
0001
0000
,  // measure 21
0001
0000
0000
0000
,  // measure 22
1000
0000
1000
0000
,  // measure 23
1000
0000
0000
0000
,  // measure 24
0010
0000
0010
0000
,  // measure 25
0010
0000
0000
0000
,  // measure 26
0100
0100
0100
0000
,  // measure 27
0000
0000
0001
0000
,  // measure 28
0000
0000
0001
0000
,  // measure 29
0000
0000
1000
0000
,  // measure 30
0000
0000
1000
0000
,  // measure 31
0000
0000
0001
0000
,  // measure 32
0000
0000
0001
0000
,  // measure 33
0000
0000
1000
0000
,  // measure 34
0100
0000
0010
0000
,  // measure 35
0100
0000
1000
0000
,  // measure 36
0000
0000
1000
0000
,  // measure 37
0000
0000
0001
0000
,  // measure 38
0000
0000
0001
0000
,  // measure 39
0000
0000
1000
0000
,  // measure 40
0000
0000
1000
0000
,  // measure 41
0000
0000
0010
0000
,  // measure 42
0100
0000
0001
0000
,  // measure 43
0001
0000
1000
0000
,  // measure 44
0000
0000
0000
0000
,  // measure 45
0000
0000
1000
0000
,  // measure 46
1000
0000
1000
0000
,  // measure 47
1000
0000
0002
0000
,  // measure 48
0000
0003
0000
0001
,  // measure 49
0000
0100
0000
0010
,  // measure 50
0000
1000
0000
1000
,  // measure 51
0000
0100
0000
0010
,  // measure 52
0000
0001
0000
1000
,  // measure 53
0000
1000
0000
0001
,  // measure 54
0000
0001
0000
0010
,  // measure 55
0000
0100
0000
1001
,  // measure 56
0000
0001
0000
1000
,  // measure 57
0000
0100
0000
0010
,  // measure 58
0000
0001
0000
0001
,  // measure 59
0000
0100
0000
0010
,  // measure 60
0000
1000
0000
0001
,  // measure 61
0000
1001
0000
1000
,  // measure 62
0000
1001
0000
1000
,  // measure 63
0000
1000
0000
0110
,  // measure 64
0000
0000
0000
1000
,  // measure 65
0000
0001
0000
1000
,  // measure 66
0000
0000
0000
0001
,  // measure 67
0000
1000
0000
0001
,  // measure 68
0000
0000
0000
0010
,  // measure 69
0000
0010
0000
0010
,  // measure 70
0000
0000
0000
0100
,  // measure 71
0100
0100
0100
0000
;
