#VERSION:0.83;
#TITLE:BELLUM;
#SUBTITLE:;
#ARTIST:Z-I-v Sound Team "Karl with a K";
#TITLETRANSLIT:;
#SUBTITLETRANSLIT:;
#ARTISTTRANSLIT:;
#GENRE:EXPERIMENTAL WAR MUSIC;
#ORIGIN:;
#CREDIT:;
#BANNER:BELLUM banner.png;
#BACKGROUND:BELLUM bg.png;
#PREVIEWVID:;
#JACKET:BELLUM jk.png;
#CDIMAGE:BELLUM altjk.png;
#DISCIMAGE:SC2022-bg week5.png;
#LYRICSPATH:;
#CDTITLE:;
#MUSIC:BELLUM.ogg;
#OFFSET:-0.025000;
#SAMPLESTART:17.632999;
#SAMPLELENGTH:17.600002;
#SELECTABLE:YES;
#BPMS:0.000=300.000,
308.000=240.000,
484.000=360.000,
525.000=370.000,
551.000=380.000,
564.000=390.000,
570.500=400.000;
#STOPS:484.000=6.500;
#DELAYS:;
#WARPS:;
#TIMESIGNATURES:0.000=4=4;
#TICKCOUNTS:0.000=4;
#COMBOS:0.000=1;
#SPEEDS:0.000=1.000=0.000=0;
#SCROLLS:0.000=1.000;
#FAKES:;
#LABELS:0.000=Song Start;
#BGCHANGES:;
#KEYSOUNDS:;
#ATTACKS:
;

//---------------dance-single - XO+ JA XMOD RH TS STR[{5/5}@150-2@120|13*@200]----------------
#NOTEDATA:;
#CHARTNAME:;
#STEPSTYPE:dance-single;
#DESCRIPTION:XO+ JA XMOD RH TS STR[{5/5}@150-2@120|13*@200];
#CHARTSTYLE:;
#DIFFICULTY:Challenge;
#METER:19;
#RADARVALUES:0.930729,1.068756,0.027260,0.020445,0.224894,956.000000,952.000000,4.000000,3.000000,8.000000,0.000000,0.000000,0.000000,0.000000,0.930729,1.068756,0.027260,0.020445,0.224894,956.000000,952.000000,4.000000,3.000000,8.000000,0.000000,0.000000,0.000000,0.000000;
#CREDIT:Karl with a K;
#NOTES:
// measure 0
0000
0000
0000
0000
,  // measure 1
0000
0000
0000
0000
,  // measure 2
0000
0000
0000
0000
,  // measure 3
0000
0000
0000
0000
,  // measure 4
0000
0000
0000
0000
,  // measure 5
0000
0000
1000
0000
,  // measure 6
0000
0000
0000
0010
0000
0000
0000
0100
,  // measure 7
0000
0000
0000
0010
,  // measure 8
0000
0001
0000
0000
,  // measure 9
0000
0010
0000
0000
0000
0100
0000
0000
,  // measure 10
0000
0000
0000
0000
0100
0010
0100
0000
,  // measure 11
0001
0000
0010
0001
0000
1000
0000
0001
,  // measure 12
0100
0001
0000
1000
0000
0010
1000
0000
,  // measure 13
0001
0000
1000
0100
1000
0000
0001
0000
,  // measure 14
0100
0001
0000
1000
0000
0001
0010
0001
,  // measure 15
0000
1000
0000
0100
1000
0000
0001
0000
,  // measure 16
0010
0100
0010
0000
0001
0000
0001
0100
,  // measure 17
0000
0001
0000
0010
0100
1000
0000
0001
,  // measure 18
0000
0001
0010
0000
0001
0000
0100
0010
,  // measure 19
1000
0000
1000
0000
1000
0010
0000
1000
,  // measure 20
0000
0100
0010
0001
0000
1000
0000
1000
,  // measure 21
0010
0000
0010
0000
0010
0100
0001
0000
,  // measure 22
1000
0100
0010
0001
0000
1000
0000
0001
,  // measure 23
0100
0010
0000
1000
0010
0100
0001
0000
,  // measure 24
1000
0000
0001
0010
0100
0000
1000
0001
,  // measure 25
0100
0010
0000
1000
0000
0001
0100
0001
,  // measure 26
0000
1000
0001
0010
0100
0000
1000
0000
,  // measure 27
0001
0010
0001
0000
0100
0001
1000
0010
,  // measure 28
0000
0100
0000
0010
0001
0010
0000
0100
,  // measure 29
1000
0100
0010
0000
0100
0000
0010
1000
,  // measure 30
0001
0000
0100
0010
0001
1000
0000
0100
,  // measure 31
0000
0010
1000
0010
0000
0100
0010
1000
,  // measure 32
0001
0000
0010
0000
0100
0001
0100
0000
,  // measure 33
1000
0010
0100
0001
0000
1000
0000
0001
,  // measure 34
0010
0100
0000
1000
0100
0010
0001
0000
,  // measure 35
1000
0000
0001
0100
0010
0000
1000
0001
,  // measure 36
0010
0100
0000
1000
0000
0001
0010
0001
,  // measure 37
0000
1000
0001
0100
0010
0000
1000
0000
,  // measure 38
0001
0100
0001
0000
0010
0001
1000
0100
,  // measure 39
0000
0010
0000
0100
0001
0100
0000
0010
,  // measure 40
1000
0010
0100
0000
0010
0000
0100
1000
,  // measure 41
0001
0000
0010
0100
0001
1000
0000
0010
,  // measure 42
0000
0100
1000
0100
0000
0010
0100
1000
,  // measure 43
0001
0000
0100
0000
0010
0001
0010
0000
,  // measure 44
1000
0100
0010
0001
0100
0010
1000
0001
,  // measure 45
0010
0100
0010
1000
0010
0100
1000
0010
,  // measure 46
0100
0001
1000
0100
0010
0100
0001
0100
,  // measure 47
0010
0001
0100
0010
1000
0001
0100
0010
,  // measure 48
0100
1000
0100
0010
1000
0100
0010
0001
,  // measure 49
1000
0010
0100
0010
0001
0010
0100
0001
,  // measure 50
0010
0100
1000
0001
0100
0010
0100
1000
,  // measure 51
0100
0010
1000
0100
0010
0001
1000
0010
,  // measure 52
0100
0010
0001
0010
0100
0001
0010
0100
,  // measure 53
1000
0001
0010
0100
0010
1000
0010
0100
,  // measure 54
1000
0010
0100
0001
1000
0100
0001
0100
,  // measure 55
0010
0100
1000
1000
,  // measure 56
0010
0100
0001
0001
,  // measure 57
0010
0000
0000
0100
1000
0100
1000
0000
0000
0010
0000
0000
,  // measure 58
0100
0001
0001
0010
,  // measure 59
0100
1000
1000
0010
,  // measure 60
0100
0001
0100
0000
0010
0000
0100
0000
,  // measure 61
0001
0001
0010
0100
,  // measure 62
1000
0000
1000
0000
0010
0000
0100
0010
,  // measure 63
1000
0100
0010
0001
,  // measure 64
0001
0100
0010
1000
,  // measure 65
1000
0000
0000
0100
0000
0000
0010
0001
0010
0001
0000
0000
,  // measure 66
1000
0010
0100
0001
0010
0100
1000
0010
,  // measure 67
0100
0001
0100
1000
0100
0010
1000
0100
,  // measure 68
0010
0001
0100
0010
1000
0010
0001
0010
,  // measure 69
0100
0001
0010
0100
1000
0100
0010
0001
,  // measure 70
0010
1000
0010
0100
1000
0010
0100
0001
,  // measure 71
0010
0100
1000
0100
0001
0100
0010
0001
,  // measure 72
0100
0010
1000
0100
0010
0001
0010
1000
,  // measure 73
0010
0100
1000
0010
0100
0001
0010
0100
,  // measure 74
1000
0100
0001
0100
0010
0001
0100
0010
,  // measure 75
1000
0010
0100
0001
0100
1000
0100
0010
,  // measure 76
1000
0100
0010
0001
0010
1000
0001
0100
,  // measure 77
2000
0000
0000
0000
,  // measure 78
0001
0000
0000
0000
,  // measure 79
0001
0000
0000
0000
,  // measure 80
0001
0000
0000
0000
,  // measure 81
3001
0100
0001
0100
0010
1000
0010
1000
,  // measure 82
0001
0010
0001
0010
0100
1000
0100
1000
,  // measure 83
0100
0010
0001
0010
0100
1000
0010
0100
,  // measure 84
0001
0000
0000
0100
0000
0000
0010
0000
0000
1000
0000
0000
0100
0000
0010
0000
0001
0000
1000
0000
0000
0010
0000
0000
,  // measure 85
0100
0000
0010
0000
0100
0000
0010
0000
0000
0000
0000
0000
,  // measure 86
0100
0000
0110
0100
,  // measure 87
0001
0000
0000
0010
0000
0100
0000
0010
0000
0100
0000
0000
,  // measure 88
0000
0010
0000
0110
,  // measure 89
0010
0000
0000
0001
0000
0000
0001
0000
0100
0000
0001
0000
,  // measure 90
0100
0000
0010
0000
,  // measure 91
0110
0000
0000
0010
0000
0000
1000
0000
0000
1000
0000
0100
,  // measure 92
0000
1000
0000
0100
0000
0000
0000
0000
0000
0010
0000
0000
,  // measure 93
0000
0110
0010
0010
,  // measure 94
0100
0010
0001
0000
0010
0000
0100
0000
0000
0000
0000
0000
,  // measure 95
0001
0000
0100
0010
,  // measure 96
0001
0000
0000
0100
0010
1000
0000
0010
0000
0100
0000
0000
,  // measure 97
0000
1000
0000
0100
,  // measure 98
0010
0000
0000
1000
0000
0000
0001
0100
0010
0000
0100
0000
,  // measure 99
0001
0000
0010
0000
,  // measure 100
1000
0000
0000
0010
0000
0000
0001
0000
0000
1000
0010
0100
,  // measure 101
0000
0010
0000
1000
0000
0000
0000
0000
0000
0010
0000
0000
,  // measure 102
0000
0000
0001
0000
0010
1000
0100
0000
,  // measure 103
0010
0000
0100
0000
1000
0000
0000
0000
0010
0000
0000
0000
0100
0000
0000
0000
0000
0000
0001
0000
0000
1000
0000
0000
,  // measure 104
0100
0000
1000
0001
0100
0000
0010
1000
,  // measure 105
0100
0000
0000
0100
0010
0001
0000
0100
0000
0010
0000
0000
,  // measure 106
1000
0001
0010
0000
0010
0001
1000
0000
,  // measure 107
0100
0000
0000
1000
0000
0000
0010
0000
0000
0000
0000
0000
0100
0000
0010
0000
1000
0000
0000
0000
0100
0000
0000
0000
,  // measure 108
0010
0000
0001
1000
0010
0000
1000
0001
,  // measure 109
0010
0000
0000
0000
0000
0000
0100
0000
0000
1000
0000
0000
0010
0000
0000
0000
0000
0000
0010
0000
0100
0000
0001
0000
,  // measure 110
0000
0000
0010
0000
0000
0000
0100
0000
0000
0000
0000
0000
1000
0000
0000
0001
0000
0000
0100
0000
0000
0000
0000
0000
,  // measure 111
0001
1000
0100
0000
0010
0001
0100
0000
,  // measure 112
0100
0010
1000
0000
0100
0000
0010
0000
0001
0000
1000
0000
,  // measure 113
0010
0000
0000
0100
0000
0000
0001
0000
0000
1000
0000
0000
0010
0000
0100
0000
0010
0000
0100
0000
0000
0001
0000
0000
,  // measure 114
0010
0000
0000
0100
0000
0000
0010
0000
0100
0000
1000
0000
0000
0000
0010
0000
0000
0000
0100
0000
0000
0000
0001
0000
,  // measure 115
0000
0000
1000
0000
0000
0000
0100
0000
0000
0010
0000
0000
0001
0000
0000
1000
0000
0000
0100
0000
0010
0000
0100
0000
,  // measure 116
0010
0000
0000
0001
0000
0000
0100
0000
0000
0000
0000
0000
0010
0000
0100
0000
0001
0000
0000
0000
0010
0000
0000
0000
,  // measure 117
0100
0000
0000
0000
1000
0000
0000
0000
0001
0000
0000
0000
0100
0000
0000
0010
0000
0000
1000
0000
0000
0001
0000
0000
,  // measure 118
0100
0000
0010
0000
0100
0000
0010
0000
0000
1000
0000
0000
0100
0000
0000
0010
0000
0000
0100
0000
0010
0000
0001
0000
,  // measure 119
0000
0000
0100
0000
0000
0000
0010
0000
0000
0000
1000
0000
0000
0000
0001
0000
0000
0000
0010
0000
0000
0100
0000
0000
,  // measure 120
1000
0000
0000
0001
0000
0000
0010
0000
0100
0000
0010
0000
0100
0000
0000
1000
0000
0000
0010
0000
0000
0000
0000
0000
,  // measure 121
2000
0000
0000
0000
,  // measure 122
0000
0000
0000
0000
,  // measure 123
0000
0000
0000
0000
,  // measure 124
0000
0000
0000
0000
0000
0000
3001
0100
,  // measure 125
0010
1000
0000
0100
0000
0010
0100
0010
,  // measure 126
0000
0010
0001
1000
0100
0010
0001
0000
,  // measure 127
0100
0000
0010
0100
0010
0000
0010
1000
,  // measure 128
0001
0010
0100
1000
0000
0010
0000
0100
,  // measure 129
0010
0100
0000
0100
0001
1000
0010
0100
,  // measure 130
0001
0000
0100
0000
0010
0100
0010
0000
,  // measure 131
0010
1000
0001
0100
0010
1000
0000
0100
,  // measure 132
0000
0010
0001
0010
0000
0010
0100
1000
,  // measure 133
0100
0010
0001
0000
0100
0000
0010
1000
,  // measure 134
0010
0000
0010
0100
0001
0010
0100
1000
,  // measure 135
0000
0010
0000
0100
0001
0100
0000
0100
,  // measure 136
0010
1000
0010
0100
0001
0000
0100
0000
,  // measure 137
0010
1000
0010
0000
0010
0100
0001
0100
,  // measure 138
0010
1000
0000
0001
0000
0010
0100
0010
,  // measure 139
0000
0010
0100
1000
0100
0010
0001
0000
,  // measure 140
1000
0000
0010
0100
0010
0000
0010
0100
,  // measure 141
0001
0010
0100
1000
0000
0001
0000
0100
,  // measure 142
0010
0100
0000
0100
0001
1000
0010
0100
,  // measure 143
0001
0000
1000
0000
0100
0010
0100
0000
,  // measure 144
1000
0100
1000
0100
0010
0001
1000
0100
,  // measure 145
0010
0001
1000
0010
0100
0001
1000
0010
,  // measure 146
0100
0001
1000
0010
0100
0001
1000
0100
,  // measure 147
0010
0001
1000
0010
0100
0001
1000
0100
,  // measure 148
0010
0001
0100
0010
1000
0100
0010
0000
,  // measure 149
0000
0000
0000
MMMM
,  // measure 150
0000
0000
0000
0000
0000
0000
1000
0010
,  // measure 151
0100
0001
1000
0010
0100
0001
1000
0100
,  // measure 152
0010
0001
1000
0100
0010
0001
1000
0100
,  // measure 153
0010
0001
1000
0010
0100
0001
1000
0100
,  // measure 154
0010
0001
1000
0010
0100
0001
0010
0100
,  // measure 155
1000
0010
0100
0000
0000
0000
0000
0000
,  // measure 156
0000
MMMM
0000
0000
,  // measure 157
0000
0000
1000
0100
0010
0001
1000
0100
,  // measure 158
0010
0001
1000
0100
0010
0001
1000
0100
,  // measure 159
0010
0001
1000
0010
0100
0001
1000
0010
,  // measure 160
0100
0001
1000
0010
0100
0001
1000
0010
,  // measure 161
0100
0001
1000
0100
0010
0001
1000
0010
,  // measure 162
0100
0001
1000
0100
0010
0001
1000
0010
,  // measure 163
0100
0001
0010
0100
1000
0010
0100
0001
,  // measure 164
0010
0100
1000
0010
0100
0001
0010
0100
,  // measure 165
1000
0010
0100
0001
1000
0100
0010
0001
,  // measure 166
0100
0010
1000
0100
0010
0001
0100
0010
,  // measure 167
1000
0100
0010
1000
0010
0100
1000
0001
,  // measure 168
0100
0010
0001
0010
0100
0001
0010
0100
,  // measure 169
0001
0100
0010
0001
1000
0010
0100
1000
,  // measure 170
0100
0010
2000
0000
0000
0000
0000
0000
,  // measure 171
0000
0000
0000
0000
,  // measure 172
0000
0000
0000
0000
,  // measure 173
0000
0000
0000
0000
,  // measure 174
0000
3000
0000
0000
;

//---------------dance-single - XO- JA- RH TS STR[3@200]----------------
#NOTEDATA:;
#CHARTNAME:;
#STEPSTYPE:dance-single;
#DESCRIPTION:XO- JA- RH TS STR[3@200];
#CHARTSTYLE:;
#DIFFICULTY:Hard;
#METER:18;
#RADARVALUES:0.806112,1.009381,0.006815,0.088594,0.143114,828.000000,827.000000,1.000000,13.000000,0.000000,0.000000,0.000000,0.000000,0.000000,0.806112,1.009381,0.006815,0.088594,0.143114,828.000000,827.000000,1.000000,13.000000,0.000000,0.000000,0.000000,0.000000,0.000000;
#CREDIT:Karl with a K;
#NOTES:
// measure 0
0000
0000
0000
0000
,  // measure 1
0000
0000
0000
0000
,  // measure 2
0000
0000
0000
0000
,  // measure 3
0000
0000
0000
0000
,  // measure 4
0000
0000
0000
0000
,  // measure 5
0000
0000
1000
0000
,  // measure 6
0000
0000
0000
0000
0000
0000
0000
0010
,  // measure 7
0000
0000
0000
0000
,  // measure 8
0000
0100
0000
0000
,  // measure 9
0000
0000
0000
0000
0000
0001
0000
0000
,  // measure 10
0000
0000
0000
0000
,  // measure 11
1000
0000
1000
0010
0000
0010
0000
0100
,  // measure 12
0001
0100
0000
0001
0000
0001
0010
0000
,  // measure 13
0010
0000
0100
1000
0100
0000
1000
0000
,  // measure 14
1000
0100
0000
0100
0000
0010
0001
0010
,  // measure 15
0000
0001
0000
0001
0100
0000
0100
0000
,  // measure 16
0010
1000
0010
0000
1000
0000
1000
0010
,  // measure 17
0000
0100
0000
0001
0100
0001
0000
0100
,  // measure 18
0000
0001
0100
0000
0010
0000
1000
0100
,  // measure 19
1000
0000
0100
0000
1000
0100
0000
0010
,  // measure 20
0000
0001
0100
0001
0000
0100
0000
0001
,  // measure 21
0100
0000
0010
0000
0100
0001
0010
0000
,  // measure 22
0001
0000
0100
0010
0000
0100
0000
0010
,  // measure 23
1000
0001
0000
1000
0000
0100
0010
0000
,  // measure 24
0100
0000
0010
0001
1000
0000
0001
0000
,  // measure 25
0010
0100
0000
0010
0000
0100
1000
0001
,  // measure 26
0000
1000
0000
0010
0100
0000
0010
0000
,  // measure 27
0100
0001
1000
0000
0010
0000
1000
0001
,  // measure 28
0000
1000
0000
0001
0100
0010
0000
0100
,  // measure 29
0000
0001
1000
0000
0001
0000
1000
0100
,  // measure 30
0010
0000
0100
0000
1000
0001
0000
1000
,  // measure 31
0000
0001
0100
0010
0000
0100
0000
1000
,  // measure 32
0001
0000
1000
0000
0001
0010
0100
0000
,  // measure 33
0100
0000
0010
0100
0000
0010
0000
0100
,  // measure 34
0001
1000
0000
0001
0000
0010
0100
0000
,  // measure 35
0010
0000
0100
1000
0001
0000
1000
0000
,  // measure 36
0100
0010
0000
0100
0000
0010
0001
1000
,  // measure 37
0000
0001
0000
0100
0010
0000
0100
0000
,  // measure 38
0010
1000
0001
0000
0010
0000
0001
1000
,  // measure 39
0000
0001
0000
1000
0100
0010
0000
0100
,  // measure 40
0000
1000
0001
0000
1000
0000
0001
0100
,  // measure 41
0010
0000
0100
0000
0001
1000
0000
0001
,  // measure 42
0000
1000
0100
0010
0000
0100
0000
0001
,  // measure 43
1000
0000
0001
0000
1000
0010
0100
0000
,  // measure 44
1000
0100
0010
0001
0000
0010
0000
0100
,  // measure 45
1000
0001
0000
1000
0010
0100
0001
0000
,  // measure 46
0100
0000
0010
1000
0001
0000
1000
0001
,  // measure 47
0010
0100
0000
1000
0000
0100
0010
0001
,  // measure 48
0000
1000
0001
0100
0010
0000
1000
0000
,  // measure 49
0010
0100
0001
0000
0100
0010
1000
0010
,  // measure 50
0000
0100
0000
0001
0010
0001
0000
0010
,  // measure 51
0100
1000
0100
0000
0010
0000
0001
0100
,  // measure 52
0001
0000
0100
0010
1000
0010
0000
0100
,  // measure 53
0000
0010
0100
0001
0000
0010
0100
1000
,  // measure 54
0100
0000
0010
0000
0100
0010
1000
0000
,  // measure 55
0020
0000
0130
1000
,  // measure 56
0020
0000
0130
0001
,  // measure 57
0010
0001
1000
0020
,  // measure 58
0000
0130
0001
0020
,  // measure 59
0000
0130
1000
0010
,  // measure 60
1000
0001
0020
0000
,  // measure 61
0031
1000
0020
0000
,  // measure 62
0031
0000
1000
0000
0100
0000
0001
1000
,  // measure 63
0001
1000
0010
0200
,  // measure 64
0000
0301
0010
0200
,  // measure 65
0000
0301
0100
0110
,  // measure 66
0001
0010
0100
1000
0000
0010
0000
0100
,  // measure 67
0001
1000
0000
0001
0100
0010
1000
0000
,  // measure 68
0100
0000
0010
0001
1000
0000
0001
1000
,  // measure 69
0100
0010
0000
0001
0000
0100
0010
1000
,  // measure 70
0000
0001
1000
0010
0100
0000
0001
0000
,  // measure 71
0010
0100
1000
0000
0010
0100
1000
0100
,  // measure 72
0000
0010
0000
1000
0100
1000
0000
0100
,  // measure 73
0010
1000
0010
0000
0100
0000
1000
0010
,  // measure 74
1000
0000
0010
0100
1000
0100
0000
0010
,  // measure 75
0000
0100
0010
1000
0000
0100
0010
1000
,  // measure 76
0010
0000
0100
0000
0010
0100
0010
0000
,  // measure 77
0002
0000
0000
0000
,  // measure 78
1000
0000
0000
0000
,  // measure 79
1000
0000
0000
0000
,  // measure 80
1000
0000
0000
0000
,  // measure 81
1003
0010
1000
0000
0001
0010
0001
0000
,  // measure 82
1000
0100
1000
0000
0001
0100
0001
0000
,  // measure 83
1000
0010
0100
0000
0001
0010
0100
0000
,  // measure 84
1000
0000
0000
0100
0000
0000
0010
0000
0000
0001
0000
0000
1000
0000
0001
0000
1000
0000
0001
0000
0000
0000
0000
0000
,  // measure 85
1000
0000
0100
0000
1000
0000
0100
0000
0000
0000
0000
0000
,  // measure 86
0010
0000
0000
0001
0100
0000
0001
0000
,  // measure 87
0010
0000
0000
0001
0000
0100
0000
0001
0000
0100
0000
0000
,  // measure 88
0000
0000
0010
0000
0000
1000
0100
0000
,  // measure 89
1000
0000
0000
0010
0000
0000
0100
0000
0000
0001
0000
0000
1000
0000
0000
0000
0010
0000
0000
0000
1000
0000
0000
0000
,  // measure 90
0010
0000
0000
0000
0100
0000
0000
0001
,  // measure 91
0010
0000
0000
0001
0000
0000
0100
0000
0000
0001
0000
0010
,  // measure 92
0000
0001
0000
0010
0000
0000
0000
0000
0000
0100
0000
0000
,  // measure 93
0000
1000
0010
0000
1000
0100
0010
0001
,  // measure 94
1000
0000
1000
0000
0100
0000
1000
0000
0000
0000
0000
0000
,  // measure 95
0001
0000
0000
0100
0001
0000
0010
0001
,  // measure 96
0010
0000
0000
0001
0000
0001
0000
0100
0000
0001
0000
0000
,  // measure 97
0000
0000
0010
0000
0000
0100
1000
0000
,  // measure 98
1000
0000
0000
0010
0000
0000
0100
0000
0000
0001
0000
0000
1000
0000
0000
0000
1000
0000
0000
0000
0010
0000
0000
0000
,  // measure 99
1000
0000
0000
0000
0001
0000
0000
0100
,  // measure 100
0001
0000
0000
0000
0000
0000
0010
0000
0000
0001
0000
0000
0010
0000
0000
0000
0000
0000
0001
0000
0000
0000
0001
0000
,  // measure 101
0000
0010
0000
0001
0000
0000
0000
0000
0000
0100
0000
0000
,  // measure 102
0000
0010
1000
0000
1000
0100
0010
0001
,  // measure 103
1000
0000
1000
0000
0100
0000
1000
0000
0000
0100
0000
0000
,  // measure 104
0010
0000
0100
1000
0100
0000
0010
0001
,  // measure 105
0010
0000
0000
0001
0000
0001
0000
0100
0000
0001
0000
0000
,  // measure 106
0100
0010
0100
0001
,  // measure 107
1000
0000
0000
0010
0000
0000
0100
0000
0000
0001
0000
0000
1000
0000
0000
0000
1000
0000
0000
0000
0010
0000
0000
0000
,  // measure 108
1000
0000
0010
0000
0100
0000
0001
0100
,  // measure 109
0001
0000
0000
0000
0000
0000
0010
0000
0000
0001
0000
0000
0010
0000
0000
0000
0000
0000
0001
0000
0000
0000
0001
0000
,  // measure 110
0000
0010
0000
0001
0000
0000
0010
0000
0000
0100
0000
0000
,  // measure 111
0010
0000
0001
0000
1000
0100
0010
0001
,  // measure 112
1000
0000
1000
0000
0100
0000
1000
0000
0100
0000
0010
0000
,  // measure 113
0100
0010
0100
0010
0100
0000
0010
0001
,  // measure 114
0010
0000
0000
0001
0000
0001
0000
0100
0000
0001
0000
0100
,  // measure 115
0000
0000
0010
0000
0000
0000
0100
0000
0000
0010
0000
0000
0100
0000
0000
0010
0000
0000
1000
0000
0000
0000
0000
0000
,  // measure 116
1000
0000
0000
0010
0000
0000
0100
0000
0000
0001
0000
0000
1000
0000
0000
0000
1000
0000
0000
0000
0010
0000
0000
0000
,  // measure 117
1000
0000
0000
0000
0010
0000
0000
0000
0100
0000
0000
0000
0001
0000
0000
0100
0000
0000
0001
0000
0000
0100
0000
0000
,  // measure 118
0001
0000
0000
0000
0000
0000
0010
0000
0000
0001
0000
0000
0010
0000
0000
0000
0000
0000
0001
0000
0000
0000
0001
0000
,  // measure 119
0000
0000
0010
0000
0000
0000
0001
0000
0000
0000
0010
0000
0000
0000
0100
0000
0000
0000
0010
0000
0000
0001
0000
0000
,  // measure 120
0010
0001
1000
0000
1000
0010
0100
0000
,  // measure 121
0002
0000
0000
0000
,  // measure 122
0000
0000
0000
0000
,  // measure 123
0000
0000
0000
0000
,  // measure 124
0000
0000
0000
1003
,  // measure 125
0100
0010
0000
0100
0000
0010
0001
0010
,  // measure 126
0000
0001
1000
0001
0000
0100
0010
0000
,  // measure 127
0100
0000
0010
1000
0010
0000
1000
0001
,  // measure 128
1000
0000
0010
0100
0000
0010
0000
0100
,  // measure 129
0001
0100
0000
0001
1000
0001
0000
0010
,  // measure 130
0100
0000
0010
0000
0100
1000
0100
0000
,  // measure 131
1000
0001
1000
0000
0100
0010
0000
0100
,  // measure 132
0000
0010
0001
0010
0000
0100
1000
0001
,  // measure 133
0000
0100
0010
0000
0100
0000
0010
1000
,  // measure 134
0010
0000
0100
0001
1000
0000
0010
0100
,  // measure 135
0000
0010
0000
0100
0001
0100
0000
0001
,  // measure 136
1000
0001
0000
0010
0100
0000
0010
0000
,  // measure 137
0100
1000
0100
0000
1000
0001
1000
0000
,  // measure 138
0100
0010
0000
0001
0000
0010
0100
0010
,  // measure 139
0000
0100
1000
0001
0000
0100
0010
0000
,  // measure 140
1000
0000
0010
0100
0010
0000
0100
0001
,  // measure 141
1000
0000
0010
0100
0000
0001
0000
0100
,  // measure 142
0010
0100
0000
0001
1000
0001
0000
0010
,  // measure 143
0100
0000
0010
0000
0100
1000
0100
0000
,  // measure 144
1000
0001
1000
0010
1000
0010
1000
0010
,  // measure 145
1000
0000
0001
0100
0001
0100
0001
0100
,  // measure 146
0001
0000
1000
0001
1000
0001
1000
0001
,  // measure 147
1000
0000
0100
0010
0100
0010
0100
0010
,  // measure 148
0100
0000
0010
0001
1000
0010
2000
0000
,  // measure 149
0000
0000
0000
0000
,  // measure 150
0000
0000
0000
0000
0000
0000
3001
0010
,  // measure 151
0001
0010
0001
0010
0001
0000
1000
0100
,  // measure 152
1000
0100
1000
0100
1000
0000
0001
1000
,  // measure 153
0001
1000
0001
1000
0001
0000
0100
0010
,  // measure 154
0100
0010
0100
0010
0100
0000
0010
1000
,  // measure 155
0001
0010
0002
0000
0000
0000
0000
0000
,  // measure 156
0000
0000
0000
0000
,  // measure 157
0000
0000
1003
0100
1000
0100
1000
0100
,  // measure 158
1000
0000
0001
0010
0001
0010
0001
0010
,  // measure 159
0001
0000
1000
0001
1000
0001
1000
0001
,  // measure 160
1000
0000
0010
0100
0010
0100
0010
0100
,  // measure 161
0010
0000
1000
0010
1000
0010
1000
0010
,  // measure 162
1000
0000
0001
0100
0001
0100
0001
0100
,  // measure 163
0001
0000
1000
0001
1000
0001
1000
0001
,  // measure 164
1000
0000
0100
0010
0100
0010
0100
0010
,  // measure 165
0100
0010
0001
0010
0100
1000
0001
0010
,  // measure 166
0100
1000
0001
0100
0010
1000
0001
0100
,  // measure 167
0010
1000
0001
0010
0100
1000
0001
0100
,  // measure 168
0010
1000
0001
0010
0100
1000
0001
0100
,  // measure 169
0010
1000
0100
0010
0001
0100
0010
1000
,  // measure 170
0100
0010
0002
0000
0000
0000
0000
0000
,  // measure 171
0000
0000
0000
0000
,  // measure 172
0000
0000
0000
0000
,  // measure 173
0000
0000
0000
0000
,  // measure 174
0000
0003
0000
0000
;

//---------------dance-single - XO JA XMOD RH TS JU-----------------
#NOTEDATA:;
#CHARTNAME:;
#STEPSTYPE:dance-single;
#DESCRIPTION:XO JA XMOD RH TS JU-;
#CHARTSTYLE:;
#DIFFICULTY:Medium;
#METER:15;
#RADARVALUES:0.657157,0.831255,0.061335,0.088594,0.122669,675.000000,666.000000,9.000000,13.000000,0.000000,0.000000,0.000000,0.000000,0.000000,0.657157,0.831255,0.061335,0.088594,0.122669,675.000000,666.000000,9.000000,13.000000,0.000000,0.000000,0.000000,0.000000,0.000000;
#CREDIT:Karl with a K;
#NOTES:
// measure 0
0000
0000
0000
0000
,  // measure 1
0000
0000
0000
0000
,  // measure 2
0000
0000
0000
0000
,  // measure 3
0000
0000
0000
0000
,  // measure 4
0000
0000
0000
0000
,  // measure 5
0000
0000
1000
0000
,  // measure 6
0000
0000
0000
0000
0000
0000
0000
0001
,  // measure 7
0000
0000
0000
0000
,  // measure 8
0000
1000
0000
0000
,  // measure 9
0000
0000
0000
0000
0000
0001
0000
0000
,  // measure 10
0000
0000
0000
0000
,  // measure 11
1000
0000
0000
0100
0000
0010
0000
0001
,  // measure 12
0000
0100
0000
0001
0000
0000
0100
0000
,  // measure 13
0010
1000
0100
1000
,  // measure 14
0000
0010
0000
0100
0000
0001
0000
0100
,  // measure 15
0000
0001
0000
0000
0010
0000
0100
0000
,  // measure 16
0001
0000
0100
0000
1000
0000
0000
0010
,  // measure 17
0000
0100
0000
0001
0000
0010
0000
0001
,  // measure 18
0000
0010
0100
1000
,  // measure 19
0010
0000
1000
0000
0000
0100
0000
0010
,  // measure 20
0000
0001
0000
0010
0000
0001
0000
0000
,  // measure 21
0100
0010
0001
0010
,  // measure 22
1000
0000
0010
0100
0000
0001
0000
0100
,  // measure 23
0000
0010
0000
1000
0000
0100
0010
0000
,  // measure 24
0001
0010
0100
1000
,  // measure 25
0001
0100
0000
0010
0000
1000
0000
0010
,  // measure 26
0000
0100
0000
0001
0010
0000
0100
0000
,  // measure 27
1000
0000
0100
0000
0010
0000
0001
1000
,  // measure 28
0000
0100
0000
1000
0000
0001
0000
0010
,  // measure 29
0000
1000
0010
0000
0100
0000
1000
0000
,  // measure 30
0001
0000
0100
0000
0010
1000
0000
0001
,  // measure 31
0000
0010
0000
0001
0000
1000
0000
0100
,  // measure 32
0001
1000
0010
0001
,  // measure 33
1000
0000
0100
0010
0000
0001
0000
0100
,  // measure 34
0000
0010
0000
1000
0000
0010
0100
0000
,  // measure 35
0001
0010
0100
1000
,  // measure 36
0001
0010
0000
0100
0000
1000
0000
0010
,  // measure 37
0000
0100
0000
0001
0100
0000
0010
0000
,  // measure 38
1000
0000
0100
0000
0010
0000
0001
1000
,  // measure 39
0000
0010
0000
1000
0000
0001
0000
0100
,  // measure 40
0000
1000
0100
0000
0010
0000
1000
0000
,  // measure 41
0001
0000
0010
0000
0100
1000
0000
0001
,  // measure 42
0000
0100
0000
0001
0000
1000
0000
0010
,  // measure 43
0001
1000
0100
0001
,  // measure 44
1000
0100
1000
0100
0000
0010
0000
0001
,  // measure 45
0000
0010
0000
0001
0100
0001
0100
0000
,  // measure 46
0010
0000
1000
0000
0010
0000
1000
0010
,  // measure 47
1000
0010
0000
0100
0000
0001
0000
0100
,  // measure 48
0000
0001
0010
0001
0010
0000
0100
0000
,  // measure 49
1000
0000
0100
0000
1000
0001
1000
0001
,  // measure 50
0000
0010
0000
0001
0000
0010
0000
0100
,  // measure 51
0001
0100
0001
0000
0100
0000
0010
0000
,  // measure 52
0100
0000
1000
0001
1000
0001
0000
0100
,  // measure 53
0000
0001
0000
0100
0000
0010
0001
0010
,  // measure 54
0001
0010
0100
0010
,  // measure 55
2000
0000
3100
0010
,  // measure 56
0002
0000
0103
0010
,  // measure 57
1000
0001
0001
2000
,  // measure 58
0000
3010
0100
0002
,  // measure 59
0000
0013
0100
1000
,  // measure 60
0001
0001
2000
0000
,  // measure 61
3010
1000
0002
0000
,  // measure 62
0013
0000
0001
0000
0100
0000
0001
0100
,  // measure 63
0001
0001
0010
0200
,  // measure 64
0000
1300
0001
0200
,  // measure 65
0000
0000
0310
0000
0100
0010
0100
0000
,  // measure 66
0001
0010
0001
0010
0000
0100
0000
1000
,  // measure 67
0000
0010
0000
1000
0010
1000
0010
0000
,  // measure 68
0100
0000
0001
0000
0010
0000
0001
0100
,  // measure 69
0001
0100
0000
0010
0000
1000
0000
0100
,  // measure 70
0000
1000
0100
1000
0100
0000
0010
0000
,  // measure 71
0001
0000
0100
0000
0001
1000
0001
1000
,  // measure 72
0000
0100
0000
1000
0000
0001
0000
0010
,  // measure 73
1000
0010
1000
0000
0010
0000
0100
0000
,  // measure 74
1000
0000
0001
1000
0001
1000
0000
0010
,  // measure 75
0000
1000
0000
0001
0000
0100
1000
0100
,  // measure 76
1000
0100
0010
0100
,  // measure 77
0002
0000
0000
0000
,  // measure 78
1000
0000
0000
0000
,  // measure 79
1000
0000
0000
0000
,  // measure 80
1000
0000
0000
0000
,  // measure 81
1003
0100
0010
0001
,  // measure 82
0100
0010
1000
0100
,  // measure 83
0010
0001
0100
0010
,  // measure 84
1000
0001
1000
1001
,  // measure 85
0001
0000
0000
0000
0001
0000
0100
0000
0000
0000
0000
0000
,  // measure 86
0110
0000
0000
0010
0000
0000
1000
0000
,  // measure 87
0010
0000
0000
1000
0000
0000
0000
1000
0000
0100
0000
0000
,  // measure 88
0000
0000
0110
0000
0000
0010
0000
0000
,  // measure 89
0001
0000
0000
0100
0000
0000
0001
0000
0000
0000
0001
0000
,  // measure 90
0010
0000
0000
0000
0110
0000
0000
0100
,  // measure 91
0000
1000
0100
1000
,  // measure 92
0000
1000
0000
0010
0000
0000
0000
0000
0000
0110
0000
0000
,  // measure 93
0000
0100
0000
0000
0001
0010
0001
0000
,  // measure 94
1000
0000
0010
0000
1000
0000
0010
0000
0000
0000
0000
0000
,  // measure 95
0110
0000
0000
0010
0100
0000
0001
0000
,  // measure 96
0100
0000
0000
0001
0000
0010
0000
0001
0000
0010
0000
0000
,  // measure 97
0000
0000
0110
0000
0000
0010
0100
0000
,  // measure 98
1000
0000
0000
0010
0000
0000
1000
0000
0100
0000
1000
0000
,  // measure 99
0100
0000
0000
0000
0110
0000
0000
0100
,  // measure 100
0010
0000
0000
0001
0000
0000
0010
0000
0000
0001
0000
0100
,  // measure 101
0000
0001
0000
0100
0000
0000
0000
0000
0000
0110
0000
0000
,  // measure 102
0000
0100
0010
0000
1000
0100
1000
0000
,  // measure 103
0001
0000
0000
0000
0010
0000
0000
0000
0001
0000
0000
0000
0010
0000
0000
0000
0000
0000
0010
0000
0000
0100
0000
0000
,  // measure 104
0010
0000
0100
0010
0100
0000
0100
1000
,  // measure 105
0100
0000
0000
1000
0000
0010
0000
1000
0000
0010
0000
0000
,  // measure 106
0010
0100
0010
0000
0100
0010
0100
0000
,  // measure 107
0100
0000
0000
0001
0000
0000
0100
0000
0000
0000
0000
0000
0001
0000
0000
0000
0100
0000
0000
0000
0001
0000
0000
0000
,  // measure 108
0100
0000
0100
0010
0100
0000
0010
0100
,  // measure 109
0010
0000
0000
0000
0000
0000
0010
0000
0000
1000
0000
0000
0010
0000
0000
0000
0000
0000
1000
0000
0000
0000
0100
0000
,  // measure 110
0000
0000
1000
0000
0000
0000
0100
0000
0000
0000
0000
0000
0100
0000
0000
0010
0000
0000
0100
0000
0000
0000
0000
0000
,  // measure 111
0010
0100
0010
0000
0010
0001
0010
0001
,  // measure 112
1000
0000
0100
0000
1000
0000
0100
0000
0010
0000
0100
0000
,  // measure 113
0010
0000
0100
1000
0001
0000
0010
0001
,  // measure 114
0100
0000
0000
0001
0000
0100
0000
0001
0000
0100
0000
0010
,  // measure 115
0000
0000
0100
0000
0000
0000
0010
0000
0000
0000
0000
0000
0100
0000
0000
0001
0000
0000
1000
0000
0000
0000
0000
0000
,  // measure 116
0010
0000
0000
1000
0000
0000
0100
0000
0000
0000
0000
0000
1000
0000
0000
0000
0010
0000
0000
0000
1000
0000
0000
0000
,  // measure 117
0010
0000
0000
0000
0100
0000
0000
0000
0010
0000
0000
0000
0100
0000
0000
0000
0000
0000
0010
0000
0000
1000
0000
0000
,  // measure 118
0001
0000
0000
0000
0000
0000
0100
0000
0000
0001
0000
0000
0010
0000
0000
0000
0000
0000
0001
0000
0000
0000
0010
0000
,  // measure 119
0000
0001
0000
0010
0000
0100
0000
0010
0000
0100
0000
0000
,  // measure 120
0010
0001
1000
0000
0100
1000
0010
1000
,  // measure 121
0002
0000
0000
0000
,  // measure 122
0000
0000
0000
0000
,  // measure 123
0000
0000
0000
0000
,  // measure 124
0000
0000
0000
1003
,  // measure 125
0000
0100
0000
0010
0000
0001
0010
0001
,  // measure 126
0000
1000
0000
0001
0000
0000
0100
0000
,  // measure 127
0010
0000
1000
0010
1000
0000
0001
0000
,  // measure 128
1000
0000
0000
0010
0000
0100
0000
0001
,  // measure 129
0100
0001
0000
1000
0000
0001
0000
0000
,  // measure 130
0010
0000
0100
0000
1000
0100
1000
0000
,  // measure 131
0001
0000
0001
0000
0000
0010
0000
0100
,  // measure 132
0000
1000
0100
1000
0000
0010
0000
1000
,  // measure 133
0000
0000
0010
0000
0100
0000
0001
0100
,  // measure 134
0001
0000
0010
0000
0001
0000
0000
0100
,  // measure 135
0000
0010
0000
1000
0010
1000
0000
0100
,  // measure 136
0000
1000
0000
0000
0100
0000
0010
0000
,  // measure 137
0001
0010
0001
0000
0100
0000
1000
0000
,  // measure 138
0000
0100
0000
0010
0000
1000
0010
1000
,  // measure 139
0000
0100
0000
0001
0000
0000
0100
0000
,  // measure 140
0010
0000
0001
0010
0001
0000
0100
0000
,  // measure 141
1000
0000
0000
0100
0000
0010
0000
1000
,  // measure 142
0100
1000
0000
0010
0000
0001
0000
0000
,  // measure 143
0010
0000
0100
0000
0001
0100
0001
0000
,  // measure 144
0010
0001
0100
0010
,  // measure 145
1000
0010
0100
0001
,  // measure 146
1000
0100
0010
0001
,  // measure 147
0010
0100
1000
0001
,  // measure 148
1000
0001
1000
0002
,  // measure 149
0000
0000
0000
0000
,  // measure 150
0000
0000
0000
1003
,  // measure 151
0100
0010
0001
0010
,  // measure 152
0100
1000
0001
0100
,  // measure 153
0010
1000
0010
0100
,  // measure 154
0001
1000
0001
1000
,  // measure 155
0001
2000
0000
0000
,  // measure 156
0000
0000
0000
0000
,  // measure 157
0000
3001
0010
0100
,  // measure 158
1000
0010
0100
0001
,  // measure 159
0010
0100
1000
0010
,  // measure 160
0100
0001
0010
0100
,  // measure 161
1000
0010
0100
1000
,  // measure 162
0100
0010
1000
0100
,  // measure 163
0010
1000
0010
0100
,  // measure 164
1000
0000
0001
0010
0001
0000
1000
0000
,  // measure 165
0001
0000
1000
0010
1000
0000
0001
0000
,  // measure 166
1000
0000
0001
0100
0001
0000
1000
0000
,  // measure 167
0001
0000
1000
0100
1000
0000
0001
0000
,  // measure 168
1000
0000
0010
0100
0010
0000
0100
0010
,  // measure 169
0100
0000
0001
0010
0100
0000
1000
0010
,  // measure 170
0100
0002
0000
0000
,  // measure 171
0000
0000
0000
0000
,  // measure 172
0000
0000
0000
0000
,  // measure 173
0000
0000
0000
0000
,  // measure 174
0000
0003
0000
0000
;

//---------------dance-single - XO JA XMOD RH- TS----------------
#NOTEDATA:;
#CHARTNAME:;
#STEPSTYPE:dance-single;
#DESCRIPTION:XO JA XMOD RH- TS;
#CHARTSTYLE:;
#DIFFICULTY:Easy;
#METER:13;
#RADARVALUES:0.425448,0.534378,0.006815,0.204449,0.000000,437.000000,436.000000,1.000000,30.000000,0.000000,0.000000,0.000000,0.000000,0.000000,0.425448,0.534378,0.006815,0.204449,0.000000,437.000000,436.000000,1.000000,30.000000,0.000000,0.000000,0.000000,0.000000,0.000000;
#CREDIT:Karl with a K;
#NOTES:
// measure 0
0000
0000
0000
0000
,  // measure 1
0000
0000
0000
0000
,  // measure 2
0000
0000
0000
0000
,  // measure 3
0000
0000
0000
0000
,  // measure 4
0000
0000
0000
0000
,  // measure 5
0000
0000
1001
0000
,  // measure 6
0000
0000
0000
0000
,  // measure 7
0000
0000
0000
0000
,  // measure 8
0000
0000
0000
0000
,  // measure 9
0000
0000
0000
0000
,  // measure 10
0000
0000
0000
0000
,  // measure 11
1000
0000
0000
1000
0000
0010
0000
1000
,  // measure 12
0000
0000
0000
0001
0000
0000
0001
0000
,  // measure 13
0010
0001
0000
1000
,  // measure 14
0000
1000
0000
0100
0000
1000
0000
0000
,  // measure 15
0000
0001
0000
0000
0001
0000
0100
0000
,  // measure 16
0001
0000
0000
0000
1000
0000
0000
0010
,  // measure 17
0000
1000
0000
0100
0000
0000
0000
1000
,  // measure 18
0000
0100
1000
0010
,  // measure 19
1000
0000
0001
0000
0000
0010
0000
0001
,  // measure 20
0000
0100
0000
0000
0000
0100
0000
0000
,  // measure 21
0001
0010
0100
0010
,  // measure 22
0001
0000
0000
0100
0000
0001
0000
0100
,  // measure 23
0000
0010
0000
1000
0000
0000
0100
0000
,  // measure 24
1000
0100
0010
0001
,  // measure 25
0000
0010
0000
0001
0000
0010
0000
0100
,  // measure 26
0000
1000
0000
0000
0010
0000
1000
0000
,  // measure 27
0010
0000
0100
0000
0010
0000
0000
1000
,  // measure 28
0000
0010
0000
1000
0000
0001
0000
0100
,  // measure 29
0000
0001
0010
0001
,  // measure 30
1000
0000
0100
0000
0000
1000
0000
0010
,  // measure 31
0000
1000
0000
0001
0000
0100
0000
0000
,  // measure 32
0001
0010
0001
1000
,  // measure 33
1000
0000
0000
0010
0000
1000
0000
0010
,  // measure 34
0000
0100
0000
0001
0000
0000
0010
0000
,  // measure 35
0001
0010
0100
1000
,  // measure 36
0000
0100
0000
1000
0000
0100
0000
0010
,  // measure 37
0000
0001
0000
0000
0100
0000
0001
0000
,  // measure 38
0100
0000
0010
0000
0100
0000
0000
0001
,  // measure 39
0000
0100
0000
0001
0000
1000
0000
0010
,  // measure 40
0000
1000
0100
1000
,  // measure 41
0001
0000
0010
0000
0000
0001
0000
0100
,  // measure 42
0000
0001
0000
1000
0000
0010
0000
0000
,  // measure 43
1000
0100
1000
0001
,  // measure 44
0001
0000
0000
0001
0000
0001
0000
0001
,  // measure 45
0000
0000
0000
1000
0000
0000
1000
0000
,  // measure 46
1000
1000
0000
0100
,  // measure 47
0000
0100
0000
0100
0000
0100
0000
0000
,  // measure 48
0000
0010
0000
0000
0010
0000
0010
0000
,  // measure 49
0010
0000
0000
0000
0001
0000
0000
0001
,  // measure 50
0000
0001
0000
0001
0000
0000
0000
1000
,  // measure 51
0000
1000
1000
1000
,  // measure 52
0000
0000
0010
0000
0000
0010
0000
0010
,  // measure 53
0000
0010
0000
0000
0000
0100
0000
0000
,  // measure 54
0100
0100
0100
0000
,  // measure 55
0002
0000
0000
0000
,  // measure 56
2003
0000
0000
0000
,  // measure 57
3100
0010
0100
2000
,  // measure 58
0000
0000
0000
3002
,  // measure 59
0000
0000
0000
0103
,  // measure 60
0010
0100
0020
0000
,  // measure 61
0000
0000
2030
0000
,  // measure 62
0000
0000
3200
0000
,  // measure 63
0000
0000
0320
0000
,  // measure 64
0000
0000
0000
0032
,  // measure 65
0000
0000
0103
0010
,  // measure 66
1000
0000
0000
1000
0000
1000
0000
1000
,  // measure 67
0000
0000
0000
0001
0000
0000
0001
0000
,  // measure 68
0001
0001
0000
0100
,  // measure 69
0000
0100
0000
0100
0000
0100
0000
0000
,  // measure 70
0000
0010
0000
0000
0010
0000
0010
0000
,  // measure 71
0010
0000
0000
0000
1000
0000
0000
1000
,  // measure 72
0000
1000
0000
1000
0000
0000
0000
0001
,  // measure 73
0000
0001
0001
0001
,  // measure 74
0000
0000
0010
0000
0000
0010
0000
0010
,  // measure 75
0000
0010
0000
0000
0000
0100
0000
0000
,  // measure 76
0100
0100
0100
0000
,  // measure 77
2000
0000
0000
0000
,  // measure 78
0000
0000
0000
0000
,  // measure 79
0000
0000
0000
0000
,  // measure 80
0000
0000
0000
0000
,  // measure 81
3001
0000
0100
0000
,  // measure 82
0010
0000
1000
0000
,  // measure 83
0010
0000
0100
0000
,  // measure 84
0001
0000
2000
0000
,  // measure 85
3001
0000
0001
0000
,  // measure 86
0001
0100
0001
0100
,  // measure 87
0001
0020
0000
0000
,  // measure 88
0000
0130
0000
0010
,  // measure 89
0000
0100
0020
0000
,  // measure 90
0000
0000
0130
0000
,  // measure 91
0010
0000
0100
0020
,  // measure 92
0000
0000
0000
0130
,  // measure 93
0000
0010
0000
0100
,  // measure 94
2000
0000
0000
0000
,  // measure 95
3100
0000
1000
0000
,  // measure 96
0100
2000
0000
0000
,  // measure 97
0000
3100
0000
1000
,  // measure 98
0000
0100
2000
0000
,  // measure 99
0000
0000
3100
0000
,  // measure 100
1000
0000
0100
2000
,  // measure 101
0000
0000
0000
3100
,  // measure 102
0000
0010
0000
0001
,  // measure 103
0002
0000
0000
0000
,  // measure 104
0103
0000
0001
0000
,  // measure 105
0100
0002
0000
0000
,  // measure 106
0000
0103
0000
0001
,  // measure 107
0000
0100
0002
0000
,  // measure 108
0000
0000
0103
0000
,  // measure 109
0001
0000
0100
0002
,  // measure 110
0000
0000
0000
0103
,  // measure 111
0000
0001
0000
0100
,  // measure 112
0020
0000
0000
0000
,  // measure 113
0130
0000
0010
0000
,  // measure 114
0100
0020
0000
0000
,  // measure 115
0000
0130
0000
0010
,  // measure 116
0000
0100
0020
0000
,  // measure 117
0000
0000
0130
0000
,  // measure 118
0010
0000
0100
0020
,  // measure 119
0000
0000
0000
0130
,  // measure 120
0000
0010
0000
0100
,  // measure 121
0002
0000
0000
0000
,  // measure 122
0000
0000
0000
0000
,  // measure 123
0000
0000
0000
0000
,  // measure 124
0000
0000
0000
1003
,  // measure 125
0000
0100
0000
0010
0000
0001
0000
0010
,  // measure 126
0000
0001
0000
1000
0000
0000
0010
0000
,  // measure 127
0100
0001
0100
0001
,  // measure 128
0001
0000
0000
0100
0000
0010
0000
1000
,  // measure 129
0000
0001
0000
1000
0000
0001
0000
0000
,  // measure 130
0010
0100
1000
0001
,  // measure 131
1000
0000
1000
0000
0000
0100
0000
0010
,  // measure 132
0000
1000
0000
0010
0000
0100
0000
1000
,  // measure 133
0000
0010
0100
1000
,  // measure 134
0100
0000
0001
0000
0001
0000
0000
0100
,  // measure 135
0000
0010
0000
0001
0000
0010
0000
0100
,  // measure 136
0000
0001
0000
0000
0010
0000
0100
0000
,  // measure 137
0001
0100
0010
0001
,  // measure 138
0000
0001
0000
0100
0000
1000
0000
0100
,  // measure 139
0000
0001
0000
1000
0000
0000
1000
0000
,  // measure 140
0100
0001
0100
1000
,  // measure 141
0001
0000
0000
1000
0000
0010
0000
0001
,  // measure 142
0000
0010
0000
1000
0000
0001
0000
0000
,  // measure 143
0001
0010
1000
0010
,  // measure 144
0001
1000
0001
1000
,  // measure 145
0001
1000
0001
1000
,  // measure 146
0001
1000
0001
1000
,  // measure 147
0001
1000
0001
1000
,  // measure 148
0001
1000
0001
2000
,  // measure 149
0000
0000
0000
0000
,  // measure 150
0000
0000
0000
3010
,  // measure 151
0100
0010
0100
0010
,  // measure 152
0100
0010
0100
0010
,  // measure 153
0100
0010
0100
0010
,  // measure 154
0100
0010
0100
0010
,  // measure 155
0100
0020
0000
0000
,  // measure 156
0000
0000
0000
0000
,  // measure 157
0000
1030
0001
1000
,  // measure 158
0001
1000
0001
1000
,  // measure 159
0001
0010
0100
0010
,  // measure 160
0100
0010
0100
0010
,  // measure 161
0100
1000
0001
1000
,  // measure 162
0001
0100
0010
0100
,  // measure 163
0010
1000
0001
1000
,  // measure 164
0001
0100
0010
0100
,  // measure 165
0010
1000
0100
0010
,  // measure 166
0001
1000
0010
0100
,  // measure 167
0001
1000
0100
0010
,  // measure 168
0001
1000
0010
0100
,  // measure 169
0001
0010
0100
1000
,  // measure 170
0001
2000
0000
0000
,  // measure 171
0000
0000
0000
0000
,  // measure 172
0000
0000
0000
0000
,  // measure 173
0000
0000
0000
0000
,  // measure 174
0000
3000
0000
0000
;

//---------------dance-single - ----------------
#NOTEDATA:;
#CHARTNAME:;
#STEPSTYPE:dance-single;
#DESCRIPTION:;
#CHARTSTYLE:;
#DIFFICULTY:Beginner;
#METER:8;
#RADARVALUES:0.200555,0.406087,0.020445,0.163559,0.000000,206.000000,203.000000,3.000000,24.000000,0.000000,0.000000,0.000000,0.000000,0.000000,0.200555,0.406087,0.020445,0.163559,0.000000,206.000000,203.000000,3.000000,24.000000,0.000000,0.000000,0.000000,0.000000,0.000000;
#CREDIT:Karl with a K;
#NOTES:
0000
0000
0000
0000
,
0000
0000
0000
0000
,
0000
0000
0000
0000
,
0000
0000
0000
0000
,
0000
0000
0000
0000
,
0000
0000
0000
0000
,
0000
0000
0000
0000
,
0000
0000
0000
0000
,
0000
0000
0000
0000
,
0000
0000
0000
0000
,
0000
0000
0000
0000
,
1000
0000
0000
0000
0000
0000
0000
1000
,
0000
0000
0000
1000
0000
0000
0000
0000
,
0000
1000
0000
0001
,
0000
0000
0000
0000
0000
0001
0000
0000
,
0000
0001
0000
0000
0000
0000
0000
0000
,
0001
1000
0001
0000
,
0000
0000
0000
0001
0000
0000
0000
0001
,
0000
0000
0000
0001
,
0000
1000
0000
0000
,
0000
1000
0000
0000
0000
1000
0000
0000
,
0010
0000
0010
0010
,
1000
0000
0000
0000
0000
0000
0000
0001
,
0000
0000
0000
1000
0000
0000
0000
0000
,
0000
0001
0000
1000
,
0000
0000
0000
0000
0000
0001
0000
0000
,
0000
1000
0000
0000
0000
0000
0000
0000
,
0001
0000
0100
0000
,
0000
0000
0000
0010
0000
0000
0000
0100
,
0000
0000
0000
0010
,
0000
0100
0000
0000
,
0000
0010
0000
0000
0000
0100
0000
0000
,
0010
1000
0010
0010
,
1000
0000
0000
0000
0000
0000
0000
0001
,
0000
0000
0000
1000
0000
0000
0000
0000
,
0000
0001
0000
1000
,
0000
0000
0000
0000
0000
0001
0000
0000
,
0000
1000
0000
0000
0000
0000
0000
0000
,
0001
0000
0010
0000
,
0000
0000
0000
0100
0000
0000
0000
0010
,
0000
0000
0000
0100
,
0000
0010
0000
0000
,
0000
0100
0000
0000
0000
0010
0000
0000
,
0100
1000
0100
0100
,
2000
0000
0000
0000
,
0000
0000
0000
3002
0000
0000
0000
0000
,
0000
0000
0000
0203
,
0000
0000
0000
0000
,
0000
0320
0000
0000
0000
0000
0000
0000
,
0000
0000
2030
0000
,
0000
0000
0000
0000
0000
0000
0000
3002
,
0000
0000
0000
0000
,
0000
0023
0000
0000
,
0000
0000
0000
0000
0000
0230
0000
0000
,
0000
0000
0000
0000
,
1300
0000
0000
0000
,
1000
0000
0000
0000
,
1000
0000
0000
0001
,
0000
0000
0000
0001
,
0000
0000
0000
0001
,
0000
0000
1000
0000
,
0000
0000
1000
0000
,
0000
0000
0001
0000
,
0000
0000
0001
0000
,
0000
0000
0100
0000
,
0000
0000
0100
0100
,
0002
0000
0000
0000
,
0000
0000
0000
2003
0000
0000
0000
0000
,
0000
0000
0000
3020
,
0000
0000
0000
0000
,
0000
0230
0000
0000
0000
0000
0000
0000
,
0000
0000
0302
0000
,
0000
0000
0000
0000
0000
0000
0000
2003
,
0000
0000
0000
0000
,
0000
3200
0000
0000
,
0000
0000
0000
0000
0000
0320
0000
0000
,
0000
0000
0000
0000
,
0032
0000
0000
0000
,
0000
0000
0000
0000
,
0000
0000
0000
0000
,
0000
0000
0000
0000
,
2003
0000
0000
0000
,
0000
0000
0000
0000
,
0000
0000
0000
0000
,
0000
0000
3000
0000
,
1000
0000
1000
0000
,
1000
0000
1000
0000
,
0000
0010
0000
0010
,
0000
0100
0000
0010
,
0000
0000
0010
0000
,
0010
0000
0100
0000
,
0010
0000
0000
0010
,
0000
0010
0000
0100
,
0000
0010
0000
0000
,
1000
0000
1000
0000
,
0100
0000
1000
0000
,
0000
1000
0000
1000
,
0000
0100
0000
1000
,
0000
0000
1000
0000
,
1000
0000
0100
0000
,
1000
0000
0000
1000
,
0000
1000
0000
0100
,
0000
1000
0000
0000
,
0010
0000
0010
0000
,
0100
0000
0010
0000
,
0000
0010
0000
0010
,
0000
0100
0000
0010
,
0000
0000
0010
0000
,
0010
0000
0100
0000
,
0010
0000
0000
0010
,
0000
0010
0000
0100
,
0000
0001
0000
0000
,
0010
0000
0010
0000
,
0001
0000
0010
0000
,
0000
0010
0000
0010
,
0000
0001
0000
0010
,
0000
0000
0010
0000
,
0010
0000
0001
0000
,
0010
0000
0000
0010
,
0000
0010
0000
0001
,
0000
0010
0000
0000
,
0000
0000
0000
0000
,
0000
0000
0000
0000
,
0000
0000
0000
0000
,
0000
0000
0000
1000
,
0000
0100
0000
0000
0000
1000
0000
0000
,
0000
0001
0000
0001
0000
0000
0100
0000
,
0000
0001
0000
1000
,
1000
0000
0000
0010
0000
0000
0000
1000
,
0000
0000
0000
0001
0000
0001
0000
0000
,
0010
0000
0001
0000
,
1000
0000
1000
0000
0000
0100
0000
0000
,
0000
1000
0000
0000
0000
0001
0000
0001
,
0000
0100
0000
0001
,
0000
0000
1000
0000
1000
0000
0000
0010
,
0000
0000
0000
1000
0000
0000
0000
0001
,
0000
0001
0000
0000
0010
0000
0000
0000
,
0001
0000
1000
1000
,
0000
0100
0000
0000
0000
0010
0000
0000
,
0000
0001
0000
0001
0000
0000
0100
0000
,
0000
0010
0000
1000
,
1000
0000
0000
0010
0000
0000
0000
0100
,
0000
0000
0000
0001
0000
0001
0000
0000
,
0010
0000
0100
0000
,
1000
2002
0000
0000
,
0000
0000
0000
0000
,
0000
0000
0000
0000
,
0000
0000
0000
0000
,
0000
0000
0000
3003
,
0000
0000
0000
0000
,
0000
0000
0000
2002
,
0000
0000
0000
0000
,
0000
0000
0000
0000
,
0000
0000
0000
0000
,
0000
0000
0000
0000
,
0000
3003
0000
0000
,
0000
0000
0000
0000
,
0000
0220
0000
0000
,
0000
0000
0000
0000
,
0000
0000
0000
0000
,
0000
0000
0000
0000
,
0000
0000
0000
0000
,
0000
0000
0000
0000
,
0000
0000
0000
0000
,
0000
0000
0000
0000
,
0000
0000
0000
0000
,
0000
0000
0000
0000
,
0000
0000
0000
0000
,
0000
0000
0000
0000
,
0000
0000
0000
0000
,
0000
0330
0000
0000
;
