#VERSION:0.83;
#TITLE:Aurora;
#SUBTITLE:(Karl with a K Colour Djent Bootleg);
#ARTIST:Synthion;
#TITLETRANSLIT:;
#SUBTITLETRANSLIT:;
#ARTISTTRANSLIT:;
#GENRE:;
#ORIGIN:;
#CREDIT:;
#BANNER:Aurora (Karl with a K Colour Djent Bootleg) banner.png;
#BACKGROUND:Aurora (Karl with a K Colour Djent Bootleg) bg.png;
#PREVIEWVID:;
#JACKET:Aurora (Karl with a K Colour Djent Bootleg) jk.png;
#CDIMAGE:;
#DISCIMAGE:;
#LYRICSPATH:;
#CDTITLE:;
#MUSIC:Aurora (Karl with a K Colour Djent Bootleg).ogg;
#OFFSET:-0.025000;
#SAMPLESTART:30.340788;
#SAMPLELENGTH:15.000000;
#SELECTABLE:YES;
#BPMS:0.000=95.000,
80.000=190.000,
221.000=95.000,
255.000=190.000;
#STOPS:;
#DELAYS:;
#WARPS:;
#TIMESIGNATURES:0.000=4=4;
#TICKCOUNTS:0.000=4;
#COMBOS:0.000=1;
#SPEEDS:0.000=1.000=0.000=0,
64.000=2.000=4.000=0,
80.000=0.500=0.000=0,
81.000=1.000=3.000=0,
144.000=0.250=4.000=0,
148.000=1.000=4.000=0,
237.000=2.000=4.000=0,
253.000=0.250=0.000=0,
253.125=1.000=1.875=0,
311.000=0.500=15.000=0,
326.000=1.000=12.000=0;
#SCROLLS:0.000=1.000,
251.000=0.000,
251.250=2.000,
251.500=0.000,
251.750=2.000,
252.000=0.000,
252.250=2.000,
252.500=1.000,
253.000=0.000,
254.500=2.000,
255.000=1.000,
314.000=0.000,
314.250=2.000,
314.500=0.000,
314.750=2.000,
315.000=1.000,
322.000=0.000,
322.250=2.000,
322.500=0.000,
322.750=2.000,
323.000=1.000;
#FAKES:;
#LABELS:0.000=Song Start;
#BGCHANGES:;
#KEYSOUNDS:;
#ATTACKS:
;

//---------------dance-single - XO DS JA- XMOD BU- RH- TS- JU-----------------
#NOTEDATA:;
#CHARTNAME:;
#STEPSTYPE:dance-single;
#DESCRIPTION:XO DS JA- XMOD BU- RH- TS- JU-;
#CHARTSTYLE:;
#DIFFICULTY:Challenge;
#METER:17;
#RADARVALUES:0.675620,1.252670,0.266153,0.464062,0.675620,693.000000,654.000000,39.000000,68.000000,11.000000,0.000000,0.000000,0.000000,0.000000,0.675620,1.252670,0.266153,0.464062,0.675620,693.000000,654.000000,39.000000,68.000000,11.000000,0.000000,0.000000,0.000000,0.000000;
#CREDIT:Karl with a K;
#NOTES:
// measure 0
0000
0000
0000
0000
,  // measure 1
0000
0000
0000
0000
,  // measure 2
0000
0000
0000
0000
,  // measure 3
0000
0000
0000
0000
,  // measure 4
1000
0100
0210
0302
0103
2000
3001
0000
,  // measure 5
1000
0010
0100
0002
0000
0203
0000
2300
0000
0000
3200
0000
0301
0000
0000
0000
,  // measure 6
0001
0010
0100
2000
0000
3200
0000
0302
0000
0103
0010
0100
1000
0001
0100
0001
,  // measure 7
0200
0000
0000
0000
0310
0000
0002
0000
0010
0000
0000
0000
2003
0000
0000
0000
3000
0000
0100
0000
0010
0000
1000
0000
0001
0010
0100
0000
1000
0000
0001
0000
,  // measure 8
2000
0000
3020
0000
,  // measure 9
0230
1000
0302
0203
,  // measure 10
0302
0000
0023
0000
,  // measure 11
0230
0000
0000
0000
0000
0000
0000
0000
0001
0000
0000
0000
0000
0000
0000
0000
2300
0000
0000
0000
0000
0000
0000
0000
3000
0000
0000
0000
0010
0100
0001
0000
,  // measure 12
2000
0000
0000
0000
0000
0000
0000
0000
3001
0020
0000
0130
1000
0020
0000
0000
,  // measure 13
0230
0000
0000
0000
1000
0000
0000
0000
0302
0000
0100
0000
0013
0100
0020
0000
,  // measure 14
0032
0000
0000
0000
0000
0000
0000
0000
1003
0000
0010
1000
0001
0010
0100
0000
,  // measure 15
0200
0000
0000
0000
0000
0000
0000
0000
0001
0000
0000
0000
0000
0000
0000
0000
0310
0001
0010
0001
0010
0001
0010
0001
0010
0000
0000
0000
0100
1000
0100
0000
,  // measure 16
2000
0001
0010
0001
3020
0100
1000
0130
,  // measure 17
2001
0000
0000
0000
0100
0000
0000
0000
0001
0000
0000
0000
3100
0000
0000
0000
1002
0000
0000
0000
0010
0000
0000
0000
0103
0000
0010
1000
0001
0000
0000
0000
,  // measure 18
1001
0000
1000
0010
1010
1000
0000
0001
0011
0000
0110
0000
1100
1000
0100
1000
,  // measure 19
0010
0000
0010
0000
0100
0000
0100
0000
0001
1000
0001
1000
0001
1000
0001
1000
0001
0010
0100
1000
0100
0010
0001
1000
0010
0100
0020
0000
0001
0000
0000
0000
,  // measure 20
M230
M000
0000
M000
M000
M000
0000
M000
M000
0000
M000
M000
0000
M000
0000
M000
,  // measure 21
0300
1001
0001
0010
0001
0100
0010
0100
,  // measure 22
0001
0010
0100
1000
0010
0100
0010
1000
,  // measure 23
0000
0000
0011
0000
0010
0000
1000
0000
0010
0000
0001
0000
1000
0010
0100
0001
,  // measure 24
0010
0000
0100
0000
1000
0000
0010
0000
0100
0010
0100
0000
0001
0000
1000
0000
,  // measure 25
0000
0000
1000
0001
1000
0001
0100
0000
0001
0000
0010
0000
0100
0000
0010
0000
,  // measure 26
0001
0010
0100
0000
0010
0000
0100
0000
1000
0000
0010
0000
1000
0000
0100
0000
,  // measure 27
0010
0100
0001
1000
0010
0001
1000
0010
,  // measure 28
0000
0000
1010
0000
0110
0000
0000
0000
1001
0000
1000
0100
0010
0001
0100
0000
,  // measure 29
0000
0000
1000
0100
0010
0000
1000
0000
0001
0010
0001
1000
0001
0000
0010
0000
,  // measure 30
0001
0100
0010
0002
0000
0013
1000
0001
,  // measure 31
0010
0000
0100
0001
0100
0000
1000
0000
0010
0000
0100
0000
0001
0000
0010
0000
,  // measure 32
0002
0010
0000
2003
0000
3010
0100
0001
,  // measure 33
0010
0001
0010
0000
0100
0000
0010
0000
0001
0000
1000
0000
0010
0000
0100
0000
,  // measure 34
0001
0010
0100
0010
1000
0010
0100
1000
,  // measure 35
0001
0000
0001
0000
0010
0100
0010
0100
1000
0001
0100
0010
1000
0100
1000
0000
,  // measure 36
2002
0000
0000
0000
,  // measure 37
0000
0000
0000
3003
,  // measure 38
0002
0000
0000
1000
2003
0000
0010
0000
,  // measure 39
3010
0000
0000
0100
0000
0000
0010
0000
0000
0100
0000
0000
0001
0000
0000
0100
0000
0000
0010
0000
0000
0100
0000
0000
0001
0000
0000
1000
0000
0000
0100
0000
0000
0010
0000
0000
0001
0000
0000
0000
0010
0000
0000
0000
0100
0000
0000
0000
,  // measure 40
0220
0000
0330
0000
1000
0100
0000
1000
0100
0000
0000
1000
0001
0000
0100
0001
,  // measure 41
0000
0000
0010
0001
0000
0000
0010
0100
0001
0000
0100
0010
0000
0001
0100
0000
,  // measure 42
0000
0010
1000
0000
0010
0100
0000
0010
0001
0000
0000
0010
1000
0000
0000
0001
,  // measure 43
0010
0000
0220
0000
0330
0000
2002
0000
3003
0000
0001
0000
1000
0100
0000
0000
,  // measure 44
0100
0010
0000
0001
0100
0000
0001
0010
0000
0000
0001
0010
0000
0100
1000
0000
,  // measure 45
0000
1000
0010
0000
1000
0100
0000
1000
0001
0000
0100
0001
0000
0100
0010
0000
,  // measure 46
0000
0010
1000
0000
0001
1000
0000
0000
0001
1000
0000
0100
0010
0000
0000
0000
,  // measure 47
0011
0000
0001
0100
0010
1000
0001
0000
0100
0000
0010
1000
0000
0010
1000
0000
,  // measure 48
0001
0000
0010
0000
0100
0010
0000
0100
0010
0001
0000
1000
0000
0010
0000
1000
,  // measure 49
0010
0100
0000
0010
0100
0000
0001
0010
0000
0100
1000
0000
0010
0100
0000
0001
,  // measure 50
0010
0001
0000
1000
0001
0000
1000
0010
1000
0000
0100
0000
0010
0000
0100
0000
,  // measure 51
0001
0000
0000
0100
0000
0000
1000
0000
0000
0000
1000
0000
0010
0000
0000
0000
0100
0000
0001
0000
0000
0000
0001
0000
,  // measure 52
0010
0001
0000
1000
0010
0000
1000
0100
0010
0001
0010
0000
,  // measure 53
0010
0000
0001
1000
0010
0000
0010
0001
0000
0001
0000
0001
,  // measure 54
0010
1000
0000
0100
0010
0001
0100
0010
0001
0010
0100
0001
,  // measure 55
0010
0000
1000
0000
0010
0000
0002
0000
0000
0000
0000
0000
0000
0000
0000
0020
0000
0000
0000
0000
0000
0000
0000
0000
,  // measure 56
0000
0030
2003
0000
0000
0020
0000
0000
,  // measure 57
0000
0030
3002
0000
0000
0000
0000
0000
,  // measure 58
0000
0003
0200
0302
,  // measure 59
0023
0000
0000
0000
0032
0000
0100
0000
1000
0000
0103
0010
2000
0000
0100
0000
,  // measure 60
0001
0000
0100
0000
3020
0000
0001
0000
0100
0000
1030
0100
0020
0000
1000
0000
,  // measure 61
0100
0000
0031
0000
1000
0000
0010
0000
0100
0000
0001
0000
1000
0100
0010
0100
,  // measure 62
1000
0000
0100
0000
0010
0000
0100
0000
1000
0001
0010
0001
1000
0010
1000
0001
0010
0100
1000
0100
0010
0001
1000
0000
0110
0000
0000
0000
1001
0000
0000
0000
,  // measure 63
0110
0000
0000
0000
1000
0010
0100
0000
0000
0000
0000
0000
0000
0000
0000
0000
0000
0000
0000
0000
0000
0000
0000
0000
0010
0000
0100
0000
0010
0000
0100
0000
,  // measure 64
0010
0000
0000
1000
0000
0000
0001
0000
0000
1000
0000
0000
0100
0000
0000
0000
0001
0000
0000
0000
1000
0000
0000
0000
0010
0000
0000
0000
0001
0000
0000
0000
1000
0000
0000
0000
0010
0000
0000
0000
0000
0000
0100
0000
0000
0000
0000
0000
,  // measure 65
0001
0100
0010
0100
0001
0000
2001
0000
,  // measure 66
3100
0001
0100
1000
0001
0000
1001
0000
,  // measure 67
1000
0100
0010
0100
1000
0000
1002
0000
,  // measure 68
0103
1000
0100
0001
1000
0000
2001
0000
,  // measure 69
3100
0000
1000
0001
0100
1000
0001
0010
,  // measure 70
1000
0000
0100
0000
0010
0000
1000
0000
0010
0100
1000
0000
1001
0000
0000
0000
,  // measure 71
1000
0100
0001
0100
1000
0001
0100
1000
,  // measure 72
0100
0001
0010
0100
0001
0100
1000
0000
,  // measure 73
1000
0010
0001
0010
1000
0001
0010
1000
,  // measure 74
0010
0001
0100
0010
0001
0010
1000
1000
,  // measure 75
0010
0010
0100
0100
0001
0001
0010
0010
,  // measure 76
0100
0000
0100
0000
1000
0000
1000
0000
0001
0000
0001
0000
1000
0010
1000
0001
,  // measure 77
0010
0100
1000
0001
0010
0001
1000
0010
0100
0001
0010
0000
0021
0000
0000
0000
,  // measure 78
0100
0000
0031
0000
0001
1000
1020
0000
,  // measure 79
0100
1000
0031
0021
,  // measure 80
0100
0000
1030
0000
0100
0001
0201
0000
,  // measure 81
0010
1300
1010
0101
,  // measure 82
0011
1100
1001
0110
,  // measure 83
1001
0000
0110
0000
1000
0100
1000
0100
,  // measure 84
0010
0000
0001
0000
0010
0000
0001
0000
1000
0010
0100
0001
0100
0010
1000
0000
,  // measure 85
1001
0000
0000
0000
0000
0000
0001
1000
0001
1000
0000
0000
0000
0000
0000
0000
0000
0000
0000
0000
0000
0000
0000
0000
;

//---------------dance-single - XO DS JA XMOD RH- TS- JU-----------------
#NOTEDATA:;
#CHARTNAME:;
#STEPSTYPE:dance-single;
#DESCRIPTION:XO DS JA XMOD RH- TS- JU-;
#CHARTSTYLE:;
#DIFFICULTY:Hard;
#METER:14;
#RADARVALUES:0.471862,0.640901,0.136489,0.545956,0.242268,484.000000,464.000000,20.000000,80.000000,0.000000,0.000000,0.000000,0.000000,0.000000,0.471862,0.640901,0.136489,0.545956,0.242268,484.000000,464.000000,20.000000,80.000000,0.000000,0.000000,0.000000,0.000000,0.000000;
#CREDIT:Karl with a K;
#NOTES:
// measure 0
0000
0000
0000
0000
,  // measure 1
0000
0000
0000
0000
,  // measure 2
0000
0000
0000
0000
,  // measure 3
0000
0000
0000
0000
,  // measure 4
2000
0000
3100
0020
0000
0230
1300
0000
,  // measure 5
0002
0000
0103
0020
0000
2030
0000
3002
0000
0000
2003
0000
3001
0000
0000
0000
,  // measure 6
2000
0000
3100
0020
0000
0032
0000
2003
0000
0000
3002
0000
1003
0000
1000
0000
,  // measure 7
0002
0000
0000
0203
0000
0000
0320
0000
0000
0000
0000
0000
2030
0000
0000
0000
,  // measure 8
3002
0000
0023
0000
,  // measure 9
0230
2300
3020
0100
,  // measure 10
2030
0000
3020
0000
,  // measure 11
0230
0000
0302
0000
0023
0000
0030
0001
,  // measure 12
2002
0000
0000
0000
0000
0000
3000
0000
2003
0010
0000
3000
2000
0010
0000
0000
,  // measure 13
3200
0000
0000
0000
2300
0000
0000
0000
3020
0000
1000
0000
1030
0001
0000
0000
,  // measure 14
2002
0000
0000
0003
3002
0010
0010
0010
,  // measure 15
0203
0000
0000
0000
0302
0000
0000
0000
1003
0100
0010
0001
1000
0000
0001
0000
,  // measure 16
1002
0100
0100
0103
,  // measure 17
2001
0000
0000
0000
3100
0000
0000
0000
1001
0000
0000
0000
1000
0100
0010
0000
,  // measure 18
0002
0000
0100
0000
1003
0100
1000
0000
0002
0000
0010
0000
1003
0010
0000
1000
,  // measure 19
0001
0000
0010
0000
0100
1000
0010
0100
0010
0000
0100
0000
0002
0000
0003
0000
,  // measure 20
2002
0000
0000
0000
,  // measure 21
3003
1000
0100
0010
0100
0000
1100
0000
,  // measure 22
1000
0010
1000
0000
0001
0010
0001
0100
,  // measure 23
0000
0001
0010
1000
0010
0001
1000
1000
,  // measure 24
0010
0100
0001
0000
0010
0010
0001
0100
,  // measure 25
0000
0001
0001
0100
0001
0000
0100
0010
,  // measure 26
0000
0100
0001
1000
0001
0000
1001
0000
,  // measure 27
1000
0100
0001
0100
1000
0010
0100
0001
,  // measure 28
0000
0010
1000
0010
0001
0010
0001
0100
,  // measure 29
0000
0001
0001
0100
0001
0100
0010
1000
,  // measure 30
0001
0000
0010
0200
0000
1300
0010
0100
,  // measure 31
0001
0010
0010
0001
0010
0001
0100
0010
,  // measure 32
1000
0002
0000
0203
0000
0301
0010
0001
,  // measure 33
1000
1000
0100
0010
1000
0010
0001
0100
,  // measure 34
0000
0001
0100
0000
1000
0100
0001
0000
,  // measure 35
1000
0010
0100
0010
0001
0010
0100
0001
,  // measure 36
2000
0000
0000
0000
,  // measure 37
0000
0000
0000
0000
,  // measure 38
3020
0000
2030
0000
,  // measure 39
3002
0010
2003
3100
,  // measure 40
1001
0000
0000
0000
0001
0000
0000
0001
0100
0000
0000
0010
0000
0000
0010
0000
,  // measure 41
0000
0000
0100
0000
0000
0000
0001
0000
0010
0000
0001
0000
0000
0001
0000
0000
,  // measure 42
0000
0010
0000
0000
0010
0000
0000
0100
0000
0000
0000
1000
0000
0000
0000
1000
,  // measure 43
0010
0002
0000
0023
0000
2030
3001
0000
,  // measure 44
1000
0000
0000
1000
0100
0000
0010
0000
0000
0000
0010
0000
0000
0100
0000
0000
,  // measure 45
0000
1000
0000
0000
0010
0000
0000
1000
0000
0000
1000
0000
0000
0010
0000
0000
,  // measure 46
0000
0100
0000
0000
0100
0000
0000
0000
0001
0000
0000
0000
0011
0000
0000
0000
,  // measure 47
1010
0000
1000
0000
0100
0000
0010
0000
0001
0000
0100
0000
0000
0100
0000
0000
,  // measure 48
0001
0000
1000
0000
0100
0000
0000
0100
0010
0000
0000
0010
0000
0001
0000
1000
,  // measure 49
0010
0000
0000
0010
0100
0000
0001
0000
0000
0001
0000
0000
0010
0000
0000
0010
,  // measure 50
0100
0000
0000
0100
1000
0000
0001
0000
0001
0000
0100
0000
0001
0000
0000
0000
,  // measure 51
0010
0000
0000
0001
0000
0001
1000
0000
1000
0010
0000
0010
,  // measure 52
0000
0010
0000
0010
1000
0000
0100
0010
0100
0000
0010
0000
,  // measure 53
0010
0000
0010
0001
0000
0000
0001
1000
0000
0001
0000
1000
,  // measure 54
0000
0001
0000
1000
0100
0010
0001
0010
0100
1000
0001
0100
,  // measure 55
0001
0100
0010
2000
0000
0000
0000
0000
0000
0000
0000
0000
,  // measure 56
0000
0000
0000
0000
,  // measure 57
0000
3002
0000
0000
,  // measure 58
0000
0003
2000
3200
,  // measure 59
1300
0000
0201
0001
0301
0000
1200
1000
,  // measure 60
1300
0000
0021
0001
0031
0000
1020
1000
,  // measure 61
1030
0000
1000
0100
0010
0001
0100
0010
,  // measure 62
1000
0000
0001
0000
1000
0100
1000
0001
0100
0001
1000
0000
1010
0000
1010
0000
,  // measure 63
1010
0000
0020
0030
0000
0000
0000
0000
0000
0000
0000
0000
1000
0000
1000
0000
,  // measure 64
1000
0000
0000
1000
0000
0000
0001
0000
0010
0000
0100
0000
1000
0000
0010
0000
0100
0000
0002
0000
0000
0000
0000
0000
,  // measure 65
0100
2003
0100
3020
,  // measure 66
0130
1000
0001
0010
1000
0000
2000
0000
,  // measure 67
0100
3002
0100
0023
,  // measure 68
0031
1000
0001
0100
0001
0000
2000
0000
,  // measure 69
0100
3002
0100
0023
,  // measure 70
0130
0001
1000
0010
0001
0100
0001
0000
,  // measure 71
1000
0100
0001
0100
1000
0000
0001
0100
,  // measure 72
1000
0100
0001
0000
1001
0000
0110
0000
,  // measure 73
0001
0100
1000
0100
0001
0000
1000
0100
,  // measure 74
0001
1000
0001
0100
1000
0000
0001
0010
,  // measure 75
1000
0010
0001
1000
0010
0001
0010
0100
,  // measure 76
0001
0010
0100
1000
0010
0100
0001
0001
,  // measure 77
1000
0000
1000
0000
0100
0000
0100
0000
0010
0001
0010
0001
2000
0000
0000
0000
,  // measure 78
0100
0000
0100
0000
0001
0001
3002
0000
,  // measure 79
0100
0100
0003
0002
,  // measure 80
0100
0000
0100
0000
1000
1000
2003
0000
,  // measure 81
0100
3100
0010
0001
,  // measure 82
0100
0010
1000
0100
,  // measure 83
0001
0000
0100
0000
1000
0010
1000
0010
,  // measure 84
0001
0000
1000
0000
0100
0000
0001
0000
0010
0000
0100
0000
1000
0100
0010
0100
,  // measure 85
1000
0000
0020
0030
0000
0000
0000
0000
;

//---------------dance-single - ----------------
#NOTEDATA:;
#CHARTNAME:;
#STEPSTYPE:dance-single;
#DESCRIPTION:;
#CHARTSTYLE:;
#DIFFICULTY:Medium;
#METER:11;
#RADARVALUES:0.349022,0.699165,0.129665,0.375345,0.054596,358.000000,339.000000,19.000000,55.000000,0.000000,0.000000,0.000000,0.000000,0.000000,0.349022,0.699165,0.129665,0.375345,0.054596,358.000000,339.000000,19.000000,55.000000,0.000000,0.000000,0.000000,0.000000,0.000000;
#CREDIT:Karl with a K;
#NOTES:
0000
0000
0000
0000
,
0000
0000
0000
0000
,
0000
0000
0000
0000
,
0000
0000
0000
0000
,
2000
0000
0000
3020
0000
0230
0000
0000
,
0302
0000
0000
0000
0000
0000
0000
0023
0000
0000
0230
0000
0000
0000
0000
0000
,
2300
0000
0000
3020
0000
0230
0000
0302
0000
0000
0013
0000
0001
0000
0000
0000
,
2000
0000
0000
3020
0000
0000
1030
0000
,
2000
0000
3020
0000
,
0130
0001
0010
0001
,
0002
0000
0023
0000
,
0130
1000
0010
0000
,
2002
3000
2003
0000
,
3200
0000
0320
0000
0032
0000
0013
0001
,
2000
0000
3002
0000
,
0203
0320
2030
3000
,
2002
0000
0000
3003
,
0220
0000
0330
0000
1001
0000
0010
0100
,
1001
1000
1100
0100
0110
0010
0011
0001
,
0101
0110
1010
0110
0000
0000
0010
1001
,
2000
0000
0000
0000
,
3000
0001
0010
0000
0001
0000
0100
0000
,
0001
0000
1000
0000
0001
0010
0100
0000
,
1000
0000
0010
0000
0100
0010
1000
0000
,
0001
0000
1000
0000
0001
0010
0001
0000
,
1000
0010
0100
0000
0001
0000
0010
0000
,
0100
0010
0001
0000
1000
0000
0001
0000
,
0010
0001
1000
0000
0010
1000
0001
1000
,
0000
0010
0010
0000
1000
0010
1000
0010
,
0000
1000
1000
0000
0001
0000
0100
0000
,
0001
0000
0010
0100
0000
1000
0001
1000
,
0000
1000
0010
1000
0010
0000
0100
0001
,
0010
0100
0000
1000
0000
0100
1000
0000
,
0001
0010
0001
0000
1000
0000
0010
0000
,
0000
0100
0010
0000
1000
0000
0100
0000
,
0010
0100
0010
0000
0100
1000
0010
0000
,
0220
0000
0000
0000
,
0000
0000
0000
0330
,
2000
0000
3200
0000
,
0320
0000
0031
0001
,
1000
0000
0000
0000
0001
0000
0000
0000
0100
0000
0000
0001
0000
0000
0100
0000
,
0000
0000
0001
0000
0000
0000
1000
0000
0000
0000
0100
0000
0000
1000
0000
0000
,
0000
0010
0000
0000
1000
0000
0000
0001
0000
0000
0000
0000
0010
0000
0000
0000
,
0001
0010
0000
0010
0000
0010
0001
0000
,
1000
0000
0000
0100
0000
0000
1000
0000
0000
0000
0100
0000
0000
1000
0000
0000
,
0000
0001
0000
0000
0100
0000
0000
0001
0000
0000
0010
0000
0000
0001
0000
0000
,
0000
1000
0000
0000
0010
0000
0000
0000
1000
0000
0000
0000
1001
0000
0000
0000
,
0110
1100
1000
0100
,
0010
0100
1000
0001
,
0100
0010
0100
0001
,
0010
0100
1000
0010
,
0010
1000
1000
1000
,
0100
0001
0001
0001
,
0100
1000
0010
0001
,
1000
0100
0001
0010
,
0100
2002
0000
0000
,
0000
0000
0000
0000
,
3003
2000
0000
0000
,
0000
3000
0100
1000
,
0001
0000
0020
0000
0130
1000
0020
0000
,
0130
0000
0020
0000
0130
0001
0020
0000
,
0130
0000
1000
0100
1000
0000
0001
0100
,
0001
0000
1000
0010
1000
0001
0010
0010
,
0010
0000
0000
0000
0000
0000
0001
1000
,
0001
0000
0000
1000
0001
1000
0001
0000
0000
1000
0000
0000
,
0100
0000
0010
0100
1000
0000
0001
0000
,
0100
0010
0100
0000
0001
0000
1000
0000
,
0010
0000
0100
0010
1000
0000
0001
0000
,
0010
0100
0010
0000
0001
0000
1000
0000
,
0100
0000
0010
0001
0010
0000
0001
0000
,
0100
0001
0100
0000
0110
0000
2000
0000
,
0100
0001
3100
2000
,
0010
0001
0010
3002
,
0100
1000
0103
0002
,
1000
0010
1003
0001
,
0001
0010
0010
0100
,
0100
0000
1000
0000
1000
0000
0010
0100
,
0010
0000
1000
0100
0010
0001
0200
0000
,
0010
0310
2000
3200
,
0010
0310
0000
0200
,
0010
0310
0002
0203
,
0010
0310
1000
1000
,
0001
0001
0010
0010
,
0100
0000
0100
0000
1000
0010
0100
0001
,
0010
0100
1000
0001
0010
0100
0010
0100
,
0010
0000
0200
0300
0000
0000
0000
0000
;

//---------------dance-single - ----------------
#NOTEDATA:;
#CHARTNAME:;
#STEPSTYPE:dance-single;
#DESCRIPTION:;
#CHARTSTYLE:;
#DIFFICULTY:Easy;
#METER:7;
#RADARVALUES:0.229106,0.290039,0.095542,0.286627,0.010237,235.000000,221.000000,14.000000,42.000000,0.000000,0.000000,0.000000,0.000000,0.000000,0.229106,0.290039,0.095542,0.286627,0.010237,235.000000,221.000000,14.000000,42.000000,0.000000,0.000000,0.000000,0.000000,0.000000;
#CREDIT:Karl with a K;
#NOTES:
0000
0000
0000
0000
,
0000
0000
0000
0000
,
0000
0000
0000
0000
,
0000
0000
0000
0000
,
1000
0000
0000
1000
0000
0000
0000
0000
,
0001
0000
0000
0001
0000
0000
0000
0000
,
0100
0000
0000
0100
0000
0000
0000
0000
,
0010
0000
0000
0010
0000
0000
0000
0000
,
2002
0000
0000
0000
,
0000
0000
0000
3003
,
0200
0000
0320
0000
,
0230
0000
0320
0030
,
1002
0000
0023
0000
,
0230
2300
3020
1030
,
2000
0000
3020
0000
,
0230
0302
0023
0030
,
0220
0000
0000
0330
,
0220
0330
0220
0330
,
1000
1000
0001
0001
,
0100
0010
0000
0000
,
0000
0000
0000
0000
,
0000
0010
1000
0001
,
1000
1000
0010
1000
,
0100
0010
0001
0001
,
1000
0100
0010
0100
,
1000
1000
0001
1000
,
0010
0100
0010
0100
,
0010
1000
0100
0010
,
0001
1001
0001
0100
,
0000
0110
0010
1000
,
0001
0010
0001
1000
,
0000
0010
0010
1000
,
0001
0000
0001
0000
,
1000
1000
0100
0010
,
0000
0001
0010
0001
,
1000
0010
0100
0001
,
2000
0000
0000
0000
,
0000
0000
0000
0000
,
3002
0000
0203
0000
,
0320
0000
2030
3000
,
1001
0000
1000
0000
,
0000
0100
0000
0000
0010
0000
0000
0000
,
0000
0001
0000
0000
0000
0000
0000
0000
1000
0000
0000
0000
0000
0000
0000
0000
,
0010
0000
0000
0010
0000
0000
1001
0000
,
0000
0000
0000
0000
0001
0000
0000
0000
0000
0000
0000
0000
0000
0100
0000
0000
,
0000
0000
0000
0000
0010
0000
0000
0000
0000
0000
0000
0000
0000
1000
0000
0000
,
0000
0001
0000
0010
,
0010
0010
0001
0100
,
0001
0000
1000
0100
,
1000
0000
0001
0010
,
0001
0000
1000
1000
,
1000
0001
0000
0010
,
0000
0100
0000
1000
,
0000
0010
0000
0100
,
0000
0001
1000
0001
,
1000
0002
0000
0000
,
0000
0000
0000
0000
,
0000
2003
0000
0000
,
0000
0000
0000
0000
,
0000
3020
0000
0230
,
0000
0320
0000
0230
,
0000
0301
0010
0100
,
1000
0000
0001
1000
0001
1000
0002
0000
,
0000
0003
0000
0000
0000
0000
0010
0000
,
0100
0010
0100
1000
,
0100
1000
0100
1000
,
0010
0100
0001
0001
,
0100
0001
0100
0010
,
1000
1000
0100
1000
,
0100
1000
0100
0010
,
0001
1000
0010
1000
,
1000
1000
0100
0001
,
0001
0001
0100
1000
,
1000
1000
0010
0001
,
0001
0010
1000
0001
,
0010
1000
0010
0001
,
0100
1000
0100
0001
,
0010
0100
1000
2002
,
0000
0000
3003
2002
,
0000
0000
3003
2002
,
0000
0000
3003
2002
,
0000
3003
1000
1000
,
0010
0010
0100
0100
,
0001
0001
0010
0100
,
1000
0010
1000
0100
,
0110
0000
0000
0000
;

//---------------dance-single - ----------------
#NOTEDATA:;
#CHARTNAME:;
#STEPSTYPE:dance-single;
#DESCRIPTION:;
#CHARTSTYLE:;
#DIFFICULTY:Beginner;
#METER:3;
#RADARVALUES:0.133564,0.203027,0.020473,0.020473,0.000000,137.000000,134.000000,3.000000,3.000000,0.000000,0.000000,0.000000,0.000000,0.000000,0.133564,0.203027,0.020473,0.020473,0.000000,137.000000,134.000000,3.000000,3.000000,0.000000,0.000000,0.000000,0.000000,0.000000;
#CREDIT:Karl with a K;
#NOTES:
0000
0000
0000
0000
,
0000
0000
0000
0000
,
0000
0000
0000
0000
,
0000
0000
0000
0000
,
1000
0000
0000
0000
,
0100
0000
0000
0000
,
0010
0000
0000
0000
,
0001
0000
0000
0000
,
2000
0000
0000
0000
,
0000
0000
0000
0000
,
3000
0000
0000
0000
,
0000
0000
0000
0000
,
1001
0000
0001
0000
,
0100
0000
0010
0000
,
1000
0000
0010
0000
,
0100
0000
0001
0000
,
0002
0000
0003
0000
,
0001
0000
0001
0000
,
1000
1000
1000
1000
,
1000
1000
0000
0000
,
0000
0000
0000
0000
,
0000
0000
1000
0000
,
0100
0000
0100
0000
,
0010
0000
0001
0000
,
1000
0000
1000
0000
,
0001
0000
0001
0000
,
0100
0000
0100
0000
,
0010
0000
1000
0000
,
0000
0001
0001
0000
,
0000
1000
1000
0000
,
0010
0000
0100
0000
,
0001
0000
0010
0000
,
0001
0000
0001
0000
,
0010
0000
0100
0000
,
1000
0000
0010
0000
,
0100
0100
0100
0000
,
1001
0000
0000
0000
,
0000
0000
0000
0000
,
0001
0000
0000
0000
,
0000
0000
0000
0000
,
1000
0000
0010
0000
,
0000
0000
1000
0000
,
0000
0000
0001
0000
,
0000
0000
0000
1000
,
0000
0010
0000
0000
,
0000
1000
0000
0000
,
0000
0001
0000
0010
,
0010
0000
0001
0000
,
0100
0000
0010
0000
,
1000
0000
0001
0000
,
1000
0000
0100
0100
,
0000
1000
0000
0100
,
0000
0010
0000
0001
,
0000
0010
0000
0100
,
0000
1000
0000
0001
,
0000
1001
0000
0000
,
0000
0000
0000
0000
,
0000
0000
0000
0000
,
0000
0000
0000
0000
,
0000
1000
0000
1000
,
0000
0001
0000
0001
,
0000
1000
1000
1000
,
0000
0001
0001
0001
,
0000
0000
0000
0000
,
0000
0000
0000
1000
,
0000
0100
0000
1000
,
0000
1000
0000
0001
,
0000
0100
0000
0001
,
0000
0001
0000
1000
,
0000
0100
0000
0010
,
0010
0010
0000
0001
,
0001
0001
0000
1000
,
1000
1000
0000
0100
,
0100
0100
0000
0010
,
0000
0010
0000
0001
,
0001
0001
0000
0100
,
0100
0100
0000
0010
,
0010
0010
0000
0020
,
0000
0000
0000
0000
,
0000
0000
0000
0000
,
0000
0000
0000
0000
,
0000
0030
1000
0000
,
1000
0000
0001
0000
,
0001
0000
0010
0000
,
0100
0000
1000
0001
,
1000
0000
0000
0000
;
