#VERSION:0.83;
#TITLE:AUSLÄNDER;
#SUBTITLE:;
#ARTIST:RAMMSTEIN;
#TITLETRANSLIT:;
#SUBTITLETRANSLIT:;
#ARTISTTRANSLIT:;
#GENRE:;
#ORIGIN:;
#CREDIT:;
#BANNER:AUSLANDER banner.png;
#BACKGROUND:AUSLANDER bg.png;
#PREVIEWVID:;
#JACKET:;
#CDIMAGE:;
#DISCIMAGE:;
#LYRICSPATH:;
#CDTITLE:;
#MUSIC:AUSLANDER.ogg;
#OFFSET:0.000000;
#SAMPLESTART:88.568001;
#SAMPLELENGTH:16.320007;
#SELECTABLE:YES;
#BPMS:0.000=125.000,
136.000=62.500,
152.000=125.000;
#STOPS:;
#DELAYS:;
#WARPS:;
#TIMESIGNATURES:0.000=4=4;
#TICKCOUNTS:0.000=4;
#COMBOS:0.000=1;
#SPEEDS:0.000=1.000=0.000=0;
#SCROLLS:0.000=1.000;
#FAKES:;
#LABELS:0.000=Song Start;
#BGCHANGES:;
#KEYSOUNDS:;
#ATTACKS:
;

//---------------dance-single - ----------------
#NOTEDATA:;
#CHARTNAME:;
#STEPSTYPE:dance-single;
#DESCRIPTION:;
#CHARTSTYLE:;
#DIFFICULTY:Medium;
#METER:10;
#RADARVALUES:0.307267,0.369221,0.217189,0.063055,0.066558,307.000000,276.000000,31.000000,9.000000,0.000000,0.000000,0.000000,0.000000,0.000000,0.307267,0.369221,0.217189,0.063055,0.066558,307.000000,276.000000,31.000000,9.000000,0.000000,0.000000,0.000000,0.000000,0.000000;
#CREDIT:Karl with a K;
#NOTES:
0000
0000
0000
0000
,
0000
0000
0000
0000
,
0000
0000
0000
0000
,
0000
0000
0000
0000
,
0000
0001
1000
0000
0000
0000
0000
0000
,
0000
0000
0000
0000
,
0000
0000
0000
0000
,
0000
0000
0000
0000
,
0000
0000
0001
0000
1000
0000
0000
0000
0010
0000
0000
1000
0000
0000
0100
0000
,
0000
0000
1000
0000
0001
0000
0000
0000
0100
0000
0000
0010
0000
0000
0100
0000
,
0000
0000
0001
0000
1000
0000
0000
0000
0001
0000
0000
0010
0000
0000
0001
0000
,
0000
0000
1000
0000
0001
0000
0000
0000
0010
0000
0000
0010
0000
0000
0100
0000
,
0000
0000
1000
0000
0001
0000
0000
0000
0010
0000
0000
0001
0000
0000
0100
0000
,
0000
0000
0001
0000
1000
0000
0000
0000
0100
0000
0000
0010
0000
0000
0100
0000
,
0000
0000
1000
0000
0001
0000
0000
0000
1000
0000
0000
0010
0000
0000
1000
0000
,
0000
0000
0001
0000
1000
0000
0000
0000
0010
0000
0000
0100
0000
0000
0001
0000
,
0002
0000
0000
0000
,
0000
0000
2000
0003
,
3001
0100
0001
0000
0100
0000
0001
0000
,
1000
0001
1000
0000
0100
0000
1000
0000
,
0001
1000
0001
0000
1000
0000
0010
0000
,
1000
0000
0001
0000
1000
0000
0000
0000
0001
0000
0000
0001
0000
0000
1000
0000
,
0001
1000
0001
0000
0010
0000
0001
0000
,
0010
0001
0010
0000
0001
0000
0100
0000
,
0010
0000
0100
0010
0000
1000
0000
0000
,
0001
0000
0000
0001
1000
0000
0001
0000
0100
0000
0000
0000
0020
0000
0030
0000
,
1000
1001
0001
1001
,
1000
1100
0010
0011
,
0001
0101
1000
1010
,
1000
0000
1100
0000
0010
0000
2002
3003
,
0001
0110
1000
0110
,
0100
1001
0010
1001
,
1000
0000
0100
1000
0010
0000
1000
0100
,
0000
0110
1001
0000
,
1000
0100
1000
0000
0001
0100
0001
0000
,
1000
0010
1000
0000
0001
0010
0001
0000
,
1000
0001
1000
0001
0100
0010
0100
0000
,
0010
0100
0010
0100
0001
1000
0001
0000
,
1000
0100
0010
0001
,
1000
0010
0100
0001
,
0001
0010
0100
1000
,
0001
0100
2002
0000
,
3003
0000
1001
0000
1001
0000
0000
0000
0010
0000
0000
1000
0000
0000
0100
0000
,
1000
0000
0001
0000
1000
0000
0000
0000
0010
0000
0000
0010
0000
0000
0010
0000
,
0000
1000
0100
0000
0010
0000
0001
0000
,
0100
0001
1000
0001
,
0100
0000
0000
0000
0001
0000
0000
0000
0010
0000
0000
0001
0000
0000
0100
0000
,
0001
0000
1000
0000
0001
0000
0000
0000
0010
0000
0000
0010
0000
0000
0010
0000
,
0000
0001
0100
0000
0002
0000
1003
0000
,
0010
1000
0001
0100
,
0001
0000
0000
0000
1000
0000
1000
0000
1000
0000
0000
0001
0000
0000
0100
0000
,
0000
0000
0100
0000
0001
0000
0000
0000
0010
0000
0000
0001
0000
0000
0100
0000
,
0000
0100
0001
0000
1000
0000
0001
0000
,
0010
0001
0010
0100
,
1000
0000
0000
0000
0001
0000
1000
0000
0001
0000
0000
1000
0000
0000
0100
0000
,
0000
0000
0100
0000
1000
0000
0000
0000
0010
0000
0000
1000
0000
0000
0100
0000
,
0000
0100
1000
0000
0010
0000
1000
0000
,
0001
0000
0100
0000
0010
0100
0010
0100
,
0020
1030
1001
1001
,
0010
0001
1001
1001
,
1000
0010
0110
0110
,
0001
0010
0110
0110
,
1000
0001
1000
0001
1000
0000
1001
0000
,
0001
1000
0001
1000
0001
0000
1001
0000
,
0100
0010
0100
0010
0100
0000
0110
0000
,
0010
0000
0100
0000
0010
0000
0000
0000
0110
0000
0000
0110
0000
0000
0110
0000
;

//---------------dance-single - ----------------
#NOTEDATA:;
#CHARTNAME:;
#STEPSTYPE:dance-single;
#DESCRIPTION:;
#CHARTSTYLE:;
#DIFFICULTY:Easy;
#METER:6;
#RADARVALUES:0.225196,0.253358,0.063055,0.021018,0.000000,225.000000,216.000000,9.000000,3.000000,0.000000,0.000000,0.000000,0.000000,0.000000,0.225196,0.253358,0.063055,0.021018,0.000000,225.000000,216.000000,9.000000,3.000000,0.000000,0.000000,0.000000,0.000000,0.000000;
#CREDIT:Karl with a K;
#NOTES:
0000
0000
0000
0000
,
0000
0000
0000
0000
,
0000
0000
0000
0000
,
0000
0000
0000
0000
,
0000
1001
0000
0000
,
0000
0000
0000
0000
,
0000
0000
0000
0000
,
0000
0000
0000
0000
,
0000
1001
0010
1000
,
0100
1000
0001
0010
,
0001
0100
0001
0010
,
0001
1000
0010
1000
,
0100
1000
0010
1000
,
0100
1000
0001
0010
,
0001
1000
0001
0010
,
0001
1000
0010
0100
,
2002
0000
0000
0000
,
0000
0000
0000
3003
,
1000
0100
0010
0000
,
0001
0100
0010
0000
,
1000
0001
0010
0000
,
0100
1000
0001
0000
,
0010
0001
1000
0000
,
0010
1000
0001
0000
,
1000
0001
1000
0000
,
0001
0010
0100
1001
,
0100
0001
0100
0010
,
0100
0001
0100
0010
,
1000
0010
1000
0001
,
1000
0010
1000
0001
,
1000
0100
1000
0010
,
1000
0100
1000
0010
,
1000
0001
1000
0100
,
1000
0001
1001
0000
,
0000
1000
0000
1000
0000
0001
0000
0001
,
0000
0010
0000
0010
0000
0100
0000
0100
,
0000
1000
0000
1000
0000
0001
0000
0001
,
0000
1000
0000
1000
0000
0010
0000
0010
,
1000
1000
1000
1000
,
0001
0001
0001
0001
,
0010
0010
0010
0010
,
0100
0100
0200
0000
,
0300
0100
0100
0000
0010
0000
0001
0000
,
0100
0100
0010
1000
,
0100
0100
0010
0001
,
0010
0100
0010
0100
,
1000
1000
0010
1000
,
0100
0100
0010
0001
,
0100
0100
0001
0100
,
0010
1000
0010
0100
,
0001
1000
1000
0001
,
0100
0001
0010
0001
,
1000
0100
0010
0001
,
0100
0010
1000
0010
,
1000
0001
0001
1000
,
0100
1000
0010
1000
,
0001
1000
0010
0100
,
0010
1000
0001
0010
,
0110
1001
1000
0100
,
1000
0010
1000
0001
,
0100
0010
0100
0001
,
0100
0010
0100
0001
,
1000
0010
0100
0010
,
1000
0010
0100
0010
,
1000
0100
0010
0001
,
1000
0100
0110
1001
;

//---------------dance-single - ----------------
#NOTEDATA:;
#CHARTNAME:;
#STEPSTYPE:dance-single;
#DESCRIPTION:;
#CHARTSTYLE:;
#DIFFICULTY:Beginner;
#METER:3;
#RADARVALUES:0.146127,0.230325,0.112097,0.000000,0.000000,146.000000,130.000000,16.000000,0.000000,0.000000,0.000000,0.000000,0.000000,0.000000,0.146127,0.230325,0.112097,0.000000,0.000000,146.000000,130.000000,16.000000,0.000000,0.000000,0.000000,0.000000,0.000000,0.000000;
#CREDIT:Karl with a K;
#NOTES:
0000
0000
0000
0000
,
0000
0000
0000
0000
,
0000
0000
0000
0000
,
0000
0000
0000
0000
,
0000
1000
0000
0000
,
0000
0000
0000
0000
,
0000
0000
0000
0000
,
0000
0000
0000
0000
,
0000
0001
0001
0001
,
0001
0000
1000
1000
,
1000
0000
0100
0100
,
0100
0000
0010
0010
,
0010
0000
1000
1000
,
1000
0000
0001
0001
,
0001
0000
0100
0100
,
0100
0000
0010
0010
,
0010
0000
0000
0000
,
0000
0000
0000
0000
,
1000
0000
0000
0000
,
0010
0000
0000
0000
,
1000
0000
0000
0000
,
0001
0000
0000
0000
,
0100
0000
0000
0000
,
0010
0000
0000
0000
,
1000
0000
0001
0000
,
0010
0010
0010
0010
,
0000
0001
0000
1000
,
0000
0001
0000
1000
,
0000
0010
0000
0100
,
0000
0010
0000
0100
,
0000
1000
0000
0001
,
0000
1000
0000
0001
,
0000
0100
0000
0010
,
0000
0100
0000
0010
,
0010
0000
0000
0000
,
0001
0000
0000
0000
,
1000
0000
0000
0000
,
0100
0000
0000
0000
,
1000
0000
0000
0000
,
0001
0000
0000
0000
,
1000
0000
0000
0000
,
0001
0000
0110
0000
,
0000
0000
1001
1001
,
1001
0000
0010
0010
,
0010
0000
0100
0100
,
0100
0000
1000
1000
,
1000
0000
1001
1001
,
1001
0000
0010
0010
,
0010
0000
0100
0100
,
0100
0000
0001
0001
,
0001
0000
1001
1001
,
1001
0000
0010
0010
,
0010
0000
1000
1000
,
1000
0000
0100
0100
,
0100
0000
1001
1001
,
1001
0000
0010
0010
,
0010
0000
0001
0001
,
0001
0000
0010
0010
,
0010
0000
0001
0000
,
1000
0000
0001
0001
,
0001
0000
1000
0000
,
0010
0000
1000
1000
,
1000
0000
0001
0000
,
0010
0000
0100
0100
,
0100
0000
0010
0000
,
0110
0000
1001
1001
;

//---------------dance-single - XO FS- JA- DS XMOD JU+----------------
#NOTEDATA:;
#CHARTNAME:old ESP;
#STEPSTYPE:dance-single;
#DESCRIPTION:XO FS- JA- DS XMOD JU+;
#CHARTSTYLE:;
#DIFFICULTY:Edit;
#METER:12;
#RADARVALUES:0.459399,0.507679,0.553481,0.238207,0.206680,459.000000,380.000000,79.000000,34.000000,0.000000,0.000000,0.000000,0.000000,0.000000,0.459399,0.507679,0.553481,0.238207,0.206680,459.000000,380.000000,79.000000,34.000000,0.000000,0.000000,0.000000,0.000000,0.000000;
#CREDIT:Karl with a K;
#NOTES:
0000
0000
0000
0000
,
0000
0000
0000
0000
,
0000
0000
0000
0000
,
0000
0000
0000
0000
,
0000
1001
1001
0000
0000
0000
0000
0000
,
0000
0000
0000
0000
,
0020
0000
0000
0000
,
0000
0000
0000
0000
,
0030
0000
1001
0000
1001
0000
0000
0000
0011
0000
0000
1000
0001
0000
0100
0000
,
0001
0000
1000
0000
1001
0000
0000
0000
1001
0000
0000
0010
1000
0000
0001
0000
,
1000
0000
0001
0000
1001
0000
0000
0000
1001
0000
0000
0010
0001
0000
1000
0000
,
0001
0000
1000
0000
1001
0000
0000
0000
1010
0000
0000
0010
1000
0000
0100
0000
,
0010
0000
0001
0000
1001
0000
0000
0000
1010
0000
0000
0001
1000
0000
0100
0000
,
1000
0000
0001
0000
1001
0000
0000
0000
1001
0000
0000
0010
0001
0000
1000
0000
,
0001
0000
1000
0000
1001
0000
0000
0000
1001
0000
0000
0010
1000
0000
0001
0000
,
1000
0000
0001
0000
1001
0000
0000
0000
0011
0000
0000
0010
0001
0000
0100
0000
,
0120
0100
0100
0100
,
0100
0100
0100
0130
,
1001
0000
1000
0000
0100
0000
0000
0000
1000
0000
0000
0100
0000
0000
1000
0000
,
0000
0000
0001
0000
0100
0000
0000
0000
0001
0000
0000
0100
0000
0000
0001
0000
,
0020
0000
0001
0000
0130
0000
0000
0000
1000
0000
0000
0100
0000
0000
1000
0000
,
0020
0000
1000
0000
0130
0000
0000
0000
0001
0000
0000
0100
0000
0000
0001
0000
,
0002
0000
0100
0000
1003
0000
0001
0000
1000
0000
0000
0100
0000
0000
1000
0000
,
2000
0000
0100
0000
3001
0000
1000
0000
0001
0000
0000
0100
0000
0000
0001
0000
,
1000
0000
0001
0000
0100
0000
0000
0000
0010
0000
0000
0100
0000
0000
0010
0000
,
1010
0000
0000
1000
0010
0000
0100
0000
0001
0000
0000
0000
0022
0000
0033
0000
,
0001
0000
0010
0000
0100
0000
1000
0000
0001
0000
0000
1000
0000
0000
0100
0000
,
1000
0000
0010
0000
0100
0000
0001
0000
1000
0000
0000
0001
0000
0000
0100
0000
,
0002
0000
0010
0000
1003
0000
0200
0000
1000
0000
0000
0310
0000
0000
0001
0000
,
2000
0000
0010
0000
3001
0000
0200
0000
0001
0000
0000
0310
1000
0000
1000
0000
,
0001
0000
0100
0000
0010
0000
1000
0000
0001
0000
0000
0010
0000
0000
0001
0000
,
1000
0000
0100
0000
0010
0000
0001
0000
1000
0000
0000
0010
0000
0000
1000
0000
,
0001
0000
0100
0001
0010
0000
0002
0100
,
1003
0000
0000
0000
0100
0000
0000
0000
0110
0000
0000
0100
0000
0000
0100
0000
,
0000
1000
0010
1000
0010
0000
0100
0000
0001
0000
0010
0001
0000
0000
1001
0000
,
0000
0001
0010
0001
0010
0000
0100
0000
1000
0000
0010
1000
0000
0100
0010
0000
,
0000
0001
1000
0001
1000
0000
0100
0000
1000
0010
0000
0010
0000
0000
1000
0000
,
0000
1000
0001
1000
0001
0000
0100
0000
0001
0000
0010
0010
0000
0001
1000
0000
,
0011
0101
1100
1010
,
0011
1010
1100
0101
,
1001
0000
1000
0000
0001
0000
1000
0000
0001
0000
0000
1000
0000
0000
0001
0000
,
1001
0001
1000
0001
0220
0000
0000
0000
,
0330
0000
1001
0000
1001
0000
0000
0000
0011
0000
0000
1000
0001
0000
0100
0000
,
0001
0000
1000
0000
1001
0000
0000
0000
0011
0000
0000
1010
0000
0000
0110
0000
,
0000
0001
1000
0000
2000
3002
0000
0023
,
0000
0001
0031
0000
0020
0000
0130
2000
,
0000
0000
3001
0000
1001
0000
0000
0000
1010
0000
0000
0001
1000
0000
0100
0000
,
1000
0000
0001
0000
1001
0000
0000
0000
1010
0000
0000
0011
0000
0000
0110
0000
,
0000
1000
0001
0000
2000
0000
3100
1000
,
0000
1000
0010
0001
0020
0000
0130
0001
,
0000
0000
1001
0000
1001
0000
1000
0100
0010
0000
0000
0001
1000
0000
0100
0000
,
1000
0000
0001
0000
1001
0000
0000
0000
0011
0000
0000
0110
0000
0000
1100
0000
,
0000
0100
1000
0000
0002
2003
0000
3020
,
0000
0000
1030
0001
1000
0000
0010
0000
0002
0000
0000
0000
0013
0000
2000
0000
,
0000
0000
3001
0000
1000
0000
0000
0000
0011
0000
0000
1000
0001
0000
0100
0000
,
0001
0000
1000
0000
1001
0000
0000
0000
1010
0000
0000
0110
0000
0000
0101
0000
,
0000
0100
0001
0000
0002
2003
0000
3020
,
0000
0000
1030
0000
0100
0000
0100
0000
0001
0000
0010
1000
0010
1000
0010
0000
,
0002
0000
0010
0000
1003
0000
0000
0000
1010
0000
0000
0110
0000
0000
0101
0000
,
0000
0000
1000
0000
0001
0000
0000
0000
0011
0000
0000
0110
0000
0000
1100
0000
,
2000
0000
0010
0000
3001
0000
0010
0000
0011
0000
0000
1000
0010
0000
0110
0000
,
0100
0000
0010
0000
1000
0000
0010
0000
1010
0000
0000
0011
0000
0000
0110
0000
,
0200
0000
0010
0000
1300
0000
0001
0000
0011
0000
0000
0010
0100
0000
1100
0000
,
1000
0000
0010
0000
0001
0000
0010
0000
1000
0000
0000
0110
0000
0000
0101
0000
,
0200
0000
0010
0000
0301
0000
1000
0000
1001
0000
0000
0100
0010
0000
0110
0000
,
0001
0000
0100
0000
1000
0000
0100
0000
0001
0000
0000
1001
0000
0000
1001
0000
;

//---------------dance-single - XO- DS- XMOD JU+----------------
#NOTEDATA:;
#CHARTNAME:;
#STEPSTYPE:dance-single;
#DESCRIPTION:XO- DS- XMOD JU+;
#CHARTSTYLE:;
#DIFFICULTY:Hard;
#METER:13;
#RADARVALUES:0.487424,0.623060,0.525457,0.049043,0.273237,487.000000,412.000000,75.000000,7.000000,0.000000,0.000000,0.000000,0.000000,0.000000,0.487424,0.623060,0.525457,0.049043,0.273237,487.000000,412.000000,75.000000,7.000000,0.000000,0.000000,0.000000,0.000000,0.000000;
#CREDIT:Karl with a K;
#NOTES:
0000
0000
0000
0000
,
0000
0000
0000
0000
,
0000
0000
0000
0000
,
0000
0000
0000
0000
,
0000
0110
1001
0000
0000
0000
0000
0000
,
0000
0000
0000
0000
,
0000
0000
0000
0000
,
0000
0000
0000
0000
,
0000
0000
0110
0000
1001
0000
0000
0000
1010
0000
0000
1000
0100
0000
1000
0000
,
0001
0000
0100
0000
1001
0000
0000
0000
0011
0000
0000
0001
0100
0000
0001
0000
,
1000
0000
0100
0000
1001
0000
0000
0000
0101
0000
0000
0001
0010
0000
0001
0000
,
1000
0000
0010
0000
1001
0000
0000
0000
1100
0000
0000
1000
0010
0000
1000
0000
,
0100
0000
0010
0000
1001
0000
0000
0000
0011
0000
0000
1000
0100
0000
1000
0000
,
0001
0000
0100
0000
1001
0000
0000
0000
1010
0000
0000
0001
0100
0000
0001
0000
,
1000
0000
0100
0000
1001
0000
0000
0000
1100
0000
0000
0001
0010
0000
0001
0000
,
1000
0000
0010
0000
1001
0000
0000
0000
0101
0000
0000
1000
0010
0000
1000
0000
,
0200
0010
0010
0010
,
0010
0010
0010
0010
,
1300
0000
0100
0000
0010
0000
0000
0000
0001
0000
0000
0100
0000
0000
0001
0000
,
0000
0000
1000
0000
0001
0000
0000
0000
1000
0000
0000
0100
0000
0000
1000
0000
,
0000
0000
0010
0000
1000
0000
0000
0000
0001
0000
0000
0010
0000
0000
0001
0000
,
1000
0000
0000
0010
0000
0000
0100
0000
0001
0000
0000
0010
0000
0000
0100
0000
,
1000
0000
0010
0000
0100
0000
0000
0000
0001
0000
0000
0010
0000
0000
0001
0000
,
0000
0000
1000
0000
0001
0000
0000
0000
1000
0000
0000
0010
0000
0000
1000
0000
,
0000
0000
0100
0000
1000
0000
0000
0000
0001
0000
0000
0100
0000
0000
0001
0000
,
1000
0000
0000
0100
0010
0000
0001
0000
0100
0000
0000
0000
0220
0000
0330
0000
,
0001
0000
0010
0000
0110
0000
0000
0000
1000
0000
0000
0010
0100
0000
0010
0000
,
1000
0000
0001
0000
1001
0000
0000
0000
0001
0000
0000
0010
0100
0000
0010
0000
,
0001
0000
0100
0000
0110
0000
0000
0000
1000
0000
0000
0100
0010
0000
0100
0000
,
1000
0000
0000
0100
0010
0000
0001
0000
1000
0000
0000
0010
0200
0000
0010
0000
,
0301
0000
0100
0000
0110
0000
0000
0000
1000
0000
0000
0001
0010
0000
0100
0000
,
1000
0000
0001
0000
1001
0000
0000
0000
0001
0000
0000
1000
0010
0000
0100
0000
,
0001
0000
0010
0000
0110
0000
0000
0000
0001
0000
0000
0100
0010
0000
0001
0000
,
0010
0000
0000
1000
0100
0000
0010
0000
0200
0000
0000
0001
0000
0000
0310
0000
,
0001
0000
0100
0000
0010
0000
0100
0000
0010
0000
0000
0000
0100
0000
0000
0000
0001
0000
0010
0000
0001
0000
0010
0000
0100
0000
0000
1000
0000
0000
0001
0000
,
1000
0000
0100
0000
0010
0000
0100
0000
0010
0000
0000
0000
0100
0000
0000
0000
1000
0000
0010
0000
1000
0000
0000
1000
0010
0000
0000
0100
0000
0000
0001
0000
,
1000
0000
0010
0000
0100
0000
0010
0000
0100
0000
0000
0000
0010
0000
0000
0000
1000
0000
0100
0000
1000
0000
0100
0000
0010
0000
0000
0001
0000
0000
1000
0000
,
0001
0000
0010
0000
0100
0000
0010
0000
0100
0000
0000
0000
0010
0000
0000
0000
0001
0000
0100
0000
0001
0000
0000
0100
0010
0000
0000
1000
0000
0000
0001
0000
,
1000
1000
0001
0001
,
0010
0010
0100
0100
,
1000
0000
0010
0000
0010
0000
0000
0000
0100
0000
0000
0100
0001
0000
0010
0000
,
0001
0010
0110
0000
2002
0000
0000
0000
,
3003
0000
0110
0000
1001
0000
0000
0000
0011
0000
0000
0001
0100
0000
0001
0000
,
1000
0000
0100
0000
1001
0000
0000
0000
0011
0000
0000
1001
0000
0000
0101
0000
,
1000
0000
0100
0000
1001
0000
0000
0000
1100
0000
0000
1000
0010
0000
1000
0000
,
0001
0000
0010
0000
1001
0000
0000
0000
0101
0000
0000
0001
0010
0000
0001
0000
,
0100
0000
0010
0000
1001
0000
0000
0000
1010
0000
0000
0001
0100
0000
0001
0000
,
1000
0000
0100
0000
1001
0000
0000
0000
1010
0000
0000
1001
0000
0000
1100
0000
,
0001
0000
0100
0000
1001
0000
0000
0000
0101
0000
0000
1000
0010
0000
1000
0000
,
0001
0000
0010
0000
0001
0000
1000
0000
1100
0000
0000
0001
0010
0000
0001
0000
,
0100
0000
0010
0000
1001
0000
0001
0010
0001
0000
0000
1000
0010
0000
1000
0000
,
0001
0000
0010
0000
1001
0000
0000
0000
1001
0000
0000
1010
0000
0000
1100
0000
,
0001
0000
0010
0000
1001
0000
0000
0000
0011
0000
0000
0001
0100
0000
0010
0000
,
1000
0000
0100
0000
1001
0000
0000
0000
1010
0000
0000
0010
0100
0000
0001
0000
,
0010
0000
0100
0000
1001
0000
0010
0000
0011
0000
0000
1000
0010
0000
1000
0000
,
0001
0000
0010
0000
1001
0000
0000
0000
1001
0000
0000
0011
0000
0000
0101
0000
,
1000
0000
0010
0000
1001
0000
0000
0000
1010
0000
0000
0001
0100
0000
0001
0000
,
1000
0000
0100
0000
0001
0000
0100
0000
1000
0000
0001
0100
0001
0100
0001
0000
,
0100
0000
1000
0000
0100
0000
0000
0000
0110
0000
0000
0010
1000
0000
0100
0000
,
0010
0000
0001
0000
0010
0000
0000
0000
0110
0000
0000
0010
0001
0000
1000
0000
,
0100
0000
0001
0000
0100
0000
0010
0000
0110
0000
0000
0100
1000
0000
0010
0000
,
0100
0000
0001
0000
0100
0000
0010
0000
0110
0000
0000
0100
0001
0000
1000
0000
,
0010
0000
0001
0000
0010
0000
0100
0000
0110
0000
0000
0100
0001
0000
0010
0000
,
0100
0000
1000
0000
0100
0000
0010
0000
0110
0000
0000
0100
1000
0000
0001
0000
,
0010
0000
1000
0000
0001
0000
0100
0000
0110
0000
0000
0010
0001
0000
0100
0000
,
0010
0000
0001
0000
1000
0000
0100
0000
0110
0000
0000
1010
0000
0000
1001
0000
;

//---------------dance-single - ----------------
#NOTEDATA:;
#CHARTNAME:;
#STEPSTYPE:dance-single;
#DESCRIPTION:;
#CHARTSTYLE:;
#DIFFICULTY:Challenge;
#METER:11;
#RADARVALUES:0.243211,0.299992,0.014012,0.021018,0.059552,243.000000,241.000000,2.000000,3.000000,332.000000,0.000000,0.000000,0.000000,0.000000,0.243211,0.299992,0.014012,0.021018,0.059552,243.000000,241.000000,2.000000,3.000000,332.000000,0.000000,0.000000,0.000000,0.000000;
#CREDIT:Karl with a K;
#NOTES:
0000
0000
0000
0000
,
0000
0000
0000
0000
,
0000
0000
0000
0000
,
0000
0000
0000
0000
,
0000
MMMM
MMMM
0000
0000
0000
0000
0000
,
0000
0000
0000
0000
,
2000
0000
0000
0000
,
0000
0000
0000
3000
,
0000
0000
MMMM
0000
MMMM
0000
0000
0000
1010
0000
0000
1000
0000
0000
0100
0000
,
0000
0000
1000
0000
0100
0000
0000
0000
1000
0000
0000
0001
0000
0000
0100
0000
,
0000
0000
0001
0000
0100
0000
0000
0000
0001
0000
0000
1000
0000
0000
0100
0000
,
0000
0000
1000
0000
0001
0000
0000
0000
1000
0000
0000
0010
0000
0000
0100
0000
,
0000
0000
0100
0000
0001
0000
0000
0000
0010
0000
0000
0001
0000
0000
0100
0000
,
0000
0000
0001
0000
0100
0000
0000
0000
0001
0000
0000
1000
0000
0000
0100
0000
,
0000
0000
1000
0000
0100
0000
0000
0000
1000
0000
0000
0001
0000
0000
0100
0000
,
0000
0000
0001
0000
1000
0000
0000
0000
0001
0000
0000
0010
0000
0000
0100
0000
,
2000
0000
0000
0000
,
0000
0000
0000
0000
,
3001
0100
0010
0100
,
0001
0010
0100
0010
,
1000
0010
0001
0100
,
0001
0100
1000
0100
,
0001
0010
0001
0010
,
0010
0100
1000
0001
,
1000
0010
0100
0010
,
0001
0100
1000
MMMM
,
1000
0010
1000
0100
,
0010
0001
0100
0010
,
1000
0100
0010
0010
,
0001
0100
0010
0020
,
1030
0001
0010
0001
,
1000
0010
0100
0001
,
1000
0100
0010
1000
,
0100
0000
0000
0000
0001
0000
0000
0000
0010
0000
0000
0010
0000
0000
0010
0000
,
0001
1000
MMMM
1000
MMMM
1000
MMMM
1000
,
MMMM
0001
MMMM
0001
MMMM
0001
MMMM
0001
,
MMMM
1000
MMMM
1000
MMMM
1000
MMMM
1000
,
MMMM
0001
MMMM
0001
MMMM
0001
MMMM
0001
,
1000
0100
0010
0001
,
1000
0010
0100
0001
,
0010
0100
0010
0100
,
0010
0100
MMMM
MMMM
,
0000
MMMM
MMMM
0000
1000
MMMM
0001
MMMM
,
1000
MMMM
0001
MMMM
1000
MMMM
0001
MMMM
,
0100
MMMM
0010
MMMM
0100
MMMM
0010
MMMM
,
1000
MMMM
0100
MMMM
0010
MMMM
0001
MMMM
,
1000
MMMM
0001
MMMM
0001
MMMM
1000
MMMM
,
0001
MMMM
1000
MMMM
0001
MMMM
1000
MMMM
,
0100
MMMM
0010
MMMM
0100
MMMM
0010
MMMM
,
0001
MMMM
0100
MMMM
0010
MMMM
1000
MMMM
,
0001
MMMM
0001
1000
0001
MMMM
0001
MMMM
,
1000
MMMM
0001
MMMM
1000
MMMM
0001
MMMM
,
0010
MMMM
0100
MMMM
0010
MMMM
0100
MMMM
,
0001
MMMM
0010
MMMM
1000
MMMM
0100
MMMM
,
0001
MMMM
1000
MMMM
1000
MMMM
0001
MMMM
,
1000
MMMM
0001
MMMM
1000
MMMM
0001
MMMM
,
0010
MMMM
0100
MMMM
0010
MMMM
0100
MMMM
,
1000
MMMM
0010
MMMM
0001
0100
1000
0100
,
0001
0000
0010
0000
1000
0000
0000
0000
0010
0000
0000
0001
0000
0000
1000
0000
,
0000
0000
0010
0000
0001
0000
0000
0000
0010
0000
0000
1000
0000
0000
0001
0000
,
0000
0000
0100
0000
1000
0000
0000
0000
0100
0000
0000
0001
0000
0000
1000
0000
,
0000
0000
0100
0000
0001
0000
0000
0000
0100
0000
0000
1000
0000
0000
0001
0000
,
0000
0000
0010
0000
1000
0000
0000
0000
0010
0000
0000
0100
0000
0000
0001
0000
,
0000
0000
0100
0000
0001
0000
0000
0000
0100
0000
0000
0010
0000
0000
0001
0000
,
0000
0000
0100
0000
1000
0000
0000
0000
0001
0000
0000
0010
0000
0000
1000
0000
,
0000
0000
0010
0000
0001
0000
0000
0000
1000
0000
0000
0100
0000
0000
0110
0000
;

//---------------dance-double - ----------------
#NOTEDATA:;
#CHARTNAME:;
#STEPSTYPE:dance-double;
#DESCRIPTION:;
#CHARTSTYLE:;
#DIFFICULTY:Challenge;
#METER:11;
#RADARVALUES:0.241210,0.299992,0.014012,0.014012,0.056049,241.000000,239.000000,2.000000,2.000000,672.000000,0.000000,0.000000,0.000000,0.000000,0.241210,0.299992,0.014012,0.014012,0.056049,241.000000,239.000000,2.000000,2.000000,672.000000,0.000000,0.000000,0.000000,0.000000;
#CREDIT:Karl with a K;
#NOTES:
00000000
00000000
00000000
00000000
,
00000000
00000000
00000000
00000000
,
00000000
00000000
00000000
00000000
,
00000000
00000000
00000000
00000000
,
00000000
MMMMMMMM
MMMMMMMM
00000000
00000000
00000000
00000000
00000000
,
00000000
00000000
00000000
00000000
,
20000000
00000000
00000000
00000000
,
00000000
00000000
00000000
30000000
,
00000000
00000000
MMMMMMMM
00000000
MMMMMMMM
00000000
00000000
00000000
10100000
00000000
00000000
10000000
00000000
00000000
01000000
00000000
,
00000000
00000000
00100000
00000000
00010000
00000000
00000000
00000000
00100000
00000000
00000000
00001000
00000000
00000000
00010000
00000000
,
00000000
00000000
00010000
00000000
00001000
00000000
00000000
00000000
00010000
00000000
00000000
00000010
00000000
00000000
00001000
00000000
,
00000000
00000000
00001000
00000000
00000001
00000000
00000000
00000000
00000010
00000000
00000000
00000010
00000000
00000000
00000100
00000000
,
00000000
00000000
00001000
00000000
00000001
00000000
00000000
00000000
00000010
00000000
00000000
00000001
00000000
00000000
00000100
00000000
,
00000000
00000000
00000010
00000000
00001000
00000000
00000000
00000000
00000010
00000000
00000000
00010000
00000000
00000000
00001000
00000000
,
00000000
00000000
00001000
00000000
00010000
00000000
00000000
00000000
00001000
00000000
00000000
00100000
00000000
00000000
00010000
00000000
,
00000000
00000000
00010000
00000000
10000000
00000000
00000000
00000000
00100000
00000000
00000000
00100000
00000000
00000000
10000000
00000000
,
00020000
00000000
00000000
00000000
,
00000000
00000000
00000000
00030000
,
00010000
01000000
00100000
10000000
,
01000000
00100000
00010000
01000000
,
00001000
00100000
00001000
00010000
,
00001000
00010000
00000010
00000100
,
00000001
00001000
00000100
00001000
,
00000010
00000100
00000001
00000001
,
00000010
00000100
00010000
00001000
,
00010000
01000000
10000000
MMMMMMMM
,
00010000
00100000
01000000
10000000
,
00100000
01000000
00010000
00100000
,
00001000
01000000
00001000
00010000
,
00001000
00010000
00000100
00000010
,
00000001
00001000
00000010
00001000
,
00000100
00000010
00000001
00000001
,
00000100
00000010
00010000
00001000
,
00010000
00100000
10000000
MMMMMMMM
,
10000000
10000000
MMMMMMMM
10000000
MMMMMMMM
10000000
MMMMMMMM
10000000
,
MMMMMMMM
00010000
MMMMMMMM
00010000
MMMMMMMM
00010000
MMMMMMMM
00010000
,
MMMMMMMM
00001000
MMMMMMMM
00001000
MMMMMMMM
00001000
MMMMMMMM
00001000
,
MMMMMMMM
00000001
MMMMMMMM
00000001
MMMMMMMM
00000001
MMMMMMMM
00000001
,
00000001
00000100
00000010
00001000
,
00000100
00010000
00001000
01000000
,
00100000
10000000
01000000
00100000
,
00010000
01000000
MMMMMMMM
MMMMMMMM
,
00000000
MMMMMMMM
MMMMMMMM
00000000
10000000
MMMMMMMM
01000000
MMMMMMMM
,
00010000
MMMMMMMM
00001000
MMMMMMMM
00000100
MMMMMMMM
00000001
MMMMMMMM
,
00000100
MMMMMMMM
00000010
MMMMMMMM
00001000
MMMMMMMM
00010000
MMMMMMMM
,
00100000
MMMMMMMM
01000000
MMMMMMMM
00100000
MMMMMMMM
10000000
MMMMMMMM
,
00010000
MMMMMMMM
01000000
MMMMMMMM
10000000
MMMMMMMM
00100000
MMMMMMMM
,
00010000
MMMMMMMM
00001000
MMMMMMMM
00000010
MMMMMMMM
00000001
MMMMMMMM
,
00000100
MMMMMMMM
00000010
MMMMMMMM
00000100
MMMMMMMM
00001000
MMMMMMMM
,
00010000
MMMMMMMM
01000000
MMMMMMMM
00100000
MMMMMMMM
00010000
MMMMMMMM
,
01000000
MMMMMMMM
00010000
10000000
00010000
MMMMMMMM
10000000
MMMMMMMM
,
01000000
MMMMMMMM
00010000
MMMMMMMM
00001000
MMMMMMMM
00000010
MMMMMMMM
,
00000001
MMMMMMMM
00000100
MMMMMMMM
00001000
MMMMMMMM
00010000
MMMMMMMM
,
00100000
MMMMMMMM
10000000
MMMMMMMM
10000000
MMMMMMMM
01000000
MMMMMMMM
,
10000000
MMMMMMMM
00010000
MMMMMMMM
10000000
MMMMMMMM
00100000
MMMMMMMM
,
00010000
MMMMMMMM
00001000
MMMMMMMM
00000100
MMMMMMMM
00000001
MMMMMMMM
,
00000010
MMMMMMMM
00001000
MMMMMMMM
00010000
MMMMMMMM
01000000
MMMMMMMM
,
10000000
MMMMMMMM
00100000
MMMMMMMM
00010000
01000000
00100000
00010000
,
00001000
00000000
00000010
00000000
00000100
00000000
00000000
00000000
00000010
00000000
00000000
00000001
00000000
00000000
00001000
00000000
,
00000000
00000000
00000010
00000000
00010000
00000000
00000000
00000000
00001000
00000000
00000000
00100000
00000000
00000000
00010000
00000000
,
00000000
00000000
01000000
00000000
00100000
00000000
00000000
00000000
01000000
00000000
00000000
00010000
00000000
00000000
10000000
00000000
,
00000000
00000000
01000000
00000000
00010000
00000000
00000000
00000000
01000000
00000000
00000000
00100000
00000000
00000000
00010000
00000000
,
00000000
00000000
00001000
00000000
00000100
00000000
00000000
00000000
00000010
00000000
00000000
00000001
00000000
00000000
00000100
00000000
,
00000000
00000000
00000010
00000000
00010000
00000000
00000000
00000000
01000000
00000000
00000000
00100000
00000000
00000000
00010000
00000000
,
00000000
00000000
00100000
00000000
10000000
00000000
00000000
00000000
00010000
00000000
00000000
00100000
00000000
00000000
01000000
00000000
,
00000000
00000000
00100000
00000000
00001000
00000000
00000000
00000000
00010000
00000000
00000000
00001000
00000000
00000000
00011000
00000000
;

//---------------dance-double - ----------------
#NOTEDATA:;
#CHARTNAME:;
#STEPSTYPE:dance-double;
#DESCRIPTION:;
#CHARTSTYLE:;
#DIFFICULTY:Hard;
#METER:13;
#RADARVALUES:0.446388,0.484602,0.406353,0.021018,0.252219,446.000000,388.000000,58.000000,3.000000,0.000000,0.000000,0.000000,0.000000,0.000000,0.446388,0.484602,0.406353,0.021018,0.252219,446.000000,388.000000,58.000000,3.000000,0.000000,0.000000,0.000000,0.000000,0.000000;
#CREDIT:Karl with a K;
#NOTES:
00000000
00000000
00000000
00000000
,
00000000
00000000
00000000
00000000
,
00000000
00000000
00000000
00000000
,
00000000
00000000
00000000
00000000
,
00000000
01100000
10010000
00000000
00000000
00000000
00000000
00000000
,
00000000
00000000
00000000
00000000
,
00000000
00000000
00000000
00000000
,
00000000
00000000
00000000
00000000
,
00000000
00000000
01100000
00000000
10010000
00000000
00000000
00000000
10100000
00000000
00000000
10000000
01000000
00000000
00100000
00000000
,
00010000
00000000
01000000
00000000
01010000
00000000
00000000
00000000
01001000
00000000
00000000
00001000
01000000
00000000
00001000
00000000
,
00010000
00000000
00000100
00000000
00000110
00000000
00000000
00000000
00001100
00000000
00000000
00000100
00000010
00000000
00000001
00000000
,
00000100
00000000
00000010
00000000
00000110
00000000
00000000
00000000
00010010
00000000
00000000
00000010
00010000
00000000
00000100
00000000
,
00000010
00000000
00000100
00000000
00001001
00000000
00000000
00000000
00000011
00000000
00000000
00000001
00000100
00000000
00000010
00000000
,
00001000
00000000
00000100
00000000
00001100
00000000
00000000
00000000
00010100
00000000
00000000
00010000
00000100
00000000
00010000
00000000
,
00001000
00000000
01000000
00000000
01100000
00000000
00000000
00000000
01010000
00000000
00000000
01000000
00100000
00000000
10000000
00000000
,
01000000
00000000
00100000
00000000
01100000
00000000
00000000
00000000
00101000
00000000
00000000
00100000
00001000
00000000
00010000
00000000
,
02000000
00100000
00100000
00100000
,
00100000
00100000
00100000
00100000
,
13000000
00000000
01000000
00000000
00100000
00000000
00000000
00000000
00010000
00000000
00000000
01000000
00000000
00000000
00001000
00000000
,
00000000
00000000
00010000
00000000
00001000
00000000
00000000
00000000
00010000
00000000
00000000
00000100
00000000
00000000
00001000
00000000
,
00000000
00000000
00000001
00000000
00000100
00000000
00000000
00000000
00000010
00000000
00000000
00010000
00000000
00000000
00001000
00000000
,
00010000
00000000
00000000
00010000
00000000
00000000
00001000
00000000
00100000
00000000
00000000
00010000
00000000
00000000
10000000
00000000
,
00000000
00000000
00100000
00000000
01000000
00000000
00000000
00000000
00010000
00000000
00000000
00100000
00000000
00000000
00001000
00000000
,
00000000
00000000
00010000
00000000
00001000
00000000
00000000
00000000
00010000
00000000
00000000
00000010
00000000
00000000
00001000
00000000
,
00000000
00000000
00000001
00000000
00000010
00000000
00000000
00000000
00000100
00000000
00000000
00010000
00000000
00000000
00001000
00000000
,
00010000
00000000
00000000
00010000
00001000
00000000
01000000
00000000
00100000
00000000
00000000
00000000
10010000
00000000
00000000
00000000
,
10000000
00000000
00100000
00000000
00010000
00000000
00000000
00000000
00100000
00000000
00000000
01000000
00000000
00000000
00010000
00000000
,
00100000
00000000
00010000
00000000
00001000
00000000
00000000
00000000
00010000
00000000
00000000
00100000
00000000
00000000
00001000
00000000
,
00010000
00000000
00001000
00000000
00000100
00000000
00000000
00000000
00000010
00000000
00000000
00001000
00000000
00000000
00000001
00000000
,
00001000
00000000
00000000
00000010
00000000
00000000
00000001
00000000
00000010
00000000
00000000
00000100
00000001
00000000
00000100
00000000
,
00000001
00000000
00000010
00000000
00001000
00000000
00000000
00000000
00000010
00000000
00000000
00000100
00000000
00000000
00001000
00000000
,
00000010
00000000
00001000
00000000
00010000
00000000
00000000
00000000
00001000
00000000
00000000
00000010
00000000
00000000
00010000
00000000
,
00001000
00000000
00010000
00000000
01000000
00000000
00000000
00000000
00100000
00000000
00000000
00010000
00000000
00000000
10000000
00000000
,
00010000
00000000
00000000
00100000
00000000
00000000
10000000
00000000
00100000
00000000
00000000
01000000
10000000
00000000
00100000
00000000
,
10000000
00000000
01000000
00000000
00100000
00000000
01000000
00000000
00100000
00000000
00000000
00000000
01000000
00000000
00000000
00000000
00100000
00000000
00000000
00000000
00001000
00000000
00001000
00000000
00000000
00000000
00000000
00010000
00000000
00000000
00010000
00000000
,
00000000
00000000
00000010
00000000
00000100
00000000
00000010
00000000
00000100
00000000
00000000
00000000
00000010
00000000
00000000
00000000
00000100
00000000
00000000
00000000
00000001
00000000
00000000
00000001
00000000
00000000
00000000
00000100
00000000
00000000
00000000
00000000
,
00000001
00000000
00000100
00000000
00000010
00000000
00000100
00000000
00000010
00000000
00000000
00000000
00000100
00000000
00000000
00000000
00000010
00000000
00000000
00000000
00001000
00000000
00010000
00000000
00000000
00000000
00000000
01000000
00000000
00000000
00010000
00000000
,
00000000
00000000
00100000
00000000
01000000
00000000
00100000
00000000
01000000
00000000
00000000
00000000
00100000
00000000
00000000
00000000
01000000
00000000
00000000
00000000
10000000
00000000
00000000
10000000
00000000
00000000
00000000
01000000
00000000
00000000
00000000
00000000
,
10000000
01000000
00100000
00010000
,
00001000
00000100
00000010
00000001
,
00000100
00000000
00000010
00000000
00001000
00000000
00000000
00000000
00010000
00000000
00000000
01000000
00000000
00000000
00100000
00000000
,
10000000
01000000
00100000
00000000
20020000
00000000
00000000
00000000
,
30030000
00000000
01100000
00000000
10010000
00000000
00000000
00000000
11000000
00000000
00000000
10000000
00100000
00000000
01000000
00000000
,
00010000
00000000
00100000
00000000
00110000
00000000
00000000
00000000
00101000
00000000
00000000
00001000
00100000
00000000
00001000
00000000
,
00010000
00000000
00000010
00000000
00000110
00000000
00000000
00000000
00001010
00000000
00000000
00000010
00000100
00000000
00000001
00000000
,
00000010
00000000
00000100
00000000
00000110
00000000
00000000
00000000
00010100
00000000
00000000
00000100
00010000
00000000
00000010
00000000
,
00000100
00000000
00000010
00000000
00001001
00000000
00000000
00000000
00000101
00000000
00000000
00000001
00000010
00000000
00000100
00000000
,
00001000
00000000
00000010
00000000
00001010
00000000
00000000
00000000
00010010
00000000
00000000
00010000
00000010
00000000
00010000
00000000
,
00001000
00000000
00100000
00000000
01100000
00000000
00000000
00000000
00110000
00000000
00000000
00100000
01000000
00000000
10000000
00000000
,
00100000
00000000
01000000
00000000
01100000
00000000
00000000
00000000
01001000
00000000
00000000
01000000
00001000
00000000
00100000
00000000
,
01000000
00000000
00100000
00000000
10010000
00000000
10000000
00100000
10000000
00000000
00000000
10000000
01000000
00000000
00010000
00000000
,
01000000
00000000
00100000
00000000
00110000
00000000
00000000
00000000
01001000
00000000
00000000
01000000
00010000
00000000
00001000
00000000
,
00000100
00000000
00000010
00000000
00000110
00000000
00000000
00000000
00001100
00000000
00000000
00000100
00000010
00000000
00000001
00000000
,
00000100
00000000
00000010
00000000
00000110
00000000
00000000
00000000
00010010
00000000
00000000
00000010
00001000
00000000
00010000
00000000
,
00001000
00000000
00000100
00000000
00000010
00000000
00000100
00000000
00000011
00000000
00000000
00000001
00000100
00000000
00001000
00000000
,
00000100
00000000
00000010
00000000
00001010
00000000
00000000
00000000
00010100
00000000
00000000
00000100
00001000
00000000
00010000
00000000
,
01000000
00000000
00100000
00000000
01100000
00000000
00000000
00000000
10100000
00000000
00000000
00100000
01000000
00000000
10000000
00000000
,
01000000
00000000
00100000
00000000
10000000
00000000
01000000
00000000
00010000
00000000
00001000
00010000
00001000
00010000
00001000
00000000
,
00010000
00000000
00000100
00000000
00000010
00000000
00000000
00000000
00000110
00000000
00000000
00000010
00000001
00000000
00001000
00000000
,
00000010
00000000
00001000
00000000
00000001
00000000
00000000
00000000
00001001
00000000
00000000
00001000
00000100
00000000
00010000
00000000
,
00001000
00000000
01000000
00000000
00100000
00000000
00000000
00000000
01100000
00000000
00000000
00100000
10000000
00000000
00010000
00000000
,
00100000
00000000
00010000
00000000
10000000
00000000
00000000
00000000
10010000
00000000
00000000
00010000
01000000
00000000
00010000
00000000
,
10000000
00000000
01000000
00000000
00010000
00000000
00000000
00000000
00001000
00000000
00000000
00010000
00001000
00000000
00100000
00000000
,
00010000
00000000
00001000
00000000
00000100
00000000
00000000
00000000
00000110
00000000
00000000
00000010
00000001
00000000
00000100
00000000
,
00000001
00000000
00000100
00000000
00001000
00000000
00000000
00000000
00010000
00000000
00000000
00001000
00010000
00000000
00000010
00000000
,
00001000
00000000
00010000
00000000
01000000
00000000
00000000
00000000
01100000
00000000
00000000
01100000
00000000
00000000
10010000
00000000
;

//---------------dance-double - ----------------
#NOTEDATA:;
#CHARTNAME:;
#STEPSTYPE:dance-double;
#DESCRIPTION:;
#CHARTSTYLE:;
#DIFFICULTY:Medium;
#METER:10;
#RADARVALUES:0.285248,0.369221,0.140122,0.021018,0.059552,285.000000,265.000000,20.000000,3.000000,0.000000,0.000000,0.000000,0.000000,0.000000,0.285248,0.369221,0.140122,0.021018,0.059552,285.000000,265.000000,20.000000,3.000000,0.000000,0.000000,0.000000,0.000000,0.000000;
#CREDIT:Karl with a K;
#NOTES:
// measure 0
00000000
00000000
00000000
00000000
,  // measure 1
00000000
00000000
00000000
00000000
,  // measure 2
00000000
00000000
00000000
00000000
,  // measure 3
00000000
00000000
00000000
00000000
,  // measure 4
00000000
10000000
00010000
00000000
00000000
00000000
00000000
00000000
,  // measure 5
00000000
00000000
00000000
00000000
,  // measure 6
00000000
00000000
00000000
00000000
,  // measure 7
00000000
00000000
00000000
00000000
,  // measure 8
00000000
00000000
00010000
00000000
10000000
00000000
00000000
00000000
00100000
00000000
00000000
10000000
00000000
00000000
01000000
00000000
,  // measure 9
00000000
00000000
00100000
00000000
00010000
00000000
00000000
00000000
00100000
00000000
00000000
00001000
00000000
00000000
00010000
00000000
,  // measure 10
00000000
00000000
00001000
00000000
00010000
00000000
00000000
00000000
00000010
00000000
00000000
00001000
00000000
00000000
00000001
00000000
,  // measure 11
00000000
00000000
00001000
00000000
00000001
00000000
00000000
00000000
00000010
00000000
00000000
00000010
00000000
00000000
00000100
00000000
,  // measure 12
00000000
00000000
00001000
00000000
00000001
00000000
00000000
00000000
00000010
00000000
00000000
00000001
00000000
00000000
00000100
00000000
,  // measure 13
00000000
00000000
00000010
00000000
00001000
00000000
00000000
00000000
00000010
00000000
00000000
00010000
00000000
00000000
00001000
00000000
,  // measure 14
00000000
00000000
00010000
00000000
00001000
00000000
00000000
00000000
00100000
00000000
00000000
00010000
00000000
00000000
10000000
00000000
,  // measure 15
00000000
00000000
00010000
00000000
10000000
00000000
00000000
00000000
00100000
00000000
00000000
00100000
00000000
00000000
01000000
00000000
,  // measure 16
00020000
00000000
00000000
00000000
,  // measure 17
00000000
00000000
00000000
00000000
,  // measure 18
10030000
01000000
00100000
00000000
01000000
00000000
00100000
00000000
,  // measure 19
00001000
00010000
00000100
00001000
,  // measure 20
00000001
00000100
00000010
00000000
00000100
00000000
00000010
00000000
,  // measure 21
00010000
00001000
01000000
00010000
,  // measure 22
10000000
00100000
01000000
00000000
00100000
00000000
01000000
00000000
,  // measure 23
00001000
00010000
00000010
00001000
,  // measure 24
00000001
00000010
00000100
00000000
00000010
00000000
00000100
00000000
,  // measure 25
00001000
00010000
01000000
00100000
,  // measure 26
10000000
10100000
00100000
01000000
,  // measure 27
00001000
00010000
00000100
00010100
,  // measure 28
00010000
00011000
00001000
00000100
,  // measure 29
00000010
00001000
00000100
00000110
,  // measure 30
00000001
00000011
00000010
00000100
,  // measure 31
00010000
00001000
01000000
01001000
,  // measure 32
00001000
00011000
00010000
01000000
,  // measure 33
00100000
00010000
01100000
00000000
,  // measure 34
10000000
01000000
10000000
00000000
00010000
01000000
00010000
00000000
,  // measure 35
01000000
00001000
01000000
00000000
00001000
00010000
00001000
00000000
,  // measure 36
00010000
00000100
00010000
00000000
00000100
00000010
00000100
00000000
,  // measure 37
00001000
00000010
00000100
00000000
00000010
00000100
00000001
00000000
,  // measure 38
00000001
00000100
00000010
00000000
,  // measure 39
00010000
00001000
00010000
00000000
,  // measure 40
00001000
00100000
01000000
10000000
,  // measure 41
00100000
01000000
00022000
00000000
,  // measure 42
00033000
00000000
00010000
00000000
01000000
00000000
00000000
00000000
00100000
00000000
00000000
00010000
00000000
00000000
01000000
00000000
,  // measure 43
00000000
00000000
00010000
00000000
10000000
00000000
00000000
00000000
00100000
00000000
00000000
00100000
00000000
00000000
00100000
00000000
,  // measure 44
00000000
10000000
01000000
00000000
00100000
00000000
00001000
00000000
,  // measure 45
00010000
00001000
00010000
00000100
,  // measure 46
00000010
00000000
00000001
00000000
00000100
00000000
00000000
00000000
00000010
00000000
00000000
00001000
00000000
00000000
00000100
00000000
,  // measure 47
00000000
00000000
00001000
00000000
00000001
00000000
00000000
00000000
00000010
00000000
00000000
00000010
00000000
00000000
00000010
00000000
,  // measure 48
00000000
00000001
00000100
00000000
00000010
00000000
00010000
00000000
,  // measure 49
00001000
00010000
00001000
01000000
,  // measure 50
00100000
00000000
10000000
00000000
00100000
00000000
01000000
00000000
00010000
00000000
00000000
00010000
00000000
00000000
00100000
00000000
,  // measure 51
00000000
00000000
00010000
00000000
10000000
00000000
00000000
00000000
01000000
00000000
00000000
01000000
00000000
00000000
01000000
00000000
,  // measure 52
00000000
10000000
00100000
00000000
01000000
00000000
00001000
00000000
,  // measure 53
00010000
00001000
00010000
00000010
,  // measure 54
00000100
00000000
00000001
00000000
00000010
00000000
00000000
00000000
00000100
00000000
00000000
00001000
00000000
00000000
00000010
00000000
,  // measure 55
00000000
00000000
00001000
00000000
00000001
00000000
00000000
00000000
00000100
00000000
00000000
00000100
00000000
00000000
00000100
00000000
,  // measure 56
00000000
00000001
00000010
00000000
00000100
00000000
00010000
00000000
,  // measure 57
00001000
00000000
00010000
00000000
00001000
00100000
01000000
00100000
,  // measure 58
00010000
10000000
10010000
10010000
,  // measure 59
01000000
00001000
00011000
00011000
,  // measure 60
00010000
00000010
00010010
00010010
,  // measure 61
00010000
00000100
00000110
00000110
,  // measure 62
00000001
00000100
00000010
00010000
00001000
00000000
00011000
00000000
,  // measure 63
00001000
00100000
01000000
10000000
00010000
00000000
10010000
00000000
,  // measure 64
10000000
01000000
00100000
00001000
00010000
00000000
00011000
00000000
,  // measure 65
00010000
00000000
00000010
00000000
00000100
00000000
00000000
00000000
00000001
00000000
00000000
00000010
00000000
00000000
00000001
00000000
;

//---------------dance-double - ----------------
#NOTEDATA:;
#CHARTNAME:;
#STEPSTYPE:dance-double;
#DESCRIPTION:;
#CHARTSTYLE:;
#DIFFICULTY:Easy;
#METER:6;
#RADARVALUES:0.215187,0.230325,0.035030,0.014012,0.000000,215.000000,210.000000,5.000000,2.000000,0.000000,0.000000,0.000000,0.000000,0.000000,0.215187,0.230325,0.035030,0.014012,0.000000,215.000000,210.000000,5.000000,2.000000,0.000000,0.000000,0.000000,0.000000,0.000000;
#CREDIT:Karl with a K;
#NOTES:
// measure 0
00000000
00000000
00000000
00000000
,  // measure 1
00000000
00000000
00000000
00000000
,  // measure 2
00000000
00000000
00000000
00000000
,  // measure 3
00000000
00000000
00000000
00000000
,  // measure 4
00000000
10010000
00000000
00000000
,  // measure 5
00000000
00000000
00000000
00000000
,  // measure 6
00000000
00000000
00000000
00000000
,  // measure 7
00000000
00000000
00000000
00000000
,  // measure 8
00000000
10010000
00010000
10000000
,  // measure 9
01000000
10000000
00010000
00100000
,  // measure 10
00001000
00010000
00000010
00001000
,  // measure 11
00000100
00000010
00000001
00000001
,  // measure 12
00000100
00000001
00001000
00000001
,  // measure 13
00000100
00000001
00001000
00000010
,  // measure 14
00010000
00001000
00100000
00010000
,  // measure 15
01000000
00100000
10000000
10000000
,  // measure 16
20000000
00000000
00000000
00000000
,  // measure 17
00000000
00000000
00000000
30000000
,  // measure 18
10000000
01000000
00100000
00000000
,  // measure 19
00001000
00000000
00010000
00000000
,  // measure 20
00010000
00000100
00000010
00000000
,  // measure 21
00000001
00000000
00000100
00000000
,  // measure 22
00000001
00000100
00000010
00000000
,  // measure 23
00010000
00000000
00001000
00000000
,  // measure 24
00001000
01000000
00100000
00000000
,  // measure 25
10000000
00000000
00100000
00100000
,  // measure 26
10000000
00100000
01000000
00010000
,  // measure 27
00100000
00010000
01000000
00001000
,  // measure 28
00010000
00000010
00000100
00000001
,  // measure 29
00001000
00000001
00000100
00000100
,  // measure 30
00000001
00000010
00000100
00001000
,  // measure 31
00000010
00001000
00000100
00010000
,  // measure 32
00001000
00100000
01000000
10000000
,  // measure 33
00000000
01000000
01000000
01000000
,  // measure 34
00000000
10000000
00000000
10000000
00000000
00010000
00000000
00010000
,  // measure 35
00000000
01000000
00000000
01000000
00000000
00001000
00000000
00001000
,  // measure 36
00000000
00010000
00000000
00010000
00000000
00000100
00000000
00000100
,  // measure 37
00000000
00000010
00000000
00000010
00000000
00000001
00000000
00000001
,  // measure 38
00000100
00000100
00000010
00000010
,  // measure 39
00010000
00010000
00001000
00001000
,  // measure 40
00100000
00100000
00100000
00100000
,  // measure 41
01000000
01000000
02000000
00000000
,  // measure 42
03000000
01000000
01000000
00000000
00100000
00000000
00010000
00000000
,  // measure 43
01000000
01000000
00100000
10000000
,  // measure 44
01000000
01000000
00100000
00001000
,  // measure 45
00010000
00000000
00010000
00000100
,  // measure 46
00000010
00000001
00000110
00001000
,  // measure 47
00000100
00000100
00000010
00000001
,  // measure 48
00000100
00000100
00000010
00010000
,  // measure 49
00001000
00000000
00001000
01000000
,  // measure 50
00100000
10000000
10000000
00010000
,  // measure 51
01000000
00010000
00100000
00001000
,  // measure 52
00010000
00000100
00000010
00000001
,  // measure 53
00000100
00000010
00010000
00010000
,  // measure 54
00000010
00000100
00000001
00001000
,  // measure 55
00000100
00001000
00000010
00010000
,  // measure 56
00001000
01000000
00100000
10000000
,  // measure 57
01000000
00100000
00001000
00001000
,  // measure 58
00100000
10010000
10000000
01000000
,  // measure 59
10000000
00100000
10000000
00010000
,  // measure 60
01000000
00001000
00010000
00001000
,  // measure 61
00010000
00000100
00000010
00000001
,  // measure 62
00000100
00000010
00010000
00001000
,  // measure 63
00010000
00001000
01000000
00100000
,  // measure 64
10000000
01000000
00100000
00010000
,  // measure 65
00001000
00000100
00010000
00010010
;
