#VERSION:0.83;
#TITLE:ALL MY FELLAS;
#SUBTITLE:;
#ARTIST:Frizk;
#TITLETRANSLIT:;
#SUBTITLETRANSLIT:;
#ARTISTTRANSLIT:;
#GENRE:;
#ORIGIN:;
#CREDIT:;
#BANNER:;
#BACKGROUND:;
#PREVIEWVID:;
#JACKET:;
#CDIMAGE:;
#DISCIMAGE:;
#LYRICSPATH:;
#CDTITLE:;
#MUSIC:ALL MY FELLAS.ogg;
#OFFSET:0.699000;
#SAMPLESTART:69.801003;
#SAMPLELENGTH:12.000000;
#SELECTABLE:YES;
#BPMS:0.000=160.000;
#STOPS:;
#DELAYS:;
#WARPS:;
#TIMESIGNATURES:0.000=4=4;
#TICKCOUNTS:0.000=4;
#COMBOS:0.000=1;
#SPEEDS:0.000=1.000=0.000=0;
#SCROLLS:0.000=1.000;
#FAKES:;
#LABELS:0.000=Song Start;
#BGCHANGES:;
#KEYSOUNDS:;
#ATTACKS:
;

//---------------dance-single - XO- JA JU-----------------
#NOTEDATA:;
#CHARTNAME:;
#STEPSTYPE:dance-single;
#DESCRIPTION:XO- JA JU-;
#CHARTSTYLE:;
#DIFFICULTY:Hard;
#METER:14;
#RADARVALUES:0.643464,0.624026,0.084986,0.063739,0.357649,636.000000,624.000000,12.000000,9.000000,0.000000,0.000000,0.000000,0.000000,0.000000,0.643464,0.624026,0.084986,0.063739,0.357649,636.000000,624.000000,12.000000,9.000000,0.000000,0.000000,0.000000,0.000000,0.000000;
#CREDIT:Karl with a K as repetitionlegitimizes;
#NOTES:
// measure 0
0000
0000
0000
0000
,  // measure 1
0000
0000
0000
0000
,  // measure 2
0000
0000
0000
0000
,  // measure 3
0000
0000
0000
0000
,  // measure 4
0000
0000
0000
0000
,  // measure 5
1000
0000
0000
0000
0100
0000
0000
0000
1000
0000
0000
1000
0000
0000
1000
0000
,  // measure 6
0001
0000
0000
0000
0100
0000
0000
0000
0001
0000
0000
0001
0000
0000
0001
0000
,  // measure 7
1000
0000
0000
0000
0100
0000
0000
0000
0010
0000
0000
0010
0000
0000
0010
0000
,  // measure 8
0001
0000
0000
0000
0100
0000
0000
0000
0010
0000
0000
0010
0000
0000
0010
0000
,  // measure 9
1000
0000
0100
0000
0010
0000
0000
0000
0100
0000
0000
1000
0000
0000
0001
0000
,  // measure 10
1000
0000
0010
0000
0100
0000
0010
0100
0010
0000
0000
1000
0000
0000
1000
0000
,  // measure 11
0001
0000
0000
0000
0001
0000
1000
0001
1000
0000
0000
1000
0001
0000
1000
0000
,  // measure 12
0001
0000
0010
0000
0100
0000
0010
0100
0010
0000
0000
0001
0000
0000
0001
0000
,  // measure 13
1000
0000
0000
0000
1000
0000
0010
1000
0010
0000
0000
1000
0000
0000
0001
0000
,  // measure 14
1000
0000
0100
0000
0010
0000
0100
0010
0100
0000
0000
1000
0000
0000
1000
0000
,  // measure 15
0001
0000
0100
0000
0010
0000
1000
0001
1000
0000
0000
1000
0001
0000
0010
0000
,  // measure 16
0100
0001
0100
1000
0010
0100
1000
0100
,  // measure 17
0001
0100
0010
0100
0100
0000
0110
0000
,  // measure 18
1001
0000
1000
0100
0010
0001
1000
0001
,  // measure 19
0100
0010
1000
0001
0010
0100
1000
0001
,  // measure 20
2000
0100
3100
0010
0110
0000
1001
0001
,  // measure 21
0100
0000
0000
0000
0100
0000
0010
0000
1000
0000
0000
1000
0001
0000
0010
0000
,  // measure 22
0100
0000
0000
0000
0100
0000
0010
0000
0001
0000
0000
0001
1000
0000
0100
0000
,  // measure 23
0010
0000
0000
0000
0010
0000
0100
0000
1000
0000
0000
1000
0001
0000
0100
0000
,  // measure 24
0010
0000
0000
0000
0010
0000
0100
0000
0001
0000
0000
0001
1000
0000
0010
0000
,  // measure 25
1000
0010
0000
0000
1000
0000
0000
0000
0100
0000
0000
0100
1000
0000
0001
0000
,  // measure 26
0010
0000
0000
0000
0001
0000
0000
0000
0100
0000
0000
0100
0001
0000
1000
0000
,  // measure 27
0100
0000
0000
0000
1000
0000
0000
0000
0010
0000
0000
0010
1000
0000
0010
0000
,  // measure 28
0100
0000
0001
0000
0001
0000
0010
0000
0001
0000
0000
0010
0100
0000
1000
0000
,  // measure 29
0001
0010
0000
0000
0001
0000
0100
0001
0100
0000
0000
0100
0001
0000
1000
0000
,  // measure 30
0010
0000
0000
0000
1000
0000
0100
1000
0100
0000
0000
0100
1000
0000
0001
0000
,  // measure 31
0100
0000
0000
0000
0001
0000
0000
0000
0010
0000
0001
0010
0001
0000
0010
0000
,  // measure 32
0100
0000
1000
0000
0001
0000
0000
0000
0010
0000
0001
0010
0001
0000
0100
0000
,  // measure 33
0001
0100
0000
0000
0001
0000
0000
0000
0010
0000
0000
0010
0001
0000
1000
0000
,  // measure 34
1000
0000
0000
0000
0100
0000
0000
0000
0010
0000
0000
0010
0001
0000
1000
0010
,  // measure 35
1000
0000
0001
1000
0001
0000
0000
0000
0100
0000
0000
0100
0001
0000
0100
0000
,  // measure 36
0010
0000
1000
0000
1000
0000
0100
0000
1000
0000
0000
0100
0010
0000
0001
0000
,  // measure 37
1000
0100
0000
0000
1000
0000
0000
0000
0010
0000
0000
0010
1000
0000
0001
0000
,  // measure 38
0100
0000
0000
0000
0001
0000
0000
0000
0010
0000
0000
0010
0001
0000
1000
0000
,  // measure 39
0010
0000
1000
0000
0100
1000
0100
0020
,  // measure 40
0000
0000
0031
0000
1000
0000
0000
0000
0100
0000
0000
0100
1000
0000
0010
0000
,  // measure 41
2010
0000
3001
0020
0000
0000
0031
0000
,  // measure 42
0201
0000
0300
0100
0020
0000
0030
0000
,  // measure 43
0110
0000
0100
0000
0001
0000
1000
0000
0200
0000
0000
0000
1300
0000
0100
0010
,  // measure 44
0001
0000
0000
0000
0001
0000
1000
0001
1000
0000
1000
0000
0010
0000
1000
0000
,  // measure 45
0001
0000
0000
0000
0010
0000
0100
0000
0010
0000
0000
0001
0000
0000
1000
0000
,  // measure 46
0001
0000
0100
0000
0010
0000
0100
0000
0100
0000
0000
0001
0000
0000
0001
0000
,  // measure 47
1000
0000
0010
0000
0100
0000
0001
1000
0001
0000
0000
0001
0000
0000
0001
0000
,  // measure 48
1000
0000
0100
0000
0010
0000
0100
0010
0100
0000
0000
1000
0000
0000
1000
0000
,  // measure 49
0001
0000
0100
0000
0010
0000
0100
0010
0100
0000
0000
0001
0000
0000
1000
0000
,  // measure 50
0001
0000
0010
0000
0100
0000
0010
0100
0010
0000
0000
0001
0000
0000
0001
0000
,  // measure 51
1000
0010
0100
0000
0001
0001
1000
0100
,  // measure 52
0010
0100
0010
0000
0100
0000
1000
0000
0100
0000
1000
0000
1000
0000
0001
0010
,  // measure 53
0001
0000
0000
0000
0010
0000
0000
0000
0001
0000
0000
1000
0000
0000
0001
0000
,  // measure 54
1000
0000
0010
0000
0100
0000
0010
0000
0010
0000
0000
1000
0001
0000
1000
0000
,  // measure 55
0001
0000
0000
0000
0010
0000
0100
1000
0100
0000
1000
0000
0001
0000
0000
0000
,  // measure 56
0001
0100
0010
0100
0100
0010
0010
0010
,  // measure 57
1000
0000
0000
0000
0100
0000
0010
0000
0100
0000
0000
1000
0000
0000
1000
0000
,  // measure 58
1000
0000
0100
0000
0010
0000
0000
0000
0100
0000
0000
1000
0000
0000
0001
1000
,  // measure 59
0001
0000
0100
0010
0100
0000
0000
0000
0001
0000
0000
1000
0001
0000
0100
0000
,  // measure 60
0010
0001
0010
1000
0100
0010
1000
0010
,  // measure 61
0001
0010
0100
0010
0010
0000
0110
0000
,  // measure 62
1001
0000
1000
0010
0100
0001
1000
0001
,  // measure 63
0010
0100
1000
0001
0100
0010
1000
0001
,  // measure 64
1000
0000
0100
0010
0100
0000
0010
0000
0110
0000
0000
0000
1001
0000
1000
0000
,  // measure 65
0010
0000
0000
0000
0010
0000
0100
0000
0001
0000
0000
0001
1000
0000
0100
0000
,  // measure 66
0010
0000
0000
0000
0010
0000
0100
0000
1000
0000
0000
1000
0001
0000
0010
0000
,  // measure 67
0100
0000
0000
0000
0100
0000
0010
0000
0001
0000
0000
0001
1000
0000
0010
0000
,  // measure 68
0100
0000
0000
0000
0100
0000
0010
0000
1000
0000
0001
1000
0001
0000
0100
0000
,  // measure 69
0001
0100
0000
0000
0001
0000
0000
0000
0010
0000
0000
0010
0001
0000
1000
0000
,  // measure 70
0100
0000
0000
0000
1000
0000
0000
0000
0010
0000
0000
0010
1000
0000
0001
0000
,  // measure 71
0010
0000
0000
0000
0001
0000
0000
0000
0100
0000
0000
0100
0001
0000
0100
0000
,  // measure 72
0010
0000
1000
0001
1000
0000
0100
0000
1000
0000
1000
0100
0010
0000
0001
0000
,  // measure 73
1000
0100
0000
0000
1000
0000
0000
0000
0010
0000
0000
0010
1000
0000
0001
0000
,  // measure 74
0100
0000
0001
0100
0001
0000
0000
0000
0010
0000
0000
0010
0001
0000
1000
0000
,  // measure 75
0010
0000
0000
0000
1000
0000
0000
0000
0100
0000
1000
0100
1000
0000
0100
0000
,  // measure 76
0010
0000
0001
0000
1000
0100
1000
0000
0010
0000
1000
0100
0010
0000
0001
0000
,  // measure 77
1000
0010
0000
0000
1000
0000
0000
0000
0100
0000
0000
0100
1000
0000
0001
0010
,  // measure 78
0001
0000
0000
0000
0001
0000
0000
0000
0100
0000
0000
0100
0001
0000
1000
0100
,  // measure 79
1000
0000
0001
1000
0001
0000
0000
0000
1000
0000
0000
1000
0010
0000
0000
0000
,  // measure 80
0100
0000
0001
1000
0001
0000
0010
0000
0001
0000
0000
0010
0100
0000
1000
0000
,  // measure 81
0001
0010
0000
0000
0001
0000
0000
0000
0100
0000
0000
0100
0001
0000
1000
0000
,  // measure 82
0010
0000
0000
0000
1000
0000
0000
0000
0100
0000
0000
0100
1000
0000
0001
0000
,  // measure 83
0100
0000
0001
0000
0010
0001
0010
0002
,  // measure 84
0000
0000
0103
0000
0002
0000
0000
0000
0103
0000
0000
0100
0010
0000
1000
0000
,  // measure 85
0100
0000
0010
0000
0001
0000
0000
0000
0100
0000
0000
0100
0000
0000
0001
0000
,  // measure 86
1000
1000
0100
0100
0010
0010
0001
0100
,  // measure 87
0010
0000
0100
0000
0001
0000
0000
0000
0010
0000
0000
0010
0000
0000
0001
0000
,  // measure 88
1000
1000
0010
0010
0100
0100
0001
0010
,  // measure 89
0100
0000
0000
0000
1000
0000
0000
0000
0100
0000
0000
0100
0000
0000
1000
0000
,  // measure 90
0001
0001
0100
0100
0010
0010
1000
0100
,  // measure 91
0010
0000
0100
0000
1000
0000
0100
0000
0010
0000
0000
0001
0000
0000
0100
0000
,  // measure 92
0001
0001
0010
0100
1000
0010
0110
0000
;

//---------------dance-single - ----------------
#NOTEDATA:;
#CHARTNAME:;
#STEPSTYPE:dance-single;
#DESCRIPTION:;
#CHARTSTYLE:;
#DIFFICULTY:Medium;
#METER:11;
#RADARVALUES:0.446176,0.492652,0.014164,0.191218,0.038952,441.000000,439.000000,2.000000,27.000000,0.000000,0.000000,0.000000,0.000000,0.000000,0.446176,0.492652,0.014164,0.191218,0.038952,441.000000,439.000000,2.000000,27.000000,0.000000,0.000000,0.000000,0.000000,0.000000;
#CREDIT:Karl with a K as repetitionlegitimizes;
#NOTES:
0000
0000
0000
0000
,
0000
0000
0000
0000
,
0000
0000
0000
0000
,
0000
0000
0000
0000
,
0000
0000
0000
0000
,
1000
0000
0000
0000
0001
0000
0000
0000
1000
0000
0000
0010
0000
0000
0100
0000
,
0001
0000
1000
0000
0001
0000
0010
0100
,
1000
0000
0000
0000
0100
0000
0000
0000
1000
0000
0000
0010
0000
0000
0100
0000
,
0001
0000
0100
0000
0001
0000
0010
0100
,
1000
0000
0000
0000
0001
0000
0000
0000
1000
0000
0000
0010
0000
0000
0100
0000
,
0001
0000
1000
0001
1000
0100
0010
0000
,
0001
0000
0000
0000
0001
0000
0000
0000
0100
0000
0000
0010
0000
0000
0100
0000
,
0010
0000
1000
0000
0100
0010
0100
0000
,
1000
1000
0001
0001
,
0100
0100
0010
0010
,
1000
1000
0001
0001
,
1000
0000
0000
0000
0100
0010
0100
0000
,
2000
3200
1300
1000
,
0002
0000
0103
0010
0100
0010
0100
0000
,
0002
0023
0230
2300
,
3020
0000
0130
0010
0100
0000
1001
0000
,
0001
0000
1000
0001
0010
0000
0010
0000
,
0001
0000
1000
0001
0100
0000
0010
0000
,
1000
0000
0001
1000
0010
0000
0010
0000
,
1000
0000
0001
1000
0100
0000
0010
0000
,
0010
0100
1000
0001
,
1000
0010
0100
0001
,
0001
0000
0100
0000
0010
0000
0100
0001
,
1000
0100
0010
0000
0001
0100
0010
0100
,
0010
0000
0100
0001
1000
0000
1000
0000
,
0001
0000
0010
0100
1000
0000
1000
0100
,
1000
0000
0100
0000
0010
0100
1000
0002
,
0000
0103
0010
0000
1000
0100
1000
0001
,
0100
0000
0010
0000
1000
0000
0001
1000
,
0001
0000
0100
0000
0010
0000
1000
0001
,
0010
0100
0010
0000
0100
0000
0010
0000
,
0001
0000
0100
0000
0001
0010
0100
0010
,
0100
0010
0001
1000
,
0001
0000
0100
0000
0010
0000
1000
0001
,
1000
0000
0010
0000
0100
0010
1000
0002
,
0000
0013
0100
0000
1000
0000
0001
0000
,
2000
0000
0000
3020
0000
0000
2030
0000
,
3200
0000
0320
0000
,
0032
0000
1003
0020
0000
0000
0230
0000
,
0302
0000
1003
0000
1000
0001
0010
0001
,
1000
0000
0000
0000
0001
0000
0000
0000
1000
0000
0000
0100
0000
0000
0010
0000
,
0001
0000
1000
0000
0001
0000
0100
0010
,
1000
0000
0000
0000
0010
0000
0000
0000
1000
0000
0000
0100
0000
0000
0010
0000
,
0001
0000
0010
0000
0001
0100
0010
0000
,
1000
0000
0000
0000
0001
0000
0000
0000
1000
0000
0000
0100
0000
0000
0010
0000
,
0001
0000
1000
0001
1000
0010
0100
0000
,
0001
0000
0001
0000
0010
0100
0010
0000
,
0100
0000
1000
0000
0010
0100
0010
1000
,
0001
1000
0001
0100
,
0001
0000
0001
0000
1000
0000
0100
0010
,
0001
0000
0010
0000
0001
0100
0010
0000
,
1000
0000
0010
0000
1000
0100
0010
0001
,
1000
0000
1000
0000
0001
0000
0100
0010
,
1000
0000
0001
0000
0010
0000
0100
1000
,
0001
1000
0010
0000
0100
0000
0010
0000
,
0100
0001
0010
0100
,
2000
3020
1030
1000
,
0002
0000
0013
0100
0010
0100
0010
0000
,
0002
0203
0320
2030
,
3100
0010
0100
0010
0100
0000
1001
0000
,
1000
0000
0001
1000
0010
0000
0010
0000
,
1000
0000
0001
1000
0100
0000
0010
0000
,
0001
0000
1000
0001
0010
0000
0010
0000
,
0001
0000
1000
0001
0100
0000
0010
0000
,
0010
0100
0001
1000
,
0001
0010
0100
1000
,
1000
0000
0100
0000
0010
0000
0100
1000
,
0001
0100
0010
0000
1000
0100
0010
0100
,
0010
0100
1000
0001
,
1000
0010
0100
0000
0001
0000
0001
0100
,
0001
0000
0100
0000
0010
0100
0001
1000
,
0100
0010
0001
1000
0001
0100
0001
1000
,
0100
0000
0010
0000
0001
0000
1000
0001
,
1000
0000
0010
0000
0100
0000
0001
1000
,
0010
1000
0010
0000
0100
0000
0010
1000
,
0001
0000
0010
0000
0100
0000
0010
0100
,
0010
0100
1000
0001
,
0100
0010
1000
0001
,
0100
0000
0001
0000
0010
0100
1000
0020
,
0000
0130
0010
0000
0100
0000
0100
0000
,
0001
0000
0000
0000
1000
0000
0000
0000
0001
0000
0000
0010
0000
0000
0100
0000
,
1000
0000
0001
0000
1000
0000
0010
0100
,
0001
0000
0000
0000
0100
0000
0000
0000
0001
0000
0000
0010
0000
0000
0100
0000
,
1000
0000
0100
0000
1000
0000
0010
0100
,
0001
0000
0000
0000
1000
0000
0000
0000
0001
0000
0000
0010
0000
0000
0100
0000
,
1000
0000
0001
0000
1000
0100
0010
0000
,
0001
0000
1000
0000
0100
0000
0000
0000
0010
0000
0000
0010
0000
0000
0100
0000
,
0010
0000
0001
0000
0100
0010
0100
0000
;

//---------------dance-single - ----------------
#NOTEDATA:;
#CHARTNAME:;
#STEPSTYPE:dance-single;
#DESCRIPTION:;
#CHARTSTYLE:;
#DIFFICULTY:Easy;
#METER:6;
#RADARVALUES:0.305544,0.295591,0.007082,0.035411,0.000000,302.000000,301.000000,1.000000,5.000000,0.000000,0.000000,0.000000,0.000000,0.000000,0.305544,0.295591,0.007082,0.035411,0.000000,302.000000,301.000000,1.000000,5.000000,0.000000,0.000000,0.000000,0.000000,0.000000;
#CREDIT:Karl with a K as repetitionlegitimizes;
#NOTES:
0000
0000
0000
0000
,
0000
0000
0000
0000
,
0000
0000
0000
0000
,
0000
0000
0000
0000
,
0000
0000
0000
0000
,
1000
0100
1000
0000
,
0001
0100
0001
0000
,
1000
0010
1000
0000
,
0001
0010
0001
0000
,
1000
0100
0010
0000
,
0001
0100
0010
0010
,
1000
1000
0001
0001
,
1000
1000
0001
1000
,
0100
0010
0010
0001
,
1000
0010
0010
0100
,
0100
0010
0010
1000
,
0001
0010
0010
0000
,
0001
0000
0100
0000
,
0010
0000
1000
0000
,
0100
0000
0100
0000
,
0010
0000
0100
0000
,
1000
1000
0001
0010
,
0001
0001
1000
0010
,
0100
0100
0001
1000
,
0100
0100
1000
0001
,
0010
0001
0100
0001
,
1000
0001
0100
0001
,
1000
0100
0010
0100
,
1000
1000
0010
0100
,
0010
1000
0100
1000
,
0001
1000
0100
1000
,
0001
0100
0010
0100
,
0001
0001
0010
0100
,
0100
1000
0010
1000
,
0001
1000
0010
1000
,
0001
0010
0100
0010
,
0001
0001
0100
0010
,
0100
0001
0010
0001
,
1000
0001
0010
0001
,
1000
0010
0100
0010
,
1000
1000
0100
0010
,
0002
0000
0000
0000
,
0203
0000
0000
0000
,
0320
0000
0000
0000
,
2030
0000
3200
0000
,
1300
0010
1000
0000
,
0001
0010
0001
0000
,
1000
0100
1000
0000
,
0001
0100
0001
1000
,
1000
0100
0010
0010
,
0001
0100
0010
0010
,
1000
0010
0100
0100
,
0001
0010
0100
0100
,
1000
0001
0010
0010
,
0001
1000
0010
0010
,
1000
0001
0100
0100
,
0001
1000
0100
0100
,
1000
0000
0010
0010
,
0010
0100
0100
0100
,
0001
0010
0010
0010
,
0100
0000
0000
0000
,
1000
0000
0100
0000
,
0010
0000
0001
0000
,
0100
0000
0100
0000
,
0010
0000
0100
0010
,
1000
1000
0001
0100
,
0001
0001
1000
0100
,
0010
0010
0001
1000
,
0010
0010
1000
0001
,
0100
0001
0010
0001
,
1000
0001
0010
0001
,
1000
0010
0100
0010
,
1000
1000
0100
0010
,
0100
1000
0010
1000
,
0001
1000
0010
1000
,
0001
0010
0100
0010
,
0001
0001
0100
0010
,
0010
1000
0100
1000
,
0001
1000
0100
1000
,
0001
0100
0010
0100
,
0001
0001
0010
0100
,
0100
1000
0010
1000
,
0001
1000
0010
1000
,
0001
0010
0100
0010
,
0001
0001
0100
0010
,
0100
0000
0010
0000
,
1000
0000
0100
0000
,
0010
0000
0001
0000
,
0100
0000
0010
0000
,
1000
0000
0001
0000
,
0100
0000
0010
0000
,
1000
0100
0010
0001
,
0010
0100
0010
0110
;

//---------------dance-single - ----------------
#NOTEDATA:;
#CHARTNAME:;
#STEPSTYPE:dance-single;
#DESCRIPTION:;
#CHARTSTYLE:;
#DIFFICULTY:Beginner;
#METER:3;
#RADARVALUES:0.210441,0.262748,0.007082,0.028329,0.000000,208.000000,207.000000,1.000000,4.000000,0.000000,0.000000,0.000000,0.000000,0.000000,0.210441,0.262748,0.007082,0.028329,0.000000,208.000000,207.000000,1.000000,4.000000,0.000000,0.000000,0.000000,0.000000,0.000000;
#CREDIT:Karl with a K;
#NOTES:
0000
0000
0000
0000
,
0000
0000
0000
0000
,
0000
0000
0000
0000
,
0000
0000
0000
0000
,
0000
0000
0000
0000
,
1000
0000
0010
0000
,
1000
0000
0001
0000
,
0001
0000
0010
0000
,
0001
0000
1000
0000
,
1000
0000
0100
0000
,
1000
0000
0001
0000
,
0001
0000
0100
0000
,
0001
0000
1000
0000
,
1000
0000
0100
0000
,
0010
0000
0001
0000
,
0001
0000
0100
0000
,
0010
0000
1000
0000
,
0001
0000
0000
0000
,
0010
0000
0000
0000
,
0100
0000
0000
0000
,
1000
0000
0000
0000
,
1000
0000
0010
0010
,
0010
0000
1000
0000
,
0001
0000
0010
0010
,
0010
0000
0001
0000
,
0010
0010
0010
0000
,
0100
0100
0100
0000
,
1000
1000
1000
0000
,
0001
0000
0001
0000
,
0100
0100
0100
0000
,
0010
0010
0010
0000
,
1000
1000
1000
0000
,
0001
0001
0001
0001
,
0001
0001
0001
0000
,
1000
1000
1000
0000
,
0010
0010
0010
0000
,
0100
0000
0100
0000
,
0001
0001
0001
0000
,
1000
1000
1000
0000
,
0100
0100
0100
0000
,
0010
0010
0010
0000
,
0002
0000
0003
0000
,
2000
0000
3000
0000
,
0002
0000
0003
0000
,
2000
0000
3000
0000
,
0001
0000
0010
0000
,
0001
0000
1000
0000
,
1000
0000
0010
0000
,
1000
0000
0001
0000
,
0001
0000
0100
0000
,
0001
0000
1000
0000
,
1000
0000
0100
0000
,
1000
0000
0001
0000
,
0001
0001
0001
0000
,
0010
0010
0010
0000
,
0100
0100
0100
0000
,
1000
1000
1000
0000
,
0010
0010
0010
0000
,
0100
0100
0100
0000
,
0001
0001
0001
0000
,
1000
0000
0000
0000
,
1000
0000
0000
0000
,
0010
0000
0000
0000
,
0100
0000
0000
0000
,
0001
0001
0001
0000
,
0001
0000
0100
0100
,
0100
0000
0001
0000
,
1000
0000
0100
0100
,
0100
0000
1000
0000
,
0100
0100
0100
0000
,
0010
0010
0010
0000
,
0001
0001
0001
0000
,
1000
0000
1000
0000
,
0010
0010
0010
0000
,
0100
0100
0100
0000
,
0001
0001
0001
0000
,
1000
1000
1000
1000
,
1000
1000
1000
0000
,
0001
0001
0001
0000
,
0100
0100
0100
0000
,
0010
0000
0010
0000
,
1000
1000
1000
0000
,
0001
0001
0001
0000
,
0010
0010
0010
0000
,
0100
0100
0100
0000
,
1000
0000
0001
0000
,
1000
0000
0001
0000
,
0100
0000
0010
0000
,
0100
0000
0010
0000
,
1000
0000
0001
0000
,
1000
0000
0001
0000
,
0010
0000
0100
0000
,
0010
0000
0100
0110
;
