#VERSION:0.83;
#TITLE:110°E Maelstrom;
#SUBTITLE:;
#ARTIST:Z-I-v Sound Team "Karl with a K";
#TITLETRANSLIT:;
#SUBTITLETRANSLIT:;
#ARTISTTRANSLIT:;
#GENRE:PROGRESSIVE BULLET HELL CORE;
#ORIGIN:;
#CREDIT:;
#BANNER:110 degrees E Maelstrom banner.png;
#BACKGROUND:110 degrees E Maelstrom bg.png;
#PREVIEWVID:;
#JACKET:110 degrees E Maelstrom jk.png;
#CDIMAGE:110 degrees E Maelstrom alt jk.png;
#DISCIMAGE:110 degrees E Maelstrom file graphic.png;
#LYRICSPATH:;
#CDTITLE:;
#MUSIC:110 degrees E Maelstrom.ogg;
#OFFSET:-0.000000;
#SAMPLESTART:101.454544;
#SAMPLELENGTH:15.000000;
#SELECTABLE:YES;
#BPMS:0.000=110.000;
#STOPS:;
#DELAYS:;
#WARPS:;
#TIMESIGNATURES:0.000=4=4;
#TICKCOUNTS:0.000=4;
#COMBOS:0.000=1;
#SPEEDS:0.000=1.000=0.000=0;
#SCROLLS:0.000=1.000;
#FAKES:;
#LABELS:0.000=Song Start;
#BGCHANGES:;
#KEYSOUNDS:;
#ATTACKS:
;

//---------------dance-single - XO- DS JA- FL RH- TS JU-----------------
#NOTEDATA:;
#CHARTNAME:;
#STEPSTYPE:dance-single;
#DESCRIPTION:XO- DS JA- FL RH- TS JU-;
#CHARTSTYLE:;
#DIFFICULTY:Challenge;
#METER:17;
#RADARVALUES:0.834791,1.029719,0.170068,0.557823,1.353742,859.000000,834.000000,25.000000,82.000000,0.000000,0.000000,0.000000,0.000000,0.000000,0.834791,1.029719,0.170068,0.557823,1.353742,859.000000,834.000000,25.000000,82.000000,0.000000,0.000000,0.000000,0.000000,0.000000;
#CREDIT:Karl with a K;
#NOTES:
// measure 0
0000
0000
0000
0000
,  // measure 1
0000
0000
0000
0000
,  // measure 2
0000
0000
0000
0002
,  // measure 3
0000
0000
0010
0000
0000
0000
0000
0000
0203
0000
0000
0320
0000
0000
2030
0000
,  // measure 4
3001
0000
1002
0000
0000
1000
0000
0000
0010
0000
0000
0000
0013
0100
2000
0000
,  // measure 5
0000
0001
0000
0000
3010
0100
0010
1000
0002
0000
0000
0000
0000
0000
0000
0000
,  // measure 6
0000
0000
0000
0000
0000
0000
0000
0000
0000
0000
1000
0000
0010
0000
1003
0100
,  // measure 7
0000
0120
0000
0000
0031
0000
0100
0000
0010
0000
1000
0010
0000
0210
0000
0000
,  // measure 8
0301
0010
0100
1000
0001
0100
0000
0120
0000
0000
1030
0000
0100
0000
0010
0000
,  // measure 9
0001
0010
0000
0210
0000
0000
1300
0010
0100
0010
1000
0010
1000
0001
0200
0000
,  // measure 10
0010
0000
0001
0000
0001
0000
0310
1000
0100
0020
0000
0000
0031
0010
0001
1000
,  // measure 11
0100
0000
1000
0000
0000
0000
0020
0000
0000
0000
0000
0000
0130
0000
0000
0000
0001
0000
0000
0000
0010
0000
0000
0000
0001
0010
0002
0000
0000
0000
0023
0000
,  // measure 12
0000
0000
0000
0000
0031
0000
0000
0000
1000
0001
1000
0000
0010
0000
1000
0001
1000
0000
0010
0000
0100
0001
0100
0000
0010
0000
1000
0001
1000
0000
0100
0000
,  // measure 13
0010
0100
0010
0000
0100
0000
1000
0001
1000
0000
0100
0000
0010
0001
0010
0000
0100
1000
0100
1000
0002
0000
0000
0000
0013
0000
0001
1000
0001
0000
0100
0000
,  // measure 14
0010
1000
0010
0000
0100
0000
0001
1000
0001
0000
0010
0000
0100
0010
0100
0000
0010
0000
0001
1000
0001
0000
0100
0000
0010
1000
0010
0000
0100
0001
0100
0001
,  // measure 15
2000
0000
0000
0000
3001
0000
1000
0100
1000
0000
0010
0000
1000
0001
1000
0000
0001
0000
1000
0100
1000
0000
0010
0000
1000
0001
1000
0000
0001
1000
0001
0100
,  // measure 16
0001
0000
0010
0000
0001
1000
0001
0000
1000
0100
0010
0100
0020
0000
0000
0000
0031
0000
0100
0010
0100
0000
1000
0000
0100
0010
0100
0000
0001
0000
0010
0100
,  // measure 17
0010
0000
1000
0000
0010
0100
0010
0000
2000
0000
0000
0000
0000
0000
0000
0000
0000
0000
0000
0000
3001
0000
0000
0000
0100
0000
0000
0000
2000
0000
0000
0000
,  // measure 18
0000
0001
0000
0000
3001
0100
0010
1000
0001
1000
0002
0010
0000
0000
0010
0000
,  // measure 19
1003
0000
0100
0000
1000
0002
0000
0000
0100
0000
0103
0001
1000
0010
1000
0100
,  // measure 20
2000
0000
0100
0000
3100
0000
1100
0000
0000
1000
0020
0000
0100
0000
0130
0000
,  // measure 21
0001
0000
0010
0000
0100
0000
1000
0000
0100
0000
0010
0000
0001
0000
0000
0000
0100
0000
0000
0000
0010
0000
0100
0010
0100
0000
0010
0000
1000
0000
0100
0000
,  // measure 22
0010
0000
0000
0000
0000
0000
0001
0000
0000
0000
0000
0000
0002
0000
0000
0000
0000
0000
0010
0000
0000
0000
0000
0000
0103
0000
0000
0000
0000
0000
0001
0000
0000
0000
0000
1000
0020
0000
0000
0000
0000
0000
0100
0000
0000
0000
0000
0000
,  // measure 23
0000
0130
0010
1000
0100
0001
0100
0000
2002
0000
3000
1003
0100
0010
0001
0010
,  // measure 24
0001
0100
0002
0000
0000
0100
0000
0000
0103
0000
0010
0000
2000
0000
0000
0100
,  // measure 25
0000
0000
3001
0100
0010
1000
0001
1000
0020
0100
0000
0000
0130
0000
0001
0010
,  // measure 26
0100
0000
0000
1000
0000
0000
0010
0000
0000
0100
0000
0000
0001
0000
0000
1000
0000
0000
0001
0000
0000
0100
0000
0000
0002
0000
0000
0000
0000
0000
1003
0000
0000
0000
0000
0100
0010
0000
0000
0000
0000
0000
0011
0000
0000
0000
0000
0000
,  // measure 27
0001
1000
0010
0000
1000
1000
0100
0010
0001
0100
0010
1000
0100
0010
0001
0000
,  // measure 28
0100
0000
0001
0000
0020
0000
0000
0000
0031
0000
1000
0001
1000
0000
0010
0000
1000
0001
1000
0000
0001
0000
0000
0000
1001
0000
0000
0000
2000
0000
0000
0000
,  // measure 29
3010
0000
0100
0000
0001
0000
0010
0000
0100
0000
1000
0001
1000
0000
0100
0000
0010
0000
0001
0000
1000
0000
0000
0000
1000
0000
0010
0000
1000
0000
0000
0000
,  // measure 30
0010
0000
0100
0000
0010
0000
0100
0000
0001
0000
0100
0001
0100
0000
0001
0000
1000
0000
0100
0000
1000
0000
0000
0000
1100
0000
1000
0000
0001
0000
0000
0000
,  // measure 31
0011
0000
0000
0000
0001
0000
0010
0000
0100
0000
0010
0001
0010
0000
0001
0000
1000
0000
0010
0000
0100
0000
0000
0000
0010
0000
1000
0000
0010
0000
0000
0000
,  // measure 32
1000
0000
0100
0000
0010
0000
0001
0000
1000
0000
0010
1000
0010
0000
0100
0000
0001
0000
0010
0000
0100
0000
0000
0000
0010
0000
1000
0000
0010
0000
0000
0000
,  // measure 33
0001
0000
0100
0000
0020
0000
0100
0000
0130
0000
0001
1000
0001
0000
0010
0000
0100
0000
1000
0000
0010
0000
0100
0000
0001
0000
0100
0010
0100
0000
0010
0000
,  // measure 34
1000
0000
0100
0000
0020
0000
0000
0000
0100
0000
0031
1000
0001
0000
0010
0000
0001
0000
0100
0000
0002
0000
0000
0000
0203
0000
0010
0000
0310
0000
1000
0000
,  // measure 35
0020
0000
0000
0000
1030
0000
0100
0000
0010
0000
0100
0010
0200
0000
0000
0000
0302
0000
0000
0000
0203
0000
0000
0000
1300
0000
0010
0000
0100
0000
1000
0000
,  // measure 36
0100
0000
0010
0000
1000
0000
0100
0000
0010
0000
0001
1000
0001
0000
0010
0000
0100
0000
0001
0000
0100
0000
1000
0000
0001
0000
0100
0000
0010
0000
1000
0000
,  // measure 37
0001
0000
0000
0000
0020
0000
0000
0000
0000
0000
0000
0000
0000
0000
0000
0000
0000
0000
0000
0000
0000
0000
0000
0000
0031
0000
0000
0000
0020
0000
0000
0000
0000
0000
0000
0000
0000
0000
0000
0000
0000
0000
0000
0000
0000
0000
0000
0000
0130
0000
0000
0000
0000
0000
0000
0000
0000
0000
0000
0000
1000
0000
0000
0000
0000
0000
0100
0000
0000
0000
0000
0000
1000
0000
0000
0000
0000
0000
0000
0000
0000
0000
0000
0000
0001
0000
0000
0000
0000
0000
0000
0000
0000
0000
0000
0000
0100
0000
0000
0000
0000
0000
0000
0000
0000
0000
0000
0000
0010
0000
0000
0000
0000
0000
0000
0000
0000
0000
0000
0000
0100
0000
0000
0000
0000
0000
0000
0000
0000
0000
0000
0000
0001
0000
0000
0000
0000
0000
0000
0000
0000
0000
0000
0000
0020
0000
0000
0000
0000
0000
0000
0000
0000
0000
0000
0000
0000
0000
0000
0000
0000
0000
0000
0000
0000
0000
0000
0000
0031
0000
0000
0000
0000
0000
0000
0000
0000
0000
0000
0000
0000
0000
0000
0000
0000
0000
0000
0000
0000
0000
0000
0000
,  // measure 38
0001
0000
0100
0000
0010
0000
0000
0000
1000
0000
0100
0010
0100
0000
0010
0001
0010
0000
0100
0000
1000
0000
0100
0000
0010
0000
0100
0000
1000
0000
0010
0000
,  // measure 39
0100
0010
1000
0010
0100
0010
0001
0010
0100
0010
1000
0100
0001
0100
0010
0010
,  // measure 40
0010
0000
0010
0000
0001
0000
0001
0000
1000
0010
1000
0010
0100
0001
0100
0001
1000
0001
1000
0001
1000
0100
0010
0000
0001
1000
0001
0000
0100
0001
0100
0000
,  // measure 41
0010
1000
0010
0000
1000
0010
1000
0001
0020
0000
0000
0000
0000
0000
0000
0000
0000
0000
0000
0000
0032
0000
0000
0000
2003
0000
0000
0000
3200
0000
0000
0000
,  // measure 42
2300
0000
0000
0000
0000
0000
3001
0100
0010
1000
0010
0100
0001
0010
0002
0000
,  // measure 43
0000
0000
0000
0000
0000
0000
2003
0000
0000
0000
0000
0000
3002
0000
0000
0000
0000
0000
0103
0000
0000
0000
0000
0000
0001
0020
0000
0000
0000
0000
0000
0000
0000
0000
0000
0000
0000
0000
0000
0000
0000
0000
0031
0000
0000
0000
0000
0000
,  // measure 44
1000
0100
0010
0100
2000
0000
0000
0000
3000
0000
1000
0000
0001
0000
0100
0000
,  // measure 45
0010
1000
0001
0010
0001
1000
0001
0100
0001
1000
0200
0000
0010
0000
0010
0000
,  // measure 46
1000
0000
2300
0000
3002
0000
0203
0000
0301
1000
0001
1000
0001
1000
0010
1000
,  // measure 47
1100
0000
1010
0000
1002
0000
0103
0001
1000
0000
0012
0000
2003
0000
3100
0000
,  // measure 48
0021
0000
0031
1000
0001
0000
1000
0010
0100
0001
1000
0001
1000
0010
1000
0100
,  // measure 49
1000
0000
0000
0000
0000
0000
0000
0000
0000
0000
0000
0000
0000
0000
0000
0000
0000
0000
0000
0000
0000
0000
0000
0000
2010
0000
0000
0000
0000
0000
0000
0000
0000
0000
0000
0000
0000
0000
0000
0000
0000
0000
0000
0000
0000
0000
0000
0000
3002
0000
0000
0000
0000
0000
0000
0000
0000
0000
0000
0000
0000
0000
0000
0000
0000
0000
0000
0000
0000
0000
0000
0000
0103
0000
0000
0000
0000
0000
0000
0000
0000
0000
0000
0000
0000
0000
0000
0000
0000
0000
0000
0000
0000
0000
0000
0000
0001
0000
0000
0000
0020
0000
0000
0000
0000
0000
0000
0000
0000
0000
0000
0000
0000
0000
0000
0000
0000
0000
0000
0000
0031
0000
0000
0000
0000
0000
0000
0000
0000
0000
0000
0000
0010
0000
0000
0000
0000
0000
0000
0000
0000
0000
0000
0000
0100
0000
0000
0000
0000
0000
0000
0000
0000
0000
0000
0000
1000
0000
0000
0000
0000
0000
0010
0000
0000
0000
0000
0000
1000
0000
0000
0000
0000
0000
0000
0000
0000
0000
0000
0000
0010
0000
0000
0000
0000
0000
0000
0000
0000
0000
0000
0000
,  // measure 50
0010
0010
0100
0001
0012
0000
0013
0001
1000
0000
2100
0000
3002
0000
0103
0000
,  // measure 51
0010
1000
0100
0010
0001
0100
0010
1000
1010
0000
0011
0001
0020
0000
0100
0000
,  // measure 52
0100
0000
2030
0000
3002
0000
0203
0000
0310
0000
0011
0000
0011
0000
0001
0100
,  // measure 53
1000
0001
0010
0100
0001
0010
0001
0010
0001
0010
0001
0100
0010
1000
0100
1000
,  // measure 54
0001
0000
0100
0000
0001
0000
0100
0000
0001
0000
0100
0000
0001
0000
0010
0000
0100
0000
0010
0000
0000
0011
0000
0000
1000
0000
0100
0000
1000
0000
0010
0000
,  // measure 55
1000
0000
0000
0010
0000
0000
1000
0000
0010
0000
0100
0000
0010
0000
0000
1000
0000
0000
0100
0000
0000
1000
0000
0000
0001
0000
0000
1000
0000
0000
0100
0000
0000
1000
0000
0000
0010
0000
0000
0000
0000
0000
0120
0000
0000
0000
2030
0000
,  // measure 56
0000
0000
0000
0000
0000
0000
0000
0000
3002
0000
0000
0000
0000
0000
0000
0000
0000
0000
0000
0000
0000
0000
0000
0000
1003
0000
0000
0000
0000
0000
0000
0000
0000
0000
0000
0000
0100
0000
0000
0000
0000
0000
0000
0000
0000
0000
0000
0000
1000
0000
0000
0000
0000
0000
0100
0000
0000
0000
0000
0000
1000
0000
0000
0000
0000
0000
0100
0000
0000
0000
0000
0000
1000
0000
0000
0000
0000
0000
0000
0000
0000
0000
0000
0000
0001
0000
0000
0000
0000
0000
0100
0000
0000
0000
0000
0000
0001
0000
0000
0000
0000
0000
0100
0000
0000
0000
0000
0000
0001
0000
0000
0000
0000
0000
0000
0000
0000
0000
0000
0000
1000
0000
0000
0000
0000
0000
0000
0000
0000
0000
0000
0000
0010
0000
0000
0000
0000
0000
0000
0000
0000
0000
0000
0000
0001
0000
0000
0000
0000
0000
0000
0000
0000
0000
0000
0000
0010
0000
0000
0000
0000
0000
0000
0000
0000
0000
0000
0000
0000
0000
0000
0000
0000
0000
1000
0000
0000
0000
0000
0000
0000
0000
0000
0000
0000
0000
0000
0000
0000
0000
0000
0000
,  // measure 57
0001
0010
0001
0010
0001
0000
1000
0010
1000
0010
1000
0000
0001
0000
0010
0000
1000
0000
0010
0000
0000
0001
0000
0000
1000
0010
1000
0010
0100
0000
0001
0010
,  // measure 58
0001
0000
0000
0000
0000
0000
0010
0000
0000
0000
0000
0000
0100
0000
0000
0000
0000
0000
0000
0000
0000
0000
0000
0000
0010
0000
0000
0000
0000
0000
0000
0000
0001
0000
0000
0000
0000
0000
0000
0000
1000
0000
0000
0000
0000
0000
0000
0000
0010
0000
0000
0000
0000
0000
0000
0000
0000
0000
0000
0000
1000
0000
0000
0000
0000
0000
0000
0000
0000
0000
0000
0000
0001
0000
0000
0000
0000
0000
0000
0000
0000
0000
0000
0000
0100
0000
0000
0000
0000
0000
0000
0000
0000
0000
0000
0000
0001
0000
0000
0000
0000
0000
0000
0000
0000
0000
0000
0000
0010
0000
0000
0000
0000
0000
0100
0000
0000
0000
0000
0000
0010
0000
0000
0000
0000
0000
0000
0000
0000
0000
0000
0000
0001
0000
0000
0000
0000
0000
0000
0000
0000
0000
0000
0000
0200
0000
0000
0000
0000
0000
0000
0000
0000
0000
0000
0000
0000
0000
0000
0000
0000
0000
0000
0000
0000
0000
0000
0000
1300
0000
0000
0000
0000
0000
0000
0000
0000
0000
0000
0000
0100
0000
0000
0000
0000
0000
0000
0000
0000
0000
0000
0000
,  // measure 59
0001
1000
0002
0000
0000
0100
0000
0000
1003
0000
0100
0000
2000
0000
0000
0100
,  // measure 60
0000
0000
0100
0000
3001
1000
0001
0010
0002
0000
0000
0100
0000
0000
1003
0000
,  // measure 61
0100
0000
2000
0000
0000
0100
0000
0000
3100
0000
1000
0100
0010
0001
1000
0010
,  // measure 62
0100
1000
0100
0010
1000
0100
0010
0001
0010
0100
1000
0100
0010
1000
0010
0100
,  // measure 63
1000
0000
0010
0000
0100
0000
0100
0000
0001
0000
0010
0100
0010
0000
1000
0000
0010
0100
0010
0000
0001
0100
0010
1000
0001
0010
0100
1000
0001
0000
0100
0010
,  // measure 64
0100
0000
1000
0000
0100
0010
0100
0000
0001
0010
0100
1000
0001
0010
0001
0000
1000
0010
1000
0000
0000
0000
0001
0000
0010
0000
0001
0000
1000
0000
0000
0000
,  // measure 65
1000
0010
1000
0001
0000
0001
0100
0001
1000
0000
1000
0100
1000
0001
0000
0000
;

//---------------dance-single - XO- DS- JA- RH- TS JU-----------------
#NOTEDATA:;
#CHARTNAME:;
#STEPSTYPE:dance-single;
#DESCRIPTION:XO- DS- JA- RH- TS JU-;
#CHARTSTYLE:;
#DIFFICULTY:Hard;
#METER:13;
#RADARVALUES:0.583090,0.738712,0.122449,0.469388,0.659864,600.000000,582.000000,18.000000,69.000000,0.000000,0.000000,0.000000,0.000000,0.000000,0.583090,0.738712,0.122449,0.469388,0.659864,600.000000,582.000000,18.000000,69.000000,0.000000,0.000000,0.000000,0.000000,0.000000;
#CREDIT:Karl with a K;
#NOTES:
// measure 0
0000
0000
0000
0000
,  // measure 1
0000
0000
0000
0000
,  // measure 2
0000
0000
0000
2000
,  // measure 3
0000
0000
0001
0000
0000
0000
0000
0000
3200
0000
0000
0320
0000
0000
0031
0000
,  // measure 4
0001
0000
2000
0000
0000
0100
0000
0000
0001
0000
0000
0000
3001
0100
0020
0000
,  // measure 5
0000
0100
0000
0000
1030
0000
1000
0000
0000
0000
0000
0000
0000
0000
0000
0000
,  // measure 6
0000
0000
0000
0000
0000
0000
0000
0000
0000
0000
0000
0000
0000
0000
1000
0100
,  // measure 7
0000
2000
0000
0000
3010
0000
0100
0000
0001
0000
0001
0200
0000
0320
0000
0000
,  // measure 8
1030
0000
1000
0000
0001
0100
0000
0002
0000
0000
0013
0000
0100
0000
1000
0000
,  // measure 9
1000
0100
0000
2000
0000
0000
3001
0010
0001
0000
2000
0010
0000
3020
0000
0000
,  // measure 10
0130
0001
1000
0002
0023
0000
0130
0110
,  // measure 11
1000
0200
0000
2300
0000
0000
3001
0000
0100
0000
0010
0000
2000
0010
0000
3020
,  // measure 12
0000
0000
1030
0001
1000
0001
0010
0001
0100
0001
0000
0001
1000
0100
0010
0000
,  // measure 13
0100
1000
0010
1000
0010
1000
0000
1000
0001
0010
0100
0000
0100
1000
0010
1000
,  // measure 14
0000
1000
0001
0010
0100
0000
0010
0001
0100
0001
0010
0001
0000
0001
1000
0010
,  // measure 15
0100
0000
0001
0010
0001
0000
0100
0000
0010
0000
1000
0000
0100
0000
0002
0000
,  // measure 16
0100
0000
0203
0000
1300
0000
0010
0100
0020
0000
2030
0000
3200
0000
1300
0000
,  // measure 17
1000
0020
0000
0000
0032
0000
0000
0000
0000
0000
0013
0000
1000
0000
0001
0000
,  // measure 18
0000
0001
0000
0000
0001
1000
0010
0000
1000
0000
0100
1000
0000
0000
1000
0000
,  // measure 19
0001
0000
0100
0000
0001
1000
0000
0000
1000
0000
1000
0001
0010
0000
0001
0000
,  // measure 20
0020
0000
0001
0000
0032
0000
0103
0000
0000
0001
2000
0000
0001
0000
3001
0000
,  // measure 21
0001
0010
0001
0010
0000
0100
1000
0000
0100
0000
0010
0000
0001
0000
0100
0000
,  // measure 22
0010
0200
0000
0310
0100
0001
0002
0000
,  // measure 23
0000
0000
1003
0000
1001
0000
0001
0000
0201
0000
0000
0000
0301
0010
0100
0010
,  // measure 24
0001
0000
2000
0000
0000
0001
0000
0000
3001
0000
0110
0000
2000
0000
0000
3200
,  // measure 25
0000
0000
1300
0010
0100
0010
1000
0000
0001
0100
0000
0000
0100
0000
0010
0000
,  // measure 26
1000
0002
0100
1003
0001
0100
0010
1000
,  // measure 27
1100
0000
1001
0000
1000
0100
0010
0001
0100
0001
0100
0001
1000
0000
0100
0000
,  // measure 28
2000
0000
3002
0000
0013
0001
0010
0001
1000
0000
0010
0000
0110
0000
0010
1000
,  // measure 29
0010
1000
0001
0000
0010
0100
1000
0001
0100
0001
1000
0000
0001
0100
0001
0000
,  // measure 30
1000
0000
1100
0000
0001
1000
0100
1000
0001
0000
0100
0000
0002
0000
2003
0000
,  // measure 31
3010
1000
0010
1000
0001
0000
0010
0100
0010
0100
0010
0001
0010
0001
1000
0000
,  // measure 32
0010
0100
0001
1000
0100
1000
0002
0000
0100
0000
1003
0000
0001
0000
1001
0000
,  // measure 33
1000
0100
0010
0001
1000
0000
0001
0100
0010
1000
0001
0000
1000
0100
0010
0100
,  // measure 34
1000
0000
0010
0000
0110
0000
0001
0100
0010
1000
0001
0000
1000
0100
0010
0001
,  // measure 35
1000
0000
0001
0100
0010
0100
0001
0000
1000
0000
1100
0000
0001
0010
0100
1000
,  // measure 36
0001
0000
0000
0000
1000
0000
0010
0000
0100
0000
0001
1000
0000
0000
0000
0000
0001
0000
0010
0000
0100
0000
0010
0000
0001
0000
0000
0000
0100
0000
0100
0000
,  // measure 37
0010
0000
0000
0000
1000
0000
0010
0000
0100
0000
0001
1000
0000
0000
0000
0000
0001
0000
0010
0000
0100
0000
1000
0000
0001
0000
0000
0000
1000
0000
0010
0000
,  // measure 38
0100
0010
1000
0000
0001
0010
0010
0001
1000
0100
0010
0001
0010
0100
1000
0010
,  // measure 39
0100
0001
0100
0010
1000
0001
0010
0100
1000
0100
0010
0001
0100
0010
1000
0010
,  // measure 40
1000
0010
1000
0010
0100
0001
0100
0001
0100
0001
0010
0001
0100
0000
0010
1000
,  // measure 41
0100
0000
0100
1000
0020
0000
0000
0000
0000
0000
0000
0000
0000
0000
0000
0000
,  // measure 42
2030
0000
0000
3200
,  // measure 43
0000
0000
0320
0000
,  // measure 44
0000
0000
0032
0000
0000
2003
0000
0000
,  // measure 45
3002
0000
0000
2003
0000
0000
3001
0100
,  // measure 46
0100
1000
0100
0100
0010
1000
0100
0001
,  // measure 47
0100
1000
0022
0000
0033
0010
0001
0100
,  // measure 48
2020
0000
0000
0000
3030
0000
1000
0100
0010
0000
0001
0000
0202
0000
0000
0000
,  // measure 49
0303
0000
0001
0000
0100
0000
0010
0000
2010
0000
0000
3200
0000
0010
0310
0001
,  // measure 50
0010
0000
0001
0001
2000
0000
0010
0000
3002
0000
0013
0000
0001
0000
0100
0000
,  // measure 51
0010
1000
0100
0010
0100
0000
0010
0001
0100
0010
0100
0000
2000
0000
3200
0000
,  // measure 52
0301
0000
2000
0000
3200
0000
0302
0000
2003
0000
3002
0000
0203
0000
0310
0001
,  // measure 53
0100
0001
0100
0000
0010
1000
0010
1000
0010
0000
1000
0100
0010
0001
0100
0000
,  // measure 54
0001
0000
0010
0000
0001
0000
0010
0000
0001
0000
0000
0000
0100
0000
0010
0000
1000
0000
0010
0000
0000
1000
0000
0000
0100
0000
0000
0000
0100
0000
0010
0000
,  // measure 55
0000
0000
0000
0010
0000
0000
0001
0000
0000
0000
0000
0000
0001
0000
0000
1000
0000
0000
0001
0000
0000
0100
0000
0000
0002
0000
0000
0000
0000
0000
0203
0000
0000
0000
0000
0000
0320
0000
0000
0000
0000
0000
1030
0000
0000
0000
0001
0000
,  // measure 56
0000
0000
0000
0000
0000
0000
0000
0000
1000
0000
0000
0000
0000
0000
0000
0000
0000
0000
0000
0000
0000
0000
0000
0000
0001
0000
0000
0000
0000
0000
0000
0000
0000
0000
0000
0000
0000
0000
0000
0000
0000
0000
0000
0000
0000
0000
0000
0000
1000
0000
0000
0000
0000
0000
0000
0000
0000
0000
0000
0000
0100
0000
0000
0000
0000
0000
0000
0000
0000
0000
0000
0000
0010
0000
0000
0000
0000
0000
0000
0000
0000
0000
0000
0000
0100
0000
0000
0000
0000
0000
0000
0000
0000
0000
0000
0000
0010
0000
0000
0000
0000
0000
0000
0000
0000
0000
0000
0000
0001
0000
0000
0000
0000
0000
0000
0000
0000
0000
0000
0000
1000
0000
0000
0000
0000
0000
0000
0000
0000
0000
0000
0000
0010
0000
0000
0000
0000
0000
0000
0000
0000
0000
0000
0000
0100
0000
0000
0000
0000
0000
0000
0000
0000
0000
0000
0000
0001
0000
0000
0000
0000
0000
0000
0000
0000
0000
0000
0000
0000
0000
0000
0000
0000
0000
0100
0000
0000
0000
0000
0000
0000
0000
0000
0000
0000
0000
0000
0000
0000
0000
0000
0000
,  // measure 57
0001
0000
0010
0000
0100
0000
0010
0000
0100
0000
1000
0000
0001
0000
0010
0000
0100
0000
1000
0000
0000
0100
0000
0000
1000
0000
0010
0000
0100
0000
1000
0000
,  // measure 58
0100
0010
1000
0000
1000
0100
0010
0000
1000
0010
0001
0010
0001
0000
1001
0000
,  // measure 59
0000
0000
1000
0000
0000
0100
0000
0000
1000
0000
0000
0000
0001
0000
0000
0100
,  // measure 60
0000
0000
0001
0000
0000
0000
1000
0001
1000
0000
0000
0010
0000
0000
1000
0000
,  // measure 61
0000
0000
0001
0000
0000
0010
0000
0000
0001
0000
0000
0000
1000
0001
1000
0000
,  // measure 62
0100
0010
0100
0000
0001
0000
0100
0010
0100
0000
1000
0000
0100
0010
0100
0000
,  // measure 63
0010
0000
1001
0000
0001
0000
0100
0010
0100
0000
1000
0000
0100
0010
0100
0000
,  // measure 64
0001
0000
0100
0010
0100
0000
0010
0000
1001
0000
0000
0001
0010
0001
0010
0000
,  // measure 65
0001
1000
0001
1000
0000
0010
1000
0010
1000
0000
0100
0010
0100
0010
0000
0000
;

//---------------dance-single - ----------------
#NOTEDATA:;
#CHARTNAME:;
#STEPSTYPE:dance-single;
#DESCRIPTION:;
#CHARTSTYLE:;
#DIFFICULTY:Medium;
#METER:10;
#RADARVALUES:0.380952,0.425319,0.047619,0.306122,0.159864,392.000000,385.000000,7.000000,45.000000,0.000000,0.000000,0.000000,0.000000,0.000000,0.380952,0.425319,0.047619,0.306122,0.159864,392.000000,385.000000,7.000000,45.000000,0.000000,0.000000,0.000000,0.000000,0.000000;
#CREDIT:Karl with a K;
#NOTES:
0000
0000
0000
0000
,
0000
0000
0000
0000
,
0000
0000
0000
0001
,
0000
0000
0000
0000
0000
0000
0000
0000
0100
0000
0000
0010
0000
0000
1000
0000
,
0000
2000
0000
0000
0100
0000
0000
3002
,
0000
0000
0100
0103
0000
0000
0000
0000
,
0000
0000
0000
0000
0000
0000
0000
1000
,
0000
1000
0000
0000
0010
0000
0100
0000
0001
0000
1000
0000
0000
1000
0000
0000
,
0100
0000
0010
0000
0001
0000
0000
0001
0000
0000
0010
0000
0100
0000
1000
0000
,
0001
0000
0000
0001
0000
0000
0100
0000
0010
0000
1000
0000
0000
1000
0000
0000
,
0001
0000
0100
0000
0001
0000
1000
0000
0000
1000
0000
0000
0100
0000
0010
0000
,
0001
0000
0000
0001
0000
0000
1000
0000
0010
0000
1000
0000
0001
0000
0000
0001
,
0000
0000
1000
0000
0100
0000
1000
0000
0010
1000
0000
0000
0100
0000
0010
0000
,
0001
0000
1000
0000
0100
1000
0000
0000
0010
0000
0100
0000
0001
0000
0010
0001
,
0000
0000
0100
0000
0010
0000
1000
0000
0001
0000
0100
0001
0000
0000
0010
0000
,
0100
0000
1000
0000
0100
1000
0000
0000
0001
0000
0010
0000
0001
0000
1000
0000
,
0010
1000
0000
0000
0010
0000
0100
0000
0001
0000
0010
0001
0000
0000
2000
0000
,
0000
3200
0000
0000
0320
0000
0000
0000
0000
0000
0031
0000
0100
0000
0001
0000
,
0000
0001
0000
0000
1000
0000
0100
0000
1000
0000
0000
0001
0000
0000
1000
0000
,
0010
0000
1000
0000
0000
0001
0000
0000
1000
0000
0100
0000
1000
0000
0000
1000
,
0000
0000
0001
0000
0100
0000
0001
0000
0000
0001
0000
0000
0001
0000
0010
0000
,
0001
0000
0000
1000
0000
0000
0001
0000
0100
0000
0001
0000
0000
0001
0000
0000
,
1000
0000
0100
0000
1000
0000
0000
1000
0000
0000
0001
0000
0100
0000
0010
0000
,
0000
0010
1000
0000
0100
0000
1000
0000
0200
0000
0000
0000
0310
0000
0001
0000
,
1000
0000
0002
0000
0000
0203
0000
0000
0310
0000
1000
0000
0002
0000
0000
0023
,
0000
0000
0130
0000
1000
0000
0001
0000
2000
0010
0000
0000
3020
0000
0130
0000
,
0001
1000
0100
0010
0001
0100
0001
1000
,
0010
0000
0010
0000
1000
0000
1000
0000
0002
0000
0000
0023
0000
0000
0130
0000
,
1000
0000
0010
0000
0020
0000
0000
0230
0000
0000
0301
0000
0010
0000
0002
0000
,
0000
0000
0000
0000
0203
0000
0000
0320
0000
0000
0230
0000
0000
0000
0000
0000
,
0301
0000
1001
0000
2000
0000
0000
3020
0000
0000
0130
0000
0001
0000
0010
0000
,
0020
0000
0000
0230
0000
0000
1300
0000
0010
0000
2000
0000
0000
0000
0000
0000
,
3200
0000
0000
0320
0000
0000
0230
0000
0000
0000
0000
0000
1300
0000
1001
0000
,
0001
0010
0010
0100
0010
0001
1000
0010
,
0100
0001
1001
1000
0010
0010
0100
0010
,
1000
0001
0010
0100
1000
1001
1000
0100
,
0010
0001
0100
0010
1000
0100
0010
0001
,
1001
0001
0100
0010
1000
0100
0010
0001
,
0100
0010
1000
1001
1000
0100
0010
0100
,
0001
0100
1000
0010
0100
0010
0001
0010
,
1000
0100
0010
0001
0100
0010
1000
1000
,
0001
0001
0002
0000
0000
0000
0000
0000
,
0023
0000
0000
0230
,
0000
0000
2300
0000
,
0000
3002
0000
0000
,
0203
0000
0000
0000
0000
0000
0310
0010
,
0010
0010
0000
0000
1000
1000
1000
1000
,
0100
0010
0002
0000
0000
0013
0001
0100
,
0002
0000
0000
1003
0100
0010
0001
2000
,
0000
0000
3010
0000
1000
0000
0100
0000
0020
0000
0000
0032
0000
0000
0103
0000
,
0001
1000
0002
0000
0000
0103
0001
0010
,
0002
0010
0000
1003
0010
0100
0002
0000
,
0000
1003
1000
0100
0020
0001
0031
0020
,
0001
0230
1300
0010
0100
0010
0100
0001
,
1000
0000
0100
0000
0010
0000
0100
0000
0010
0001
0000
0000
0001
0000
0100
0000
,
0010
0000
0000
0100
0000
0000
0010
0000
0000
1000
0000
0000
0001
0000
0000
0010
0000
0000
0100
0000
0000
0010
0000
0100
,
0000
1000
0000
0000
0000
0000
1000
0000
0000
0010
0000
0000
0100
0000
0000
0001
0000
0000
0010
0000
0000
0000
0000
0000
,
0001
0010
0100
1000
0010
0000
1000
0100
,
0010
0001
0100
0010
1000
1000
0001
1001
,
0000
1000
0000
0000
0100
0100
0100
0000
,
0000
0010
0010
0001
0001
0000
0000
0100
,
0100
0100
0000
0000
0010
0010
1000
1000
,
0000
0100
0000
0000
0010
0000
0001
0000
1000
0000
0000
0010
0000
0000
0100
0000
,
0001
0000
1000
0000
0001
0000
0000
0100
0000
0000
0010
0000
1000
0000
0001
0000
,
0000
0010
0000
0000
0100
0000
1000
0000
0001
0000
0000
0010
0000
0000
0010
0000
,
0001
0000
0000
0001
0000
0100
0000
0000
0100
0000
0010
0000
0000
0010
0000
0000
;

//---------------dance-single - ----------------
#NOTEDATA:;
#CHARTNAME:;
#STEPSTYPE:dance-single;
#DESCRIPTION:;
#CHARTSTYLE:;
#DIFFICULTY:Easy;
#METER:7;
#RADARVALUES:0.198251,0.290179,0.006803,0.108844,0.034014,204.000000,203.000000,1.000000,16.000000,0.000000,0.000000,0.000000,0.000000,0.000000,0.198251,0.290179,0.006803,0.108844,0.034014,204.000000,203.000000,1.000000,16.000000,0.000000,0.000000,0.000000,0.000000,0.000000;
#CREDIT:Karl with a K;
#NOTES:
0000
0000
0000
0000
,
0000
0000
0000
0000
,
0000
0000
0000
1000
,
0000
0000
0100
0000
,
0000
0010
0000
0000
0000
0000
0000
0001
,
0000
0001
0000
0000
,
0000
0000
0000
0000
0000
0000
0000
1000
,
0000
0000
1000
0100
0000
1000
0000
0000
,
0001
0000
0001
0000
0000
0001
0100
0000
,
0001
0000
0000
0001
0000
1000
0000
0000
,
0010
0000
1000
0001
,
0001
0000
0000
0010
0000
0000
0001
0000
,
0000
0000
0001
1000
0000
0000
0010
0000
,
0000
0100
0000
0000
0001
0000
0001
0000
,
0000
0010
0000
0000
0100
0000
0000
1000
,
0000
1000
0000
0000
0100
0000
0000
0001
,
0000
0000
0100
0000
1000
0000
0000
0010
,
0000
0000
0001
0000
0000
0010
0000
0100
,
0000
0000
0001
0001
0000
1000
0000
0000
,
0000
0000
0100
0000
0000
1000
1000
0000
,
0001
0000
0000
0000
0000
0010
0000
0000
,
0001
0001
0000
1000
0000
0000
1000
0000
,
0010
0000
0000
1000
0000
0000
0001
0000
,
0000
0000
0000
0100
0000
0000
0001
1000
,
0000
0001
0000
0000
1000
0000
0100
0000
,
0000
1000
0001
0000
1000
0000
0000
0001
,
0000
0010
0000
0000
0001
0000
0000
1000
,
0000
0000
0010
0000
1000
0000
0000
0100
,
0000
0000
0010
0000
0000
0001
0000
0001
,
0000
0000
0100
0000
0000
0010
0000
0000
,
1000
0000
1000
0000
0000
0100
0000
0000
,
0010
0000
0000
0010
0000
0001
0000
0000
,
0100
0000
0000
0010
0000
0000
0010
0000
,
1000
0000
0000
1000
0000
0000
0001
0000
,
0000
0001
1000
0001
0000
0000
0001
0000
,
0000
1000
0000
0000
1000
0001
1000
0000
,
0000
0010
0000
0000
0100
0000
0000
0001
,
0010
0001
0000
0000
0010
0000
0000
0100
,
0000
0000
1000
0010
1000
0000
1000
0100
,
0000
0100
0010
0000
0010
0001
0000
0001
,
0100
0001
0100
0001
0000
1000
0100
1000
,
0100
2000
0000
0000
,
0000
0000
0000
3200
,
0000
0000
0000
0000
,
0000
0320
0000
0000
,
0032
0000
0000
0103
,
0000
0100
0000
0000
0100
0000
0000
0100
,
0000
0000
0002
0000
0000
0203
0000
0000
,
0302
0000
0000
1000
1003
0000
2000
0000
,
0000
3200
0000
0000
0320
0000
0000
0031
,
0001
0001
0002
0000
0000
0203
0000
0000
,
0320
0000
0000
1030
1000
0000
2000
0000
,
0000
3200
0000
0000
0320
0000
0000
0130
,
1000
0000
0001
0000
0000
0100
0010
0000
,
1000
0000
0000
0100
0010
0000
0001
0000
,
1000
0001
0000
0000
1000
0000
0000
0001
,
0000
0000
0000
0000
1000
0000
0000
0100
0000
0000
0010
0000
0000
0000
0000
0000
,
0001
0000
0000
0100
0000
0000
0010
0000
0000
0000
0000
0000
1000
0000
0000
1000
,
0000
0000
1000
0000
0000
1000
0000
0000
0001
0000
1000
0000
0001
0000
1001
0000
,
0000
1000
0000
0000
0100
0000
0010
0000
,
0000
0001
0000
1000
0001
0000
0000
0100
,
0000
0010
0000
0000
1000
0000
0001
1000
,
0000
0100
0000
0000
1000
0000
0000
0000
0001
0000
0000
0100
0000
0000
0001
0000
,
0001
0000
0000
0000
1000
0000
0000
0010
0000
0000
1000
0000
0000
0000
0001
0000
,
0000
0010
0000
0000
0001
0000
0001
0000
0000
0000
0000
1000
0000
0000
0000
0000
,
1000
0000
0000
0000
0000
1000
0000
0000
0000
0000
1000
0000
0000
0000
0000
0000
;

//---------------dance-single - ----------------
#NOTEDATA:;
#CHARTNAME:;
#STEPSTYPE:dance-single;
#DESCRIPTION:;
#CHARTSTYLE:;
#DIFFICULTY:Beginner;
#METER:5;
#RADARVALUES:0.098154,0.152530,0.061224,0.040816,0.013605,101.000000,92.000000,9.000000,6.000000,0.000000,0.000000,0.000000,0.000000,0.000000,0.098154,0.152530,0.061224,0.040816,0.013605,101.000000,92.000000,9.000000,6.000000,0.000000,0.000000,0.000000,0.000000,0.000000;
#CREDIT:Karl with a K;
#NOTES:
0000
0000
0000
0000
,
0000
0000
0000
0000
,
0000
0000
0000
0000
,
0000
0000
0000
0000
,
0000
0000
0000
0000
,
0000
0000
0000
0000
,
0000
0000
0000
0000
0000
0000
0000
1000
,
0000
0000
0000
0000
0000
1000
0000
0000
,
0000
0001
0000
0000
,
0001
0000
0000
0000
0000
2000
0000
0000
,
0000
0000
0000
3000
0000
0000
0000
0000
,
0002
0000
0000
0003
,
0000
0000
0000
1000
0000
0000
0000
0000
,
0000
0100
0000
0000
0000
0000
0010
0000
,
0000
0000
0001
0000
,
0000
0200
0000
0000
0000
0000
0000
0300
,
0000
0000
0000
0000
0020
0000
0000
0030
,
0000
0000
2000
0000
0000
3000
0000
1000
,
0000
0000
0000
0000
,
0000
1000
0000
0000
,
0000
0000
0000
0000
0000
0001
0000
0000
,
0000
0000
0000
0000
,
0001
0000
0000
0000
,
0000
0000
0000
1000
0000
0000
0000
0000
,
0000
1000
0000
0000
0000
0000
0100
0000
,
0000
0000
0100
0000
,
0000
0010
0000
0000
0000
0000
0000
0010
,
0000
0000
0001
0000
,
0000
0000
0100
0000
0000
0000
0000
0010
,
0000
0000
0000
0000
0000
1000
0000
0000
,
1000
1000
0000
0000
,
0100
0000
0000
0000
0000
0010
0000
0000
,
0000
0000
0000
0001
0000
0000
0001
0000
,
0001
0000
0000
1000
0000
0000
0001
0000
,
0000
1000
0000
1000
0000
0000
0001
0000
,
0000
1000
0000
0000
0001
0000
0001
0000
,
0000
0010
0000
0000
0100
0000
0000
1000
,
0000
1000
0000
0000
0010
0000
0000
0100
,
0000
0000
0001
0000
0001
0000
0000
0010
,
0000
0000
0001
0000
0000
1000
0000
0020
,
0000
0000
0000
0000
0000
0030
0000
0000
,
0000
0100
0000
0000
,
0000
0000
0000
0000
,
0000
0000
0000
0000
,
0000
0001
0000
0000
,
0001
0000
0000
1000
,
0000
0000
1000
0000
,
0000
1001
0000
0000
,
0110
0000
0000
1001
,
0000
0000
0110
0000
,
0000
1001
0000
0000
,
0110
0000
0000
1001
,
0000
0000
0110
0000
,
0000
0000
1000
0000
0000
1000
0000
0000
,
0001
0000
0000
0001
0000
0000
0100
0000
,
0000
0010
0000
0000
1000
0000
0000
0100
,
0000
0000
0001
0000
0000
0100
0000
0000
,
1000
0000
0000
0010
0000
0000
0001
0000
,
0000
0010
0000
0000
1000
0000
0000
0001
,
0000
1001
0000
0000
0000
0000
0000
0000
,
0000
0000
0000
0000
,
0000
0000
0000
0000
0000
0000
0000
1000
,
0000
1000
0000
0000
0000
0000
0000
0000
0001
0000
0000
0001
0000
0000
0000
0000
,
0000
0000
0000
0000
1000
0000
0000
1000
0000
0000
0000
0000
0000
0000
0001
0000
,
0000
0001
0000
0000
0000
0000
0000
0000
0000
0000
0000
0000
0000
0000
0000
0000
;

//---------------dance-single - E+----------------
#NOTEDATA:;
#CHARTNAME:;
#STEPSTYPE:dance-single;
#DESCRIPTION:E+;
#CHARTSTYLE:;
#DIFFICULTY:Edit;
#METER:18;
#RADARVALUES:0.809524,1.029719,0.000000,0.530612,1.350340,833.000000,833.000000,0.000000,78.000000,0.000000,0.000000,0.000000,0.000000,0.000000,0.809524,1.029719,0.000000,0.530612,1.350340,833.000000,833.000000,0.000000,78.000000,0.000000,0.000000,0.000000,0.000000,0.000000;
#CREDIT:Earl with an E;
#NOTES:
0000
0000
0000
0000
,
0000
0000
0000
0000
,
0000
0000
0000
0002
,
0003
0000
0001
0000
0000
0000
0000
0000
0002
0000
0003
0002
0000
0003
0002
0003
,
0001
0000
0002
0000
0003
0001
0000
0000
0001
0000
0000
0000
0001
0001
0002
0000
,
0003
0001
0000
0000
0001
0001
0001
0001
0002
0000
0000
0000
0000
0000
0000
0000
,
0000
0000
0000
0000
0000
0000
0000
0000
0003
0000
0001
0000
0001
0000
0001
0001
,
0000
0002
0000
0003
0001
0000
0001
0000
0001
0000
0001
0001
0000
0002
0000
0003
,
0001
0001
0001
0001
0001
0001
0000
0002
0000
0003
0001
0000
0001
0000
0001
0000
,
0001
0001
0000
0002
0000
0003
0001
0001
0001
0001
0001
0001
0001
0001
0002
0003
,
0001
0000
0001
0000
0001
0000
0001
0001
0001
0002
0000
0003
0001
0001
0001
0001
,
0001
0000
0001
0000
0000
0000
0002
0000
0000
0000
0003
0000
0001
0000
0000
0000
0001
0000
0000
0000
0001
0000
0000
0000
0001
0001
0002
0000
0003
0000
0002
0000
,
0000
0000
0003
0000
0001
0000
0000
0000
0001
0001
0001
0000
0001
0000
0001
0001
0001
0000
0001
0000
0001
0001
0001
0000
0001
0000
0001
0001
0001
0000
0001
0000
,
0001
0001
0001
0000
0001
0000
0001
0001
0001
0000
0001
0000
0001
0001
0001
0000
0001
0001
0001
0001
0002
0000
0003
0000
0001
0000
0001
0001
0001
0000
0001
0000
,
0001
0001
0001
0000
0001
0000
0001
0001
0001
0000
0001
0000
0001
0001
0001
0000
0001
0000
0001
0001
0001
0000
0001
0000
0001
0001
0001
0000
0001
0001
0001
0001
,
0002
0000
0003
0000
0001
0000
0001
0001
0001
0000
0001
0000
0001
0001
0001
0000
0001
0000
0001
0001
0001
0000
0001
0000
0001
0001
0001
0000
0001
0001
0001
0001
,
0001
0000
0001
0000
0001
0001
0001
0000
0001
0001
0001
0001
0002
0000
0003
0000
0001
0000
0001
0001
0001
0000
0001
0000
0001
0001
0001
0000
0001
0000
0001
0001
,
0001
0000
0001
0000
0001
0001
0001
0000
0002
0000
0000
0000
0000
0000
0000
0000
0003
0000
0000
0000
0001
0000
0000
0000
0001
0000
0000
0000
0002
0000
0000
0000
,
0003
0001
0000
0000
0001
0001
0001
0001
0001
0001
0001
0001
0000
0000
0001
0000
,
0001
0000
0001
0000
0001
0002
0000
0003
0001
0000
0001
0001
0001
0001
0001
0001
,
0002
0003
0001
0000
0001
0000
0001
0000
0000
0001
0002
0003
0001
0000
0001
0000
,
0001
0000
0001
0000
0001
0000
0001
0000
0001
0000
0001
0000
0001
0000
0000
0000
0001
0000
0000
0000
0001
0000
0001
0001
0001
0000
0001
0000
0001
0000
0001
0000
,
0001
0000
0000
0000
0000
0000
0001
0000
0000
0000
0000
0000
0002
0000
0000
0003
0000
0000
0001
0000
0000
0000
0000
0000
0001
0000
0000
0000
0000
0000
0001
0000
0000
0000
0000
0001
0002
0000
0000
0003
0000
0000
0001
0000
0000
0000
0000
0000
,
0000
0001
0001
0001
0001
0001
0001
0000
0002
0000
0003
0001
0001
0001
0001
0001
,
0001
0001
0002
0000
0003
0001
0000
0000
0001
0000
0001
0000
0002
0000
0003
0001
,
0000
0000
0001
0001
0001
0001
0001
0001
0001
0001
0000
0000
0001
0000
0001
0001
,
0001
0000
0000
0001
0000
0000
0001
0000
0000
0001
0000
0000
0001
0000
0000
0001
0000
0000
0001
0000
0000
0001
0000
0000
0002
0000
0000
0003
0000
0000
0001
0000
0000
0000
0000
0001
0001
0000
0000
0000
0000
0000
0001
0000
0000
0000
0000
0000
,
0001
0001
0001
0000
0001
0001
0001
0001
0001
0001
0001
0001
0001
0001
0001
0000
,
0001
0000
0001
0000
0002
0000
0003
0000
0001
0000
0001
0001
0001
0000
0001
0000
0001
0001
0001
0000
0001
0000
0000
0000
0001
0000
0000
0000
0002
0000
0003
0000
,
0001
0000
0001
0000
0001
0000
0001
0000
0001
0000
0001
0001
0001
0000
0001
0000
0001
0000
0001
0000
0001
0000
0000
0000
0001
0000
0001
0000
0001
0000
0000
0000
,
0001
0000
0001
0000
0001
0000
0001
0000
0001
0000
0001
0001
0001
0000
0001
0000
0001
0000
0001
0000
0001
0000
0000
0000
0001
0000
0001
0000
0001
0000
0000
0000
,
0001
0000
0000
0000
0001
0000
0001
0000
0001
0000
0001
0001
0001
0000
0001
0000
0001
0000
0001
0000
0001
0000
0000
0000
0001
0000
0001
0000
0001
0000
0000
0000
,
0001
0000
0001
0000
0001
0000
0001
0000
0001
0000
0001
0001
0001
0000
0001
0000
0001
0000
0001
0000
0001
0000
0000
0000
0001
0000
0001
0000
0001
0000
0000
0000
,
0001
0000
0001
0000
0001
0000
0001
0000
0001
0000
0001
0001
0001
0000
0001
0000
0001
0000
0001
0000
0001
0000
0001
0000
0001
0000
0001
0001
0001
0000
0001
0000
,
0001
0000
0001
0000
0002
0000
0003
0000
0001
0000
0001
0001
0001
0000
0001
0000
0001
0000
0001
0000
0002
0000
0003
0000
0001
0000
0001
0000
0001
0000
0001
0000
,
0002
0000
0003
0000
0001
0000
0001
0000
0001
0000
0001
0001
0002
0000
0003
0000
0002
0000
0003
0000
0002
0000
0003
0000
0001
0000
0001
0000
0001
0000
0001
0000
,
0001
0000
0001
0000
0001
0000
0001
0000
0001
0000
0001
0001
0001
0000
0001
0000
0001
0000
0001
0000
0001
0000
0001
0000
0001
0000
0001
0000
0001
0000
0001
0000
,
0001
0000
0000
0000
0002
0000
0000
0000
0000
0000
0000
0000
0003
0000
0000
0000
0000
0000
0000
0000
0000
0000
0000
0000
0001
0000
0000
0000
0002
0000
0000
0000
0000
0000
0000
0000
0003
0000
0000
0000
0000
0000
0000
0000
0000
0000
0000
0000
0001
0000
0000
0000
0000
0000
0000
0000
0000
0000
0000
0000
0001
0000
0000
0000
0000
0000
0001
0000
0000
0000
0000
0000
0001
0000
0000
0000
0000
0000
0000
0000
0000
0000
0000
0000
0001
0000
0000
0000
0000
0000
0000
0000
0000
0000
0000
0000
0001
0000
0000
0000
0000
0000
0000
0000
0000
0000
0000
0000
0001
0000
0000
0000
0000
0000
0000
0000
0000
0000
0000
0000
0001
0000
0000
0000
0000
0000
0000
0000
0000
0000
0000
0000
0001
0000
0000
0000
0000
0000
0000
0000
0000
0000
0000
0000
0002
0000
0000
0000
0000
0000
0000
0000
0000
0000
0000
0000
0003
0000
0000
0000
0000
0000
0000
0000
0000
0000
0000
0000
0001
0000
0000
0000
0000
0000
0000
0000
0000
0000
0000
0000
0000
0000
0000
0000
0000
0000
0000
0000
0000
0000
0000
0000
,
0001
0000
0001
0000
0001
0000
0000
0000
0001
0000
0001
0001
0001
0000
0001
0001
0001
0000
0001
0000
0001
0000
0001
0000
0001
0000
0001
0000
0001
0000
0001
0000
,
0001
0001
0001
0001
0001
0001
0001
0001
0001
0001
0001
0001
0001
0001
0001
0001
,
0001
0000
0001
0000
0001
0000
0001
0000
0001
0001
0001
0001
0001
0001
0001
0001
0001
0001
0001
0001
0001
0001
0001
0000
0001
0001
0001
0000
0001
0001
0001
0000
,
0001
0001
0001
0000
0001
0001
0001
0001
0002
0000
0000
0000
0000
0000
0000
0000
0003
0000
0000
0000
0002
0000
0003
0000
0002
0000
0003
0000
0002
0000
0003
0000
,
0002
0000
0000
0000
0003
0000
0001
0001
0001
0001
0001
0001
0001
0001
0002
0000
,
0003
0000
0000
0000
0000
0000
0002
0000
0000
0003
0000
0000
0002
0000
0000
0003
0000
0000
0001
0000
0000
0000
0000
0000
0001
0002
0000
0000
0000
0000
0000
0000
0000
0000
0000
0000
0003
0000
0000
0000
0000
0000
0001
0000
0000
0000
0000
0000
,
0001
0001
0001
0001
0002
0000
0000
0000
0003
0000
0001
0000
0001
0000
0001
0000
,
0001
0001
0001
0001
0001
0001
0001
0001
0001
0001
0002
0003
0001
0000
0001
0000
,
0001
0000
0002
0003
0002
0003
0002
0003
0001
0001
0001
0001
0001
0001
0002
0003
,
0001
0000
0001
0000
0002
0003
0001
0001
0001
0000
0002
0003
0002
0003
0001
0000
,
0002
0003
0001
0001
0001
0000
0001
0001
0001
0001
0001
0001
0001
0001
0001
0001
,
0001
0000
0000
0000
0000
0000
0000
0000
0000
0000
0000
0000
0000
0000
0000
0000
0000
0000
0000
0000
0000
0000
0000
0000
0002
0000
0000
0000
0000
0000
0000
0000
0000
0000
0000
0000
0003
0000
0000
0000
0000
0000
0000
0000
0000
0000
0000
0000
0002
0000
0000
0000
0000
0000
0000
0000
0000
0000
0000
0000
0003
0000
0000
0000
0000
0000
0000
0000
0000
0000
0000
0000
0001
0000
0000
0000
0000
0000
0000
0000
0000
0000
0000
0000
0000
0000
0000
0000
0000
0000
0000
0000
0000
0000
0000
0000
0001
0000
0000
0000
0002
0000
0000
0000
0000
0000
0000
0000
0003
0000
0000
0000
0000
0000
0000
0000
0000
0000
0000
0000
0001
0000
0000
0000
0000
0000
0000
0000
0000
0000
0000
0000
0001
0000
0000
0000
0000
0000
0000
0000
0000
0000
0000
0000
0001
0000
0000
0000
0000
0000
0000
0000
0000
0000
0000
0000
0001
0000
0000
0000
0000
0000
0001
0000
0000
0000
0000
0000
0001
0000
0000
0000
0000
0000
0000
0000
0000
0000
0000
0000
0001
0000
0000
0000
0000
0000
0000
0000
0000
0000
0000
0000
,
0001
0001
0001
0001
0002
0003
0001
0001
0001
0000
0002
0003
0002
0003
0001
0000
,
0001
0001
0001
0001
0001
0001
0001
0001
0001
0000
0001
0001
0002
0003
0001
0000
,
0001
0000
0002
0003
0002
0003
0002
0003
0001
0000
0001
0000
0001
0000
0001
0001
,
0001
0001
0001
0001
0001
0001
0001
0001
0001
0001
0001
0001
0001
0001
0001
0001
,
0001
0000
0001
0000
0001
0000
0001
0000
0001
0000
0001
0000
0001
0000
0001
0000
0001
0000
0001
0000
0000
0001
0000
0000
0001
0000
0001
0000
0001
0000
0001
0000
,
0001
0000
0000
0001
0000
0000
0001
0000
0001
0000
0001
0000
0001
0000
0000
0001
0000
0000
0001
0000
0000
0001
0000
0000
0001
0000
0000
0001
0000
0000
0001
0000
0000
0001
0000
0000
0001
0000
0000
0000
0000
0000
0002
0000
0003
0000
0002
0000
,
0003
0000
0000
0000
0000
0000
0000
0000
0002
0000
0000
0000
0000
0000
0000
0000
0003
0000
0000
0000
0000
0000
0000
0000
0001
0000
0000
0000
0000
0000
0000
0000
0000
0000
0000
0000
0001
0000
0000
0000
0000
0000
0000
0000
0000
0000
0000
0000
0001
0000
0000
0000
0000
0000
0001
0000
0000
0000
0000
0000
0001
0000
0000
0000
0000
0000
0001
0000
0000
0000
0000
0000
0001
0000
0000
0000
0000
0000
0000
0000
0000
0000
0000
0000
0001
0000
0000
0000
0000
0000
0001
0000
0000
0000
0000
0000
0001
0000
0000
0000
0000
0000
0001
0000
0000
0000
0000
0000
0001
0000
0000
0000
0000
0000
0000
0000
0000
0000
0000
0000
0001
0000
0000
0000
0000
0000
0000
0000
0000
0000
0000
0000
0001
0000
0000
0000
0000
0000
0000
0000
0000
0000
0000
0000
0001
0000
0000
0000
0000
0000
0000
0000
0000
0000
0000
0000
0001
0000
0000
0000
0000
0000
0000
0000
0000
0000
0000
0000
0000
0000
0000
0000
0000
0000
0001
0000
0000
0000
0000
0000
0000
0000
0000
0000
0000
0000
0000
0000
0000
0000
0000
0000
,
0001
0001
0001
0001
0001
0000
0001
0001
0001
0001
0001
0000
0001
0000
0001
0000
0001
0000
0001
0000
0000
0001
0000
0000
0001
0001
0001
0001
0001
0000
0001
0001
,
0001
0000
0000
0000
0000
0000
0001
0000
0000
0000
0000
0000
0001
0000
0000
0000
0000
0000
0000
0000
0000
0000
0000
0000
0001
0000
0000
0000
0000
0000
0000
0000
0001
0000
0000
0000
0000
0000
0000
0000
0001
0000
0000
0000
0000
0000
0000
0000
0001
0000
0000
0000
0000
0000
0000
0000
0000
0000
0000
0000
0001
0000
0000
0000
0000
0000
0000
0000
0000
0000
0000
0000
0001
0000
0000
0000
0000
0000
0000
0000
0000
0000
0000
0000
0001
0000
0000
0000
0000
0000
0000
0000
0000
0000
0000
0000
0001
0000
0000
0000
0000
0000
0000
0000
0000
0000
0000
0000
0001
0000
0000
0000
0000
0000
0001
0000
0000
0000
0000
0000
0001
0000
0000
0000
0000
0000
0000
0000
0000
0000
0000
0000
0001
0000
0000
0000
0000
0000
0000
0000
0000
0000
0000
0000
0002
0000
0000
0000
0000
0000
0000
0000
0000
0000
0000
0000
0003
0000
0000
0000
0000
0000
0000
0000
0000
0000
0000
0000
0001
0000
0000
0000
0000
0000
0000
0000
0000
0000
0000
0000
0001
0000
0000
0000
0000
0000
0000
0000
0000
0000
0000
0000
,
0001
0001
0002
0000
0003
0001
0000
0000
0001
0000
0001
0000
0002
0000
0003
0001
,
0000
0000
0001
0000
0001
0001
0001
0001
0002
0000
0003
0001
0000
0000
0001
0000
,
0001
0000
0002
0000
0003
0001
0000
0000
0001
0000
0001
0001
0001
0001
0001
0001
,
0001
0001
0001
0001
0001
0001
0001
0001
0001
0001
0001
0001
0001
0001
0001
0001
,
0001
0000
0001
0000
0001
0000
0001
0000
0001
0000
0001
0001
0001
0000
0001
0000
0001
0001
0001
0000
0001
0001
0001
0001
0001
0001
0001
0001
0001
0000
0001
0001
,
0001
0000
0001
0000
0001
0001
0001
0000
0001
0001
0001
0001
0001
0001
0001
0000
0001
0001
0001
0000
0000
0000
0001
0000
0001
0000
0001
0000
0001
0000
0000
0000
,
0001
0001
0001
0001
0000
0001
0001
0001
0001
0000
0001
0001
0001
0001
0000
0000
;
